osu file format v14

[General]
AudioFilename: audio.mp3
AudioLeadIn: 0
PreviewTime: 39714
Countdown: 0
SampleSet: Soft
StackLeniency: 0.7
Mode: 0
LetterboxInBreaks: 0
WidescreenStoryboard: 1

[Editor]
DistanceSpacing: 1.1
BeatDivisor: 6
GridSize: 16
TimelineZoom: 1

[Metadata]
Title:Parado no Bailao | Com Grave
TitleUnicode:Parado no Bailão | Com Grave
Artist:MC L Da Vinte e MC Gury
ArtistUnicode:MC L Da Vinte e MC Gury
Creator:Trynna
Version:Kalindraz's Normal
Source:
Tags:Net0 Near Kuron-kun Kalindraz Edu brazillian portuguese funk senhor srskyplayer cut short version mandstoledo mandela (bass boosted) (com grave) detona
BeatmapID:1997315
BeatmapSetID:956145

[Difficulty]
HPDrainRate:4
CircleSize:3.4
OverallDifficulty:5
ApproachRate:5
SliderMultiplier:1.2
SliderTickRate:1

[Events]
//Background and Video events
0,0,"IMF_7202.jpg",0,0
//Break Periods
//Storyboard Layer 0 (Background)
//Storyboard Layer 1 (Fail)
//Storyboard Layer 2 (Pass)
//Storyboard Layer 3 (Foreground)
//Storyboard Sound Samples

[TimingPoints]
-4478,461.538461538462,4,2,1,100,1,0
2906,-100,4,2,1,100,0,0
4290,-100,4,2,1,50,0,0
25002,-100,4,2,1,5,0,0
25059,-100,4,2,1,50,0,0
39829,-100,4,2,1,70,0,0
69367,-100,4,2,1,50,0,0
81829,461.538461538462,4,2,1,50,1,8
82319,461.538461538462,4,2,1,50,1,0

[Colours]
Combo1 : 191,62,49
Combo2 : 252,165,120
Combo3 : 190,94,47
Combo4 : 255,106,103

[HitObjects]
0,113,2906,6,0,B|157:96|56:191|226:174,1,240,4|2,0:0|0:3,0:0:0:0:
342,129,4290,1,2,0:0:0:0:
453,200,4752,2,0,P|452:250|448:272,2,60,2|0|2,0:3|0:0|0:0,0:0:0:0:
453,133,5444,2,0,B|442:70|389:28,1,120,0|2,0:0|0:0,0:0:0:0:
261,26,6367,1,2,0:0:0:0:
208,66,6598,6,0,B|191:92|167:103|167:103|180:132|182:183|167:209|167:209|198:232|209:276,1,240,2|2,0:3|0:3,0:0:0:0:
292,372,7982,1,2,0:0:0:0:
415,324,8444,2,0,P|440:298|452:263,1,60,2|0,0:3|0:0,0:0:0:0:
464,211,8906,1,2,0:0:0:0:
384,106,9367,2,0,L|267:144,1,120,2|0,0:3|0:0,0:0:0:0:
216,181,10059,1,0,0:0:0:0:
195,243,10290,6,0,B|191:285|191:285|172:310|172:310|167:362,1,120,2|2,0:3|0:0,0:0:0:0:
35,359,11214,2,0,B|30:312|30:312|11:287|11:287|7:245,1,120,2|2,0:0|0:0,0:0:0:0:
20,114,12136,2,0,B|37:100|64:97|64:97|60:63|60:63|99:49|99:49|136:63|136:63|135:98|135:98|156:100|182:115,1,240,4|0,0:0|0:0,0:0:0:0:
241,116,13291,2,0,P|270:117|302:105,1,60,2|2,0:0|0:3,0:0:0:0:
362,89,13752,1,2,0:0:0:0:
324,143,13983,6,0,P|317:208|348:269,1,120,0|0,1:0|0:0,0:0:0:0:
470,258,14906,2,0,P|491:202|483:143,1,120,2|2,0:3|0:0,0:0:0:0:
432,22,15829,2,0,P|404:18|355:25,1,60,2|0,0:3|0:0,0:0:0:0:
344,80,16291,2,0,P|316:83|269:79,1,60,0|2,0:0|0:0,0:0:0:0:
240,31,16752,2,0,P|183:17|73:70,1,180,2|0,0:0|0:0,0:0:0:0:
51,126,17675,6,0,L|71:254,1,120,4|0,0:0|0:0,0:0:0:0:
129,306,18598,1,0,0:0:0:0:
191,326,18829,2,0,P|193:359|186:385,2,60,2|0|0,0:0|0:0|0:0,0:0:0:0:
256,316,19521,2,0,P|284:311|331:312,1,60,2|0,0:3|0:0,0:0:0:0:
381,319,19983,1,0,0:0:0:0:
471,208,20444,6,0,B|477:208|392:221|392:221|363:208|363:208|296:218,1,180,2|0,0:0|0:0,0:0:0:0:
232,235,21367,2,0,P|152:185|212:68,1,240,4|0,0:0|0:0,0:0:0:0:
330,39,22752,1,0,0:0:0:0:
448,96,23213,1,2,0:0:0:0:
468,158,23444,2,0,L|485:221,2,60,0|0|0,0:0|0:0|0:0,0:0:0:0:
401,161,24137,2,0,P|366:165|342:172,1,60,2|2,3:2|3:2,0:0:0:0:
287,208,24598,1,2,3:2:0:0:
193,114,25060,6,0,B|128:146|130:186|130:186|183:257|146:312|53:312|17:257|59:182|59:182|72:146|-5:104,1,480,4|0,0:0|0:0,0:0:0:0:
84,2,27367,2,0,P|110:10|155:12,1,60,2|0,0:3|0:0,0:0:0:0:
208,15,27829,1,2,0:1:0:0:
338,31,28290,2,0,L|360:154,1,120,2|0,0:1|1:0,0:0:0:0:
386,278,29213,5,2,0:0:0:0:
260,236,29675,1,2,0:3:0:0:
135,192,30137,2,0,P|122:247|147:308,1,120,2|2,0:0|0:3,0:0:0:0:
208,319,30829,2,0,P|218:343|227:381,2,60,0|2|0,0:0|0:0|0:0,0:0:0:0:
263,282,31521,1,2,0:1:0:0:
384,230,31982,1,2,0:1:0:0:
509,189,32444,5,2,0:0:0:0:
492,124,32675,2,0,B|497:95|491:53,1,60,2|2,0:0|0:0,0:0:0:0:
408,91,33214,2,0,P|360:82|251:102,1,160,0|2,0:0|0:0,0:0:0:0:
181,204,34290,5,2,0:3:0:0:
171,269,34521,2,0,B|166:299|162:338,2,60,0|2|0,0:0|0:0|0:0,0:0:0:0:
232,254,35213,2,0,P|282:262|361:283,1,120,2|2,0:1|0:1,0:0:0:0:
479,301,36136,5,2,0:3:0:0:
414,316,36367,2,0,P|399:344|387:380,2,60,0|2|0,0:0|0:0|0:0,0:0:0:0:
444,256,37060,2,0,P|432:193|402:135,1,120,2|2,0:3|3:2,0:0:0:0:
350,24,37983,1,4,0:0:0:0:
350,24,39829,6,0,L|261:41,1,90,4|0,1:2|1:0,0:0:0:0:
186,106,40521,1,2,1:3:0:0:
160,167,40752,2,0,B|143:212|143:212|169:301,1,120,2|0,0:0|1:0,0:0:0:0:
262,368,41675,6,0,P|294:376|371:352,1,90,8|0,1:2|3:0,0:0:0:0:
420,296,42367,1,0,1:0:0:0:
447,235,42598,1,2,1:3:0:0:
371,126,43060,1,2,1:3:0:0:
304,239,43521,6,0,L|214:248,1,90,4|0,1:2|1:0,0:0:0:0:
128,198,44214,1,2,1:3:0:0:
82,150,44444,2,0,P|87:100|132:38,1,120,0|0,1:2|1:0,0:0:0:0:
257,46,45367,6,0,B|293:64|293:64|360:65,1,90,8|0,1:2|1:0,0:0:0:0:
441,59,46060,1,0,1:0:0:0:
456,122,46291,2,0,P|459:146|454:190,1,60,2|2,1:3|1:3,0:0:0:0:
445,247,46752,1,2,1:3:0:0:
347,336,47214,5,4,1:2:0:0:
268,275,47560,2,0,L|172:292,1,90,0|2,1:0|1:3,0:0:0:0:
115,308,48136,1,2,0:0:0:0:
79,180,48598,1,0,1:0:0:0:
141,63,49060,5,8,1:2:0:0:
224,115,49406,2,0,B|276:122|330:99,1,90,0|2,1:0|1:3,0:0:0:0:
373,78,49983,1,0,0:0:0:0:
434,52,50214,2,0,P|447:87|450:113,1,60,2|2,1:2|1:3,0:0:0:0:
442,241,50906,5,0,1:3:0:0:
345,220,51252,2,0,P|295:221|251:232,1,90,0|2,1:0|1:3,0:0:0:0:
205,272,51829,1,2,0:0:0:0:
82,319,52290,1,2,1:3:0:0:
112,190,52752,5,2,0:0:0:0:
52,136,54598,6,0,L|146:122,1,90,4|0,1:2|1:0,0:0:0:0:
239,115,55290,1,2,1:3:0:0:
265,175,55521,1,2,0:0:0:0:
392,209,55983,1,0,1:0:0:0:
435,84,56444,6,0,P|383:81|338:90,1,90,8|0,1:2|3:0,0:0:0:0:
276,158,57137,1,0,1:0:0:0:
227,202,57367,2,0,P|191:192|162:177,2,60,2|0|2,1:3|0:0|1:3,0:0:0:0:
299,312,58290,6,0,L|412:296,1,90,6|0,1:2|1:0,0:0:0:0:
486,287,58983,1,2,1:3:0:0:
496,221,59214,1,0,1:2:0:0:
415,116,59675,1,0,1:0:0:0:
321,209,60137,6,0,P|273:227|230:222,1,90,8|0,1:2|1:0,0:0:0:0:
138,202,60829,1,0,1:0:0:0:
101,146,61060,2,0,P|96:108|106:70,1,60,2|2,1:3|1:3,0:0:0:0:
119,23,61521,1,2,1:3:0:0:
242,69,61983,5,4,1:2:0:0:
334,35,62329,2,0,B|376:32|427:44,1,90,0|2,1:0|1:3,0:0:0:0:
467,91,62906,2,0,P|472:126|466:156,1,60,2|2,0:0|1:2,0:0:0:0:
451,214,63367,1,0,1:0:0:0:
375,322,63829,5,8,1:2:0:0:
294,263,64175,2,0,P|233:258|187:270,1,90,0|2,1:0|1:3,0:0:0:0:
147,295,64752,2,0,P|106:284|87:263,1,60,2|2,0:0|1:2,0:0:0:0:
49,223,65214,1,2,1:3:0:0:
106,104,65675,5,0,1:2:0:0:
196,144,66021,2,0,L|289:131,1,90,0|2,1:0|1:3,0:0:0:0:
350,121,66598,2,0,P|376:131|402:149,1,60,2|0,0:0|1:0,0:0:0:0:
430,209,67060,2,0,L|437:271,1,60,2|0,1:3|0:0,0:0:0:0:
445,334,67521,5,2,0:0:0:0:
445,334,69367,6,0,P|380:317|344:323,1,90,4|0,1:2|1:0,0:0:0:0:
259,333,70060,2,0,L|183:343,1,60,2|0,1:3|0:0,0:0:0:0:
76,293,70752,1,0,1:0:0:0:
26,170,71214,6,0,P|86:171|115:183,1,90,8|0,1:2|0:0,0:0:0:0:
188,245,71906,1,2,1:3:0:0:
252,233,72137,1,4,0:0:0:0:
379,200,72598,1,4,0:0:0:0:
451,89,73060,6,0,B|401:87|401:87|352:92,1,90,4|0,1:2|1:0,0:0:0:0:
279,145,73752,2,0,B|241:151|217:148,1,60,2|8,1:3|1:2,0:0:0:0:
96,100,74444,1,0,1:0:0:0:
215,43,74906,6,0,P|222:86|210:141,1,90,8|0,1:2|3:0,0:0:0:0:
169,219,75598,1,0,1:0:0:0:
141,279,75829,2,0,P|139:313|148:340,1,60,4|4,0:0|0:0,0:0:0:0:
198,378,76290,1,4,0:0:0:0:
325,344,76752,5,4,1:2:0:0:
375,301,76983,2,0,P|401:299|436:304,2,60,0|8|0,3:0|0:2|3:0,0:0:0:0:
313,278,77675,2,0,P|299:242|295:202,1,60,0|0,1:0|3:0,0:0:0:0:
292,154,78137,1,8,0:2:0:0:
320,25,78598,5,4,0:0:0:0:
370,67,78829,2,0,P|405:59|430:45,2,60,0|8|0,3:0|1:2|3:0,0:0:0:0:
349,129,79521,2,0,P|316:146|266:153,1,60,0|2,1:2|3:0,0:0:0:0:
227,144,79983,1,10,1:2:0:0:
113,211,80444,5,4,1:2:0:0:
138,272,80675,2,0,P|123:300|99:323,2,60,0|8|0,3:0|0:2|3:0,0:0:0:0:
202,259,81367,2,0,P|237:258|266:264,1,60,0|0,1:0|3:0,0:0:0:0:
321,290,81829,5,12,0:2:0:0:
456,255,82319,5,2,0:0:0:0:
