osu file format v14

[General]
AudioFilename: audio.mp3
AudioLeadIn: 0
PreviewTime: 110000
Countdown: 0
SampleSet: Soft
StackLeniency: 0.2
Mode: 0
LetterboxInBreaks: 0
WidescreenStoryboard: 1

[Editor]
Bookmarks: 36281,72871,109389
DistanceSpacing: 1.6
BeatDivisor: 4
GridSize: 4
TimelineZoom: 2.4

[Metadata]
Title:anime version
TitleUnicode:anime version
Artist:MC Hrabrov
ArtistUnicode:MC Hrabrov
Creator:EijiKuinbii
Version:New Testament
Source:
Tags:илья николаевич
BeatmapID:1906701
BeatmapSetID:912707

[Difficulty]
HPDrainRate:4
CircleSize:4
OverallDifficulty:7
ApproachRate:9.6
SliderMultiplier:1.4
SliderTickRate:1

[Events]
//Background and Video events
0,0,"anime.jpg",0,0
//Break Periods
//Storyboard Layer 0 (Background)
//Storyboard Layer 1 (Fail)
//Storyboard Layer 2 (Pass)
//Storyboard Layer 3 (Foreground)
//Storyboard Sound Samples

[TimingPoints]
760,285.836787194512,4,2,0,55,1,0
36544,285.823170731707,4,2,0,55,1,0
73987,285.823170731707,4,2,0,55,1,0
109500,285.823170731707,4,2,0,55,1,0
109500,-66.6666666666667,4,2,0,55,0,0

[Colours]
Combo1 : 164,179,223
Combo2 : 249,155,239
Combo3 : 166,222,236

[HitObjects]
83,198,116,5,0,0:0:0:0:
89,202,188,1,0,0:0:0:0:
148,143,402,1,0,0:0:0:0:
152,148,474,1,0,0:0:0:0:
228,116,688,1,0,0:0:0:0:
230,122,760,1,0,0:0:0:0:
159,248,1260,5,0,0:0:0:0:
162,250,1332,1,0,0:0:0:0:
191,220,1546,1,0,0:0:0:0:
193,223,1618,1,0,0:0:0:0:
231,207,1832,1,0,0:0:0:0:
232,210,1904,1,0,0:0:0:0:
439,317,2403,5,0,0:0:0:0:
434,309,2474,1,0,0:0:0:0:
427,211,2689,1,0,0:0:0:0:
422,219,2760,1,0,0:0:0:0:
342,275,2975,1,0,0:0:0:0:
351,274,3046,1,0,0:0:0:0:
233,91,3332,6,0,P|263:84|310:98,1,70,0|0,0:0|0:0,0:0:0:0:
379,142,3618,1,0,0:0:0:0:
299,11,3904,2,0,P|329:16|368:47,1,70,0|0,0:0|0:0,0:0:0:0:
379,142,4190,1,0,0:0:0:0:
458,131,4475,1,0,0:0:0:0:
446,306,4690,5,0,0:0:0:0:
450,298,4762,1,0,0:0:0:0:
385,255,4975,1,0,0:0:0:0:
385,246,5047,1,0,0:0:0:0:
309,230,5261,1,0,0:0:0:0:
305,222,5333,1,0,0:0:0:0:
371,354,5833,5,0,0:0:0:0:
373,350,5905,1,0,0:0:0:0:
340,328,6118,1,0,0:0:0:0:
340,324,6190,1,0,0:0:0:0:
302,316,6404,1,0,0:0:0:0:
300,312,6476,1,0,0:0:0:0:
110,354,6976,5,0,0:0:0:0:
122,355,7047,1,0,0:0:0:0:
104,276,7262,1,0,0:0:0:0:
91,275,7333,1,0,0:0:0:0:
73,196,7549,1,0,0:0:0:0:
85,197,7620,1,0,0:0:0:0:
201,43,7905,6,0,L|213:131,1,70,0|0,0:0|0:0,0:0:0:0:
111,23,8191,2,0,L|123:111,1,70,0|0,0:0|0:0,0:0:0:0:
291,63,8477,2,0,L|303:151,1,70,0|0,0:0|0:0,0:0:0:0:
210,112,8763,1,0,0:0:0:0:
480,260,9264,5,0,0:0:0:0:
490,252,9335,1,0,0:0:0:0:
409,218,9550,1,0,0:0:0:0:
415,207,9621,1,0,0:0:0:0:
328,206,9835,1,0,0:0:0:0:
329,194,9906,1,0,0:0:0:0:
418,320,10406,5,0,0:0:0:0:
423,316,10477,1,0,0:0:0:0:
383,299,10692,1,0,0:0:0:0:
385,293,10763,1,0,0:0:0:0:
342,293,10977,1,0,0:0:0:0:
342,287,11050,1,0,0:0:0:0:
129,356,11550,5,0,0:0:0:0:
134,348,11621,1,0,0:0:0:0:
141,250,11836,1,0,0:0:0:0:
146,258,11907,1,0,0:0:0:0:
226,314,12122,1,0,0:0:0:0:
217,313,12193,1,0,0:0:0:0:
55,231,12479,6,0,P|21:184|17:162,1,70,0|0,0:0|0:0,0:0:0:0:
127,160,12765,2,0,P|113:103|117:81,1,70,0|0,0:0|0:0,0:0:0:0:
220,121,13051,2,0,P|228:63|240:44,1,70,0|0,0:0|0:0,0:0:0:0:
55,231,13336,1,0,0:0:0:0:
365,210,13837,5,0,0:0:0:0:
367,225,13908,1,0,0:0:0:0:
454,214,14122,1,0,0:0:0:0:
456,229,14193,1,0,0:0:0:0:
276,206,14408,1,0,0:0:0:0:
278,221,14479,1,0,0:0:0:0:
423,114,14980,5,0,0:0:0:0:
424,128,15051,1,0,0:0:0:0:
343,111,15266,1,0,0:0:0:0:
344,124,15337,1,0,0:0:0:0:
262,107,15551,1,0,0:0:0:0:
264,120,15622,1,0,0:0:0:0:
113,306,16123,5,0,0:0:0:0:
105,309,16194,1,0,0:0:0:0:
190,317,16409,1,0,0:0:0:0:
196,323,16480,1,0,0:0:0:0:
161,245,16695,1,0,0:0:0:0:
162,237,16766,1,0,0:0:0:0:
314,152,17052,6,0,P|348:125|405:109,1,70,0|0,0:0|0:0,0:0:0:0:
320,240,17338,2,0,P|362:228|420:235,1,70,0|0,0:0|0:0,0:0:0:0:
293,325,17624,2,0,P|336:329|388:358,1,70,0|0,0:0|0:0,0:0:0:0:
314,152,17910,1,0,0:0:0:0:
237,135,18982,5,0,0:0:0:0:
253,137,19053,1,0,0:0:0:0:
226,51,19339,1,0,0:0:0:0:
163,176,19625,1,0,0:0:0:0:
226,51,19911,1,0,0:0:0:0:
226,235,20053,1,0,0:0:0:0:
231,251,20125,1,0,0:0:0:0:
237,267,20196,2,0,L|363:286,1,105,0|0,0:0|0:0,0:0:0:0:
419,295,20482,1,0,0:0:0:0:
230,278,20768,2,0,L|356:297,1,105,0|0,0:0|0:0,0:0:0:0:
419,295,21054,1,0,0:0:0:0:
275,135,21268,5,0,0:0:0:0:
259,137,21339,1,0,0:0:0:0:
286,51,21625,1,0,0:0:0:0:
349,176,21911,1,0,0:0:0:0:
286,51,22197,1,0,0:0:0:0:
286,235,22339,1,0,0:0:0:0:
281,251,22411,1,0,0:0:0:0:
275,267,22482,2,0,L|149:286,1,105,0|0,0:0|0:0,0:0:0:0:
93,295,22768,1,0,0:0:0:0:
282,278,23054,2,0,L|156:297,1,105,0|0,0:0|0:0,0:0:0:0:
93,295,23340,1,0,0:0:0:0:
150,84,23626,6,0,L|171:168,1,70,0|0,0:0|0:0,0:0:0:0:
235,96,23912,2,0,L|256:180,1,70,0|0,0:0|0:0,0:0:0:0:
320,108,24198,2,0,L|341:192,1,70,0|0,0:0|0:0,0:0:0:0:
150,84,24484,1,0,0:0:0:0:
342,191,24698,1,0,0:0:0:0:
347,207,24770,1,0,0:0:0:0:
393,73,24984,1,0,0:0:0:0:
398,89,25056,1,0,0:0:0:0:
235,96,25341,2,0,L|256:180,1,70,0|0,0:0|0:0,0:0:0:0:
320,108,25627,1,0,0:0:0:0:
452,229,25842,5,0,0:0:0:0:
450,238,25913,2,0,L|429:322,1,70,0|0,0:0|0:0,0:0:0:0:
365,250,26199,2,0,L|344:334,1,70,0|0,0:0|0:0,0:0:0:0:
280,262,26485,2,0,L|259:346,1,70,0|0,0:0|0:0,0:0:0:0:
450,238,26771,1,0,0:0:0:0:
258,345,26985,1,0,0:0:0:0:
253,361,27057,1,0,0:0:0:0:
207,227,27271,1,0,0:0:0:0:
202,243,27343,1,0,0:0:0:0:
365,250,27628,2,0,L|344:334,1,70,0|0,0:0|0:0,0:0:0:0:
280,262,27914,1,0,0:0:0:0:
107,263,28128,5,0,0:0:0:0:
100,268,28200,2,0,P|78:258|70:194,1,70,0|0,0:0|0:0,0:0:0:0:
134,166,28486,2,0,P|125:143|165:92,1,70,0|0,0:0|0:0,0:0:0:0:
230,117,28772,2,0,P|240:95|304:87,1,70,0|0,0:0|0:0,0:0:0:0:
107,263,29057,1,0,0:0:0:0:
333,132,29200,1,0,0:0:0:0:
349,137,29272,1,0,0:0:0:0:
365,141,29343,2,0,L|351:236,1,70,0|0,0:0|0:0,0:0:0:0:
268,346,29558,1,0,0:0:0:0:
271,332,29629,2,0,L|285:237,1,70,0|0,0:0|0:0,0:0:0:0:
450,217,29915,2,0,P|441:250|412:268,1,70,0|0,0:0|0:0,0:0:0:0:
271,188,30201,1,0,0:0:0:0:
405,263,30415,5,0,0:0:0:0:
412,268,30487,2,0,P|434:258|442:194,1,70,0|0,0:0|0:0,0:0:0:0:
378,166,30773,2,0,P|386:143|346:92,1,70,0|0,0:0|0:0,0:0:0:0:
282,117,31059,2,0,P|272:95|208:87,1,70,0|0,0:0|0:0,0:0:0:0:
405,263,31344,1,0,0:0:0:0:
179,132,31487,1,0,0:0:0:0:
163,137,31559,1,0,0:0:0:0:
147,141,31630,2,0,L|157:210,1,70,0|0,0:0|0:0,0:0:0:0:
244,346,31845,1,0,0:0:0:0:
241,332,31916,2,0,L|230:262,1,70,0|0,0:0|0:0,0:0:0:0:
61,217,32202,2,0,P|70:250|100:268,1,70,0|0,0:0|0:0,0:0:0:0:
241,188,32488,1,0,0:0:0:0:
391,227,32702,5,0,0:0:0:0:
401,235,32773,2,0,L|488:227,1,70,0|0,0:0|0:0,0:0:0:0:
365,148,33059,2,0,L|452:140,1,70,0|0,0:0|0:0,0:0:0:0:
329,61,33345,2,0,L|416:53,1,70,0|0,0:0|0:0,0:0:0:0:
391,227,33560,1,0,0:0:0:0:
401,235,33631,2,0,L|488:227,1,70,0|0,0:0|0:0,0:0:0:0:
194,134,33845,5,0,0:0:0:0:
205,125,33916,2,0,L|300:133,1,70,0|0,0:0|0:0,0:0:0:0:
165,220,34202,2,0,L|260:228,1,70,0|0,0:0|0:0,0:0:0:0:
125,316,34488,2,0,L|220:324,1,70,0|0,0:0|0:0,0:0:0:0:
194,134,34703,1,0,0:0:0:0:
205,125,34774,2,0,L|300:133,1,70,0|0,0:0|0:0,0:0:0:0:
319,289,35060,6,0,P|368:329|413:315,1,105,0|0,0:0|0:0,0:0:0:0:
404,107,35346,6,0,P|414:44|379:12,1,105,0|0,0:0|0:0,0:0:0:0:
205,125,35632,6,0,P|145:147|135:193,1,105,0|0,0:0|0:0,0:0:0:0:
319,289,35917,6,0,P|368:329|413:315,1,105,0|0,0:0|0:0,0:0:0:0:
310,175,36203,5,0,0:0:0:0:
415,244,36758,5,0,0:0:0:0:
427,237,36829,1,0,0:0:0:0:
310,175,37044,1,0,0:0:0:0:
319,154,37115,1,0,0:0:0:0:
154,175,37330,1,0,0:0:0:0:
145,140,37401,2,0,B|173:112|173:112|148:235,1,140,0|0,0:0|0:0,0:0:0:0:
68,358,37901,5,0,0:0:0:0:
62,343,37973,1,0,0:0:0:0:
217,314,38187,1,0,0:0:0:0:
234,283,38258,1,0,0:0:0:0:
402,333,38473,1,0,0:0:0:0:
473,332,38544,2,0,P|397:359|351:318,1,140,0|0,0:0|0:0,0:0:0:0:
213,127,39044,5,0,0:0:0:0:
225,156,39116,1,0,0:0:0:0:
338,51,39330,1,0,0:0:0:0:
334,63,39402,1,0,0:0:0:0:
169,290,39616,1,0,0:0:0:0:
217,314,39688,1,0,0:0:0:0:
104,234,39973,6,0,L|-5:246,1,105,0|0,0:0|0:0,0:0:0:0:
169,156,40259,2,0,L|59:147,1,105,0|0,0:0|0:0,0:0:0:0:
246,91,40545,2,0,L|139:61,1,105,0|0,0:0|0:0,0:0:0:0:
104,234,40831,1,0,0:0:0:0:
434,76,41331,5,0,0:0:0:0:
428,86,41403,1,0,0:0:0:0:
494,198,41617,1,0,0:0:0:0:
464,215,41688,1,0,0:0:0:0:
465,384,41903,1,0,0:0:0:0:
390,369,41974,2,0,P|359:328|397:253,1,140,0|0,0:0|0:0,0:0:0:0:
232,297,42474,5,0,0:0:0:0:
249,306,42546,1,0,0:0:0:0:
211,144,42760,1,0,0:0:0:0:
230,185,42832,1,0,0:0:0:0:
343,28,43046,1,0,0:0:0:0:
319,102,43117,2,0,P|355:51|427:51,1,140,0|0,0:0|0:0,0:0:0:0:
307,224,43618,5,0,0:0:0:0:
305,240,43689,1,0,0:0:0:0:
471,233,43903,1,0,0:0:0:0:
469,249,43974,1,0,0:0:0:0:
143,215,44190,5,0,0:0:0:0:
141,231,44261,2,0,P|128:196|89:153,1,70,0|0,0:0|0:0,0:0:0:0:
6,134,44547,2,0,L|132:157,1,105,0|0,0:0|0:0,0:0:0:0:
173,88,44832,2,0,P|186:123|225:166,1,70,0|0,0:0|0:0,0:0:0:0:
308,185,45118,2,0,L|182:162,1,105,0|0,0:0|0:0,0:0:0:0:
6,134,45404,1,0,0:0:0:0:
62,370,45904,5,0,0:0:0:0:
51,358,45975,1,0,0:0:0:0:
249,342,46190,1,0,0:0:0:0:
209,323,46261,1,0,0:0:0:0:
379,167,46476,1,0,0:0:0:0:
308,185,46547,2,0,P|381:195|421:137,1,140,0|0,0:0|0:0,0:0:0:0:
99,43,47048,5,0,0:0:0:0:
85,52,47119,1,0,0:0:0:0:
277,106,47334,1,0,0:0:0:0:
234,117,47405,1,0,0:0:0:0:
371,302,47620,1,0,0:0:0:0:
305,271,47691,2,0,P|378:275|406:339,1,140,0|0,0:0|0:0,0:0:0:0:
202,214,48191,5,0,0:0:0:0:
204,230,48262,1,0,0:0:0:0:
38,223,48476,1,0,0:0:0:0:
40,239,48547,1,0,0:0:0:0:
366,205,48763,5,0,0:0:0:0:
368,221,48834,2,0,P|381:186|420:143,1,70,0|0,0:0|0:0,0:0:0:0:
503,124,49120,2,0,L|377:147,1,105,0|0,0:0|0:0,0:0:0:0:
336,78,49405,2,0,P|323:113|284:156,1,70,0|0,0:0|0:0,0:0:0:0:
201,175,49691,2,0,L|327:152,1,105,0|0,0:0|0:0,0:0:0:0:
503,124,49977,1,0,0:0:0:0:
97,244,50477,5,0,0:0:0:0:
85,237,50548,1,0,0:0:0:0:
202,175,50763,1,0,0:0:0:0:
193,154,50834,1,0,0:0:0:0:
358,175,51049,1,0,0:0:0:0:
367,140,51120,2,0,B|339:112|339:112|364:235,1,140,0|0,0:0|0:0,0:0:0:0:
444,358,51620,5,0,0:0:0:0:
450,343,51692,1,0,0:0:0:0:
295,314,51906,1,0,0:0:0:0:
278,283,51977,1,0,0:0:0:0:
110,333,52192,1,0,0:0:0:0:
39,332,52264,2,0,P|115:359|161:318,1,140
299,127,52763,5,0,0:0:0:0:
287,156,52835,1,0,0:0:0:0:
174,51,53049,1,0,0:0:0:0:
178,63,53121,1,0,0:0:0:0:
343,290,53335,1,0,0:0:0:0:
295,314,53407,1,0,0:0:0:0:
408,234,53692,6,0,L|517:246,1,105,0|0,0:0|0:0,0:0:0:0:
343,156,53978,2,0,L|452:147,1,105,0|0,0:0|0:0,0:0:0:0:
266,91,54264,2,0,L|372:61,1,105,0|0,0:0|0:0,0:0:0:0:
408,234,54550,1,0,0:0:0:0:
200,137,54693,5,0,0:0:0:0:
192,125,54765,1,0,0:0:0:0:
178,120,54836,1,0,0:0:0:0:
143,195,54979,1,0,0:0:0:0:
21,59,55122,6,0,L|32:92,1,35,0|0,0:0|0:0,0:0:0:0:
62,169,55265,1,0,0:0:0:0:
252,200,55408,2,0,L|240:233,1,35,0|0,0:0|0:0,0:0:0:0:
211,310,55551,1,0,0:0:0:0:
320,161,55694,6,0,P|298:91|288:70,1,70,0|0,0:0|0:0,0:0:0:0:
409,192,55908,1,0,0:0:0:0:
409,180,55979,2,0,P|400:107|394:84,1,70,0|0,0:0|0:0,0:0:0:0:
82,58,56265,6,0,P|60:128|50:149,1,70,0|0,0:0|0:0,0:0:0:0:
171,27,56479,1,0,0:0:0:0:
171,39,56551,2,0,P|162:111|156:134,1,70
45,309,56765,5,0,0:0:0:0:
65,306,56837,2,0,L|148:295,1,70,0|0,0:0|0:0,0:0:0:0:
296,244,57051,1,0,0:0:0:0:
276,247,57123,2,0,L|193:258,1,70,0|0,0:0|0:0,0:0:0:0:
363,342,57409,2,0,L|379:203,2,140,0|0|0,0:0|0:0|0:0,0:0:0:0:
512,143,58195,5,0,0:0:0:0:
512,154,58266,2,0,P|450:185|435:179,1,70,0|0,0:0|0:0,0:0:0:0:
399,129,58480,1,0,0:0:0:0:
399,118,58552,2,0,P|461:87|476:93,1,70
318,133,58766,5,0,0:0:0:0:
308,138,58838,2,0,P|250:99|247:83,1,70
273,28,59051,1,0,0:0:0:0:
283,22,59124,2,0,P|340:60|343:76,1,70
354,218,59338,5,0,0:0:0:0:
360,204,59409,1,0,0:0:0:0:
102,82,59695,2,0,L|32:89,1,70,0|0,0:0|0:0,0:0:0:0:
251,103,59981,2,0,L|182:111,1,70,0|0,0:0|0:0,0:0:0:0:
21,173,60267,6,0,P|77:203|93:271,1,105,0|0,0:0|0:0,0:0:0:0:
37,304,60553,2,0,L|118:320,1,70,0|0,0:0|0:0,0:0:0:0:
320,249,60767,1,0,0:0:0:0:
328,234,60838,2,0,P|272:264|256:332,1,105,0|0,0:0|0:0,0:0:0:0:
312,365,61124,2,0,L|231:381,1,70,0|0,0:0|0:0,0:0:0:0:
181,336,61339,5,0,0:0:0:0:
183,325,61410,1,0,0:0:0:0:
210,143,61625,1,0,0:0:0:0:
208,154,61696,1,0,0:0:0:0:
360,124,61982,2,0,P|285:192|272:193,1,105,0|0,0:0|0:0,0:0:0:0:
214,129,62268,2,0,L|227:55,1,70,0|0,0:0|0:0,0:0:0:0:
491,173,62553,6,0,P|435:203|419:271,1,105,0|0,0:0|0:0,0:0:0:0:
475,304,62839,2,0,L|394:320,1,70,0|0,0:0|0:0,0:0:0:0:
192,249,63053,1,0,0:0:0:0:
184,234,63124,2,0,P|240:264|256:332,1,105,0|0,0:0|0:0,0:0:0:0:
200,365,63411,2,0,L|281:381,1,70
331,336,63625,5,0,0:0:0:0:
329,325,63696,1,0,0:0:0:0:
302,143,63911,1,0,0:0:0:0:
304,154,63982,1,0,0:0:0:0:
152,124,64268,2,0,P|227:192|240:193,1,105,0|0,0:0|0:0,0:0:0:0:
298,129,64554,2,0,L|285:55,1,70,0|0,0:0|0:0,0:0:0:0:
204,258,64840,6,0,P|226:188|236:167,1,70,0|0,0:0|0:0,0:0:0:0:
115,289,65054,1,0,0:0:0:0:
115,277,65126,2,0,P|123:204|129:181,1,70
430,58,65412,6,0,P|452:128|462:149,1,70
341,27,65625,1,0,0:0:0:0:
341,39,65697,2,0,P|349:111|355:134,1,70
467,309,65911,5,0,0:0:0:0:
447,306,65983,2,0,L|364:295,1,70,0|0,0:0|0:0,0:0:0:0:
216,244,66197,1,0,0:0:0:0:
236,247,66269,2,0,L|319:258,1,70,0|0,0:0|0:0,0:0:0:0:
149,342,66555,2,0,L|132:203,2,140,0|0|0,0:0|0:0|0:0,0:0:0:0:
0,143,67341,5,0,0:0:0:0:
0,154,67412,2,0,P|62:185|77:179,1,70,0|0,0:0|0:0,0:0:0:0:
113,129,67626,1,0,0:0:0:0:
113,118,67698,2,0,P|51:87|36:93,1,70
194,133,67912,5,0,0:0:0:0:
204,138,67984,2,0,P|261:99|264:83,1,70
239,28,68197,1,0,0:0:0:0:
229,22,68270,2,0,P|171:60|168:76,1,70
158,218,68484,5,0,0:0:0:0:
152,204,68555,1,0,0:0:0:0:
410,82,68841,2,0,L|479:89,1,70,0|0,0:0|0:0,0:0:0:0:
260,103,69127,2,0,L|330:111,1,70,0|0,0:0|0:0,0:0:0:0:
474,281,69342,5,0,0:0:0:0:
484,273,69413,2,0,P|433:327|394:309,1,105,0|0,0:0|0:0,0:0:0:0:
158,218,69699,2,0,L|147:287,1,70,0|0,0:0|0:0,0:0:0:0:
428,208,69913,1,0,0:0:0:0:
437,201,69985,2,0,P|386:205|364:250,1,105,0|0,0:0|0:0,0:0:0:0:
214,345,70271,2,0,L|224:275,1,70,0|0,0:0|0:0,0:0:0:0:
38,120,70485,5,0,0:0:0:0:
28,112,70556,2,0,P|79:166|118:148,1,105,0|0,0:0|0:0,0:0:0:0:
354,57,70842,2,0,L|365:126,1,70,0|0,0:0|0:0,0:0:0:0:
84,47,71056,1,0,0:0:0:0:
75,40,71128,2,0,P|126:44|148:89,1,105,0|0,0:0|0:0,0:0:0:0:
298,184,71414,2,0,L|288:114,1,70,0|0,0:0|0:0,0:0:0:0:
377,218,71700,6,0,P|413:255|398:314,1,105,0|0,0:0|0:0,0:0:0:0:
229,236,71986,6,0,P|178:249|134:206,1,105,0|0,0:0|0:0,0:0:0:0:
287,99,72271,6,0,P|300:48|359:32,1,105,0|0,0:0|0:0,0:0:0:0:
377,218,72557,6,0,P|413:255|398:314,1,105,0|0,0:0|0:0,0:0:0:0:
298,184,72843,5,0,0:0:0:0:
492,205,73343,5,0,0:0:0:0:
502,192,73415,1,0,0:0:0:0:
441,136,73629,1,0,0:0:0:0:
446,129,73701,1,0,0:0:0:0:
363,127,73915,1,0,0:0:0:0:
365,123,73987,1,0,0:0:0:0:
376,32,74487,5,0,0:0:0:0:
368,18,74559,1,0,0:0:0:0:
292,50,74773,1,0,0:0:0:0:
287,43,74845,1,0,0:0:0:0:
252,118,75059,1,0,0:0:0:0:
249,114,75131,1,0,0:0:0:0:
86,217,75630,5,0,0:0:0:0:
97,228,75701,1,0,0:0:0:0:
113,328,75916,1,0,0:0:0:0:
117,312,75987,1,0,0:0:0:0:
196,249,76202,5,0,0:0:0:0:
180,253,76273,1,0,0:0:0:0:
228,174,76487,5,0,0:0:0:0:
211,171,76559,1,0,0:0:0:0:
285,116,76773,5,0,0:0:0:0:
270,107,76844,1,0,0:0:0:0:
360,84,77059,5,0,0:0:0:0:
349,70,77130,1,0,0:0:0:0:
441,82,77345,5,0,0:0:0:0:
437,65,77416,1,0,0:0:0:0:
20,205,77917,5,0,0:0:0:0:
10,192,77989,1,0,0:0:0:0:
71,136,78203,1,0,0:0:0:0:
66,129,78275,1,0,0:0:0:0:
149,127,78489,1,0,0:0:0:0:
147,123,78561,1,0,0:0:0:0:
136,32,79061,5,0,0:0:0:0:
144,18,79131,1,0,0:0:0:0:
220,50,79347,1,0,0:0:0:0:
225,43,79417,1,0,0:0:0:0:
260,118,79633,1,0,0:0:0:0:
263,114,79703,1,0,0:0:0:0:
426,217,80204,5,0,0:0:0:0:
415,228,80275,1,0,0:0:0:0:
399,328,80490,1,0,0:0:0:0:
395,312,80561,1,0,0:0:0:0:
316,249,80776,5,0,0:0:0:0:
332,253,80847,1,0,0:0:0:0:
284,174,81061,5,0,0:0:0:0:
301,171,81133,1,0,0:0:0:0:
227,116,81347,5,0,0:0:0:0:
242,107,81418,1,0,0:0:0:0:
152,84,81633,5,0,0:0:0:0:
163,70,81704,1,0,0:0:0:0:
71,82,81919,5,0,0:0:0:0:
75,65,81990,1,0,0:0:0:0:
82,332,82490,5,0,0:0:0:0:
94,325,82562,1,0,0:0:0:0:
61,252,82776,1,0,0:0:0:0:
73,245,82848,1,0,0:0:0:0:
40,172,83062,1,0,0:0:0:0:
52,165,83134,1,0,0:0:0:0:
178,325,83633,5,0,0:0:0:0:
183,321,83705,1,0,0:0:0:0:
171,284,83919,1,0,0:0:0:0:
177,280,83991,1,0,0:0:0:0:
164,243,84205,1,0,0:0:0:0:
170,239,84277,1,0,0:0:0:0:
321,215,84777,5,0,0:0:0:0:
340,209,84848,1,0,0:0:0:0:
439,177,85063,1,0,0:0:0:0:
420,183,85134,1,0,0:0:0:0:
354,121,85348,5,0,0:0:0:0:
357,131,85419,1,0,0:0:0:0:
407,275,85634,1,0,0:0:0:0:
404,265,85705,1,0,0:0:0:0:
279,80,85920,5,0,0:0:0:0:
276,70,85991,1,0,0:0:0:0:
482,316,86206,1,0,0:0:0:0:
485,326,86277,1,0,0:0:0:0:
340,209,86491,5,0,0:0:0:0:
420,183,86563,1,0,0:0:0:0:
404,344,87063,5,0,0:0:0:0:
392,337,87135,1,0,0:0:0:0:
425,264,87349,1,0,0:0:0:0:
413,257,87421,1,0,0:0:0:0:
446,184,87635,1,0,0:0:0:0:
434,177,87707,1,0,0:0:0:0:
308,337,88206,5,0,0:0:0:0:
303,333,88278,1,0,0:0:0:0:
315,296,88492,1,0,0:0:0:0:
309,292,88564,1,0,0:0:0:0:
322,255,88778,1,0,0:0:0:0:
316,251,88850,1,0,0:0:0:0:
165,227,89350,5,0,0:0:0:0:
146,221,89421,1,0,0:0:0:0:
47,189,89636,1,0,0:0:0:0:
66,195,89707,1,0,0:0:0:0:
132,133,89921,5,0,0:0:0:0:
129,143,89992,1,0,0:0:0:0:
79,287,90207,1,0,0:0:0:0:
82,277,90278,1,0,0:0:0:0:
207,92,90493,5,0,0:0:0:0:
210,82,90564,1,0,0:0:0:0:
4,328,90779,1,0,0:0:0:0:
1,338,90850,1,0,0:0:0:0:
146,221,91064,5,0,0:0:0:0:
66,195,91136,1,0,0:0:0:0:
219,292,92207,5,0,0:0:0:0:
220,282,92279,2,0,P|260:256|296:256,1,70,0|0,0:0|0:0,0:0:0:0:
229,185,92565,2,0,P|275:175|309:189,1,70,0|0,0:0|0:0,0:0:0:0:
494,238,92779,1,0,0:0:0:0:
489,229,92851,2,0,P|442:219|408:233,1,70,0|0,0:0|0:0,0:0:0:0:
444,142,93137,2,0,P|397:151|371:176,1,70,0|0,0:0|0:0,0:0:0:0:
367,297,93351,1,0,0:0:0:0:
365,289,93422,1,0,0:0:0:0:
323,106,93637,1,0,0:0:0:0:
321,98,93708,1,0,0:0:0:0:
185,322,93994,2,0,P|231:358|289:334,1,105,0|0,0:0|0:0,0:0:0:0:
357,358,94280,2,0,L|365:285,1,70,0|0,0:0|0:0,0:0:0:0:
288,205,94494,5,0,0:0:0:0:
287,195,94566,2,0,P|247:169|211:169,1,70,0|0,0:0|0:0,0:0:0:0:
278,98,94852,2,0,P|231:88|197:102,1,70,0|0,0:0|0:0,0:0:0:0:
13,151,95066,1,0,0:0:0:0:
18,142,95138,2,0,P|64:132|98:146,1,70,0|0,0:0|0:0,0:0:0:0:
63,55,95424,2,0,P|109:64|135:89,1,70,0|0,0:0|0:0,0:0:0:0:
140,210,95638,1,0,0:0:0:0:
142,202,95709,1,0,0:0:0:0:
184,19,95924,1,0,0:0:0:0:
186,11,95995,1,0,0:0:0:0:
355,170,96138,6,0,L|360:135,1,35,0|0,0:0|0:0,0:0:0:0:
251,183,96281,2,0,L|381:168,1,105,0|0,0:0|0:0,0:0:0:0:
428,198,96567,2,0,L|439:129,1,70,0|0,0:0|0:0,0:0:0:0:
395,337,96852,6,0,P|356:305|366:256,1,105,0|0,0:0|0:0,0:0:0:0:
459,20,97138,2,0,L|453:54,1,35,0|0,0:0|0:0,0:0:0:0:
480,267,97281,2,0,L|474:301,1,35,0|0,0:0|0:0,0:0:0:0:
395,337,97424,6,0,P|356:305|366:256,1,105,0|0,0:0|0:0,0:0:0:0:
428,198,97710,1,0,0:0:0:0:
283,344,97853,2,0,P|269:334|263:318,1,35,0|0,0:0|0:0,0:0:0:0:
428,198,97996,6,0,L|432:153,1,35,0|0,0:0|0:0,0:0:0:0:
440,88,98139,1,0,0:0:0:0:
346,244,98281,2,0,L|350:199,1,35,0|0,0:0|0:0,0:0:0:0:
368,33,98424,1,0,0:0:0:0:
270,192,98567,2,0,P|225:211|188:256,1,105,0|0,0:0|0:0,0:0:0:0:
109,189,98853,2,0,P|100:225|110:270,1,70,0|0,0:0|0:0,0:0:0:0:
24,339,99067,5,0,0:0:0:0:
30,329,99139,2,0,L|112:345,1,70,0|0,0:0|0:0,0:0:0:0:
35,243,99425,2,0,L|117:259,1,70,0|0,0:0|0:0,0:0:0:0:
270,192,99639,5,0,0:0:0:0:
264,182,99711,2,0,L|182:198,1,70,0|0,0:0|0:0,0:0:0:0:
259,96,99997,2,0,L|177:112,1,70,0|0,0:0|0:0,0:0:0:0:
107,94,100211,5,0,0:0:0:0:
112,103,100282,1,0,0:0:0:0:
342,122,100497,1,0,0:0:0:0:
337,131,100568,1,0,0:0:0:0:
390,44,100711,1,0,0:0:0:0:
388,214,100854,2,0,P|414:175|485:157,1,105,0|0,0:0|0:0,0:0:0:0:
512,225,101140,2,0,L|493:308,1,70,0|0,0:0|0:0,0:0:0:0:
293,292,101354,5,0,0:0:0:0:
292,282,101426,2,0,P|252:256|216:256,1,70,0|0,0:0|0:0,0:0:0:0:
283,185,101712,2,0,P|236:175|202:189,1,70,0|0,0:0|0:0,0:0:0:0:
18,238,101926,1,0,0:0:0:0:
23,229,101998,2,0,P|69:219|103:233,1,70,0|0,0:0|0:0,0:0:0:0:
68,142,102284,2,0,P|114:151|140:176,1,70,0|0,0:0|0:0,0:0:0:0:
145,297,102498,1,0,0:0:0:0:
147,289,102569,1,0,0:0:0:0:
189,106,102784,1,0,0:0:0:0:
191,98,102855,1,0,0:0:0:0:
327,322,103141,2,0,P|281:358|222:334,1,105,0|0,0:0|0:0,0:0:0:0:
155,358,103427,2,0,L|147:285,1,70,0|0,0:0|0:0,0:0:0:0:
224,205,103641,5,0,0:0:0:0:
225,195,103713,2,0,P|265:169|301:169,1,70,0|0,0:0|0:0,0:0:0:0:
234,98,103999,2,0,P|280:88|314:102,1,70,0|0,0:0|0:0,0:0:0:0:
499,151,104213,1,0,0:0:0:0:
494,142,104285,2,0,P|447:132|413:146,1,70,0|0,0:0|0:0,0:0:0:0:
449,55,104571,2,0,P|402:64|376:89,1,70,0|0,0:0|0:0,0:0:0:0:
372,210,104785,1,0,0:0:0:0:
370,202,104856,1,0,0:0:0:0:
328,19,105071,1,0,0:0:0:0:
326,11,105142,1,0,0:0:0:0:
157,170,105285,6,0,L|151:135,1,35,0|0,0:0|0:0,0:0:0:0:
261,183,105428,2,0,L|131:168,1,105,0|0,0:0|0:0,0:0:0:0:
84,198,105714,2,0,L|73:129,1,70,0|0,0:0|0:0,0:0:0:0:
49,26,105927,5,0,0:0:0:0:
52,17,105999,2,0,L|58:52,1,35,0|0,0:0|0:0,0:0:0:0:
156,170,106142,2,0,L|150:135,1,35,0|0,0:0|0:0,0:0:0:0:
130,28,106285,2,0,L|135:62,1,35,0|0,0:0|0:0,0:0:0:0:
234,203,106427,2,0,L|281:211,1,35,0|0,0:0|0:0,0:0:0:0:
72,128,106570,2,0,L|25:136,2,35,0|0|0,0:0|0:0|0:0,0:0:0:0:
218,89,106785,1,0,0:0:0:0:
218,89,106856,1,0,0:0:0:0:
130,28,107071,5,0,0:0:0:0:
142,21,107142,1,0,0:0:0:0:
270,25,107356,1,0,0:0:0:0:
283,23,107427,1,0,0:0:0:0:
400,74,107642,1,0,0:0:0:0:
413,78,107713,1,0,0:0:0:0:
386,152,107857,5,0,0:0:0:0:
392,164,107928,1,0,0:0:0:0:
398,176,107999,1,0,0:0:0:0:
323,210,108142,5,0,0:0:0:0:
319,229,108213,1,0,0:0:0:0:
317,249,108285,2,0,L|194:289,1,105,0|0,0:0|0:0,0:0:0:0:
244,172,108571,6,0,L|114:163,1,105,0|0,0:0|0:0,0:0:0:0:
205,73,108857,6,0,L|88:16,1,105,0|0,0:0|0:0,0:0:0:0:
317,249,109143,6,0,L|194:289,1,105,0|0,0:0|0:0,0:0:0:0:
244,172,109429,5,0,0:0:0:0:
244,172,110000,5,0,0:0:0:0:
247,180,110071,1,0,0:0:0:0:
329,102,110286,1,0,0:0:0:0:
322,127,110357,1,0,0:0:0:0:
133,59,110572,1,0,0:0:0:0:
155,133,110643,2,0,P|152:69|285:37,1,210.000008010865,0|0,0:0|0:0,0:0:0:0:
426,338,111143,5,0,0:0:0:0:
452,329,111215,1,0,0:0:0:0:
293,255,111429,1,0,0:0:0:0:
372,272,111500,1,0,0:0:0:0:
166,361,111715,1,0,0:0:0:0:
254,342,111786,2,0,B|289:325|289:325|312:202|312:202|361:186,1,210.000008010865,0|0,0:0|0:0,0:0:0:0:
95,222,112286,5,0,0:0:0:0:
72,194,112358,1,0,0:0:0:0:
224,137,112572,1,0,0:0:0:0:
237,53,112644,1,0,0:0:0:0:
436,172,112858,1,0,0:0:0:0:
497,95,112930,2,0,B|446:65|446:65|495:202,1,157.500006008148,0|0,0:0|0:0,0:0:0:0:
487,329,113215,6,0,P|434:283|330:262,1,157.500006008148,0|0,0:0|0:0,0:0:0:0:
286,323,113501,2,0,L|256:221,1,105.000004005432,0|0,0:0|0:0,0:0:0:0:
205,312,113787,2,0,L|175:210,1,105.000004005432,0|0,0:0|0:0,0:0:0:0:
48,59,114073,2,0,P|108:108|184:127,1,157.500006008148,0|0,0:0|0:0,0:0:0:0:
259,143,114359,2,0,L|289:41,1,105.000004005432,0|0,0:0|0:0,0:0:0:0:
363,222,114573,5,0,0:0:0:0:
358,206,114644,1,0,0:0:0:0:
447,43,114859,1,0,0:0:0:0:
424,151,114930,1,0,0:0:0:0:
430,30,115145,1,0,0:0:0:0:
509,172,115216,2,0,P|429:185|337:247,1,157.500006008148,0|0,0:0|0:0,0:0:0:0:
375,314,115502,2,0,L|248:288,1,105.000004005432,0|0,0:0|0:0,0:0:0:0:
79,223,115716,5,0,0:0:0:0:
91,243,115788,1,0,0:0:0:0:
55,108,116002,1,0,0:0:0:0:
4,176,116073,1,0,0:0:0:0:
162,33,116288,1,0,0:0:0:0:
12,28,116359,2,0,L|233:64,1,210.000008010865,0|0,0:0|0:0,0:0:0:0:
405,260,116860,5,0,0:0:0:0:
393,232,116931,1,0,0:0:0:0:
261,291,117145,1,0,0:0:0:0:
289,209,117217,1,0,0:0:0:0:
97,221,117431,1,0,0:0:0:0:
181,133,117503,2,0,P|145:227|154:324,1,157.500006008148,0|0,0:0|0:0,0:0:0:0:
83,322,117789,6,0,L|206:350,1,105.000004005432,0|0,0:0|0:0,0:0:0:0:
393,232,118003,1,0,0:0:0:0:
447,299,118074,2,0,L|324:327,1,105.000004005432,0|0,0:0|0:0,0:0:0:0:
181,133,118360,2,0,P|226:206|263:305,1,157.500006008148,0|0,0:0|0:0,0:0:0:0:
206,40,118646,2,0,P|264:103|319:193,1,157.500006008148,0|0,0:0|0:0,0:0:0:0:
393,232,118932,2,0,P|374:227|397:148,1,105.000004005432,0|0,0:0|0:0,0:0:0:0:
448,174,119146,5,0,0:0:0:0:
453,162,119218,1,0,0:0:0:0:
205,274,119432,1,0,0:0:0:0:
232,199,119503,1,0,0:0:0:0:
0,169,119718,1,0,0:0:0:0:
93,127,119789,2,0,P|157:171|231:198,1,157.500006008148,0|0,0:0|0:0,0:0:0:0:
319,234,120075,2,0,L|305:130,1,105.000004005432,0|0,0:0|0:0,0:0:0:0:
175,22,120290,5,0,0:0:0:0:
195,28,120361,1,0,0:0:0:0:
382,108,120575,1,0,0:0:0:0:
304,129,120647,1,0,0:0:0:0:
33,192,120861,1,0,0:0:0:0:
119,255,120933,2,0,L|142:78,1,157.500006008148,0|0,0:0|0:0,0:0:0:0:
147,17,121218,2,0,P|97:22|67:63,1,105.000004005432,0|0,0:0|0:0,0:0:0:0:
213,210,121433,5,0,0:0:0:0:
217,196,121504,1,0,0:0:0:0:
334,319,121719,1,0,0:0:0:0:
295,238,121790,1,0,0:0:0:0:
487,345,122004,1,0,0:0:0:0:
388,247,122076,2,0,P|432:160|492:94,1,157.500006008148,0|0,0:0|0:0,0:0:0:0:
339,155,122362,2,0,P|306:126|206:111,1,105.000004005432,0|0,0:0|0:0,0:0:0:0:
217,331,122648,6,0,L|207:279,1,52.5000020027161,0|0,0:0|0:0,0:0:0:0:
163,95,122790,2,0,L|177:169,1,52.5000020027161,0|0,0:0|0:0,0:0:0:0:
56,289,122933,5,0,0:0:0:0:
137,311,123005,1,0,0:0:0:0:
217,331,123076,2,0,L|207:279,1,52.5000020027161,0|0,0:0|0:0,0:0:0:0:
37,194,123219,6,0,L|115:181,1,52.5000020027161,0|0,0:0|0:0,0:0:0:0:
287,163,123362,2,0,L|365:150,1,52.5000020027161,0|0,0:0|0:0,0:0:0:0:
35,183,123505,6,0,L|113:170,1,52.5000020027161,0|0,0:0|0:0,0:0:0:0:
285,152,123648,2,0,L|363:139,1,52.5000020027161,0|0,0:0|0:0,0:0:0:0:
469,345,123791,5,0,0:0:0:0:
390,325,123862,1,0,0:0:0:0:
382,341,123934,1,0,0:0:0:0:
303,321,124005,1,0,0:0:0:0:
226,349,124077,6,0,P|210:308|220:271,1,52.5000020027161,0|0,0:0|0:0,0:0:0:0:
172,146,124220,2,0,P|202:114|240:108,1,52.5000020027161,0|0,0:0|0:0,0:0:0:0:
396,14,124362,6,0,L|376:117,1,105.000004005432,0|0,0:0|0:0,0:0:0:0:
308,7,124577,1,0,0:0:0:0:
303,15,124648,2,0,P|262:43|237:51,1,52.5000020027161,0|0,0:0|0:0,0:0:0:0:
481,46,124791,2,0,P|502:90|521:109,1,52.5000020027161,0|0,0:0|0:0,0:0:0:0:
359,196,124934,2,0,L|346:261,1,52.5000020027161,0|0,0:0|0:0,0:0:0:0:
332,328,125148,5,0,0:0:0:0:
332,328,125220,1,0,0:0:0:0:
512,293,125434,1,0,0:0:0:0:
454,355,125506,2,0,P|370:282|237:270,1,210.000008010865,0|0,0:0|0:0,0:0:0:0:
69,217,126006,5,0,0:0:0:0:
81,240,126077,1,0,0:0:0:0:
182,120,126292,1,0,0:0:0:0:
156,207,126363,1,0,0:0:0:0:
363,28,126578,1,0,0:0:0:0:
274,128,126649,2,0,P|335:87|445:86,1,157.500006008148,0|0,0:0|0:0,0:0:0:0:
499,78,126935,6,0,L|468:213,1,105.000004005432,0|0,0:0|0:0,0:0:0:0:
478,287,127221,2,0,P|417:246|307:245,1,157.500006008148,0|0,0:0|0:0,0:0:0:0:
253,237,127507,2,0,L|284:372,1,105.000004005432,0|0,0:0|0:0,0:0:0:0:
66,343,127792,2,0,P|161:336|129:224,1,210.000008010865,0|0,0:0|0:0,0:0:0:0:
158,241,128221,6,0,P|136:211|142:186,1,52.5000020027161,0|0,0:0|0:0,0:0:0:0:
177,133,128364,1,0,0:0:0:0:
177,133,128650,2,0,L|353:153,1,157.500006008148,0|0,0:0|0:0,0:0:0:0:
340,69,128936,6,0,L|364:253,1,157.500006008148,0|0,0:0|0:0,0:0:0:0:
416,69,129221,2,0,L|440:253,1,157.500006008148,0|0,0:0|0:0,0:0:0:0:
492,69,129507,2,0,L|516:253,1,157.500006008148,0|0,0:0|0:0,0:0:0:0:
467,370,129793,2,0,P|411:299|367:295,1,105.000004005432,0|0,0:0|0:0,0:0:0:0:
193,342,130007,1,0,0:0:0:0:
276,353,130079,2,0,L|250:240,1,105.000004005432,0|0,0:0|0:0,0:0:0:0:
235,93,130293,1,0,0:0:0:0:
169,39,130365,2,0,L|143:152,1,105.000004005432,0|0,0:0|0:0,0:0:0:0:
33,270,130651,2,0,P|95:233|204:224,1,157.500006008148,0|0,0:0|0:0,0:0:0:0:
348,222,130936,2,0,P|298:228|266:189,1,105.000004005432,0|0,0:0|0:0,0:0:0:0:
198,64,131222,6,0,L|174:248,1,157.500006008148,0|0,0:0|0:0,0:0:0:0:
122,64,131507,2,0,L|98:248,1,157.500006008148,0|0,0:0|0:0,0:0:0:0:
46,64,131793,2,0,L|22:248,1,157.500006008148,0|0,0:0|0:0,0:0:0:0:
71,365,132079,2,0,P|127:294|171:290,1,105.000004005432,0|0,0:0|0:0,0:0:0:0:
345,337,132293,1,0,0:0:0:0:
262,348,132365,2,0,L|288:235,1,105.000004005432,0|0,0:0|0:0,0:0:0:0:
303,88,132579,1,0,0:0:0:0:
369,34,132651,2,0,L|395:147,1,105.000004005432,0|0,0:0|0:0,0:0:0:0:
505,265,132937,2,0,P|443:228|334:219,1,157.500006008148,0|0,0:0|0:0,0:0:0:0:
199,255,133223,2,0,L|175:152,1,105.000004005432
101,281,133509,6,0,P|210:291|258:334,1,157.500006008148,0|0,0:0|0:0,0:0:0:0:
295,241,133795,2,0,P|247:179|175:152,1,157.500006008148,0|0,0:0|0:0,0:0:0:0:
291,59,134080,2,0,P|348:112|369:187,1,157.500006008148,0|0,0:0|0:0,0:0:0:0:
338,351,134366,6,0,P|377:295|438:284,1,105.000004005432,0|0,0:0|0:0,0:0:0:0:
500,156,134581,1,0,0:0:0:0:
491,238,134652,2,0,L|477:353,1,105.000004005432,0|0,0:0|0:0,0:0:0:0:
431,96,134866,1,0,0:0:0:0:
422,179,134938,2,0,L|408:294,1,105.000004005432
258,287,135224,2,0,L|72:320,1,157.500006008148,0|0,0:0|0:0,0:0:0:0:
54,238,135510,2,0,L|209:210,1,157.500006008148,0|0,0:0|0:0,0:0:0:0:
403,250,135795,6,0,P|294:260|246:303,1,157.500006008148,0|0,0:0|0:0,0:0:0:0:
209,210,136081,2,0,P|256:148|328:121,1,157.500006008148,0|0,0:0|0:0,0:0:0:0:
213,28,136366,2,0,P|155:80|135:155,1,157.500006008148,0|0,0:0|0:0,0:0:0:0:
166,320,136653,6,0,P|127:264|66:253,1,105.000004005432
4,125,136867,1,0,0:0:0:0:
13,207,136938,2,0,L|27:322,1,105.000004005432,0|0,0:0|0:0,0:0:0:0:
73,66,137152,1,0,0:0:0:0:
82,148,137224,2,0,L|96:263,1,105.000004005432
252,246,137510,2,0,L|438:279,1,157.500006008148,0|0,0:0|0:0,0:0:0:0:
450,207,137796,2,0,L|294:179,1,157.500006008148,0|0,0:0|0:0,0:0:0:0:
143,229,138082,6,0,P|83:262|22:198,1,157.500006008148,0|0,0:0|0:0,0:0:0:0:
129,135,138368,2,0,P|130:66|216:45,1,157.500006008148,0|0,0:0|0:0,0:0:0:0:
217,169,138654,2,0,P|275:204|250:289,1,157.500006008148,0|0,0:0|0:0,0:0:0:0:
96,353,138939,6,0,P|152:332|210:334,1,105.000004005432,0|0,0:0|0:0,0:0:0:0:
442,318,139154,1,0,0:0:0:0:
374,366,139225,2,0,L|358:262,1,105.000004005432,0|0,0:0|0:0,0:0:0:0:
348,116,139440,1,0,0:0:0:0:
428,93,139511,2,0,L|412:197,1,105.000004005432,0|0,0:0|0:0,0:0:0:0:
270,241,139797,2,0,P|166:244|132:177,1,157.500006008148,0|0,0:0|0:0,0:0:0:0:
55,211,140083,2,0,L|71:99,1,105.000004005432,0|0,0:0|0:0,0:0:0:0:
369,229,140369,6,0,P|429:262|490:198,1,157.500006008148,0|0,0:0|0:0,0:0:0:0:
383,135,140655,2,0,P|381:66|295:45,1,157.500006008148,0|0,0:0|0:0,0:0:0:0:
295,169,140941,2,0,P|236:204|261:289,1,157.500006008148,0|0,0:0|0:0,0:0:0:0:
416,353,141226,6,0,P|360:332|302:334,1,105.000004005432,0|0,0:0|0:0,0:0:0:0:
70,318,141441,1,0,0:0:0:0:
138,366,141512,2,0,L|154:262,1,105.000004005432,0|0,0:0|0:0,0:0:0:0:
164,116,141727,1,0,0:0:0:0:
84,93,141798,2,0,L|100:197,1,105.000004005432,0|0,0:0|0:0,0:0:0:0:
242,241,142084,2,0,P|346:244|380:177,1,157.500006008148,0|0,0:0|0:0,0:0:0:0:
457,211,142370,2,0,L|441:99,1,105.000004005432,0|0,0:0|0:0,0:0:0:0:
189,16,142655,6,0,P|283:40|352:92,1,157.500006008148,0|0,0:0|0:0,0:0:0:0:
168,96,142941,2,0,P|255:137|313:201,1,157.500006008148,0|0,0:0|0:0,0:0:0:0:
359,298,143227,2,0,P|376:234|411:189,1,105.000004005432,0|0,0:0|0:0,0:0:0:0:
339,378,143441,5,0,0:0:0:0:
274,335,143513,2,0,P|240:277|233:221,1,105.000004005432,0|0,0:0|0:0,0:0:0:0:
480,124,143798,6,0,L|289:160,1,157.500006008148,0|0,0:0|0:0,0:0:0:0:
487,43,144084,2,0,L|296:79,1,157.500006008148,0|0,0:0|0:0,0:0:0:0:
86,43,144370,2,0,P|147:66|182:109,1,105.000004005432,0|0,0:0|0:0,0:0:0:0:
12,83,144584,5,0,0:0:0:0:
80,135,144656,2,0,P|106:195|100:250,1,105.000004005432,0|0,0:0|0:0,0:0:0:0:
16,74,144870,5,0,0:0:0:0:
90,34,144942,2,0,P|151:57|186:100,1,105.000004005432,0|0,0:0|0:0,0:0:0:0:
167,298,145228,6,0,P|240:289|334:266,1,157.500006008148,0|0,0:0|0:0,0:0:0:0:
174,374,145513,2,0,P|247:365|341:342,1,157.500006008148,0|0,0:0|0:0,0:0:0:0:
497,146,145799,2,0,P|423:137|329:114,1,157.500006008148,0|0,0:0|0:0,0:0:0:0:
490,222,146084,2,0,P|416:213|322:190,1,157.500006008148,0|0,0:0|0:0,0:0:0:0:
328,346,146371,5,0,0:0:0:0:
