osu file format v14

[General]
AudioFilename: audio.mp3
AudioLeadIn: 1250
PreviewTime: 24580
Countdown: 1
SampleSet: Soft
StackLeniency: 0.4
Mode: 0
LetterboxInBreaks: 1
WidescreenStoryboard: 0

[Editor]
DistanceSpacing: 0.8
BeatDivisor: 4
GridSize: 8
TimelineZoom: 1.4

[Metadata]
Title:Gonshik ne legalniy
TitleUnicode:Гонщик не легальный
Artist:MC Dimanche
ArtistUnicode:MC Dimanche
Creator:BadTrip13
Version:Super Fast Rider
Source:
Tags:Rider
BeatmapID:1520208
BeatmapSetID:720004

[Difficulty]
HPDrainRate:7
CircleSize:4
OverallDifficulty:8
ApproachRate:8
SliderMultiplier:1.92
SliderTickRate:1

[Events]
//Background and Video events
0,0,"1024-by-768-166598-20061114044616.jpg",0,0
//Break Periods
2,13108,18215
2,96200,96953
//Storyboard Layer 0 (Background)
//Storyboard Layer 1 (Fail)
//Storyboard Layer 2 (Pass)
//Storyboard Layer 3 (Foreground)
//Storyboard Sound Samples

[TimingPoints]
416,378.548895899054,4,2,2,100,1,0
510,-100,4,2,0,80,0,0
699,-100,4,1,0,50,0,0
889,-100,4,2,0,80,0,0
1078,-100,4,2,1,100,0,0
1457,-100,4,1,0,50,0,0
1646,-100,4,2,0,80,0,0
1835,-100,4,2,2,100,0,0
2024,-100,4,2,0,80,0,0
2214,-100,4,2,1,100,0,0
2781,-100,4,2,0,80,0,0
2971,-100,4,2,2,100,0,0
3539,-100,4,2,0,80,0,0
3728,-100,4,1,0,50,0,0
3917,-100,4,2,0,80,0,0
4106,-100,4,2,1,100,0,0
4296,-100,4,2,0,80,0,0
4485,-100,4,1,0,50,0,0
4674,-100,4,2,0,80,0,0
4863,-100,4,2,2,100,0,0
5053,-100,4,2,0,80,0,0
5242,-100,4,2,1,100,0,0
5810,-100,4,2,0,80,0,0
5999,-100,4,2,2,100,0,0
6567,-100,4,2,0,80,0,0
6756,-100,4,1,0,50,0,0
6945,-100,4,2,0,80,0,0
7135,-100,4,2,1,100,0,0
7324,-100,4,2,0,80,0,0
7513,-100,4,1,0,50,0,0
7703,-100,4,2,0,80,0,0
7892,-100,4,2,2,100,0,0
8081,-100,4,2,0,80,0,0
8270,-100,4,2,1,100,0,0
8838,-100,4,2,0,80,0,0
9027,-100,4,2,2,100,0,0
9595,-100,4,2,0,80,0,0
9785,-100,4,1,0,50,0,0
9974,-100,4,2,0,80,0,0
10163,-100,4,2,1,100,0,0
10352,-100,4,2,0,80,0,0
10542,-100,4,1,0,50,0,0
10731,-100,4,2,0,80,0,0
10920,-100,4,2,2,100,0,0
11110,-100,4,2,0,80,0,0
11299,-100,4,2,1,100,0,0
11867,-100,4,2,0,80,0,0
12056,-100,4,2,2,100,0,0
12434,-100,4,1,0,70,0,0
24548,-100,4,1,0,90,0,0
59374,-100,4,1,0,60,0,0
60132,-100,4,1,0,90,0,0
71488,-100,4,2,0,40,0,0
71677,-100,4,2,0,50,0,0
71772,-100,4,2,0,60,0,0
71867,-100,4,2,0,70,0,0
71961,-100,4,2,0,80,0,0
72056,-100,4,2,0,90,0,0
72340,-100,4,1,0,90,0,0
119942,-100,4,1,0,70,0,0
120699,-100,4,1,0,90,0,0
132056,-100,4,2,0,40,0,0
132245,-100,4,2,0,50,0,0
132340,-100,4,2,0,60,0,0
132434,-100,4,2,0,70,0,0
132529,-100,4,2,0,80,0,0
132624,-100,4,2,0,90,0,0
132908,-100,4,1,0,90,0,0

[Colours]
Combo1 : 232,232,0
Combo2 : 255,0,0
Combo3 : 207,207,207

[HitObjects]
352,296,795,5,0,0:0:0:0:
256,352,984,1,0,0:0:0:0:
256,240,1173,1,0,0:0:0:0:
160,296,1552,5,0,0:0:0:0:
256,352,1741,1,0,0:0:0:0:
256,240,1930,1,0,0:0:0:0:
416,160,2309,5,0,0:0:0:0:
256,144,2498,1,0,0:0:0:0:
96,160,2687,1,2,0:0:0:0:
96,160,2877,1,0,0:0:0:0:
96,160,3066,1,0,0:0:0:0:
256,144,3255,1,0,0:0:0:0:
416,160,3444,1,2,0:0:0:0:
416,160,3634,1,0,0:0:0:0:
352,88,3823,5,0,0:0:0:0:
256,32,4012,1,0,0:0:0:0:
256,144,4201,1,0,0:0:0:0:
160,88,4580,5,0,0:0:0:0:
256,32,4769,1,0,0:0:0:0:
256,144,4959,1,0,0:0:0:0:
416,224,5337,5,0,0:0:0:0:
256,240,5526,1,0,0:0:0:0:
96,224,5716,1,2,0:0:0:0:
96,224,5905,1,0,0:0:0:0:
96,224,6094,1,0,0:0:0:0:
256,240,6283,1,0,0:0:0:0:
416,224,6473,1,2,0:0:0:0:
416,224,6662,1,0,0:0:0:0:
352,296,6851,5,0,0:0:0:0:
256,352,7041,1,0,0:0:0:0:
256,240,7230,1,0,0:0:0:0:
160,296,7608,5,0,0:0:0:0:
256,352,7798,1,0,0:0:0:0:
256,240,7987,1,0,0:0:0:0:
416,160,8365,5,0,0:0:0:0:
256,144,8555,1,0,0:0:0:0:
96,160,8744,1,2,0:0:0:0:
96,160,8933,1,0,0:0:0:0:
96,160,9123,1,0,0:0:0:0:
256,144,9312,1,0,0:0:0:0:
416,160,9501,1,2,0:0:0:0:
416,160,9690,1,0,0:0:0:0:
352,88,9880,5,0,0:0:0:0:
256,32,10069,1,0,0:0:0:0:
256,144,10258,1,0,0:0:0:0:
160,88,10637,5,0,0:0:0:0:
256,32,10826,1,0,0:0:0:0:
256,144,11015,1,0,0:0:0:0:
416,224,11394,5,0,0:0:0:0:
256,248,11583,1,0,0:0:0:0:
96,224,11772,1,2,0:0:0:0:
96,224,11962,1,0,0:0:0:0:
96,224,12151,1,0,0:0:0:0:
256,248,12340,1,0,0:0:0:0:
416,224,12530,1,2,0:0:0:0:
416,224,12719,1,0,0:0:0:0:
256,128,12908,5,4,0:0:0:0:
48,48,18965,5,4,0:0:0:0:
128,152,19343,1,0,0:0:0:0:
208,48,19722,1,4,0:0:0:0:
304,152,20100,1,0,0:0:0:0:
384,48,20479,1,0,0:0:0:0:
464,152,20858,1,0,0:0:0:0:
464,232,21236,5,0,0:0:0:0:
384,336,21615,1,0,0:0:0:0:
304,232,21993,1,4,0:0:0:0:
208,336,22372,1,0,0:0:0:0:
128,232,22750,1,4,0:0:0:0:
48,336,23129,1,0,0:0:0:0:
48,216,23507,5,0,0:0:0:0:
80,144,23697,1,0,0:0:0:0:
152,120,23886,1,0,0:0:0:0:
216,168,24075,1,0,0:0:0:0:
296,216,24265,5,0,0:0:0:0:
360,264,24454,1,0,0:0:0:0:
432,240,24643,1,0,0:0:0:0:
464,168,24832,1,0,0:0:0:0:
384,112,25022,5,0,0:0:0:0:
360,112,25116,1,0,0:0:0:0:
336,112,25211,1,0,0:0:0:0:
312,112,25306,1,0,0:0:0:0:
288,112,25400,1,0,0:0:0:0:
264,112,25495,1,0,0:0:0:0:
240,112,25589,1,0,0:0:0:0:
128,272,25779,5,0,0:0:0:0:
152,272,25873,1,0,0:0:0:0:
176,272,25968,1,0,0:0:0:0:
200,272,26063,1,0,0:0:0:0:
224,272,26157,1,0,0:0:0:0:
248,272,26252,1,0,0:0:0:0:
272,272,26347,1,0,0:0:0:0:
312,200,26536,5,2,0:0:0:0:
328,216,26630,1,0,0:0:0:0:
344,232,26725,1,0,0:0:0:0:
360,248,26820,1,2,0:0:0:0:
448,224,27009,1,2,0:0:0:0:
448,224,27104,1,0,0:0:0:0:
200,184,27293,5,2,0:0:0:0:
184,168,27388,1,0,0:0:0:0:
168,152,27482,1,0,0:0:0:0:
152,136,27577,1,2,0:0:0:0:
64,160,27766,1,2,0:0:0:0:
64,160,27861,1,0,0:0:0:0:
192,320,28050,5,0,0:0:0:0:
192,296,28145,1,0,0:0:0:0:
192,272,28239,1,0,0:0:0:0:
192,248,28334,1,0,0:0:0:0:
192,224,28429,1,0,0:0:0:0:
192,200,28523,1,0,0:0:0:0:
192,176,28618,1,0,0:0:0:0:
320,64,28807,5,0,0:0:0:0:
320,88,28902,1,0,0:0:0:0:
320,112,28996,1,0,0:0:0:0:
320,136,29091,1,0,0:0:0:0:
320,160,29186,1,0,0:0:0:0:
320,184,29280,1,0,0:0:0:0:
320,208,29375,1,0,0:0:0:0:
280,344,29564,5,2,0:0:0:0:
280,344,29659,1,0,0:0:0:0:
232,272,29848,1,2,0:0:0:0:
232,272,29943,1,0,0:0:0:0:
312,224,30132,1,2,0:0:0:0:
232,40,30321,5,2,0:0:0:0:
232,40,30416,1,0,0:0:0:0:
280,112,30605,1,2,0:0:0:0:
280,112,30700,1,0,0:0:0:0:
200,160,30889,1,2,0:0:0:0:
128,272,31078,5,0,0:0:0:0:
152,272,31173,1,0,0:0:0:0:
176,272,31268,1,0,0:0:0:0:
200,272,31362,1,0,0:0:0:0:
224,272,31457,1,0,0:0:0:0:
248,272,31552,1,0,0:0:0:0:
272,272,31646,1,0,0:0:0:0:
384,112,31836,5,0,0:0:0:0:
360,112,31930,1,0,0:0:0:0:
336,112,32025,1,0,0:0:0:0:
312,112,32119,1,0,0:0:0:0:
288,112,32214,1,0,0:0:0:0:
264,112,32309,1,0,0:0:0:0:
240,112,32403,1,0,0:0:0:0:
200,184,32593,5,2,0:0:0:0:
184,168,32687,1,0,0:0:0:0:
168,152,32782,1,0,0:0:0:0:
152,136,32877,1,2,0:0:0:0:
64,160,33066,1,2,0:0:0:0:
64,160,33160,1,0,0:0:0:0:
312,200,33350,5,2,0:0:0:0:
328,216,33444,1,0,0:0:0:0:
344,232,33539,1,0,0:0:0:0:
360,248,33634,1,2,0:0:0:0:
448,224,33823,1,2,0:0:0:0:
448,224,33918,1,0,0:0:0:0:
320,64,34107,5,0,0:0:0:0:
320,88,34201,1,0,0:0:0:0:
320,112,34296,1,0,0:0:0:0:
320,136,34391,1,0,0:0:0:0:
320,160,34485,1,0,0:0:0:0:
320,184,34580,1,0,0:0:0:0:
320,208,34675,1,0,0:0:0:0:
192,320,34864,5,0,0:0:0:0:
192,296,34959,1,0,0:0:0:0:
192,272,35053,1,0,0:0:0:0:
192,248,35148,1,0,0:0:0:0:
192,224,35242,1,0,0:0:0:0:
192,200,35337,1,0,0:0:0:0:
192,176,35432,1,0,0:0:0:0:
192,80,35621,6,0,B|160:32|192:-16,2,96
320,80,36189,2,0,B|352:32|320:-16,2,96
256,152,36757,2,0,B|256:264,1,96
336,304,37135,6,0,B|416:232,1,96
400,144,37514,2,0,B|312:224,1,96
256,152,37892,1,0,0:0:0:0:
256,248,38082,2,0,B|256:352,2,96
176,304,38649,6,0,B|96:232,1,96
112,144,39028,2,0,B|200:224,1,96
256,152,39406,1,0,0:0:0:0:
256,56,39596,1,0,0:0:0:0:
256,56,39974,2,0,B|256:256,2,192
328,120,40921,6,0,B|416:64,1,96
184,120,41299,2,0,B|96:176,1,96
160,328,41678,5,4,0:0:0:0:
352,328,42056,1,4,0:0:0:0:
256,160,42435,1,4,0:0:0:0:
256,160,42624,1,0,0:0:0:0:
256,32,43003,1,0,0:0:0:0:
280,48,43097,1,0,0:0:0:0:
304,64,43192,6,0,B|416:136,1,96,0|0,0:0|0:0,0:0:0:0:
448,192,43571,2,0,B|328:192,1,96
256,192,43949,1,0,0:0:0:0:
256,280,44138,2,0,B|256:384,2,96
160,192,44706,6,0,B|64:192,1,96
127,115,45085,2,0,B|208:64,1,96
256,144,45463,1,0,0:0:0:0:
256,144,45653,1,0,0:0:0:0:
256,144,45842,1,0,0:0:0:0:
256,144,46031,2,0,B|256:352,2,192
184,264,46977,6,0,B|96:320,1,96
328,264,47356,2,0,B|416:208,1,96
352,56,47735,5,4,0:0:0:0:
160,56,48113,1,4,0:0:0:0:
256,224,48492,1,4,0:0:0:0:
256,224,48681,1,0,0:0:0:0:
424,232,49059,1,0,0:0:0:0:
440,256,49154,1,0,0:0:0:0:
456,280,49249,6,0,B|344:280,1,96,2|0,0:0|0:0,0:0:0:0:
208,352,49627,2,0,B|336:352,1,96,2|0,0:0|0:0,0:0:0:0:
152,280,50006,2,0,B|56:280,2,96,2|2|2,0:0|0:0|0:0,0:0:0:0:
320,192,50763,5,0,0:0:0:0:
368,272,50952,1,0,0:0:0:0:
304,344,51142,1,0,0:0:0:0:
208,344,51331,1,0,0:0:0:0:
144,272,51520,1,0,0:0:0:0:
192,192,51709,1,0,0:0:0:0:
456,104,52277,6,0,B|344:104,1,96,2|0,0:0|0:0,0:0:0:0:
208,32,52656,2,0,B|336:32,1,96,2|0,0:0|0:0,0:0:0:0:
152,104,53034,2,0,B|56:104,2,96,2|2|2,0:0|0:0|0:0,0:0:0:0:
320,192,53791,6,0,B|432:192,2,96,2|2|2,0:0|0:0|0:0,0:0:0:0:
224,192,54359,2,2,B|16:192,1,192,2|0,0:0|0:0,0:0:0:0:
72,280,54927,2,0,B|208:280,1,96,2|0,0:0|0:0,0:0:0:0:
296,264,55306,6,0,B|368:344,1,96,2|0,0:0|0:0,0:0:0:0:
216,144,55684,2,0,B|144:224,1,96,2|0,0:0|0:0,0:0:0:0:
296,32,56063,2,0,B|368:112,2,96,2|2|2,0:0|0:0|0:0,0:0:0:0:
216,328,56820,5,0,0:0:0:0:
296,272,57009,1,0,0:0:0:0:
216,216,57198,1,0,0:0:0:0:
296,168,57388,1,0,0:0:0:0:
216,112,57577,1,0,0:0:0:0:
296,56,57766,1,0,0:0:0:0:
112,192,58334,5,2,0:0:0:0:
400,192,58712,1,2,0:0:0:0:
184,264,59091,1,2,0:0:0:0:
256,328,59280,1,0,0:0:0:0:
328,264,59470,1,2,0:0:0:0:
112,48,59848,5,6,0:0:0:0:
400,144,60227,1,6,0:0:0:0:
112,240,60605,1,6,0:0:0:0:
400,336,60984,1,6,0:0:0:0:
8,184,61362,6,2,B|96:232,1,96,2|0,0:0|0:0,0:0:0:0:
128,160,61741,2,2,B|216:208,1,96,6|0,0:0|0:0,0:0:0:0:
168,272,62119,2,2,B|256:312|256:312|360:264,1,192,2|6,0:0|0:0,0:0:0:0:
299,205,62687,6,2,B|384:160,1,96,2|0,0:0|0:0,0:0:0:0:
419,229,63066,2,2,B|504:184,1,96,2|0,0:0|0:0,0:0:0:0:
400,72,63444,2,0,B|80:72,1,288
64,152,64201,5,0,0:0:0:0:
160,152,64391,2,0,B|392:152,1,192
448,152,64959,1,0,0:0:0:0:
480,240,65148,2,0,B|400:296|400:296|288:296,1,192
208,296,65716,2,0,B|112:296|112:296|32:240,2,192
256,216,66662,2,0,B|256:16,1,192,0|0,0:0|0:0,0:0:0:0:
440,112,67419,6,2,B|328:112,1,96,2|0,0:0|0:0,0:0:0:0:
304,192,67798,2,2,B|416:192,1,96,6|0,0:0|0:0,0:0:0:0:
344,272,68176,2,6,B|256:312|256:312|152:264,1,192
112,192,68744,6,2,B|208:192,1,96,2|0,0:0|0:0,0:0:0:0:
168,112,69123,2,2,B|72:112,1,96,2|0,0:0|0:0,0:0:0:0:
112,32,69501,2,0,B|432:32,1,288,0|0,0:0|0:0,0:0:0:0:
456,136,70258,6,0,L|456:240|400:312,1,192,2|2,0:0|0:0,0:0:0:0:
208,208,70826,2,2,B|320:208,1,96
110,309,71205,2,2,L|56:240|56:136,1,192,2|2,0:0|0:0,0:0:0:0:
56,136,71772,1,2,0:0:0:0:
128,24,71962,5,2,0:0:0:0:
144,40,72056,1,2,0:0:0:0:
160,56,72151,1,2,0:0:0:0:
176,72,72246,1,2,0:0:0:0:
192,88,72340,1,2,0:0:0:0:
208,104,72435,1,2,0:0:0:0:
224,120,72530,1,2,0:0:0:0:
240,136,72624,1,2,0:0:0:0:
256,152,72719,5,0,0:0:0:0:
272,136,72813,1,0,0:0:0:0:
288,120,72908,1,0,0:0:0:0:
304,104,73003,1,0,0:0:0:0:
320,88,73097,1,0,0:0:0:0:
336,72,73192,1,0,0:0:0:0:
352,56,73287,1,0,0:0:0:0:
368,40,73381,1,0,0:0:0:0:
384,24,73476,6,2,B|464:104,1,96,2|0,0:0|0:0,0:0:0:0:
384,160,73854,2,2,B|384:272,1,96,6|0,0:0|0:0,0:0:0:0:
344,344,74233,2,2,B|256:304|256:304|152:352,1,192,2|6,0:0|0:0,0:0:0:0:
128,256,74801,6,2,B|128:160,1,96,2|0,0:0|0:0,0:0:0:0:
60,91,75179,2,2,B|128:24,1,96,2|0,0:0|0:0,0:0:0:0:
168,96,75558,2,0,B|256:136|256:136|360:88,1,192
400,176,76126,5,0,0:0:0:0:
320,232,76315,1,0,0:0:0:0:
352,320,76504,2,0,B|256:336|256:336|160:320,1,192
192,232,77072,1,0,0:0:0:0:
112,176,77261,1,0,0:0:0:0:
304,72,77640,1,0,0:0:0:0:
304,72,77829,2,0,B|344:96|344:96|448:96|448:96|512:128,2,192
208,72,78776,2,0,B|168:96|168:96|64:96|64:96|0:128,1,192,0|0,0:0|0:0,0:0:0:0:
200,192,79533,6,2,B|88:192,1,96,2|0,0:0|0:0,0:0:0:0:
40,264,79911,2,2,B|168:264,1,96,6|0,0:0|0:0,0:0:0:0:
160,352,80290,2,2,B|368:352,1,192,2|6,0:0|0:0,0:0:0:0:
376,264,80858,6,2,B|472:264,1,96,2|0,0:0|0:0,0:0:0:0:
408,192,81236,2,2,B|312:192,1,96,2|0,0:0|0:0,0:0:0:0:
368,112,81615,2,0,B|256:16|256:16|128:128,1,288
16,280,82372,6,0,B|72:336|72:336|192:336,1,192,2|2,0:0|0:0,0:0:0:0:
304,216,82940,2,0,B|184:216,1,96,2|2,0:0|0:0,0:0:0:0:
328,336,83318,2,2,B|441:336|441:336|497:280,1,192,2|0,0:0|0:0,0:0:0:0:
496,104,83886,6,0,B|440:48|440:48|320:48,1,192,2|2,0:0|0:0,0:0:0:0:
208,168,84454,2,2,B|328:168,1,96
184,48,84832,2,2,B|70:48|70:48|14:104,1,192,2|4,0:0|0:0,0:0:0:0:
192,192,85589,5,0,0:0:0:0:
192,216,85684,1,0,0:0:0:0:
192,240,85779,1,0,0:0:0:0:
192,264,85873,1,0,0:0:0:0:
176,280,85968,1,0,0:0:0:0:
160,296,86063,1,0,0:0:0:0:
144,312,86157,1,0,0:0:0:0:
320,192,86347,5,0,0:0:0:0:
320,168,86441,1,0,0:0:0:0:
320,144,86536,1,0,0:0:0:0:
320,120,86630,1,0,0:0:0:0:
336,104,86725,1,0,0:0:0:0:
352,88,86820,1,0,0:0:0:0:
368,72,86914,1,0,0:0:0:0:
424,192,87104,5,2,0:0:0:0:
424,216,87198,1,0,0:0:0:0:
408,232,87293,1,0,0:0:0:0:
392,248,87388,1,2,0:0:0:0:
312,304,87577,1,2,0:0:0:0:
312,304,87671,1,0,0:0:0:0:
88,192,87861,5,2,0:0:0:0:
88,168,87955,1,0,0:0:0:0:
104,152,88050,1,0,0:0:0:0:
120,136,88145,1,2,0:0:0:0:
200,80,88334,1,2,0:0:0:0:
200,80,88429,1,0,0:0:0:0:
256,256,88618,5,0,0:0:0:0:
280,256,88712,1,0,0:0:0:0:
304,256,88807,1,0,0:0:0:0:
328,256,88902,1,0,0:0:0:0:
344,272,88996,1,0,0:0:0:0:
360,288,89091,1,0,0:0:0:0:
376,304,89186,1,0,0:0:0:0:
256,128,89375,5,0,0:0:0:0:
232,128,89470,1,0,0:0:0:0:
208,128,89564,1,0,0:0:0:0:
184,128,89659,1,0,0:0:0:0:
168,112,89753,1,0,0:0:0:0:
152,96,89848,1,0,0:0:0:0:
136,80,89943,1,0,0:0:0:0:
32,192,90132,5,2,0:0:0:0:
32,192,90227,1,0,0:0:0:0:
112,240,90416,1,2,0:0:0:0:
112,240,90511,1,0,0:0:0:0:
192,192,90700,1,2,0:0:0:0:
480,192,90889,5,2,0:0:0:0:
480,192,90984,1,0,0:0:0:0:
400,144,91173,1,2,0:0:0:0:
400,144,91268,1,0,0:0:0:0:
320,192,91457,1,2,0:0:0:0:
320,192,91646,5,0,0:0:0:0:
320,168,91741,1,0,0:0:0:0:
320,144,91836,1,0,0:0:0:0:
320,120,91930,1,0,0:0:0:0:
336,104,92025,1,0,0:0:0:0:
352,88,92119,1,0,0:0:0:0:
368,72,92214,1,0,0:0:0:0:
192,192,92403,5,0,0:0:0:0:
192,216,92498,1,0,0:0:0:0:
192,240,92593,1,0,0:0:0:0:
192,264,92687,1,0,0:0:0:0:
176,280,92782,1,0,0:0:0:0:
160,296,92877,1,0,0:0:0:0:
144,312,92971,1,0,0:0:0:0:
88,192,93160,5,2,0:0:0:0:
88,168,93255,1,0,0:0:0:0:
104,152,93350,1,0,0:0:0:0:
120,136,93444,1,2,0:0:0:0:
200,80,93634,1,2,0:0:0:0:
200,80,93728,1,0,0:0:0:0:
424,192,93918,5,2,0:0:0:0:
424,216,94012,1,0,0:0:0:0:
408,232,94107,1,0,0:0:0:0:
392,248,94201,1,2,0:0:0:0:
312,304,94391,1,2,0:0:0:0:
312,304,94485,1,0,0:0:0:0:
256,128,94675,5,0,0:0:0:0:
232,128,94769,1,0,0:0:0:0:
208,128,94864,1,0,0:0:0:0:
184,128,94959,1,0,0:0:0:0:
168,112,95053,1,0,0:0:0:0:
152,96,95148,1,0,0:0:0:0:
136,80,95242,1,0,0:0:0:0:
256,256,95432,5,0,0:0:0:0:
280,256,95526,1,0,0:0:0:0:
304,256,95621,1,0,0:0:0:0:
328,256,95716,1,0,0:0:0:0:
344,272,95810,1,0,0:0:0:0:
360,288,95905,1,0,0:0:0:0:
376,304,96000,1,0,0:0:0:0:
32,248,97703,6,0,L|32:352,1,96
128,336,98082,2,0,L|240:336,1,96
264,264,98460,1,0,0:0:0:0:
328,184,98649,1,0,0:0:0:0:
248,120,98839,1,0,0:0:0:0:
184,200,99028,1,0,0:0:0:0:
288,336,99217,6,0,L|384:336,1,96
480,344,99596,2,0,L|480:248,1,96
424,168,99974,1,0,0:0:0:0:
448,64,100164,2,0,B|344:80|296:184,1,192
64,320,100921,2,0,B|168:304|216:200,1,192
88,216,101489,5,0,0:0:0:0:
16,152,101678,1,0,0:0:0:0:
80,80,101867,1,0,0:0:0:0:
152,144,102056,1,0,0:0:0:0:
160,296,102246,6,4,L|376:296,1,192
304,88,103003,2,4,L|208:88,1,96,4|0,0:0|0:0,0:0:0:0:
472,160,103760,6,0,L|368:232,1,96
440,304,104138,2,0,L|336:320,1,96
272,264,104517,1,0,0:0:0:0:
184,200,104706,1,0,0:0:0:0:
248,120,104895,1,0,0:0:0:0:
328,184,105085,1,0,0:0:0:0:
166,318,105274,6,0,L|72:304,1,96
118,214,105653,2,0,L|40:160,1,96
120,104,106031,1,0,0:0:0:0:
72,16,106220,2,0,B|186:9|224:120,1,192
440,368,106977,2,0,B|326:375|288:264,1,192
392,280,107545,5,0,0:0:0:0:
464,216,107735,1,0,0:0:0:0:
400,144,107924,1,0,0:0:0:0:
328,208,108113,1,0,0:0:0:0:
160,88,108302,6,4,L|376:88,1,192
304,296,109059,2,4,L|208:296,1,96,4|0,0:0|0:0,0:0:0:0:
32,24,109817,6,0,B|72:72|24:120,1,96,2|0,0:0|0:0,0:0:0:0:
176,232,110195,2,0,B|136:184|184:136,1,96,2|0,0:0|0:0,0:0:0:0:
32,360,110574,2,0,B|72:312|24:264,2,96,2|2|2,0:0|0:0|0:0,0:0:0:0:
256,32,111331,5,0,0:0:0:0:
184,88,111520,1,0,0:0:0:0:
216,176,111709,1,0,0:0:0:0:
296,208,111899,1,0,0:0:0:0:
328,296,112088,1,0,0:0:0:0:
256,352,112277,1,0,0:0:0:0:
480,24,112845,6,0,B|440:72|488:120,1,96,2|0,0:0|0:0,0:0:0:0:
336,232,113224,2,0,B|376:184|328:136,1,96,2|0,0:0|0:0,0:0:0:0:
480,360,113602,2,0,B|440:312|488:264,2,96,2|2|2,0:0|0:0|0:0,0:0:0:0:
168,112,114359,6,0,B|160:56|224:24,2,96,2|2|2,0:0|0:0|0:0,0:0:0:0:
256,104,114927,2,2,B|296:160|208:224|264:304,1,192,2|0,0:0|0:0,0:0:0:0:
336,280,115495,2,0,B|344:336|280:368,1,96,2|0,0:0|0:0,0:0:0:0:
160,360,115873,6,0,B|112:320|168:264,1,96,2|0,0:0|0:0,0:0:0:0:
344,232,116252,2,0,B|392:192|336:136,1,96,2|0,0:0|0:0,0:0:0:0:
160,24,116630,2,0,B|112:64|168:120,2,96,2|2|2,0:0|0:0|0:0,0:0:0:0:
448,152,117388,5,0,0:0:0:0:
368,96,117577,1,0,0:0:0:0:
288,152,117766,1,0,0:0:0:0:
224,232,117955,1,0,0:0:0:0:
144,288,118145,1,0,0:0:0:0:
64,232,118334,1,0,0:0:0:0:
400,192,118902,5,2,0:0:0:0:
112,192,119280,1,2,0:0:0:0:
328,120,119659,1,2,0:0:0:0:
256,56,119848,1,0,0:0:0:0:
184,120,120037,1,2,0:0:0:0:
128,256,120416,6,0,L|224:240,1,96,6|0,0:0|0:0,0:0:0:0:
384,128,120794,2,0,L|288:144,1,96,6|0,0:0|0:0,0:0:0:0:
432,352,121173,6,0,L|336:336,1,96,6|0,0:0|0:0,0:0:0:0:
80,32,121552,2,0,L|176:48,1,96,6|0,0:0|0:0,0:0:0:0:
0,256,121930,6,2,B|88:200,1,96,2|0,0:0|0:0,0:0:0:0:
120,272,122309,2,2,B|200:336,1,96,6|0,0:0|0:0,0:0:0:0:
168,208,122687,2,2,B|208:176|256:160|304:168|352:216,1,192,2|6,0:0|0:0,0:0:0:0:
317,331,123255,6,2,B|392:272,1,96,2|0,0:0|0:0,0:0:0:0:
431,204,123634,2,2,B|512:256,1,96,2|0,0:0|0:0,0:0:0:0:
384,128,124012,2,0,B|328:72|248:48|184:72|112:144,1,288
80,208,124769,5,0,0:0:0:0:
160,256,124959,2,0,B|256:288|376:248,1,192
432,208,125526,1,0,0:0:0:0:
488,128,125716,2,0,B|408:72|296:72,1,192
208,72,126283,2,0,B|112:72|16:136,2,192
256,152,127230,2,0,B|256:352,1,192,0|0,0:0|0:0,0:0:0:0:
464,299,127987,6,2,B|504:251|456:187,1,96,2|0,0:0|0:0,0:0:0:0:
400,251,128365,2,2,B|368:195|416:139,1,96,6|0,0:0|0:0,0:0:0:0:
344,99,128744,2,2,B|256:27|164:105,1,192,2|6,0:0|0:0,0:0:0:0:
112,160,129312,6,2,B|144:195|112:251,1,96,2|0,0:0|0:0,0:0:0:0:
42,209,129690,2,2,B|8:250|48:298,1,96,2|0,0:0|0:0,0:0:0:0:
112,352,130069,2,0,B|416:352,1,288
456,216,130826,6,0,B|488:112|400:40,1,192,2|2,0:0|0:0,0:0:0:0:
208,128,131394,2,2,B|320:128,1,96
107,43,131772,2,2,B|24:112|56:216,1,192,2|2,0:0|0:0,0:0:0:0:
56,216,132340,1,2,0:0:0:0:
112,296,132530,5,2,0:0:0:0:
120,272,132624,1,2,0:0:0:0:
136,248,132719,1,2,0:0:0:0:
160,232,132813,1,2,0:0:0:0:
184,224,132908,1,2,0:0:0:0:
208,232,133003,1,2,0:0:0:0:
232,248,133097,1,2,0:0:0:0:
248,272,133192,1,2,0:0:0:0:
256,296,133287,5,0,0:0:0:0:
264,320,133381,1,0,0:0:0:0:
280,344,133476,1,0,0:0:0:0:
304,360,133571,1,0,0:0:0:0:
328,368,133665,1,0,0:0:0:0:
352,360,133760,1,0,0:0:0:0:
376,344,133854,1,0,0:0:0:0:
392,320,133949,1,0,0:0:0:0:
408,296,134044,6,2,B|448:248|424:200,1,96,2|0,0:0|0:0,0:0:0:0:
512,184,134422,2,2,B|496:128|432:120,1,96,6|0,0:0|0:0,0:0:0:0:
344,72,134801,2,2,B|256:0|164:78,1,192,2|6,0:0|0:0,0:0:0:0:
66,122,135369,6,2,B|16:128|0:184,1,96,2|0,0:0|0:0,0:0:0:0:
84,207,135747,2,2,B|64:248|96:304,1,96,2|0,0:0|0:0,0:0:0:0:
168,248,136126,2,0,B|256:320|348:242,1,192
424,192,136694,5,0,0:0:0:0:
424,192,136883,1,0,0:0:0:0:
342,137,137072,2,0,B|256:64|168:136,1,192
88,192,137640,1,0,0:0:0:0:
88,192,137829,1,0,0:0:0:0:
296,232,138208,1,0,0:0:0:0:
296,232,138397,2,0,B|312:304|384:336|472:288,2,192
216,152,139343,2,0,B|200:80|128:48|40:96,1,192
96,224,140100,6,2,B|48:184|0:224,1,96,2|0,0:0|0:0,0:0:0:0:
48,280,140479,2,2,B|88:320|144:288,1,96,6|0,0:0|0:0,0:0:0:0:
176,224,140858,2,2,B|208:176|256:152|304:176|344:240,1,192,2|6,0:0|0:0,0:0:0:0:
375,292,141425,6,2,B|424:320|472:280,1,96,2|0,0:0|0:0,0:0:0:0:
503,217,141804,2,2,B|456:192|408:232,1,96,2|0,0:0|0:0,0:0:0:0:
384,128,142183,2,0,B|328:72|248:48|184:72|112:144,1,288
336,224,142940,6,0,B|368:336|488:320,1,192,2|2,0:0|0:0,0:0:0:0:
210,373,143507,2,0,B|255:351|303:375,1,96,2|2,0:0|0:0,0:0:0:0:
32,320,143886,2,2,B|147:333|179:212,1,192,2|0,0:0|0:0,0:0:0:0:
336,160,144454,6,0,B|368:48|488:64,1,192,2|2,0:0|0:0,0:0:0:0:
210,11,145022,2,0,B|255:33|303:9,1,96,2|2,0:0|0:0,0:0:0:0:
32,64,145400,2,2,B|147:51|179:172,1,192,2|4,0:0|0:0,0:0:0:0:
344,304,146157,5,0,0:0:0:0:
320,296,146252,1,0,0:0:0:0:
304,280,146347,1,0,0:0:0:0:
296,256,146441,1,0,0:0:0:0:
304,232,146536,1,0,0:0:0:0:
320,216,146630,1,0,0:0:0:0:
344,208,146725,1,0,0:0:0:0:
168,80,146914,5,0,0:0:0:0:
192,88,147009,1,0,0:0:0:0:
208,104,147104,1,0,0:0:0:0:
216,128,147198,1,0,0:0:0:0:
208,152,147293,1,0,0:0:0:0:
192,168,147387,1,0,0:0:0:0:
168,176,147482,1,0,0:0:0:0:
80,136,147671,5,2,0:0:0:0:
64,152,147766,1,0,0:0:0:0:
56,176,147861,1,0,0:0:0:0:
64,200,147955,1,2,0:0:0:0:
136,264,148145,1,2,0:0:0:0:
136,264,148239,1,0,0:0:0:0:
432,248,148429,5,2,0:0:0:0:
448,232,148524,1,0,0:0:0:0:
456,208,148619,1,0,0:0:0:0:
448,184,148713,1,2,0:0:0:0:
376,120,148903,1,2,0:0:0:0:
376,120,148997,1,0,0:0:0:0:
144,280,149186,5,0,0:0:0:0:
152,256,149281,1,0,0:0:0:0:
168,240,149376,1,0,0:0:0:0:
192,232,149470,1,0,0:0:0:0:
216,240,149565,1,0,0:0:0:0:
232,256,149659,1,0,0:0:0:0:
240,280,149754,1,0,0:0:0:0:
368,104,149943,5,0,0:0:0:0:
360,128,150038,1,0,0:0:0:0:
344,144,150133,1,0,0:0:0:0:
320,152,150227,1,0,0:0:0:0:
296,144,150322,1,0,0:0:0:0:
280,128,150416,1,0,0:0:0:0:
272,104,150511,1,0,0:0:0:0:
184,40,150700,5,2,0:0:0:0:
184,40,150794,1,0,0:0:0:0:
104,96,150984,1,2,0:0:0:0:
104,96,151078,1,0,0:0:0:0:
72,184,151268,1,2,0:0:0:0:
328,344,151457,5,2,0:0:0:0:
328,344,151552,1,0,0:0:0:0:
408,288,151741,1,2,0:0:0:0:
408,288,151836,1,0,0:0:0:0:
440,200,152025,1,2,0:0:0:0:
168,304,152214,5,0,0:0:0:0:
192,296,152309,1,0,0:0:0:0:
208,280,152404,1,0,0:0:0:0:
216,256,152498,1,0,0:0:0:0:
208,232,152593,1,0,0:0:0:0:
192,216,152687,1,0,0:0:0:0:
168,208,152782,1,0,0:0:0:0:
344,80,152971,5,0,0:0:0:0:
320,88,153066,1,0,0:0:0:0:
304,104,153161,1,0,0:0:0:0:
296,128,153255,1,0,0:0:0:0:
304,152,153350,1,0,0:0:0:0:
320,168,153444,1,0,0:0:0:0:
344,176,153539,1,0,0:0:0:0:
432,136,153728,5,2,0:0:0:0:
448,152,153823,1,0,0:0:0:0:
456,176,153918,1,0,0:0:0:0:
448,200,154012,1,2,0:0:0:0:
376,264,154202,1,2,0:0:0:0:
376,264,154296,1,0,0:0:0:0:
80,248,154486,5,2,0:0:0:0:
64,232,154581,1,0,0:0:0:0:
56,208,154676,1,0,0:0:0:0:
64,184,154770,1,2,0:0:0:0:
136,120,154960,1,2,0:0:0:0:
136,120,155054,1,0,0:0:0:0:
368,280,155243,5,0,0:0:0:0:
360,256,155338,1,0,0:0:0:0:
344,240,155433,1,0,0:0:0:0:
320,232,155527,1,0,0:0:0:0:
296,240,155622,1,0,0:0:0:0:
280,256,155716,1,0,0:0:0:0:
272,280,155811,1,0,0:0:0:0:
144,104,156000,5,0,0:0:0:0:
152,128,156095,1,0,0:0:0:0:
168,144,156190,1,0,0:0:0:0:
192,152,156284,1,0,0:0:0:0:
216,144,156379,1,0,0:0:0:0:
232,128,156473,1,0,0:0:0:0:
240,104,156568,1,0,0:0:0:0:
328,192,156757,5,0,0:0:0:0:
256,264,156946,1,0,0:0:0:0:
184,192,157135,1,0,0:0:0:0:
256,120,157324,1,0,0:0:0:0:
256,48,157514,5,0,0:0:0:0:
