osu file format v14

[General]
AudioFilename: audio.mp3
AudioLeadIn: 1250
PreviewTime: 24580
Countdown: 0
SampleSet: Soft
StackLeniency: 0.4
Mode: 0
LetterboxInBreaks: 1
WidescreenStoryboard: 0

[Editor]
DistanceSpacing: 0.8
BeatDivisor: 4
GridSize: 8
TimelineZoom: 1

[Metadata]
Title:Gonshik ne legalniy
TitleUnicode:Гонщик не легальный
Artist:MC Dimanche
ArtistUnicode:MC Dimanche
Creator:BadTrip13
Version:Fast Rider
Source:
Tags:Rider
BeatmapID:1520205
BeatmapSetID:720004

[Difficulty]
HPDrainRate:5
CircleSize:4
OverallDifficulty:6
ApproachRate:7
SliderMultiplier:1.6
SliderTickRate:1

[Events]
//Background and Video events
0,0,"1024-by-768-166598-20061114044616.jpg",0,0
//Break Periods
2,13107,18064
//Storyboard Layer 0 (Background)
//Storyboard Layer 1 (Fail)
//Storyboard Layer 2 (Pass)
//Storyboard Layer 3 (Foreground)
//Storyboard Sound Samples

[TimingPoints]
416,378.548895899054,4,2,2,70,1,0
699,-100,4,2,0,60,0,0
983,-100,4,2,1,75,0,0
1457,-100,4,2,0,60,0,0
1740,-100,4,2,2,75,0,0
2024,-100,4,2,0,61,0,0
2308,-71.4285714285714,4,2,0,61,0,0
2498,-71.4285714285714,4,2,1,75,0,0
2687,-100,4,2,1,74,0,0
2876,-100,4,2,0,60,0,0
3065,-71.4285714285714,4,2,0,61,0,0
3255,-71.4285714285714,4,2,2,75,0,0
3444,-100,4,2,2,75,0,0
3728,-100,4,2,0,60,0,0
4012,-100,4,2,1,75,0,0
4485,-100,4,2,0,60,0,0
4769,-100,4,2,2,75,0,0
5147,-100,4,2,0,60,0,0
5337,-71.4285714285714,4,2,0,60,0,0
5526,-71.4285714285714,4,2,1,75,0,0
5715,-100,4,2,1,74,0,0
5904,-100,4,2,0,61,0,0
6094,-71.4285714285714,4,2,0,61,0,0
6283,-71.4285714285714,4,2,2,75,0,0
6472,-100,4,2,2,75,0,0
6756,-100,4,2,0,60,0,0
7040,-100,4,2,1,75,0,0
7513,-100,4,2,0,61,0,0
7797,-100,4,2,2,75,0,0
8176,-100,4,2,0,60,0,0
8365,-71.4285714285714,4,2,0,60,0,0
8554,-71.4285714285714,4,2,1,75,0,0
8744,-100,4,2,1,74,0,0
8933,-100,4,2,0,61,0,0
9122,-71.4285714285714,4,2,0,61,0,0
9311,-71.4285714285714,4,2,2,74,0,0
9501,-100,4,2,2,75,0,0
9785,-100,4,2,0,59,0,0
10068,-100,4,2,1,75,0,0
10542,-100,4,2,0,59,0,0
10826,-100,4,2,2,75,0,0
11204,-100,4,2,0,60,0,0
11393,-71.4285714285714,4,2,0,70,0,0
11583,-71.4285714285714,4,2,1,74,0,0
11772,-100,4,2,1,74,0,0
11961,-100,4,2,0,60,0,0
12151,-71.4285714285714,4,2,0,70,0,0
12340,-71.4285714285714,4,2,2,75,0,0
12529,-100,4,1,0,60,0,0
18207,-100,4,1,0,50,0,0
22939,-100,4,2,1,81,0,0
23318,-100,4,2,0,60,0,0
23507,-71.4285714285714,4,2,0,60,0,0
23696,-71.4285714285714,4,2,2,70,0,0
23886,-100,4,2,2,80,0,0
24075,-100,4,2,0,60,0,0
24264,-71.4285714285714,4,2,0,60,0,0
24453,-71.4285714285714,4,2,1,70,0,0
24643,-83.3333333333333,4,1,0,69,0,0
35147,-83.3333333333333,4,1,0,60,0,0
35337,-83.3333333333333,4,1,0,54,0,0
35526,-83.3333333333333,4,1,0,49,0,0
35715,-83.3333333333333,4,1,0,45,0,0
35904,-83.3333333333333,4,1,0,40,0,0
36094,-83.3333333333333,4,1,0,34,0,0
36283,-83.3333333333333,4,1,0,31,0,0
36472,-83.3333333333333,4,1,0,26,0,0
36756,-100,4,1,1,60,0,0
41204,-100,4,2,0,80,0,0
42434,-100,4,1,1,60,0,0
47261,-100,4,2,1,80,0,0
48491,-100,4,1,1,60,0,0
48775,-100,4,1,1,75,0,0
59280,-100,4,2,0,75,0,0
60794,-100,4,1,0,61,0,0
85210,-83.3333333333333,4,1,0,71,0,0
97324,-100,4,1,1,61,0,0
101772,-100,4,2,0,80,0,0
103002,-100,4,1,1,61,0,0
107829,-100,4,2,0,79,0,0
109059,-100,4,1,1,61,0,0
109343,-100,4,1,1,70,0,0
119942,-100,4,2,0,70,0,0
121362,-100,4,1,0,61,0,0
145778,-83.3333333333333,4,1,0,71,0,0
157892,-83.3333333333333,4,2,0,71,0,0

[Colours]
Combo1 : 232,232,0
Combo2 : 255,0,0
Combo3 : 207,207,207

[HitObjects]
432,312,794,6,0,B|400:240,1,80,0|0,0:0|0:0,0:0:0:0:
399,238,1172,1,2,0:0:0:0:
80,72,1551,2,0,B|112:144,1,80,0|0,0:0|0:0,0:0:0:0:
112,145,1929,1,2,0:0:0:0:
384,136,2308,6,0,B|312:104,1,80
310,103,2686,2,0,B|199:151,1,111.999997329712,2|0,0:0|0:0,0:0:0:0:
128,248,3065,2,0,B|200:280,1,80
202,281,3443,2,0,B|312:232,1,111.999997329712,2|0,0:0|0:0,0:0:0:0:
408,238,3822,6,0,B|376:312,1,80
376,312,4200,1,2,0:0:0:0:
103,145,4579,2,0,B|136:72,1,80
136,72,4958,1,2,0:0:0:0:
399,20,5336,6,0,B|319:60,1,80
328,56,5715,2,0,B|279:164,1,111.999997329712,2|0,0:0|0:0,0:0:0:0:
113,364,6093,2,0,B|193:324,1,80
184,328,6472,2,0,B|232:219,1,111.999997329712,2|0,0:0|0:0,0:0:0:0:
368,328,6850,6,0,B|288:304,1,80
291,305,7229,1,2,0:0:0:0:
144,56,7607,2,0,B|224:80,1,80
220,78,7986,1,2,0:0:0:0:
456,152,8364,6,0,B|368:136,1,80
377,137,8743,2,0,B|256:160,1,111.999997329712,2|0,0:0|0:0,0:0:0:0:
56,232,9122,2,0,B|144:248,1,80
134,246,9500,2,0,B|256:224,1,111.999997329712,2|0,0:0|0:0,0:0:0:0:
328,272,9879,6,0,B|296:352,1,80
298,346,10257,1,2,0:0:0:0:
184,112,10636,2,0,B|216:32,1,80
214,38,11014,1,2,0:0:0:0:
432,136,11393,6,0,B|368:72,1,80
375,79,11771,2,0,B|280:152,1,111.999997329712,2|0,0:0|0:0,0:0:0:0:
80,248,12150,2,0,B|144:312,1,80
136,304,12529,2,0,B|232:232,1,111.999997329712,2|0,0:0|0:0,0:0:0:0:
256,192,12907,5,0,0:0:0:0:
48,48,18964,6,0,B|216:48,3,160
400,192,20478,2,0,B|232:192,3,160
48,336,21992,2,0,B|216:336,3,160
40,48,23506,6,0,B|96:120,1,80
224,128,23885,2,0,B|336:152,1,111.999997329712,2|0,0:0|0:0,0:0:0:0:
472,336,24264,2,0,B|416:264,1,80
288,256,24642,2,0,B|176:232,1,111.999997329712,2|0,0:0|0:0,0:0:0:0:
88,120,25021,6,0,B|32:264,2,144.000003433228,2|0|2,0:0|0:0|0:0,0:0:0:0:
152,168,25778,2,0,B|208:24,2,144.000003433228,2|0|2,0:0|0:0|0:0,0:0:0:0:
224,208,26535,1,2,0:0:0:0:
280,264,26724,2,0,B|320:232,1,48.0000011444092,0|2,0:0|0:0,0:0:0:0:
328,328,27008,2,0,B|392:328,1,48.0000011444092,0|2,0:0|0:0,0:0:0:0:
480,280,27292,1,2,0:0:0:0:
424,224,27481,2,0,B|384:256,1,48.0000011444092,0|2,0:0|0:0,0:0:0:0:
376,160,27765,2,0,B|312:160,1,48.0000011444092,0|2,0:0|0:0,0:0:0:0:
272,72,28049,6,0,B|416:24,2,144.000003433228,2|0|2,0:0|0:0|0:0,0:0:0:0:
224,136,28806,2,0,B|80:184,2,144.000003433228,2|0|2,0:0|0:0|0:0,0:0:0:0:
264,200,29563,2,0,B|308:229,1,48.0000011444092,2|0,0:0|0:0,0:0:0:0:
388,128,29847,2,0,B|391:181,1,48.0000011444092,2|0,0:0|0:0,0:0:0:0:
378,254,30131,1,2,0:0:0:0:
368,380,30320,2,0,B|364:326,1,48.0000011444092,2|0,0:0|0:0,0:0:0:0:
493,308,30604,2,0,B|448:278,1,48.0000011444092,2|0,0:0|0:0,0:0:0:0:
378,254,30888,1,2,0:0:0:0:
240,288,31077,6,0,B|152:288|120:376,2,144.000003433228,2|0|2,0:0|0:0|0:0,0:0:0:0:
272,216,31835,2,0,B|360:216|392:128,2,144.000003433228,2|0|2,0:0|0:0|0:0,0:0:0:0:
192,216,32592,1,2,0:0:0:0:
224,144,32781,2,0,B|192:96,1,48.0000011444092,0|2,0:0|0:0,0:0:0:0:
280,80,33065,2,0,B|280:32,1,48.0000011444092,0|2,0:0|0:0,0:0:0:0:
344,128,33349,1,2,0:0:0:0:
312,200,33538,2,0,B|344:248,1,48.0000011444092,0|2,0:0|0:0,0:0:0:0:
256,264,33822,2,0,B|256:312,1,48.0000011444092,0|2,0:0|0:0,0:0:0:0:
336,344,34106,6,0,B|488:344,2,144.000003433228,2|0|2,0:0|0:0|0:0,0:0:0:0:
176,344,34863,2,0,B|24:344,2,144.000003433228,2|0|2,0:0|0:0|0:0,0:0:0:0:
240,272,35620,5,2,0:0:0:0:
240,272,35809,1,2,0:0:0:0:
272,184,35999,1,2,0:0:0:0:
272,184,36188,1,2,0:0:0:0:
240,96,36377,1,2,0:0:0:0:
240,96,36566,1,2,0:0:0:0:
272,8,36756,1,2,0:0:0:0:
272,8,36945,1,2,0:0:0:0:
344,40,37134,5,0,0:0:0:0:
416,72,37323,2,0,B|432:144|504:208,1,160,2|2,0:0|0:0,0:0:0:0:
440,264,37891,1,0,0:0:0:0:
360,288,38081,2,0,B|264:296|216:376,2,160,2|2|2,0:0|0:0|0:0,0:0:0:0:
376,208,39027,2,0,B|328:144,2,80,0|2|0,0:0|0:0|0:0,0:0:0:0:
440,264,39595,1,2,0:0:0:0:
128,344,39973,1,2,0:0:0:0:
24,96,40352,1,2,0:0:0:0:
336,16,40730,1,2,0:0:0:0:
368,88,40920,2,0,B|400:160,1,80,0|2,0:0|0:0,0:0:0:0:
320,184,41298,2,0,B|288:112,1,80,0|2,0:0|0:0,0:0:0:0:
176,32,41677,5,4,0:0:0:0:
176,352,42055,1,4,0:0:0:0:
448,184,42434,1,4,0:0:0:0:
448,184,42623,1,4,0:0:0:0:
32,192,43002,1,2,0:0:0:0:
112,96,43191,5,0,0:0:0:0:
192,112,43380,2,0,B|280:112|352:192,1,160,2|2,0:0|0:0,0:0:0:0:
392,232,43948,1,0,0:0:0:0:
312,248,44137,2,0,B|216:264|192:352,2,160,2|2|2,0:0|0:0|0:0,0:0:0:0:
360,312,45084,2,0,B|408:320|424:360,2,80,0|2|0,0:0|0:0|0:0,0:0:0:0:
312,248,45652,1,2,0:0:0:0:
192,40,46030,1,2,0:0:0:0:
312,248,46409,1,2,0:0:0:0:
192,40,46787,1,2,0:0:0:0:
264,80,46976,2,0,B|352:80,1,80,0|2,0:0|0:0,0:0:0:0:
480,128,47355,2,0,B|392:128,1,80,0|2,0:0|0:0,0:0:0:0:
384,232,47734,5,4,0:0:0:0:
128,232,48112,1,4,0:0:0:0:
256,24,48491,1,4,0:0:0:0:
256,24,48680,1,4,0:0:0:0:
256,352,49058,1,0,0:0:0:0:
352,312,49248,5,0,0:0:0:0:
464,160,49626,1,0,0:0:0:0:
352,312,50005,1,0,0:0:0:0:
280,248,50194,1,0,0:0:0:0:
184,240,50383,1,0,0:0:0:0:
104,288,50573,1,0,0:0:0:0:
104,288,50667,1,0,0:0:0:0:
104,288,50762,2,0,B|72:216,1,80,0|2,0:0|0:0,0:0:0:0:
64,64,51141,2,0,B|96:136,1,80,0|2,0:0|0:0,0:0:0:0:
184,272,51519,2,0,B|152:200,1,80,0|2,0:0|0:0,0:0:0:0:
144,48,51898,2,0,B|176:120,1,80,0|2,0:0|0:0,0:0:0:0:
176,121,52276,5,0,0:0:0:0:
472,120,52655,1,0,0:0:0:0:
176,121,53033,1,0,0:0:0:0:
328,152,53223,1,0,0:0:0:0:
472,120,53412,1,0,0:0:0:0:
256,344,53790,5,0,0:0:0:0:
48,192,54169,1,0,0:0:0:0:
256,40,54547,1,0,0:0:0:0:
464,192,54926,1,0,0:0:0:0:
48,192,55305,5,0,0:0:0:0:
144,352,55683,1,0,0:0:0:0:
48,192,56062,1,0,0:0:0:0:
96,272,56251,1,0,0:0:0:0:
144,352,56440,1,0,0:0:0:0:
200,272,56629,1,0,0:0:0:0:
200,272,56724,1,0,0:0:0:0:
200,272,56819,2,0,B|280:272,1,80,0|2,0:0|0:0,0:0:0:0:
424,224,57197,2,0,B|344:224,1,80,0|2,0:0|0:0,0:0:0:0:
200,168,57576,2,0,B|280:168,1,80,0|2,0:0|0:0,0:0:0:0:
424,120,57954,2,0,B|344:120,1,80,0|2,0:0|0:0,0:0:0:0:
344,120,58333,5,0,0:0:0:0:
144,48,58711,1,0,0:0:0:0:
344,120,59090,1,0,0:0:0:0:
280,192,59279,1,0,0:0:0:0:
256,288,59469,1,0,0:0:0:0:
80,152,59847,5,4,0:0:0:0:
336,40,60226,1,4,0:0:0:0:
448,264,60604,1,4,0:0:0:0:
192,376,60983,1,4,0:0:0:0:
456,136,61361,5,2,0:0:0:0:
456,136,61740,1,2,0:0:0:0:
456,136,62118,2,0,B|368:168|312:96,1,160,2|2,0:0|0:0,0:0:0:0:
256,152,62686,2,0,B|168:120|112:192,1,160,2|2,0:0|0:0,0:0:0:0:
40,224,63254,1,0,0:0:0:0:
40,144,63443,2,2,B|124:104|113:13,1,160
192,24,64011,5,0,0:0:0:0:
264,56,64200,1,2,0:0:0:0:
328,104,64390,2,0,B|488:80,1,160,2|0,0:0|0:0,0:0:0:0:
472,160,64958,1,2,0:0:0:0:
448,232,65147,2,0,B|352:248|328:336,1,160,2|0,0:0|0:0,0:0:0:0:
256,360,65715,1,2,0:0:0:0:
184,328,65904,1,2,0:0:0:0:
136,264,66093,1,2,0:0:0:0:
96,248,66188,1,0,0:0:0:0:
56,232,66282,1,0,0:0:0:0:
104,168,66472,1,2,0:0:0:0:
144,152,66566,1,0,0:0:0:0:
184,136,66661,2,2,B|264:104|296:16,1,160
288,320,67418,5,2,0:0:0:0:
288,320,67797,1,2,0:0:0:0:
288,320,68175,2,0,B|376:296|440:352,1,160,2|2,0:0|0:0,0:0:0:0:
480,280,68743,2,0,B|391:256|364:176,1,160,2|2,0:0|0:0,0:0:0:0:
288,208,69311,1,0,0:0:0:0:
208,232,69500,2,2,B|181:310|93:333,1,160
16,360,70068,1,0,0:0:0:0:
40,256,70257,6,0,B|96:104,1,160,2|2,0:0|0:0,0:0:0:0:
176,88,70825,1,2,0:0:0:0:
256,112,71014,1,0,0:0:0:0:
336,88,71204,2,0,B|432:80|472:160,1,160,2|2,0:0|0:0,0:0:0:0:
416,208,71771,2,0,B|328:216|296:312,1,160,2|2,0:0|0:0,0:0:0:0:
248,368,72339,1,2,0:0:0:0:
224,288,72529,1,2,0:0:0:0:
192,216,72718,5,0,0:0:0:0:
200,200,72812,1,0,0:0:0:0:
208,184,72907,1,0,0:0:0:0:
216,168,73002,1,0,0:0:0:0:
224,152,73096,1,0,0:0:0:0:
232,136,73191,1,0,0:0:0:0:
240,120,73286,1,0,0:0:0:0:
248,104,73380,1,0,0:0:0:0:
256,88,73475,5,2,0:0:0:0:
408,40,73853,1,2,0:0:0:0:
456,192,74232,1,2,0:0:0:0:
304,240,74611,1,2,0:0:0:0:
232,280,74800,2,0,B|144:288|88:368,1,160,2|2,0:0|0:0,0:0:0:0:
16,344,75368,1,0,0:0:0:0:
64,280,75557,2,2,B|136:216|160:144,1,160
248,40,76125,5,0,0:0:0:0:
320,80,76314,1,2,0:0:0:0:
392,120,76503,2,0,B|288:240,1,160,2|0,0:0|0:0,0:0:0:0:
312,320,77071,1,2,0:0:0:0:
392,304,77260,2,0,B|496:184,1,160,2|0,0:0|0:0,0:0:0:0:
504,104,77828,1,2,0:0:0:0:
504,24,78017,1,2,0:0:0:0:
432,56,78207,1,2,0:0:0:0:
392,72,78301,1,0,0:0:0:0:
368,104,78396,1,0,0:0:0:0:
320,168,78585,1,2,0:0:0:0:
288,144,78680,1,0,0:0:0:0:
256,120,78775,2,2,B|184:64|88:112,1,160
256,344,79532,5,2,0:0:0:0:
72,288,79910,1,2,0:0:0:0:
256,224,80289,1,2,0:0:0:0:
72,160,80667,1,2,0:0:0:0:
152,136,80857,2,0,B|184:48|272:32,1,160,2|2,0:0|0:0,0:0:0:0:
304,104,81424,1,0,0:0:0:0:
344,176,81614,2,2,B|400:256|480:240,1,160
488,320,82182,1,0,0:0:0:0:
384,320,82371,6,2,B|224:360,1,160
160,320,82939,1,2,0:0:0:0:
216,264,83128,1,0,0:0:0:0:
160,208,83317,1,2,0:0:0:0:
216,152,83506,1,0,0:0:0:0:
216,152,83601,1,0,0:0:0:0:
216,152,83696,1,2,0:0:0:0:
128,64,83885,6,2,B|288:24,1,160
352,64,84453,1,2,0:0:0:0:
296,120,84642,1,0,0:0:0:0:
352,176,84831,1,2,0:0:0:0:
296,232,85021,1,0,0:0:0:0:
296,232,85115,1,0,0:0:0:0:
296,232,85210,1,2,0:0:0:0:
200,296,85588,5,2,0:0:0:0:
32,352,85872,1,0,0:0:0:0:
200,296,86156,1,2,0:0:0:0:
264,224,86346,1,2,0:0:0:0:
432,280,86629,1,0,0:0:0:0:
264,224,86913,1,2,0:0:0:0:
200,152,87103,1,2,0:0:0:0:
112,120,87292,2,0,B|96:176,1,48.0000011444092,0|2,0:0|0:0,0:0:0:0:
24,88,87576,2,0,B|40:32,1,48.0000011444092,0|2,0:0|0:0,0:0:0:0:
136,32,87860,1,2,0:0:0:0:
224,64,88049,2,0,B|240:8,1,48.0000011444092,0|2,0:0|0:0,0:0:0:0:
312,96,88333,2,0,B|296:152,1,48.0000011444092,0|2,0:0|0:0,0:0:0:0:
264,224,88617,5,2,0:0:0:0:
432,280,88901,1,0,0:0:0:0:
264,224,89185,1,2,0:0:0:0:
200,296,89374,1,2,0:0:0:0:
32,352,89658,1,0,0:0:0:0:
200,296,89942,1,2,0:0:0:0:
186,202,90131,2,0,B|236:185,1,48.0000011444092,2|0,0:0|0:0,0:0:0:0:
288,304,90415,2,0,B|304:253,1,48.0000011444092,2|0,0:0|0:0,0:0:0:0:
311,180,90699,1,2,0:0:0:0:
334,56,90888,2,0,B|316:107,1,48.0000011444092,2|0,0:0|0:0,0:0:0:0:
436,157,91172,2,0,B|384:174,1,48.0000011444092,2|0,0:0|0:0,0:0:0:0:
311,180,91456,1,2,0:0:0:0:
224,112,91645,5,2,0:0:0:0:
40,144,91929,1,0,0:0:0:0:
160,288,92213,1,2,0:0:0:0:
248,352,92402,1,2,0:0:0:0:
432,320,92686,1,0,0:0:0:0:
312,176,92970,1,2,0:0:0:0:
400,144,93159,1,2,0:0:0:0:
320,88,93349,1,0,0:0:0:0:
320,88,93443,1,2,0:0:0:0:
232,56,93633,1,0,0:0:0:0:
232,56,93727,1,2,0:0:0:0:
176,136,93917,1,2,0:0:0:0:
96,192,94106,1,0,0:0:0:0:
96,192,94200,1,2,0:0:0:0:
8,224,94390,1,0,0:0:0:0:
8,224,94484,1,2,0:0:0:0:
80,336,94674,5,0,0:0:0:0:
352,192,94958,1,0,0:0:0:0:
80,48,95241,1,0,0:0:0:0:
8,128,95431,1,0,0:0:0:0:
352,192,95715,1,0,0:0:0:0:
8,256,95999,1,0,0:0:0:0:
80,96,97702,5,0,0:0:0:0:
80,96,97891,2,0,B|168:104|168:104|224:152,1,160,2|2,0:0|0:0,0:0:0:0:
408,176,98459,1,0,0:0:0:0:
408,176,98648,2,0,B|320:184|320:184|264:232,2,160,2|2|2,0:0|0:0|0:0,0:0:0:0:
360,96,99595,1,0,0:0:0:0:
272,48,99784,1,2,0:0:0:0:
176,40,99973,1,0,0:0:0:0:
80,64,100163,1,2,0:0:0:0:
136,296,100541,1,2,0:0:0:0:
376,296,100920,1,2,0:0:0:0:
432,64,101298,1,2,0:0:0:0:
336,136,101488,2,0,B|296:216,1,80,0|2,0:0|0:0,0:0:0:0:
176,136,101866,2,0,B|216:216,1,80,0|2,0:0|0:0,0:0:0:0:
256,352,102245,5,4,0:0:0:0:
256,32,102623,1,4,0:0:0:0:
168,312,103002,1,4,0:0:0:0:
344,312,103191,1,4,0:0:0:0:
256,32,103570,1,2,0:0:0:0:
88,88,103759,5,0,0:0:0:0:
176,112,103948,1,2,0:0:0:0:
152,200,104137,1,0,0:0:0:0:
240,224,104327,1,2,0:0:0:0:
216,312,104516,1,0,0:0:0:0:
304,336,104705,2,0,B|352:184,2,160,2|2|2,0:0|0:0|0:0,0:0:0:0:
392,352,105652,2,0,B|480:368,2,80,0|2|0,0:0|0:0|0:0,0:0:0:0:
304,336,106219,1,2,0:0:0:0:
256,56,106598,1,2,0:0:0:0:
208,336,106976,1,2,0:0:0:0:
256,56,107355,1,2,0:0:0:0:
176,96,107544,2,0,B|104:136,1,80,0|2,0:0|0:0,0:0:0:0:
16,248,107923,2,0,B|88:208,1,80,0|2,0:0|0:0,0:0:0:0:
88,328,108301,5,4,0:0:0:0:
424,328,108680,1,4,0:0:0:0:
256,32,109058,1,4,0:0:0:0:
256,32,109248,1,4,0:0:0:0:
256,352,109626,1,0,0:0:0:0:
176,256,109816,5,0,0:0:0:0:
48,40,110194,1,0,0:0:0:0:
176,256,110573,1,0,0:0:0:0:
272,232,110762,1,0,0:0:0:0:
360,192,110951,1,0,0:0:0:0:
424,120,111141,1,0,0:0:0:0:
384,96,111235,1,0,0:0:0:0:
344,72,111330,2,0,B|272:32,1,80,0|2,0:0|0:0,0:0:0:0:
144,88,111708,2,0,B|216:128,1,80,0|2,0:0|0:0,0:0:0:0:
296,240,112087,2,0,B|224:200,1,80,0|2,0:0|0:0,0:0:0:0:
96,256,112465,2,0,B|168:296,1,80,0|2,0:0|0:0,0:0:0:0:
256,352,112844,5,0,0:0:0:0:
456,112,113223,1,0,0:0:0:0:
256,352,113601,1,0,0:0:0:0:
168,320,113790,1,0,0:0:0:0:
88,264,113980,1,0,0:0:0:0:
24,192,114169,1,0,0:0:0:0:
24,192,114264,1,0,0:0:0:0:
24,192,114358,5,0,0:0:0:0:
256,24,114737,1,0,0:0:0:0:
488,192,115115,1,0,0:0:0:0:
256,360,115494,1,0,0:0:0:0:
256,360,115683,1,0,0:0:0:0:
256,360,115872,5,0,0:0:0:0:
32,296,116251,1,0,0:0:0:0:
256,360,116629,1,0,0:0:0:0:
336,304,116819,1,0,0:0:0:0:
432,280,117008,1,0,0:0:0:0:
360,216,117197,1,0,0:0:0:0:
376,168,117292,1,0,0:0:0:0:
392,120,117387,2,0,B|424:40,1,80,0|2,0:0|0:0,0:0:0:0:
288,128,117765,2,0,B|256:208,1,80,0|2,0:0|0:0,0:0:0:0:
168,144,118144,2,0,B|200:64,1,80,0|2,0:0|0:0,0:0:0:0:
64,152,118522,2,0,B|32:232,1,80,0|2,0:0|0:0,0:0:0:0:
88,320,118901,5,0,0:0:0:0:
472,320,119279,1,0,0:0:0:0:
88,320,119658,1,0,0:0:0:0:
184,336,119847,1,0,0:0:0:0:
280,320,120036,1,0,0:0:0:0:
376,336,120226,1,0,0:0:0:0:
472,320,120415,5,4,0:0:0:0:
256,56,120793,1,4,0:0:0:0:
472,320,121172,1,4,0:0:0:0:
256,56,121551,1,4,0:0:0:0:
32,272,121929,5,2,0:0:0:0:
216,336,122308,1,2,0:0:0:0:
304,168,122686,1,2,0:0:0:0:
120,104,123065,1,2,0:0:0:0:
120,104,123254,2,0,B|120:272,1,160,2|2,0:0|0:0,0:0:0:0:
216,336,123822,1,0,0:0:0:0:
216,336,124011,2,2,B|216:168,1,160
184,32,124579,5,0,0:0:0:0:
272,64,124768,1,2,0:0:0:0:
304,152,124958,2,0,B|392:136|392:136|440:72,1,160,2|0,0:0|0:0,0:0:0:0:
480,192,125525,1,2,0:0:0:0:
480,192,125715,2,0,B|392:208|392:208|344:272,1,160,2|0,0:0|0:0,0:0:0:0:
264,304,126282,1,2,0:0:0:0:
176,344,126472,1,2,0:0:0:0:
104,280,126661,1,2,0:0:0:0:
88,232,126756,1,0,0:0:0:0:
56,192,126850,1,0,0:0:0:0:
152,176,127040,1,2,0:0:0:0:
176,136,127134,1,0,0:0:0:0:
208,104,127229,2,2,B|272:48|368:64,1,160
480,208,127986,5,2,0:0:0:0:
296,144,128364,1,2,0:0:0:0:
208,312,128743,1,2,0:0:0:0:
392,376,129122,1,2,0:0:0:0:
392,376,129311,2,0,B|392:208,1,160,2|2,0:0|0:0,0:0:0:0:
296,144,129879,1,0,0:0:0:0:
296,144,130068,2,2,B|296:312,1,160
192,344,130636,5,0,0:0:0:0:
144,264,130825,2,0,B|88:184|0:192,1,160,2|2,0:0|0:0,0:0:0:0:
72,112,131393,1,2,0:0:0:0:
160,72,131582,1,0,0:0:0:0:
152,168,131771,2,0,B|248:160|304:80,1,160,2|2,0:0|0:0,0:0:0:0:
336,184,132339,2,0,B|432:192|488:272,1,160,2|2,0:0|0:0,0:0:0:0:
488,352,132907,1,2,0:0:0:0:
400,312,133096,1,2,0:0:0:0:
304,304,133286,5,0,0:0:0:0:
280,288,133380,1,0,0:0:0:0:
256,272,133475,1,0,0:0:0:0:
232,256,133570,1,0,0:0:0:0:
208,240,133664,1,0,0:0:0:0:
184,224,133759,1,0,0:0:0:0:
160,208,133853,1,0,0:0:0:0:
136,192,133948,1,0,0:0:0:0:
112,176,134043,5,2,0:0:0:0:
320,64,134421,1,2,0:0:0:0:
304,304,134800,1,2,0:0:0:0:
512,192,135178,1,2,0:0:0:0:
512,192,135368,2,0,B|440:160|440:160|376:208,1,160,2|2,0:0|0:0,0:0:0:0:
304,304,135935,1,0,0:0:0:0:
304,304,136125,2,2,B|376:336|376:336|440:288,1,160
304,304,136693,5,0,0:0:0:0:
216,352,136882,1,2,0:0:0:0:
128,312,137071,2,0,B|176:240|176:240|160:168,1,160,2|0,0:0|0:0,0:0:0:0:
288,96,137639,1,2,0:0:0:0:
288,96,137828,2,0,B|240:168|240:168|256:240,1,160,2|0,0:0|0:0,0:0:0:0:
352,224,138396,1,2,0:0:0:0:
448,240,138585,1,2,0:0:0:0:
416,152,138775,1,2,0:0:0:0:
416,152,138869,1,0,0:0:0:0:
416,152,138964,1,0,0:0:0:0:
472,72,139153,1,2,0:0:0:0:
472,72,139248,1,0,0:0:0:0:
472,72,139342,2,2,B|320:16,1,160
88,88,140099,5,2,0:0:0:0:
176,296,140478,1,2,0:0:0:0:
264,88,140857,1,2,0:0:0:0:
352,296,141235,1,2,0:0:0:0:
352,296,141424,2,0,B|320:224|320:224|248:184,1,160,2|2,0:0|0:0,0:0:0:0:
360,128,141992,1,0,0:0:0:0:
360,128,142182,2,2,B|392:200|392:200|464:240,1,160
352,296,142749,1,0,0:0:0:0:
256,328,142939,6,2,B|96:352,1,160
8,312,143506,1,2,0:0:0:0:
96,264,143696,1,0,0:0:0:0:
160,192,143885,1,2,0:0:0:0:
208,104,144074,1,0,0:0:0:0:
208,104,144169,1,0,0:0:0:0:
208,104,144264,1,2,0:0:0:0:
224,256,144453,6,2,B|384:280,1,160
472,240,145021,1,2,0:0:0:0:
384,192,145210,1,0,0:0:0:0:
320,120,145399,1,2,0:0:0:0:
272,32,145588,1,0,0:0:0:0:
272,32,145683,1,0,0:0:0:0:
272,32,145778,1,2,0:0:0:0:
256,344,146156,6,0,B|104:328,2,144.000003433228,2|0|2,0:0|0:0|0:0,0:0:0:0:
320,288,146913,2,0,B|472:304,2,144.000003433228,2|0|2,0:0|0:0|0:0,0:0:0:0:
232,248,147670,1,0,0:0:0:0:
168,176,147860,1,0,0:0:0:0:
168,176,147954,1,2,0:0:0:0:
152,80,148144,1,0,0:0:0:0:
152,80,148238,1,2,0:0:0:0:
240,112,148428,1,2,0:0:0:0:
328,80,148617,1,0,0:0:0:0:
328,80,148711,1,2,0:0:0:0:
424,72,148901,1,0,0:0:0:0:
424,72,148995,1,2,0:0:0:0:
384,168,149185,6,0,B|488:272,2,144.000003433228,2|0|2,0:0|0:0|0:0,0:0:0:0:
368,272,149942,2,0,B|264:168,2,144.000003433228,2|0|2,0:0|0:0|0:0,0:0:0:0:
280,312,150699,1,2,0:0:0:0:
232,328,150793,1,0,0:0:0:0:
152,280,150983,1,2,0:0:0:0:
104,296,151077,1,0,0:0:0:0:
24,240,151267,1,2,0:0:0:0:
24,144,151456,1,2,0:0:0:0:
72,128,151551,1,0,0:0:0:0:
152,176,151740,1,2,0:0:0:0:
200,160,151835,1,0,0:0:0:0:
280,216,152024,1,2,0:0:0:0:
344,136,152213,5,2,0:0:0:0:
448,320,152497,1,0,0:0:0:0:
344,136,152781,1,2,0:0:0:0:
272,64,152970,1,2,0:0:0:0:
56,24,153254,1,0,0:0:0:0:
272,64,153538,1,2,0:0:0:0:
184,96,153727,1,2,0:0:0:0:
96,136,153917,1,0,0:0:0:0:
96,136,154011,1,2,0:0:0:0:
8,176,154200,1,0,0:0:0:0:
8,176,154295,1,2,0:0:0:0:
96,216,154484,1,2,0:0:0:0:
184,256,154674,1,0,0:0:0:0:
184,256,154768,1,2,0:0:0:0:
272,296,154958,1,0,0:0:0:0:
272,296,155052,1,2,0:0:0:0:
400,272,155241,5,0,0:0:0:0:
376,240,155336,1,0,0:0:0:0:
360,200,155431,1,0,0:0:0:0:
352,160,155525,1,0,0:0:0:0:
360,120,155620,1,0,0:0:0:0:
376,80,155715,1,0,0:0:0:0:
400,48,155809,1,0,0:0:0:0:
304,32,155999,5,0,0:0:0:0:
291,70,156093,1,0,0:0:0:0:
267,106,156188,1,0,0:0:0:0:
239,135,156282,1,0,0:0:0:0:
202,151,156377,1,0,0:0:0:0:
160,161,156472,1,0,0:0:0:0:
120,160,156566,1,0,0:0:0:0:
256,192,156756,12,4,157869,0:0:0:0:
