osu file format v14

[General]
AudioFilename: audio.mp3
AudioLeadIn: 1250
PreviewTime: 24580
Countdown: 0
SampleSet: Soft
StackLeniency: 0.4
Mode: 0
LetterboxInBreaks: 1
WidescreenStoryboard: 0

[Editor]
DistanceSpacing: 0.8
BeatDivisor: 4
GridSize: 8
TimelineZoom: 1

[Metadata]
Title:Gonshik ne legalniy
TitleUnicode:Гонщик не легальный
Artist:MC Dimanche
ArtistUnicode:MC Dimanche
Creator:BadTrip13
Version:Slow Rider
Source:
Tags:Rider
BeatmapID:1520207
BeatmapSetID:720004

[Difficulty]
HPDrainRate:2
CircleSize:3
OverallDifficulty:4
ApproachRate:3
SliderMultiplier:1.12
SliderTickRate:2

[Events]
//Background and Video events
0,0,"1024-by-768-166598-20061114044616.jpg",0,0
//Break Periods
2,13107,17524
//Storyboard Layer 0 (Background)
//Storyboard Layer 1 (Fail)
//Storyboard Layer 2 (Pass)
//Storyboard Layer 3 (Foreground)
//Storyboard Sound Samples

[TimingPoints]
416,378.548895899054,4,2,0,100,1,0
699,-100,4,1,0,50,0,0
889,-100,4,2,0,100,0,0
1457,-100,4,1,0,50,0,0
1646,-100,4,2,0,100,0,0
3728,-100,4,1,0,50,0,0
3917,-100,4,2,0,100,0,0
4485,-100,4,1,0,50,0,0
4674,-100,4,2,0,100,0,0
6756,-100,4,1,0,50,0,0
6945,-100,4,2,0,100,0,0
7513,-100,4,1,0,50,0,0
7703,-100,4,2,0,100,0,0
9785,-100,4,1,0,50,0,0
9974,-100,4,2,0,100,0,0
10542,-100,4,1,0,50,0,0
10731,-100,4,2,0,100,0,0
12434,-100,4,1,0,70,0,0
24548,-100,4,1,0,90,0,0
59374,-100,4,1,0,60,0,0
60132,-100,4,1,0,90,0,0

[Colours]
Combo1 : 232,232,0
Combo2 : 255,0,0
Combo3 : 207,207,207

[HitObjects]
32,288,794,6,0,L|168:288,1,112
200,360,1551,2,0,B|264:344|280:272,1,112
304,200,2308,1,0,0:0:0:0:
360,272,2686,1,2,0:0:0:0:
512,176,3443,1,2,0:0:0:0:
480,96,3822,6,0,L|344:96,1,112
312,24,4579,2,0,B|248:40|232:112,1,112
232,192,5336,1,0,0:0:0:0:
160,136,5714,1,2,0:0:0:0:
0,176,6472,1,2,0:0:0:0:
80,224,6850,6,0,L|192:288,1,112
216,360,7607,2,0,B|272:384|344:360,1,112
376,288,8364,1,0,0:0:0:0:
304,240,8743,1,2,0:0:0:0:
504,200,9500,1,2,0:0:0:0:
432,160,9879,6,0,L|320:96,1,112
296,24,10636,2,0,B|240:0|168:24,1,112
136,96,11393,1,0,0:0:0:0:
208,144,11772,1,2,0:0:0:0:
0,184,12529,1,2,0:0:0:0:
80,224,12907,5,4,0:0:0:0:
8,32,18964,5,0,0:0:0:0:
128,168,19721,1,0,0:0:0:0:
16,304,20478,2,0,B|136:264|248:320,1,224
408,368,21992,5,0,0:0:0:0:
496,216,22749,1,0,0:0:0:0:
408,56,23506,2,0,B|256:-8|64:24,1,336
104,104,25021,6,0,B|160:216|88:344,2,224,0|0|2,0:0|0:0|0:0,0:0:0:0:
256,192,27292,1,2,0:0:0:0:
408,104,28049,6,0,B|352:216|424:344,2,224,0|0|2,0:0|0:0|0:0,0:0:0:0:
320,112,29942,1,0,0:0:0:0:
256,176,30320,1,2,0:0:0:0:
192,112,30699,1,0,0:0:0:0:
128,176,31077,6,0,B|176:304|40:352,2,224,0|0|2,0:0|0:0|0:0,0:0:0:0:
256,48,33349,1,2,0:0:0:0:
384,176,34106,6,0,B|336:304|472:352,2,224
96,336,37134,5,0,0:0:0:0:
160,280,37513,1,0,0:0:0:0:
416,336,38648,5,0,0:0:0:0:
352,280,39027,1,0,0:0:0:0:
256,184,39595,2,0,L|256:64,3,112
144,264,41677,6,0,B|256:312|368:264,1,224,0|4,0:0|0:0,0:0:0:0:
96,48,43191,5,0,0:0:0:0:
160,104,43570,1,0,0:0:0:0:
416,48,44705,5,0,0:0:0:0:
352,104,45084,1,0,0:0:0:0:
256,200,45652,2,0,L|256:320,3,112
144,120,47734,6,0,B|256:72|368:120,1,224,0|4,0:0|0:0,0:0:0:0:
440,280,49248,6,0,B|392:256|312:280,1,112,2|0,0:0|0:0,0:0:0:0:
240,296,50005,1,2,0:0:0:0:
168,352,50383,1,2,0:0:0:0:
80,352,50762,2,0,B|-56:304|8:152,1,224
144,64,52276,5,2,0:0:0:0:
200,136,52655,2,0,B|248:102|320:96,1,112,2|0,0:0|0:0,0:0:0:0:
368,168,53412,1,2,0:0:0:0:
336,248,53790,2,2,B|287:281|216:288,1,112,2|0,0:0|0:0,0:0:0:0:
216,240,54358,2,2,B|144:192|40:192,1,168,2|0,0:0|0:0,0:0:0:0:
72,104,55305,6,0,B|120:128|200:104,1,112,2|0,0:0|0:0,0:0:0:0:
272,88,56062,1,2,0:0:0:0:
344,32,56440,1,2,0:0:0:0:
432,32,56819,2,0,B|568:80|504:232,1,224
360,200,58333,5,2,0:0:0:0:
320,280,58711,2,0,L|224:224,1,112,0|2,0:0|0:0,0:0:0:0:
176,304,59469,1,0,0:0:0:0:
96,256,59847,2,0,L|0:200,3,112
72,144,61361,6,2,B|120:176|200:136,1,112,2|2,0:0|0:0,0:0:0:0:
264,104,62118,2,0,L|384:48,1,112,2|0,0:0|0:0,0:0:0:0:
400,32,62686,2,0,B|440:128|400:248,1,224,2|0,0:0|0:0,0:0:0:0:
304,344,64011,5,0,0:0:0:0:
216,352,64390,1,0,0:0:0:0:
136,312,64768,1,0,0:0:0:0:
0,192,65525,1,0,0:0:0:0:
136,72,66282,1,0,0:0:0:0:
216,32,66661,1,0,0:0:0:0:
304,40,67040,1,0,0:0:0:0:
360,104,67418,6,2,B|408:136|488:96,1,112
504,184,68175,2,0,B|408:248,1,112,2|0,0:0|0:0,0:0:0:0:
424,288,68743,2,0,B|320:336|184:288,1,224,2|0,0:0|0:0,0:0:0:0:
72,176,70257,6,0,B|128:96|232:88,1,168
301,91,71204,2,0,B|384:101|441:178,1,168
440,240,73475,6,2,B|392:208|312:248,1,112
248,280,74232,2,0,L|128:336,1,112,2|0,0:0|0:0,0:0:0:0:
112,352,74800,2,0,B|72:256|112:136,1,224,2|0,0:0|0:0,0:0:0:0:
208,40,76125,5,0,0:0:0:0:
296,32,76504,1,0,0:0:0:0:
376,72,76882,1,0,0:0:0:0:
512,192,77639,1,0,0:0:0:0:
376,312,78396,1,0,0:0:0:0:
296,352,78775,1,0,0:0:0:0:
208,344,79154,1,0,0:0:0:0:
152,280,79532,6,2,B|104:248|24:288,1,112
8,200,80289,2,0,B|104:136,1,112,2|0,0:0|0:0,0:0:0:0:
88,96,80857,2,0,B|192:48|328:96,1,224,2|0,0:0|0:0,0:0:0:0:
392,216,82371,6,0,B|368:304|264:344,1,168
216,280,83317,1,0,0:0:0:0:
120,168,83885,6,0,B|144:80|248:40,1,168
296,104,84831,1,0,0:0:0:0:
408,280,85588,6,0,B|352:168|424:40,2,224,0|0|2,0:0|0:0|0:0,0:0:0:0:
256,192,87859,1,2,0:0:0:0:
104,280,88616,6,0,B|160:168|88:40,2,224,0|0|2,0:0|0:0|0:0,0:0:0:0:
192,272,90509,1,0,0:0:0:0:
256,208,90887,1,2,0:0:0:0:
320,272,91266,1,0,0:0:0:0:
384,208,91644,6,0,B|336:80|472:32,2,224,0|0|2,0:0|0:0|0:0,0:0:0:0:
256,336,93916,1,2,0:0:0:0:
128,208,94673,6,0,B|176:80|40:32,2,224
256,192,96282,12,4,97702,0:0:0:0:
