osu file format v14

[General]
AudioFilename: audio.mp3
AudioLeadIn: 1250
PreviewTime: 24580
Countdown: 0
SampleSet: Soft
StackLeniency: 0.4
Mode: 0
LetterboxInBreaks: 1
WidescreenStoryboard: 0

[Editor]
DistanceSpacing: 0.8
BeatDivisor: 4
GridSize: 8
TimelineZoom: 1

[Metadata]
Title:Gonshik ne legalniy
TitleUnicode:Гонщик не легальный
Artist:MC Dimanche
ArtistUnicode:MC Dimanche
Creator:BadTrip13
Version:Normal Rider
Source:
Tags:Rider
BeatmapID:1520206
BeatmapSetID:720004

[Difficulty]
HPDrainRate:3
CircleSize:3
OverallDifficulty:4
ApproachRate:3
SliderMultiplier:1.42
SliderTickRate:1

[Events]
//Background and Video events
0,0,"1024-by-768-166598-20061114044616.jpg",0,0
//Break Periods
2,13107,17524
//Storyboard Layer 0 (Background)
//Storyboard Layer 1 (Fail)
//Storyboard Layer 2 (Pass)
//Storyboard Layer 3 (Foreground)
//Storyboard Sound Samples

[TimingPoints]
416,378.548895899054,4,2,0,100,1,0
699,-100,4,1,0,50,0,0
889,-100,4,2,0,100,0,0
1457,-100,4,1,0,50,0,0
1646,-100,4,2,0,100,0,0
3728,-100,4,1,0,50,0,0
3917,-100,4,2,0,100,0,0
4485,-100,4,1,0,50,0,0
4674,-100,4,2,0,100,0,0
6756,-100,4,1,0,50,0,0
6945,-100,4,2,0,100,0,0
7513,-100,4,1,0,50,0,0
7703,-100,4,2,0,100,0,0
9785,-100,4,1,0,50,0,0
9974,-100,4,2,0,100,0,0
10542,-100,4,1,0,50,0,0
10731,-100,4,2,0,100,0,0
12434,-100,4,1,0,70,0,0
24548,-100,4,1,0,90,0,0
59374,-100,4,1,0,60,0,0
60132,-100,4,1,0,90,0,0

[Colours]
Combo1 : 232,232,0
Combo2 : 255,0,0
Combo3 : 207,207,207

[HitObjects]
328,312,794,6,0,L|400:312,2,71
184,312,1551,2,0,L|112:312,2,71
192,168,2308,6,0,L|104:208,2,71,0|0|2,0:0|0:0|0:0,0:0:0:0:
256,144,2876,1,0,0:0:0:0:
320,168,3065,2,0,L|408:208,2,71,0|0|2,0:0|0:0|0:0,0:0:0:0:
184,72,3822,6,0,L|96:72,2,71
328,72,4579,2,0,L|400:72,2,71
320,216,5336,6,0,L|408:176,2,71,0|0|2,0:0|0:0|0:0,0:0:0:0:
256,240,5904,1,0,0:0:0:0:
192,216,6093,2,0,L|104:176,2,71,0|0|2,0:0|0:0|0:0,0:0:0:0:
328,296,6850,6,0,L|328:368,2,71
184,296,7607,2,0,L|184:376,2,71
456,232,8364,6,0,L|520:280,2,71,0|0|2,0:0|0:0|0:0,0:0:0:0:
400,192,8932,1,0,0:0:0:0:
456,152,9122,2,0,L|520:104,2,71,0|0|2,0:0|0:0|0:0,0:0:0:0:
400,192,9689,1,0,0:0:0:0:
328,88,9879,6,0,L|328:16,2,71
184,88,10636,2,0,L|184:8,2,71
56,152,11393,6,0,L|-8:104,2,71,0|0|2,0:0|0:0|0:0,0:0:0:0:
112,192,11961,1,0,0:0:0:0:
56,232,12150,2,0,L|-8:280,2,71,0|0|2,0:0|0:0|0:0,0:0:0:0:
112,192,12718,1,0,0:0:0:0:
184,192,12907,5,4,0:0:0:0:
200,96,18964,5,0,0:0:0:0:
88,16,19342,1,0,0:0:0:0:
0,128,19721,1,0,0:0:0:0:
112,216,20099,1,0,0:0:0:0:
112,360,20478,5,4,0:0:0:0:
400,360,21235,1,4,0:0:0:0:
312,96,21992,5,0,0:0:0:0:
424,16,22371,1,0,0:0:0:0:
512,128,22749,1,0,0:0:0:0:
400,216,23128,1,0,0:0:0:0:
24,56,25021,6,0,B|56:184|216:128,1,213,0|0,0:0|0:0,0:0:0:0:
176,64,25778,2,0,B|302:27|334:194,1,213
256,176,26535,5,2,0:0:0:0:
112,240,26913,1,2,0:0:0:0:
192,384,27292,1,2,0:0:0:0:
336,320,27670,1,2,0:0:0:0:
488,328,28049,6,0,B|456:200|296:256,1,213
336,320,28806,2,0,B|209:356|177:189,1,213
176,144,29563,6,0,B|112:144|104:232,2,106.5,2|2|2,0:0|0:0|0:0,0:0:0:0:
240,112,30320,2,0,B|216:48|128:48,2,106.5,2|2|2,0:0|0:0|0:0,0:0:0:0:
288,56,31077,6,0,B|424:88|424:224,1,213
496,184,31835,2,0,B|496:312|368:344,1,213
360,272,32592,5,2,0:0:0:0:
424,144,32970,1,2,0:0:0:0:
296,80,33349,1,2,0:0:0:0:
232,208,33727,1,2,0:0:0:0:
224,328,34106,6,0,B|88:296|88:160,1,213
16,200,34863,2,0,B|16:72|144:40,1,213
320,344,37134,5,0,0:0:0:0:
344,232,37513,1,0,0:0:0:0:
432,160,37891,1,0,0:0:0:0:
432,160,38081,1,0,0:0:0:0:
312,40,38648,5,0,0:0:0:0:
248,128,39027,1,0,0:0:0:0:
144,176,39405,1,0,0:0:0:0:
112,128,39595,2,0,B|40:144|16:256,3,142
288,336,41677,6,0,B|456:336,1,142,4|4,0:0|0:0,0:0:0:0:
496,240,42434,2,0,B|400:240,1,71,4|0,0:0|0:0,0:0:0:0:
344,88,43191,5,0,0:0:0:0:
256,16,43570,1,0,0:0:0:0:
168,88,43948,1,0,0:0:0:0:
168,88,44137,1,0,0:0:0:0:
32,184,44705,5,0,0:0:0:0:
72,288,45084,1,0,0:0:0:0:
120,312,45273,1,0,0:0:0:0:
168,336,45462,1,0,0:0:0:0:
224,336,45652,2,0,B|400:336,3,142
496,192,47734,6,0,B|328:192,1,142,4|4,0:0|0:0,0:0:0:0:
296,96,48491,2,0,B|200:96,1,71,4|0,0:0|0:0,0:0:0:0:
104,192,49248,5,2,0:0:0:0:
192,264,49626,1,2,0:0:0:0:
304,280,50005,1,2,0:0:0:0:
304,280,50194,1,2,0:0:0:0:
304,280,50383,1,2,0:0:0:0:
408,192,50762,5,0,0:0:0:0:
320,120,51141,1,0,0:0:0:0:
208,104,51519,1,0,0:0:0:0:
208,104,51708,1,0,0:0:0:0:
64,192,52276,6,0,B|32:280|104:344,1,142,2|2,0:0|0:0,0:0:0:0:
200,328,53033,1,2,0:0:0:0:
256,328,53223,1,2,0:0:0:0:
312,328,53412,1,2,0:0:0:0:
426,325,53790,2,0,B|473:271|449:189,3,142,2|2|2|2,0:0|0:0|0:0|0:0,0:0:0:0:
368,112,55305,5,2,0:0:0:0:
344,224,55683,1,2,0:0:0:0:
272,312,56062,1,2,0:0:0:0:
272,312,56251,1,2,0:0:0:0:
272,312,56440,1,2,0:0:0:0:
144,272,56819,5,0,0:0:0:0:
168,160,57197,1,0,0:0:0:0:
240,72,57576,1,0,0:0:0:0:
240,72,57765,1,0,0:0:0:0:
368,144,58333,5,2,0:0:0:0:
480,144,58711,1,2,0:0:0:0:
368,144,59090,1,2,0:0:0:0:
312,144,59279,1,2,0:0:0:0:
256,144,59469,1,2,0:0:0:0:
144,144,59847,2,0,B|-8:144,3,142,6|6|6|6,0:0|0:0|0:0|0:0,0:0:0:0:
72,56,61361,6,2,B|232:56,1,142,2|6,0:0|0:0,0:0:0:0:
320,16,62118,2,2,B|368:88|304:176,1,142,2|6,0:0|0:0,0:0:0:0:
320,152,62686,2,0,B|168:152,1,142,2|2,0:0|0:0,0:0:0:0:
256,352,64011,5,2,0:0:0:0:
208,328,64200,1,0,0:0:0:0:
160,352,64390,2,0,B|0:352,2,142,2|2|2,0:0|0:0|0:0,0:0:0:0:
192,232,65525,1,2,0:0:0:0:
192,232,65715,1,0,0:0:0:0:
424,280,66661,1,0,0:0:0:0:
472,168,67040,1,0,0:0:0:0:
440,56,67418,6,2,B|280:56,1,142,2|6,0:0|0:0,0:0:0:0:
192,16,68175,2,2,B|144:88|208:176,1,142,2|6,0:0|0:0,0:0:0:0:
192,152,68743,2,0,B|344:152,1,142,2|2,0:0|0:0,0:0:0:0:
40,320,70257,6,2,B|208:320,1,142,2|0,0:0|0:0,0:0:0:0:
240,320,70825,2,0,B|336:320,2,71,2|0|2,0:0|0:0|0:0,0:0:0:0:
240,208,71582,1,2,0:0:0:0:
240,208,71771,1,2,0:0:0:0:
440,328,73475,6,2,B|280:328,1,142,2|6,0:0|0:0,0:0:0:0:
192,368,74232,2,2,B|144:296|208:208,1,142,2|6,0:0|0:0,0:0:0:0:
192,232,74800,2,0,B|344:232,1,142,2|2,0:0|0:0,0:0:0:0:
256,32,76125,5,2,0:0:0:0:
304,56,76314,1,0,0:0:0:0:
352,32,76503,2,0,B|512:32,2,142,2|2|2,0:0|0:0|0:0,0:0:0:0:
299,151,77639,1,2,0:0:0:0:
299,151,77828,1,0,0:0:0:0:
80,104,78775,1,0,0:0:0:0:
40,216,79154,1,0,0:0:0:0:
72,328,79532,6,2,B|232:328,1,142,2|6,0:0|0:0,0:0:0:0:
320,368,80289,2,2,B|368:296|304:208,1,142,2|6,0:0|0:0,0:0:0:0:
320,232,80857,2,0,B|168:232,1,142,2|2,0:0|0:0,0:0:0:0:
408,216,82371,6,2,B|296:104,1,142,2|0,0:0|0:0,0:0:0:0:
256,80,82939,2,0,B|256:-16,2,71,2|0|2,0:0|0:0|0:0,0:0:0:0:
104,216,83885,6,2,B|216:104,1,142,2|0,0:0|0:0,0:0:0:0:
256,80,84453,2,0,B|256:-16,2,71,2|0|2,0:0|0:0|0:0,0:0:0:0:
256,192,85210,1,4,0:0:0:0:
432,264,85588,6,0,B|200:264,1,213
256,344,86346,2,0,B|24:344,1,213
8,264,87103,5,2,0:0:0:0:
168,216,87481,1,2,0:0:0:0:
8,160,87860,1,2,0:0:0:0:
168,112,88238,1,2,0:0:0:0:
80,40,88617,6,0,B|312:40,1,213
256,120,89374,2,0,B|488:120,1,213
440,200,90131,6,0,B|520:288,2,106.5,2|2|2,0:0|0:0|0:0,0:0:0:0:
408,280,90888,2,0,B|488:368,2,106.5,2|2|2,0:0|0:0|0:0,0:0:0:0:
352,344,91645,6,0,B|104:344,1,213
40,272,92402,2,0,B|280:272,1,213
256,200,93159,5,2,0:0:0:0:
392,160,93538,1,2,0:0:0:0:
256,128,93917,1,2,0:0:0:0:
120,160,94295,1,2,0:0:0:0:
160,40,94674,6,0,B|408:40,1,213
472,112,95431,2,0,B|232:112,1,213
256,192,96188,12,4,97702,0:0:0:0:
