osu file format v14

[General]
AudioFilename: audio.mp3
AudioLeadIn: 0
PreviewTime: 9960
Countdown: 0
SampleSet: Soft
StackLeniency: 0.7
Mode: 2
LetterboxInBreaks: 0
WidescreenStoryboard: 1

[Editor]
DistanceSpacing: 1
BeatDivisor: 4
GridSize: 8
TimelineZoom: 0.7999998

[Metadata]
Title:Atoladinha (Cut Ver.)
TitleUnicode:Atoladinha (Cut Ver.)
Artist:MC Bola de Fogo e as Foguentas
ArtistUnicode:MC Bola de Fogo e as Foguentas
Creator:zerokt
Version:Normal
Source:
Tags:brasil brazilian brasileiro carioca rio de janeiro rj funk português portuguese favela latin piririm alguem alguém ligou pra para mim quem e é sou eu bola de fogo calor ta de matar latino south america hip hop hiphop to tô ficando vou atolar calma dj marlboro tati quebra-barraco version other pop popular (enterradinha) kukkai
BeatmapID:3743457
BeatmapSetID:1824362

[Difficulty]
HPDrainRate:3
CircleSize:3
OverallDifficulty:7
ApproachRate:7
SliderMultiplier:1.83
SliderTickRate:1

[Events]
//Background and Video events
0,0,"riodejaneiro.jpg",0,0
//Break Periods
//Storyboard Layer 0 (Background)
//Storyboard Layer 1 (Fail)
//Storyboard Layer 2 (Pass)
//Storyboard Layer 3 (Foreground)
//Storyboard Layer 4 (Overlay)
//Storyboard Sound Samples

[TimingPoints]
4,468.75,4,2,1,60,1,0
4,-33.9140103780578,4,2,1,60,0,0
6332,-25.7348657554761,4,2,1,65,0,0
7504,-26.7787332590645,4,2,1,65,0,0
8675,-24.9442876580933,4,2,1,65,0,0
10082,-25.6157190141515,4,2,1,65,0,0
11254,-26.7966103976932,4,2,1,65,0,0
12425,-25.0634558578504,4,2,1,65,0,0
15004,-25.6448894464036,4,2,1,70,0,0
15941,-25.2562173214405,4,2,1,70,0,0
16879,-25.3146738700796,4,2,1,70,0,0
17816,-25.4850481247539,4,2,1,70,0,0
18754,-25.2877321435687,4,2,1,70,0,0
30004,-26.1286806940063,4,2,1,75,0,0
31879,-25.99830060378,4,2,1,75,0,0
35629,-25.965144876165,4,2,1,75,0,0
37504,-25.855203232712,4,2,1,75,0,0
39379,-25.758549774802,4,2,1,75,0,0
43129,-25.7243305961294,4,2,1,80,0,0
44066,-26.8837570459987,4,2,1,80,0,0
45004,-25.4840559869769,4,2,1,80,0,0
45941,-26.2676323734652,4,2,1,80,0,0
46879,-25.657493900772,4,2,1,80,0,0
47816,-27.0098446104177,4,2,1,80,0,0
48754,-26.7407227339486,4,2,1,80,0,0
49457,-27.0418765390155,4,2,1,80,0,0
50629,-25.168880795427,4,2,1,80,0,0
51566,-26.8321608720754,4,2,1,80,0,0
52504,-24.9361385952508,4,2,1,80,0,0
53441,-27.0461223935365,4,2,1,80,0,0
54379,-25.8800834619096,4,2,1,80,0,0
55316,-26.925743996253,4,2,1,80,0,0
56254,-26.7988571718202,4,2,1,80,0,0
56957,-26.9989905274189,4,2,1,80,0,0
58129,-24.0498282929667,4,2,1,85,0,1
58832,-24.0061437968981,4,2,1,85,0,1
60004,-23.929513619574,4,2,1,85,0,1
60707,-23.484321670366,4,2,1,85,0,1
61879,-23.9808696138604,4,2,1,85,0,1
62582,-23.2982243151094,4,2,1,85,0,1
63754,-33.9140103780578,4,2,1,80,0,0
65629,-33.9140103780578,4,2,1,60,0,0
66332,-25.6782881529922,4,2,1,60,0,0
67035,-27.170470186957,4,2,1,60,0,0
67504,-26.8503615811559,4,2,1,60,0,0
69379,-26.7593483156353,4,2,1,60,0,0
71254,-33.9140103780578,4,2,1,70,0,0

[Colours]
Combo1 : 128,0,255
Combo2 : 255,0,0

[HitObjects]
399,56,6332,6,0,B|404:65|404:65|411:67|411:67|410:74|410:74|412:78|412:78|410:85|410:85|417:86|417:86|420:91|420:91|427:92|427:92|425:99|425:99|431:109|431:109|428:103|428:103|427:108|427:108|431:109|431:109|433:117|433:117|438:121|438:121|434:127|434:127|435:132|435:132|431:138|431:138|437:142|437:142|438:147|438:147|444:151|444:151|440:157|440:157|442:170|442:170|440:162|440:162|437:167|437:167|442:170|442:170|442:176|442:176|448:181|448:181|443:186|443:186|443:191|443:191|439:197|439:197|444:201|444:201|444:206|444:206|450:211|450:211|445:216|445:216|445:221|445:221|441:226|441:226|446:231|446:231|446:232|446:232|445:236|445:236|450:242|450:242|444:246|444:246|443:251|443:251|437:255|437:255|441:261|441:261|440:266|440:266|445:272|445:272|439:276|439:276|438:281|438:281|432:285|432:285|436:291|436:291|436:293|436:293|436:296|436:296|441:300|441:300|436:306|436:306|436:310|436:310|431:316|431:316|436:320|436:320|436:326|436:326|441:330|441:330|436:336|436:336|436:340|436:340|431:346|431:346|436:350|436:350|436:355|436:355|432:349|432:349|438:345|438:345|439:340|439:340|445:336|445:336|441:330|441:330|442:325|442:325|439:319|439:319|444:315|444:315|445:311|445:311|451:307|451:307|448:301|448:301|449:294|449:294|444:290|444:290|448:285|448:285|448:281|448:281|452:276|452:276|447:271|447:271|446:266|446:266|441:262|441:262|445:256|445:256|445:251|445:251|449:246|449:246|444:241|444:241|443:232|443:232|439:229|439:229|442:225|442:225|441:221|441:221|445:215|445:215|439:212|439:212|438:207|438:207|432:203|432:203|436:197|436:197|435:192|435:192|439:186|439:186|433:182|433:182|432:177|432:177|426:173|426:173|430:168|430:168|429:163|429:163|433:157|433:157|427:153|427:153|426:148|426:148|420:144|420:144|424:138|424:138|422:130|422:130|422:129,1,711.097550454716,2|2,3:2|3:2,0:0:0:0:
330,204,7035,1,2,3:2:0:0:
238,206,7269,1,2,3:2:0:0:
328,221,7504,2,0,B|334:230|334:230|341:231|341:231|339:238|339:238|342:242|342:242|340:249|340:249|347:251|347:251|350:255|350:255|357:256|357:256|355:263|355:263|358:268|358:268|357:274|357:274|364:276|364:276|365:278|365:278|365:280|365:280|371:284|371:284|367:290|367:290|368:295|368:295|364:301|364:301|370:305|370:305|371:310|371:310|377:314|377:314|373:320|373:320|374:324|374:324|370:330|370:330|376:334|376:334|378:344|378:344|376:340|376:340|380:338|380:338|381:335|381:335|388:332|388:332|384:325|384:325|386:320|386:320|383:314|383:314|389:311|389:311|391:306|391:306|398:303|398:303|394:296|394:296|396:292|396:292|393:285|393:285|399:282|399:282|400:280|400:280|400:278|400:278|406:273|406:273|401:268|401:268|402:263|402:263|397:257|397:257|402:253|402:253|403:248|403:248|408:243|408:243|404:238|404:238|404:233|404:233|400:227|400:227|405:223|405:223|406:213|406:213|409:210|409:210|405:207|405:207|405:203|405:203|399:199|399:199|403:193|403:193|403:188|403:188|407:182|407:182|401:178|401:178|401:173|401:173|395:169|395:169|399:163|399:163|399:158|399:158|403:153|403:153|397:148|397:148|397:146|397:146|397:144|397:144|393:138|393:138|399:134|399:134|400:129|400:129|406:125|406:125|402:119|402:119|403:114|403:114|399:108|399:108|405:104|405:104|406:99|406:99|411:95|411:95|407:89|407:89|409:80|409:80|406:76|406:76|410:74|410:74|410:70|410:70|416:65|416:65|412:60|412:60|412:55|412:55|408:49|408:49|414:45|414:45|414:40|414:40|420:36|420:36|416:30|416:30|416:25|416:25|412:19|412:19|418:15|418:15|418:13|418:13|417:16|417:16|411:19|411:19|415:26|415:26|413:30|413:30|417:36|417:36|411:40|411:40|410:45|410:45|404:48|404:48|407:54|407:54|406:59|406:59|409:65|409:65|403:69|403:69|401:78|401:78|398:81|398:81|400:84|400:84|400:88|400:88|405:94|405:94|399:98|399:98|399:103|399:103|394:108|394:108|398:113|398:113|398:118|398:118|402:124|402:124|397:128|397:128|397:133|397:133|391:138|391:138|396:143|396:143|395:148|395:148|400:154|400:154|395:158|395:158|394:163|394:163|389:168|389:168|393:173|393:173|393:178|393:178|398:184|398:184|392:189|392:189|392:192|392:192|391:193|391:193|385:196|385:196|387:202|387:202|385:207|385:207|387:213|387:213|380:216|380:216|378:220|378:220|372:223|372:223|374:229|374:229|372:234|372:234|374:240|374:240|367:243|367:243|365:247|365:247|359:250|359:250|361:256|361:256|359:261|359:261|361:267|361:267|354:270|354:270|352:274|352:274|345:276|345:276|348:283|348:283|346:288|346:288|348:294|348:294|341:297|341:297|339:301|339:301|332:303|332:303|335:310|335:310|332:314|332:314|335:321|335:321|328:323|328:323|324:332,1,1025.06715812288,2|0,3:2|3:2,0:0:0:0:
148,218,8675,2,0,B|149:228|149:228|154:233|154:233|150:238|150:238|150:243|150:243|145:249|145:249|151:253|151:253|151:258|151:258|156:263|156:263|152:268|152:268|152:273|152:273|148:279|148:279|153:283|153:283|153:288|153:288|159:293|159:293|154:298|154:298|155:309|155:309|155:303|155:303|152:306|152:306|155:309|155:309|152:300|152:300|146:297|146:297|150:291|150:291|148:286|148:286|151:280|151:280|145:276|145:276|144:272|144:272|138:268|138:268|141:262|141:262|140:257|140:257|143:251|143:251|137:248|137:248|135:243|135:243|129:240|129:240|132:233|132:233|129:222|129:222|131:229|131:229|133:224|133:224|129:222|129:222|129:214|129:214|124:209|124:209|129:204|129:204|129:199|129:199|134:194|134:194|129:189|129:189|129:184|129:184|124:179|124:179|129:174|129:174|129:169|129:169|134:164|134:164|129:159|129:159|129:154|129:154|124:149|124:149|129:144|129:144|129:131|129:131|129:139|129:139|133:135|133:135|129:131|129:131|130:138|130:138|135:142|135:142|131:148|131:148|132:153|132:153|127:158|127:158|133:163|133:163|133:168|133:168|139:172|139:172|135:178|135:178|135:183|135:183|131:188|131:188|137:193|137:193|137:197|137:197|143:202|143:202|138:207|138:207|139:212|139:212|135:218|135:218|140:222|140:222|141:227|141:227|146:232|146:232|142:237|142:237|143:242|143:242|138:248|138:248|144:252|144:252|145:262,1,550.226175552736,0|0,3:2|3:2,0:0:0:0:
413,84,9379,5,2,1:2:0:0:
159,216,10082,2,0,B|154:225|154:225|156:232|156:232|149:234|149:234|146:238|146:238|140:240|140:240|141:247|141:247|139:251|139:251|141:258|141:258|134:260|134:260|128:270|128:270|131:264|131:264|127:265|127:265|128:270|128:270|129:278|129:278|134:282|134:282|129:288|129:288|130:293|130:293|125:298|125:298|131:303|131:303|131:308|131:308|136:312|136:312|132:318|132:318|133:332|133:332|132:323|132:323|128:328|128:328|133:332|133:332|133:326|133:326|128:321|128:321|132:316|132:316|132:311|132:311|137:306|137:306|132:301|132:301|131:296|131:296|126:292|126:292|131:286|131:286|131:281|131:281|135:276|135:276|130:271|130:271|130:270|130:270|128:267|128:267|121:266|121:266|122:259|122:259|119:255|119:255|121:248|121:248|114:247|114:247|110:242|110:242|103:241|103:241|105:234|105:234|102:230|102:230|103:223|103:223|96:222|96:222|94:219|94:219|94:218|94:218|91:212|91:212|97:208|97:208|98:203|98:203|104:199|104:199|100:193|100:193|102:189|102:189|98:182|98:182|104:179|104:179|105:174|105:174|111:170|111:170|108:164|108:164|109:159|109:159|103:154|103:154|108:149|108:149|108:145|108:145|112:139|112:139|107:135|107:135|107:130|107:130|101:125|101:125|106:120|106:120|105:115|105:115|110:109|110:109|105:105|105:105|104:97|104:97|102:91|102:91|107:89|107:89|109:86|109:86|116:83|116:83|113:76|113:76|115:72|115:72|112:65|112:65|119:63|119:63|121:58|121:58|128:56|128:56|125:49|125:49|129:40|129:40|132:43|132:43|129:46|129:46|130:50|130:50|125:55|125:55|130:60|130:60|131:65|131:65|136:70|136:70|131:75|131:75|132:80|132:80|127:85|127:85|132:90|132:90|133:95|133:95|138:99|138:99|133:105|133:105|134:110|134:110|129:115|129:115|134:120|134:120|135:125|135:125|140:129|140:129|135:135|135:135|136:143|136:143|136:144,1,714.405088137097,2|2,3:2|3:2,0:0:0:0:
228,364,10785,1,2,3:2:0:0:
320,366,11019,1,2,3:2:0:0:
230,381,11254,2,0,B|227:371|227:371|221:368|221:368|224:362|224:362|223:357|223:357|226:351|226:351|220:347|220:347|218:343|218:343|212:339|212:339|215:333|215:333|214:328|214:328|217:322|217:322|211:319|211:319|210:316|210:316|209:314|209:314|203:311|203:311|206:304|206:304|204:300|204:300|207:293|207:293|201:290|201:290|199:286|199:286|193:283|193:283|196:276|196:276|194:272|194:272|197:265|197:265|190:262|190:262|187:253|187:253|183:252|183:252|184:248|184:248|182:244|182:244|184:237|184:237|177:235|177:235|175:231|175:231|168:229|168:229|170:222|170:222|168:218|168:218|170:211|170:211|163:209|163:209|161:204|161:204|154:202|154:202|156:196|156:196|155:194|155:194|156:191|156:191|162:187|162:187|158:181|158:181|159:176|159:176|155:170|155:170|161:167|161:167|162:162|162:162|168:158|168:158|164:152|164:152|165:147|165:147|161:141|161:141|167:137|167:137|169:128|169:128|172:125|172:125|169:122|169:122|168:118|168:118|163:113|163:113|168:108|168:108|167:103|167:103|172:97|172:97|167:92|167:92|167:87|167:87|161:83|161:83|166:77|166:77|166:72|166:72|170:67|170:67|165:62|165:62|165:61|165:61|165:64|165:64|169:70|169:70|164:74|164:74|164:79|164:79|158:84|158:84|163:89|163:89|163:94|163:94|167:100|167:100|162:104|162:104|161:109|161:109|156:114|156:114|161:119|161:119|160:128|160:128|162:133|162:133|157:135|157:135|156:139|156:139|149:141|149:141|152:148|152:148|150:153|150:153|153:159|153:159|147:162|147:162|145:166|145:166|138:169|138:169|141:176|141:176|139:180|139:180|142:187|142:187|136:190|136:190|135:191|135:191|136:194|136:194|133:201|133:201|139:204|139:204|141:208|141:208|147:212|147:212|144:218|144:218|146:223|146:223|143:229|143:229|149:232|149:232|151:237|151:237|157:240|157:240|154:247|154:247|157:255|157:255|154:259|154:259|159:262|159:262|160:266|160:266|166:269|166:269|162:275|162:275|163:280|163:280|159:286|159:286|165:290|165:290|167:295|167:295|173:298|173:298|169:304|169:304|170:309|170:309|167:315|167:315|173:319|173:319|174:324|174:324|180:327|180:327|176:334|176:334|177:338|177:338|174:344|174:344|180:348|180:348|181:353|181:353|187:357|187:357|183:363|183:363|184:366|184:366|184:365|184:365|191:361|191:361|188:355|188:355|189:350|189:350|186:344|186:344|193:341|193:341|194:336|194:336|200:333|200:333|197:327|197:327|199:322|199:322|196:316|196:316|202:313|202:313|204:308|204:308|210:305|210:305|207:298|207:298|209:294|209:294|205:287|205:287|212:284|212:284|213:280|213:280|220:276|220:276|217:270|217:270|218:265|218:265|215:259|215:259|222:255|222:255|223:251|223:251|230:248|230:248|226:241|226:241|228:236|228:236|225:230|225:230|231:227|231:227|234:219,1,1024.38329298406,2|0,1:2|1:2,0:0:0:0:
410,378,12425,2,0,B|411:368|411:368|406:362|406:362|412:358|412:358|412:353|412:353|417:348|417:348|413:343|413:343|413:338|413:338|409:332|409:332|414:328|414:328|414:323|414:323|420:318|420:318|415:313|415:313|415:308|415:308|411:303|411:303|416:298|416:298|417:287|417:287|417:293|417:293|420:290|420:290|417:287|417:287|416:278|416:278|411:273|411:273|416:268|416:268|415:263|415:263|420:258|420:258|415:253|415:253|414:248|414:248|409:244|409:244|414:238|414:238|413:233|413:233|418:228|418:228|413:223|413:223|412:218|412:218|407:214|407:214|412:208|412:208|411:196|411:196|411:203|411:203|415:199|415:199|411:196|411:196|409:188|409:188|404:184|404:184|407:178|407:178|406:174|406:174|410:168|410:168|404:164|404:164|403:159|403:159|398:155|398:155|402:149|402:149|401:144|401:144|404:138|404:138|399:134|399:134|398:129|398:129|392:126|392:126|396:120|396:120|393:107|393:107|395:115|395:115|398:110|398:110|393:107|393:107|394:114|394:114|400:118|400:118|396:124|396:124|396:129|396:129|392:134|392:134|398:139|398:139|399:143|399:143|404:148|404:148|400:153|400:153|401:158|401:158|397:164|397:164|402:168|402:168|403:173|403:173|409:177|409:177|405:183|405:183|405:188|405:188|401:194|401:194|407:198|407:198|408:203|408:203|413:207|413:207|409:213|409:213|410:218|410:218|406:223|406:223|411:228|411:228|413:237,1,547.61003741234,2|0,1:2|3:2,0:0:0:0:
145,244,13129,5,6,3:2:0:0:
378,74,15004,6,0,B|375:84|375:84|379:90|379:90|373:94|373:94|371:98|371:98|365:102|365:102|369:108|369:108|368:113|368:113|371:119|371:119|365:122|365:122|362:134|362:134|364:127|364:127|360:130|360:130|362:134|362:134|358:141|358:141|360:148|360:148|353:150|353:150|351:154|351:154|343:156|343:156|345:163|345:163|343:167|343:167|345:174|345:174|338:176|338:176|331:188|331:188|335:180|335:180|329:182|329:182|331:188|331:188|328:193|328:193|330:200|330:200|324:202|324:202|321:206|321:206|315:209|315:209|317:215|317:215|314:220|314:220|316:226|316:226|310:228|310:228|307:233|307:233|301:235|301:235|303:242|303:242|302:243|302:243|301:246|301:246|303:253|303:253|296:256|296:256|294:260|294:260|288:263|288:263|290:269|290:269|288:274|288:274|291:281|291:281|284:283|284:283|282:288|282:288|276:290|276:290|278:297|278:297|277:300|277:300|276:301|276:301|279:308|279:308|273:311|273:311|271:315|271:315|265:318|265:318|268:325|268:325|266:329|266:329|269:336|269:336|262:339|262:339|260:344|260:344|254:346|254:346|257:353|257:353|255:358|255:358|248:355|248:355|252:348|252:348|251:344|251:344|254:338|254:338|247:335|247:335|246:330|246:330|240:327|240:327|243:320|243:320|241:316|241:316|245:309|245:309|238:306|238:306|236:299|236:299|230:297|230:297|233:291|233:291|231:287|231:287|234:281|234:281|228:278|228:278|226:273|226:273|219:271|219:271|222:264|222:264|220:260|220:260|223:253|223:253|217:250|217:250|213:241|213:241|210:239|210:239|212:235|212:235|211:231|211:231|215:225|215:225|210:221|210:221|209:216|209:216|203:212|203:212|207:207|207:207|206:202|206:202|210:196|210:196|204:191|204:191|203:187|203:187|198:183|198:183|202:177|202:177|201:172|201:172|205:166|205:166|199:162|199:162|198:157|198:157|192:153|192:153|196:147|196:147|195:139|195:139|195:138,1,713.592469885511,2|0,3:2|0:2,0:0:0:0:
286,71,15707,1,2,3:2:0:0:
377,67,15941,2,0,B|378:77|378:77|384:82|384:82|380:87|380:87|380:92|380:92|376:98|376:98|382:102|382:102|382:107|382:107|388:111|388:111|383:117|383:117|385:129|385:129|384:122|384:122|381:126|381:126|385:129|385:129|390:135|390:135|397:136|397:136|396:143|396:143|399:147|399:147|398:154|398:154|405:155|405:155|408:159|408:159|415:160|415:160|414:167|414:167|423:178|423:178|417:171|417:171|416:177|416:177|423:178|423:178|422:183|422:183|426:190|426:190|420:194|420:194|419:198|419:198|413:202|413:202|417:208|417:208|416:213|416:213|419:219|419:219|413:223|413:223|412:228|412:228|406:232|406:232|410:238|410:238|410:239|410:239|411:242|411:242|417:246|417:246|414:252|414:252|416:257|416:257|412:263|412:263|419:266|419:266|420:271|420:271|427:274|427:274|423:280|423:280|425:285|425:285|422:291|422:291|428:295|428:295|429:298|429:298|429:299|429:299|434:304|434:304|429:309|429:309|429:314|429:314|424:319|424:319|429:324|429:324|430:329|430:329|435:334|435:334|430:339|430:339|430:344|430:344|425:349|425:349|430:355|430:355|430:360|430:360|423:359|423:359|423:352|423:352|421:349|421:349|421:342|421:342|414:341|414:341|411:337|411:337|404:337|404:337|405:330|405:330|402:326|402:326|402:319|402:319|395:318|395:318|390:312|390:312|387:307|387:307|392:304|392:304|392:300|392:300|398:296|398:296|394:291|394:291|395:286|395:286|391:280|391:280|397:276|397:276|398:271|398:271|404:267|404:267|400:261|400:261|402:251|402:251|401:256|401:256|399:253|399:253|402:251|402:251|399:242|399:242|402:236|402:236|395:233|395:233|393:228|393:228|387:225|387:225|390:219|390:219|388:214|388:214|391:208|391:208|385:205|385:205|383:200|383:200|377:197|377:197|380:191|380:191|378:186|378:186|381:179|381:179|374:176|374:176|373:172|373:172|366:169|366:169|369:162|369:162|366:154|366:154|366:153,1,724.57406297596,2|2,3:2|3:2,0:0:0:0:
181,204,16879,6,0,B|182:214|182:214|187:219|187:219|183:224|183:224|183:229|183:229|178:235|178:235|184:239|184:239|184:244|184:244|190:249|190:249|185:254|185:254|186:266|186:266|185:259|185:259|182:263|182:263|186:266|186:266|190:273|190:273|197:274|197:274|196:281|196:281|199:285|199:285|197:292|197:292|204:293|204:293|207:298|207:298|214:299|214:299|212:306|212:306|220:318|220:318|215:311|215:311|214:317|214:317|220:318|220:318|223:323|223:323|230:325|230:325|228:332|228:332|231:336|231:336|229:343|229:343|236:344|236:344|239:349|239:349|246:350|246:350|244:357|244:357|247:361|247:361|245:368|245:368|252:370|252:370|253:371|253:371|254:368|254:368|250:362|250:362|255:358|255:358|256:353|256:353|262:349|262:349|258:343|258:343|259:338|259:338|255:332|255:332|261:328|261:328|262:323|262:323|267:319|267:319|263:313|263:313|264:310|264:310|265:309|265:309|263:302|263:302|270:300|270:300|272:296|272:296|279:294|279:294|277:287|277:287|280:283|280:283|278:276|278:276|285:274|285:274|288:270|288:270|294:268|294:268|293:262|293:262|296:256|296:256|292:250|292:250|298:246|298:246|299:242|299:242|305:238|305:238|301:233|301:233|302:228|302:228|298:222|298:222|303:218|303:218|304:213|304:213|310:209|310:209|306:203|306:203|308:195|308:195|307:190|307:190|313:189|313:189|315:186|315:186|322:185|322:185|321:178|321:178|324:174|324:174|324:167|324:167|330:166|330:166|334:162|334:162|340:161|340:161|340:154|340:154|346:146|346:146|343:150|343:150|342:146|342:146|346:146|346:146|348:137|348:137|353:133|353:133|349:127|349:127|350:122|350:122|346:116|346:116|352:112|352:112|353:107|353:107|359:103|359:103|355:97|355:97|356:92|356:92|351:86|351:86|357:82|357:82|358:77|358:77|364:73|364:73|360:68|360:68|361:63|361:63|357:57|357:57|362:53|362:53|364:44,1,722.900879305006,2|0,3:2|0:2,0:0:0:0:
273,201,17582,1,2,3:2:0:0:
182,197,17816,2,0,B|182:207|182:207|186:213|186:213|181:217|181:217|181:222|181:222|176:227|176:227|181:232|181:232|181:237|181:237|186:242|186:242|180:247|180:247|180:259|180:259|180:252|180:252|177:255|177:255|180:259|180:259|175:266|175:266|177:272|177:272|170:274|170:274|167:278|167:278|159:279|159:279|161:286|161:286|158:290|158:290|159:297|159:297|152:299|152:299|144:310|144:310|149:303|149:303|143:304|143:304|144:310|144:310|145:316|145:316|151:320|151:320|147:326|147:326|148:330|148:330|144:336|144:336|150:340|150:340|151:345|151:345|157:349|157:349|153:355|153:355|154:360|154:360|150:366|150:366|156:370|156:370|156:371|156:371|156:368|156:368|152:362|152:362|157:358|157:358|157:353|157:353|163:348|163:348|158:342|158:342|158:337|158:337|154:332|154:332|159:327|159:327|159:322|159:322|164:318|164:318|160:312|160:312|160:309|160:309|160:308|160:308|154:304|154:304|158:298|158:298|157:293|157:293|160:287|160:287|154:283|154:283|153:278|153:278|148:274|148:274|151:268|151:268|150:264|150:264|154:258|154:258|148:254|148:254|147:248|147:248|143:242|143:242|149:238|149:238|150:234|150:234|156:231|156:231|152:224|152:224|154:219|154:219|150:213|150:213|156:210|156:210|157:205|157:205|163:201|163:201|159:195|159:195|161:187|161:187|157:184|157:184|160:180|160:180|160:176|160:176|165:170|165:170|159:166|159:166|159:161|159:161|154:156|154:156|158:151|158:151|158:146|158:146|162:140|162:140|157:135|157:135|156:125|156:125|156:130|156:130|153:128|153:128|156:125|156:125|159:116|159:116|166:113|166:113|163:107|163:107|165:102|165:102|162:96|162:96|168:93|168:93|170:88|170:88|176:85|176:85|174:79|174:79|175:74|175:74|173:68|173:68|179:65|179:65|181:60|181:60|187:57|187:57|184:51|184:51|186:46|186:46|183:40|183:40|190:37|190:37|193:28,1,718.068096650954,2|2,3:2|3:2,0:0:0:0:
378,76,18754,6,0,B|375:86|375:86|378:92|378:92|371:95|371:95|370:100|370:100|364:103|364:103|367:110|367:110|365:114|365:114|368:121|368:121|362:124|362:124|358:135|358:135|360:128|360:128|356:131|356:131|358:135|358:135|353:141|353:141|354:148|354:148|347:149|347:149|344:153|344:153|337:154|337:154|337:161|337:161|334:164|334:164|335:171|335:171|328:172|328:172|319:183|319:183|325:176|325:176|318:177|318:177|319:183|319:183|320:189|320:189|326:193|326:193|322:199|322:199|323:203|323:203|319:210|319:210|325:214|325:214|326:219|326:219|332:223|332:223|328:228|328:228|329:233|329:233|325:239|325:239|331:243|331:243|331:244|331:244|328:247|328:247|329:254|329:254|322:254|322:254|318:258|318:258|311:258|311:258|312:265|312:265|308:269|308:269|308:276|308:276|301:276|301:276|298:280|298:280|291:280|291:280|291:287|291:287|289:290|289:290|288:291|288:291|289:298|289:298|282:299|282:299|279:303|279:303|273:305|273:305|274:312|274:312|271:316|271:316|272:323|272:323|265:324|265:324|262:328|262:328|255:329|255:329|256:336|256:336|253:341|253:341|247:337|247:337|251:331|251:331|250:327|250:327|254:321|254:321|248:317|248:317|247:312|247:312|241:308|241:308|245:302|245:302|244:298|244:298|248:292|248:292|243:288|243:288|241:280|241:280|236:278|236:278|238:273|238:273|237:269|237:269|240:262|240:262|234:259|234:259|232:255|232:255|225:252|225:252|228:245|228:245|227:240|227:240|230:234|230:234|224:231|224:231|220:221|220:221|222:226|222:226|218:224|218:224|220:221|220:221|218:212|218:212|221:206|221:206|215:202|215:202|214:197|214:197|208:194|208:194|212:188|212:188|211:183|211:183|214:177|214:177|208:173|208:173|207:168|207:168|201:165|201:165|205:159|205:159|203:154|203:154|207:147|207:147|201:144|201:144|200:139|200:139|194:135|194:135|197:129|197:129|195:120,1,723.671062952718,2|0,3:2|0:2,0:0:0:0:
106,98,19457,1,2,3:2:0:0:
52,170,19691,1,2,3:2:0:0:
58,259,19925,1,2,3:2:0:0:
120,324,20160,1,2,3:2:0:0:
468,317,20629,5,6,3:2:0:0:
221,310,22972,5,2,3:2:0:0:
221,310,23207,1,2,3:2:0:0:
39,300,23675,1,2,3:2:0:0:
131,302,23910,1,2,3:2:0:0:
223,304,24144,1,2,3:2:0:0:
443,171,24379,5,6,3:2:0:0:
259,174,26722,1,2,3:2:0:0:
259,174,26957,1,2,3:2:0:0:
441,164,27425,1,2,3:2:0:0:
349,166,27660,1,2,3:2:0:0:
257,168,27894,1,2,3:2:0:0:
37,35,28129,5,6,3:2:0:0:
118,147,30004,6,0,B|121:157|121:157|127:160|127:160|124:166|124:166|126:171|126:171|122:177|122:177|128:181|128:181|130:186|130:186|136:189|136:189|133:195|133:195|134:200|134:200|131:206|131:206|137:209|137:209|139:214|139:214|145:217|145:217|142:224|142:224|143:228|143:228|140:235|140:235|146:238|146:238|148:244|148:244|154:247|154:247|151:253|151:253|152:257|152:257|149:264|149:264|156:267|156:267|157:271|157:271|163:275|163:275|160:281|160:281|162:286|162:286|159:292|159:292|165:295|165:295|167:300|167:300|173:303|173:303|170:309|170:309|171:314|171:314|168:320|168:320|174:323|174:323|176:328|176:328|182:331|182:331|179:338|179:338|180:340|180:340|181:338|181:338|187:334|187:334|183:328|183:328|184:323|184:323|181:317|181:317|187:313|187:313|188:309|188:309|194:305|194:305|190:299|190:299|192:294|192:294|188:288|188:288|194:284|194:284|195:280|195:280|202:276|202:276|198:270|198:270|199:265|199:265|196:259|196:259|202:255|202:255|205:242|205:242|203:250|203:250|208:247|208:247|205:242|205:242|208:236|208:236|206:230|206:230|213:228|213:228|216:223|216:223|222:221|222:221|221:215|221:215|223:210|223:210|221:204|221:204|228:202|228:202|230:197|230:197|237:195|237:195|235:189|235:189|238:184|238:184|236:178|236:178|243:176|243:176|245:171|245:171|252:169|252:169|250:163|250:163|255:154,2,525.284845443742,2|8|2,3:2|0:2|3:2,0:0:0:0:
45,202,30941,1,2,3:2:0:0:
228,207,31410,1,2,3:2:0:0:
409,60,31879,6,0,B|405:70|405:70|408:76|408:76|401:79|401:79|399:83|399:83|393:86|393:86|395:93|395:93|393:97|393:97|396:104|396:104|390:106|390:106|388:111|388:111|381:114|381:114|384:120|384:120|382:125|382:125|384:131|384:131|378:134|378:134|376:139|376:139|369:141|369:141|372:148|372:148|370:153|370:153|373:160|373:160|366:163|366:163|364:166|364:166|358:169|358:169|361:176|361:176|359:180|359:180|361:187|361:187|355:189|355:189|353:194|353:194|346:197|346:197|349:203|349:203|347:208|347:208|350:214|350:214|343:217|343:217|342:222|342:222|335:224|335:224|338:231|338:231|336:235|336:235|338:242|338:242|332:245|332:245|331:247|331:247|330:249|330:249|324:253|324:253|327:259|327:259|326:264|326:264|329:270|329:270|323:273|323:273|322:278|322:278|316:281|316:281|319:288|319:288|317:293|317:293|321:299|321:299|314:302|314:302|313:307|313:307|307:311|307:311|310:317|310:317|309:322|309:322|312:328|312:328|306:331|306:331|302:344|302:344|304:336|304:336|299:339|299:339|302:344|302:344|300:338|300:338|294:335|294:335|297:328|297:328|296:324|296:324|299:317|299:317|293:314|293:314|291:309|291:309|285:306|285:306|288:300|288:300|287:295|287:295|290:289|290:289|284:286|284:286|282:281|282:281|276:277|276:277|280:271|280:271|278:266|278:266|281:260|281:260|275:257|275:257|272:247,2,527.919120913791,2|8|2,3:2|0:2|3:2,0:0:0:0:
317,54,32816,1,2,3:2:0:0:
136,85,33285,1,2,3:2:0:0:
477,177,33754,5,2,3:2:0:0:
477,177,34222,1,2,3:2:0:0:
477,177,34691,1,2,3:2:0:0:
368,315,35160,1,2,3:2:0:0:
29,152,35629,6,0,B|30:162|30:162|36:167|36:167|32:172|32:172|33:177|33:177|28:183|28:183|34:187|34:187|35:192|35:192|40:196|40:196|36:202|36:202|37:207|37:207|32:213|32:213|38:217|38:217|39:222|39:222|44:226|44:226|40:232|40:232|41:237|41:237|37:242|37:242|42:247|42:247|43:252|43:252|50:255|50:255|47:262|47:262|48:266|48:266|45:272|45:272|51:275|51:275|53:280|53:280|60:283|60:283|57:289|57:289|58:294|58:294|55:300|55:300|62:303|62:303|64:308|64:308|70:311|70:311|67:317|67:317|69:322|69:322|66:328|66:328|72:331|72:331|74:336|74:336|80:339|80:339|77:345|77:345|78:347|78:347|79:344|79:344|85:340|85:340|81:334|81:334|82:330|82:330|78:324|78:324|84:320|84:320|86:315|86:315|92:311|92:311|88:305|88:305|89:300|89:300|85:294|85:294|91:291|91:291|92:286|92:286|99:282|99:282|95:276|95:276|96:271|96:271|92:265|92:265|98:261|98:261|101:249|101:249|99:256|99:256|104:253|104:253|101:249|101:249|104:242|104:242|101:236|101:236|108:233|108:233|110:228|110:228|116:226|116:226|114:219|114:219|116:215|116:215|113:208|113:208|120:205|120:205|122:201|122:201|128:198|128:198|126:192|126:192|128:187|128:187|125:181|125:181|132:178|132:178|134:173|134:173|140:171|140:171|137:164|137:164|141:156|141:156|141:155,2,528.593237798531,2|8|0,3:2|0:2|3:2,0:0:0:0:
119,136,36566,1,2,3:2:0:0:
301,124,37035,1,2,3:2:0:0:
116,290,37504,6,0,B|119:280|119:280|116:274|116:274|122:271|122:271|124:266|124:266|130:263|130:263|127:256|127:256|128:252|128:252|125:245|125:245|132:242|132:242|133:237|133:237|139:234|139:234|136:228|136:228|138:223|138:223|134:217|134:217|141:213|141:213|142:209|142:209|149:206|149:206|145:199|145:199|147:194|147:194|144:187|144:187|150:184|150:184|151:180|151:180|157:177|157:177|154:171|154:171|156:166|156:166|152:160|152:160|159:156|159:156|160:152|160:152|166:148|166:148|163:142|163:142|164:137|164:137|161:131|161:131|167:128|167:128|169:123|169:123|175:120|175:120|172:113|172:113|173:108|173:108|170:102|170:102|176:99|176:99|177:97|177:97|178:94|178:94|185:92|185:92|183:86|183:86|186:81|186:81|183:74|183:74|190:72|190:72|193:68|193:68|199:66|199:66|197:59|197:59|200:55|200:55|198:48|198:48|204:46|204:46|207:42|207:42|214:40|214:40|212:33|212:33|214:29|214:29|212:22|212:22|219:20|219:20|225:8|225:8|221:15|221:15|227:14|227:14|225:8|225:8|227:14|227:14|233:18|233:18|230:24|230:24|231:29|231:29|228:35|228:35|234:38|234:38|235:43|235:43|241:46|241:46|238:53|238:53|239:57|239:57|236:64|236:64|242:67|242:67|243:72|243:72|250:75|250:75|246:81|246:81|248:86|248:86|244:93|244:93|251:96|251:96|253:105,2,530.84092499552,2|8|2,3:2|0:2|3:2,0:0:0:0:
208,284,38441,1,2,3:2:0:0:
389,315,38910,1,2,3:2:0:0:
209,218,39379,6,0,B|207:228|207:228|211:234|211:234|205:238|205:238|204:243|204:243|199:247|199:247|203:253|203:253|202:258|202:258|206:263|206:263|200:268|200:268|199:272|199:272|193:276|193:276|197:282|197:282|197:287|197:287|201:293|201:293|195:297|195:297|194:302|194:302|188:306|188:306|192:312|192:312|191:318|191:318|184:317|184:317|185:311|185:311|183:307|183:307|184:300|184:300|177:299|177:299|174:296|174:296|166:295|166:295|167:287|167:287|164:283|164:283|165:276|165:276|158:275|158:275|155:271|155:271|148:271|148:271|149:264|149:264|146:260|146:260|147:253|147:253|140:252|140:252|137:248|137:248|130:247|130:247|131:240|131:240|129:238|129:238|129:236|129:236|134:230|134:230|128:226|128:226|128:221|128:221|123:216|123:216|128:211|128:211|127:206|127:206|132:200|132:200|127:196|127:196|127:191|127:191|121:186|121:186|126:181|126:181|126:176|126:176|131:171|131:171|125:166|125:166|125:161|125:161|120:156|120:156|125:150|125:150|124:137|124:137|124:145|124:145|128:141|128:141|124:137|124:137|121:131|121:131|114:130|114:130|116:123|116:123|113:119|113:119|115:112|115:112|108:110|108:110|105:106|105:106|98:104|98:104|100:97|100:97|98:93|98:93|99:86|99:86|92:84|92:84|90:80|90:80|83:78|83:78|85:71|85:71|82:67|82:67|84:60|84:60|77:59|77:59|72:50,2,532.832792218229,2|8|2,3:2|0:2|3:2,0:0:0:0:
299,209,40316,1,2,3:2:0:0:
469,141,40785,1,2,3:2:0:0:
140,88,41254,5,4,3:2:0:0:
140,88,41722,1,2,0:2:0:0:
140,88,42191,1,2,0:2:0:0:
323,87,42660,1,10,0:2:0:0:
17,88,43129,6,0,B|22:97|22:97|28:100|28:100|26:106|26:106|28:111|28:111|26:117|26:117|32:120|32:120|34:124|34:124|41:127|41:127|39:133|39:133|44:144|44:144|41:138|41:138|39:142|39:142|44:144|44:144|46:152|46:152|52:155|52:155|48:161|48:161|50:166|50:166|46:172|46:172|52:176|52:176|53:181|53:181|59:184|59:184|56:190|56:190|59:204|59:204|57:195|57:195|54:201|54:201|59:204|59:204|60:210|60:210|67:214|67:214|63:220|63:220|64:225|64:225|61:231|61:231|67:234|67:234|68:239|68:239|74:243|74:243|70:249|70:249|71:254|71:254|68:260|68:260|74:264|74:264|77:267|77:267|84:268|84:268|84:275|84:275|87:278|87:278|86:285|86:285|94:286|94:286|97:290|97:290|104:290|104:290|103:297|103:297|107:301|107:301|106:308|106:308|114:309|114:309|115:310|115:310|115:313|115:313|120:318|120:318|115:323|115:323|115:328|115:328|110:333|110:333|115:338|115:338|115:343|115:343|120:348|120:348|115:353|115:353|115:358|115:358|110:363|110:363|115:368|115:368|115:372|115:372|115:371|115:371|112:365|112:365|118:362|118:362|120:357|120:357|126:353|126:353|122:347|122:347|124:342|124:342|121:336|121:336|127:333|127:333|128:328|128:328|134:325|134:325|131:319|131:319|133:312|133:312|132:306|132:306|139:305|139:305|141:302|141:302|148:301|148:301|148:294|148:294|151:290|151:290|150:283|150:283|157:282|157:282|160:278|160:278|167:277|167:277|166:270|166:270|172:263|172:263|170:259|170:259|174:257|174:257|175:253|175:253|181:249|181:249|178:243|178:243|179:238|179:238|175:232|175:232|182:229|182:229|183:224|183:224|189:221|189:221|186:214|186:214|187:210|187:210|183:203|183:203|190:200|190:200|191:195|191:195|197:192|197:192|194:186|194:186|195:181|195:181|192:175|192:175|198:171|198:171|200:163|200:163|200:162,1,711.388773815304,4|8,3:2|0:2,0:0:0:0:
108,84,43832,1,2,0:2:0:0:
199,84,44066,2,0,B|202:94|202:94|208:97|208:97|205:104|205:104|207:108|207:108|204:115|204:115|210:118|210:118|211:123|211:123|218:126|218:126|214:132|214:132|216:137|216:137|213:143|213:143|219:146|219:146|221:151|221:151|227:154|227:154|224:161|224:161|225:165|225:165|222:172|222:172|228:175|228:175|230:180|230:180|236:183|236:183|233:189|233:189|234:193|234:193|234:194|234:194|231:200|231:200|238:203|238:203|240:208|240:208|246:211|246:211|243:217|243:217|245:222|245:222|242:228|242:228|249:231|249:231|251:236|251:236|257:239|257:239|254:245|254:245|256:250|256:250|253:256|253:256|260:259|260:259|261:264|261:264|268:267|268:267|265:273|265:273|267:278|267:278|264:284|264:284|270:287|270:287|272:292|272:292|279:295|279:295|276:301|276:301|278:306|278:306|275:312|275:312|281:315|281:315|283:320|283:320|289:323|289:323|287:329|287:329|290:338,1,340.354214046205,2|2,3:2|0:2,0:0:0:0:
369,128,44535,1,10,0:2:0:0:
437,188,44769,1,2,0:2:0:0:
254,335,45004,6,0,B|248:326|248:326|242:324|242:324|243:318|243:318|241:313|241:313|242:306|242:306|235:305|235:305|233:301|233:301|226:299|226:299|227:292|227:292|221:282|221:282|225:288|225:288|226:283|226:283|221:282|221:282|221:274|221:274|216:269|216:269|220:264|220:264|220:259|220:259|225:254|225:254|220:249|220:249|220:244|220:244|215:240|215:240|219:234|219:234|219:220|219:220|219:229|219:229|224:225|224:225|219:220|219:220|217:214|217:214|211:211|211:211|214:205|214:205|213:200|213:200|216:194|216:194|210:190|210:190|208:186|208:186|202:183|202:183|205:176|205:176|203:171|203:171|207:165|207:165|200:162|200:162|200:161|200:161|200:157|200:157|196:152|196:152|201:147|201:147|202:142|202:142|207:138|207:138|203:132|203:132|203:127|203:127|199:122|199:122|204:117|204:117|205:112|205:112|210:108|210:108|206:102|206:102|206:99|206:99|206:98|206:98|200:94|200:94|203:88|203:88|202:83|202:83|206:77|206:77|200:73|200:73|199:68|199:68|193:65|193:65|197:58|197:58|196:53|196:53|199:48|199:48|193:44|193:44|192:38|192:38|196:44|196:44|191:48|191:48|190:52|190:52|185:56|185:56|189:62|189:62|188:67|188:67|193:72|193:72|187:76|187:76|186:82|186:82|181:86|181:86|185:92|185:92|184:100|184:100|189:101|189:101|188:106|188:106|190:109|190:109|189:116|189:116|196:118|196:118|199:122|199:122|206:123|206:123|204:130|204:130|207:134|207:134|206:141|206:141|213:143|213:143|219:152|219:152|215:147|215:147|220:148|220:148|219:152|219:152|221:160|221:160|218:166|218:166|224:170|224:170|226:174|226:174|232:178|232:178|229:184|229:184|230:189|230:189|227:195|227:195|233:199|233:199|235:204|235:204|241:207|241:207|238:213|238:213|239:218|239:218|236:224|236:224|242:228|242:228|243:232|243:232|250:236|250:236|246:242|246:242|249:251,1,718.096052267025,2|8,3:2|0:2,0:0:0:0:
341,218,45707,1,2,0:2:0:0:
432,211,45941,2,0,B|428:221|428:221|431:227|431:227|425:230|425:230|423:235|423:235|417:238|417:238|420:244|420:244|418:249|418:249|421:255|421:255|415:258|415:258|413:263|413:263|407:266|407:266|410:272|410:272|408:277|408:277|411:284|411:284|404:287|404:287|403:291|403:291|396:294|396:294|399:301|399:301|398:305|398:305|401:312|401:312|394:315|394:315|393:318|393:318|392:317|392:317|396:310|396:310|389:307|389:307|388:302|388:302|381:299|381:299|384:293|384:293|382:288|382:288|386:282|386:282|379:279|379:279|378:274|378:274|371:271|371:271|374:265|374:265|372:260|372:260|376:254|376:254|369:251|369:251|368:246|368:246|361:243|361:243|364:236|364:236|362:232|362:232|366:225|366:225|359:222|359:222|358:218|358:218|351:215|351:215|354:208|354:208|352:204|352:204|356:197|356:197|349:194|349:194|348:189|348:189|341:186|341:186|344:180|344:180|341:171,1,348.337447011139,2|2,3:2|0:2,0:0:0:0:
262,255,46410,1,10,0:2:0:0:
194,315,46644,1,2,0:2:0:0:
381,359,46879,6,0,B|387:351|387:351|387:344|387:344|393:343|393:343|397:339|397:339|403:338|403:338|403:331|403:331|406:327|406:327|405:320|405:320|412:319|412:319|419:310|419:310|415:315|415:315|420:315|420:315|419:310|419:310|421:302|421:302|417:296|417:296|423:292|423:292|424:287|424:287|430:284|430:284|426:278|426:278|428:273|428:273|424:267|424:267|430:263|430:263|433:249|433:249|431:258|431:258|437:255|437:255|433:249|433:249|433:244|433:244|428:238|428:238|433:233|433:233|433:228|433:228|438:223|438:223|433:218|433:218|434:213|434:213|429:208|429:208|434:203|434:203|434:198|434:198|439:194|439:194|434:188|434:188|434:187|434:187|433:184|433:184|428:179|428:179|432:174|432:174|431:169|431:169|435:163|435:163|429:159|429:159|429:154|429:154|423:150|423:150|427:144|427:144|426:139|426:139|430:133|430:133|424:129|424:129|424:126|424:126|424:124|424:124|419:119|419:119|425:114|425:114|425:109|425:109|430:104|430:104|426:99|426:99|426:94|426:94|421:89|421:89|427:84|427:84|427:79|427:79|432:75|432:75|428:69|428:69|428:64|428:64|422:59|422:59|427:54|427:54|426:50|426:50|431:44|431:44|425:40|425:40|425:34|425:34|419:30|419:30|424:24|424:24|423:19|423:19|427:14|427:14|422:9|422:9|421:2|421:2|425:6|425:6|421:10|421:10|421:14|421:14|415:19|415:19|420:24|420:24|420:29|420:29|425:34|425:34|420:39|420:39|420:44|420:44|415:49|415:49|419:54|419:54|419:64|419:64|421:68|421:68|417:70|417:70|416:74|416:74|409:77|409:77|412:83|412:83|411:88|411:88|414:94|414:94|408:98|408:98|406:102|406:102|400:105|400:105|403:112|403:112|401:117|401:117|404:123|404:123|398:126|398:126|397:131|397:131|390:134|390:134|393:140|393:140|392:145|392:145|395:151|395:151|389:154|389:154|386:162|386:162|386:163,1,713.241911730489,2|8,3:2|0:2,0:0:0:0:
291,56,47582,1,2,0:2:0:0:
200,49,47816,2,0,B|202:59|202:59|208:63|208:63|204:69|204:69|205:74|205:74|201:80|201:80|207:84|207:84|208:89|208:89|214:93|214:93|210:98|210:98|211:103|211:103|207:109|207:109|213:113|213:113|214:118|214:118|219:122|219:122|215:128|215:128|216:133|216:133|212:138|212:138|218:142|218:142|219:147|219:147|225:151|225:151|221:157|221:157|222:161|222:161|222:162|222:162|220:169|220:169|227:171|227:171|229:175|229:175|236:178|236:178|234:184|234:184|236:189|236:189|234:195|234:195|240:198|240:198|242:202|242:202|249:204|249:204|247:211|247:211|249:216|249:216|247:223|247:223|254:225|254:225|256:229|256:229|263:232|263:232|260:238|260:238|263:243|263:243|260:249|260:249|267:252|267:252|269:256|269:256|276:258|276:258|274:265|274:265|276:270|276:270|274:276|274:276|280:279|280:279|283:283|283:283|289:285|289:285|287:292|287:292|291:300,1,338.765369885573,2|2,3:2|0:2,0:0:0:0:
370,93,48285,1,10,0:2:0:0:
438,153,48519,1,2,0:2:0:0:
246,338,48754,6,0,B|247:328|247:328|242:322|242:322|247:318|247:318|247:313|247:313|253:308|253:308|248:303|248:303|248:298|248:298|243:292|243:292|249:288|249:288|249:283|249:283|254:278|254:278|249:273|249:273|250:268|250:268|245:263|245:263|250:258|250:258|250:253|250:253|256:248|256:248|251:243|251:243|251:238|251:238|247:233|247:233|252:228|252:228|252:224|252:224|252:223|252:223|257:218|257:218|251:213|251:213|251:208|251:208|246:203|246:203|250:198|250:198|250:193|250:193|255:188|255:188|249:183|249:183|249:178|249:178|244:173|244:173|248:168|248:168|248:163|248:163|253:158|253:158|247:153|247:153|247:148|247:148|242:144|242:144|246:138|246:138|246:133|246:133|251:128|251:128|246:123|246:123|245:118|245:118|240:114|240:114|245:108|245:108|244:103|244:103|249:98|249:98|244:93|244:93|243:88|243:88|238:84|238:84|243:78|243:78|242:69,1,342.174745650522,2|8,3:2|0:2,0:0:0:0:
149,249,49457,2,0,B|147:259|147:259|152:265|152:265|146:269|146:269|145:274|145:274|140:278|140:278|144:284|144:284|143:289|143:289|147:295|147:295|142:299|142:299|141:304|141:304|135:308|135:308|139:314|139:314|139:319|139:319|143:324|143:324|137:328|137:328|136:333|136:333|131:338|131:338|135:343|135:343|134:348|134:348|138:354|138:354|133:358|133:358|132:362|132:362|132:361|132:361|137:356|137:356|133:351|133:351|133:346|133:346|129:341|129:341|134:336|134:336|135:331|135:331|140:327|140:327|135:321|135:321|136:316|136:316|131:311|131:311|137:306|137:306|137:301|137:301|142:297|142:297|138:291|138:291|138:286|138:286|134:281|134:281|139:277|139:277|140:272|140:272|145:267|145:267|140:261|140:261|141:256|141:256|136:251|136:251|142:246|142:246|142:241|142:241|148:237|148:237|143:231|143:231|143:226|143:226|139:221|139:221|144:216|144:216|145:207,1,338.36409195932,2|10,3:2|0:2,0:0:0:0:
39,153,50160,1,10,0:2:0:0:
412,78,50629,6,0,B|410:88|410:88|415:94|415:94|409:98|409:98|408:103|408:103|403:107|403:107|407:113|407:113|406:118|406:118|410:123|410:123|405:128|405:128|403:140|403:140|404:133|404:133|400:136|400:136|403:140|403:140|400:147|400:147|403:153|403:153|397:156|397:156|395:161|395:161|388:164|388:164|391:170|391:170|389:175|389:175|392:181|392:181|386:184|386:184|380:198|380:198|384:189|384:189|377:192|377:192|380:198|380:198|377:202|377:202|378:209|378:209|372:210|372:210|368:215|368:215|361:216|361:216|363:223|363:223|360:227|360:227|361:234|361:234|354:235|354:235|351:240|351:240|345:241|345:241|346:248|346:248|345:249|345:249|345:252|345:252|349:258|349:258|344:262|344:262|343:267|343:267|338:272|338:272|342:277|342:277|342:282|342:282|346:288|346:288|341:292|341:292|340:297|340:297|335:302|335:302|339:307|339:307|339:311|339:311|338:312|338:312|337:319|337:319|330:318|330:318|327:321|327:321|320:320|320:320|319:327|319:327|315:330|315:330|314:338|314:338|307:337|307:337|303:340|303:340|296:339|296:339|295:346|295:346|290:350|290:350|286:345|286:345|291:341|291:341|291:337|291:337|297:332|297:332|292:327|292:327|293:322|293:322|288:316|288:316|294:312|294:312|294:307|294:307|300:302|300:302|295:297|295:297|296:288|296:288|291:287|291:287|292:282|292:282|290:279|290:279|292:272|292:272|285:270|285:270|283:266|283:266|276:264|276:264|277:257|277:257|275:252|275:252|277:246|277:246|270:244|270:244|264:234|264:234|267:240|267:240|263:238|263:238|264:234|264:234|261:226|261:226|264:220|264:220|258:217|258:217|256:212|256:212|250:209|250:209|253:203|253:203|251:198|251:198|254:192|254:192|248:189|248:189|246:184|246:184|240:181|240:181|243:174|243:174|241:170|241:170|244:163|244:163|238:160|238:160|236:156|236:156|229:153|229:153|233:146|233:146|229:137,1,727.088349646639,6|8,3:2|0:2,0:0:0:0:
321,74,51332,1,2,0:2:0:0:
230,74,51566,2,0,B|228:84|228:84|231:90|231:90|225:94|225:94|224:99|224:99|218:102|218:102|222:108|222:108|220:113|220:113|224:119|224:119|218:123|218:123|217:128|217:128|211:131|211:131|215:137|215:137|213:142|213:142|217:148|217:148|211:152|211:152|210:157|210:157|204:161|204:161|207:167|207:167|206:171|206:171|210:177|210:177|204:181|204:181|203:185|203:185|203:186|203:186|196:188|196:188|198:195|198:195|196:200|196:200|199:206|199:206|192:209|192:209|190:213|190:213|184:216|184:216|186:222|186:222|184:227|184:227|187:233|187:233|180:236|180:236|178:241|178:241|171:243|171:243|174:250|174:250|172:254|172:254|174:261|174:261|168:263|168:263|166:268|166:268|159:270|159:270|162:277|162:277|160:281|160:281|162:288|162:288|155:291|155:291|153:295|153:295|147:298|147:298|149:304|149:304|147:309|147:309|150:315|150:315|143:318|143:318|139:327,1,341.008688924585,2|2,3:2|0:2,0:0:0:0:
60,118,52035,1,10,0:2:0:0:
26,213,52269,1,2,0:2:0:0:
210,325,52504,6,0,B|214:335|214:335|221:337|221:337|218:344|218:344|221:348|221:348|218:355|218:355|225:357|225:357|227:362|227:362|233:364|233:364|231:371|231:371|236:382|236:382|233:375|233:375|231:380|231:380|236:382|236:382|238:375|238:375|235:369|235:369|242:365|242:365|243:361|243:361|250:358|250:358|246:351|246:351|248:347|248:347|245:340|245:340|251:337|251:337|256:323|256:323|253:332|253:332|259:329|259:329|256:323|256:323|257:318|257:318|254:312|254:312|260:308|260:308|261:303|261:303|267:299|267:299|263:293|263:293|264:289|264:289|261:283|261:283|267:279|267:279|268:274|268:274|274:270|274:270|270:264|270:264|271:262|271:262|271:260|271:260|266:254|266:254|272:250|272:250|272:245|272:245|277:240|277:240|272:235|272:235|273:230|273:230|268:224|268:224|273:219|273:219|273:214|273:214|279:210|279:210|274:204|274:204|274:200|274:200|269:195|269:195|274:190|274:190|274:185|274:185|279:180|279:180|274:175|274:175|274:170|274:170|268:165|268:165|273:160|273:160|273:154|273:154|278:149|278:149|273:144|273:144|273:138|273:138|267:136|267:136|269:129|269:129|267:126|267:126|270:119|270:119|263:117|263:117|261:112|261:112|255:110|255:110|257:103|257:103|255:99|255:99|258:92|258:92|251:90|251:90|247:81|247:81|243:78|243:78|247:74|247:74|246:70|246:70|251:65|251:65|246:60|246:60|246:55|246:55|241:50|241:50|245:45|245:45|245:40|245:40|250:35|250:35|245:30|245:30|244:19|244:19|244:25|244:25|241:22|241:22|244:19|244:19|242:27|242:27|235:31|235:31|239:37|239:37|237:42|237:42|241:48|241:48|234:52|234:52|233:56|233:56|227:60|227:60|230:66|230:66|229:71|229:71|232:77|232:77|226:80|226:80|225:85|225:85|218:88|218:88|222:95|222:95|220:99|220:99|224:106|224:106|218:109|218:109|215:118,1,733.874650643998,2|8,3:2|0:2,0:0:0:0:
123,208,53207,1,2,0:2:0:0:
32,201,53441,2,0,B|37:210|37:210|43:213|43:213|41:219|41:219|43:224|43:224|41:231|41:231|48:233|48:233|50:237|50:237|56:240|56:240|54:246|54:246|56:251|56:251|54:258|54:258|61:260|61:260|63:264|63:264|69:267|69:267|67:273|67:273|69:278|69:278|67:285|67:285|74:287|74:287|76:291|76:291|83:294|83:294|80:300|80:300|82:304|82:304|82:303|82:303|88:300|88:300|85:293|85:293|86:289|86:289|83:282|83:282|89:279|89:279|90:274|90:274|96:271|96:271|93:265|93:265|94:260|94:260|91:254|91:254|97:250|97:250|98:245|98:245|104:242|104:242|101:236|101:236|102:231|102:231|98:225|98:225|105:221|105:221|106:216|106:216|112:213|112:213|109:207|109:207|110:202|110:202|106:196|106:196|112:192|112:192|114:188|114:188|120:184|120:184|116:178|116:178|118:173|118:173|114:167|114:167|120:164|120:164|123:154,1,338.310973634678,2|2,3:2|0:2,0:0:0:0:
202,245,53910,1,10,0:2:0:0:
270,305,54144,1,2,0:2:0:0:
83,349,54379,6,0,B|81:339|81:339|76:335|76:335|80:329|80:329|79:324|79:324|83:318|83:318|77:314|77:314|76:309|76:309|71:305|71:305|75:299|75:299|73:288|73:288|74:294|74:294|77:291|77:291|73:288|73:288|71:280|71:280|65:276|65:276|69:270|69:270|67:265|67:265|71:259|71:259|65:256|65:256|64:251|64:251|58:247|58:247|61:241|61:241|58:228|58:228|60:236|60:236|63:231|63:231|58:228|58:228|55:222|55:222|49:220|49:220|51:213|51:213|49:208|49:208|52:202|52:202|45:199|45:199|43:195|43:195|37:192|37:192|39:185|39:185|37:181|37:181|40:174|40:174|33:171|33:171|32:167|32:167|26:163|26:163|30:157|30:157|29:152|29:152|33:146|33:146|27:142|27:142|26:137|26:137|20:133|20:133|24:128|24:128|23:123|23:123|27:117|27:117|21:113|21:113|20:110|20:110|21:108|21:108|18:102|18:102|24:99|24:99|26:94|26:94|32:91|32:91|30:85|30:85|31:80|31:80|28:74|28:74|35:71|35:71|37:66|37:66|43:63|43:63|40:57|40:57|42:52|42:52|46:58|46:58|40:62|40:62|40:67|40:67|34:71|34:71|38:77|38:77|37:82|37:82|41:87|41:87|36:91|36:91|35:96|35:96|29:100|29:100|33:106|33:106|32:113|32:113|37:117|37:117|32:122|32:122|32:126|32:126|27:131|27:131|32:136|32:136|32:141|32:141|37:146|37:146|33:151|33:151|33:156|33:156|28:161|28:161|33:166|33:166|33:175|33:175|38:177|38:177|36:181|36:181|38:185|38:185|35:192|35:192|42:194|42:194|44:198|44:198|51:201|51:201|49:207|49:207|51:212|51:212|49:219|49:219|55:221|55:221|57:225|57:225|64:228|64:228|62:234|62:234|64:239|64:239|62:246|62:246|68:248|68:248|71:253|71:253|77:255|77:255|75:262|75:262|78:268|78:268|79:270,1,707.107456857085,2|0,3:2|0:2,0:0:0:0:
173,46,55082,1,0,3:2:0:0:
264,39,55316,2,0,B|261:49|261:49|264:55|264:55|257:58|257:58|256:63|256:63|249:66|249:66|253:72|253:72|251:77|251:77|254:84|254:84|248:87|248:87|246:91|246:91|240:94|240:94|243:101|243:101|241:105|241:105|244:112|244:112|238:115|238:115|236:120|236:120|230:123|230:123|233:129|233:129|232:134|232:134|235:140|235:140|228:143|228:143|227:147|227:147|227:148|227:148|220:151|220:151|223:157|223:157|221:162|221:162|224:168|224:168|218:171|218:171|216:176|216:176|210:179|210:179|213:185|213:185|211:190|211:190|214:196|214:196|208:199|208:199|206:204|206:204|199:207|199:207|202:213|202:213|201:219|201:219|203:225|203:225|197:228|197:228|195:233|195:233|189:236|189:236|192:242|192:242|190:247|190:247|193:253|193:253|187:256|187:256|185:261|185:261|179:264|179:264|181:270|181:270|180:275|180:275|183:281|183:281|176:284|176:284|173:293,1,339.823479019682,2|2,0:2|3:2,0:0:0:0:
94,83,55785,1,2,0:2:0:0:
26,143,56019,1,2,0:2:0:0:
218,328,56254,6,0,B|217:318|217:318|211:313|211:313|215:308|215:308|215:303|215:303|219:297|219:297|214:293|214:293|213:288|213:288|207:284|207:284|212:278|212:278|211:273|211:273|216:267|216:267|210:263|210:263|209:258|209:258|204:254|204:254|208:248|208:248|208:243|208:243|212:238|212:238|206:233|206:233|206:228|206:228|200:224|200:224|204:218|204:218|204:215|204:215|204:214|204:214|210:209|210:209|205:204|205:204|206:199|206:199|202:193|202:193|207:189|207:189|208:184|208:184|213:179|213:179|209:174|209:174|209:169|209:169|205:163|205:163|210:159|210:159|211:154|211:154|217:150|217:150|212:144|212:144|213:139|213:139|208:134|208:134|214:129|214:129|215:124|215:124|220:120|220:120|216:114|216:114|216:110|216:110|212:104|212:104|217:100|217:100|218:95|218:95|224:90|224:90|219:84|219:84|220:79|220:79|215:74|215:74|221:69|221:69|222:60,1,341.432470098817,2|0,3:2|0:0,0:0:0:0:
315,239,56957,2,0,B|316:249|316:249|321:254|321:254|317:259|317:259|317:264|317:264|313:270|313:270|318:274|318:274|319:279|319:279|324:284|324:284|319:289|319:289|320:294|320:294|315:300|315:300|321:304|321:304|321:309|321:309|327:314|327:314|322:319|322:319|322:324|322:324|318:330|318:330|323:334|323:334|324:339|324:339|329:344|329:344|325:349|325:349|325:353|325:353|325:352|325:352|330:347|330:347|325:342|325:342|324:337|324:337|319:332|319:332|324:327|324:327|324:322|324:322|329:317|329:317|323:312|323:312|323:307|323:307|318:302|318:302|323:297|323:297|323:292|323:292|327:287|327:287|322:282|322:282|322:277|322:277|317:272|317:272|322:267|322:267|321:262|321:262|326:257|326:257|321:252|321:252|321:247|321:247|316:243|316:243|321:237|321:237|320:232|320:232|325:227|325:227|320:222|320:222|320:217|320:217|315:213|315:213|319:207|319:207|319:198,1,338.901559697489,0|2,3:2|0:2,0:0:0:0:
425,143,57660,1,2,0:2:0:0:
73,214,58129,6,0,B|78:223|78:223|85:225|85:225|83:232|83:232|85:236|85:236|83:243|83:243|90:245|90:245|92:249|92:249|99:251|99:251|97:258|97:258|99:262|99:262|98:269|98:269|104:271|104:271|107:276|107:276|113:278|113:278|111:284|111:284|114:289|114:289|112:295|112:295|119:297|119:297|120:300|120:300|121:298|121:298|118:292|118:292|125:289|125:289|127:284|127:284|134:282|134:282|131:275|131:275|133:271|133:271|130:264|130:264|137:262|137:262|139:257|139:257|146:254|146:254|143:247|143:247|145:243|145:243|143:236|143:236|149:234|149:234|151:229|151:229|158:227|158:227|156:220|156:220|160:210|160:210|158:215|158:215|156:212|156:212|160:210|160:210|161:201|161:201|166:196|166:196|161:191|161:191|161:186|161:186|157:181|157:181|162:176|162:176|162:171|162:171|168:167|168:167|163:161|163:161|163:156|163:156|159:151|159:151|164:146|164:146|164:141|164:141|169:137|169:137|165:131|165:131|165:126|165:126|160:121|160:121|166:116|166:116|166:112|166:112|164:119|164:119|171:121|171:121|174:125|174:125|181:127|181:127|179:134|179:134|181:138|181:138|179:145|179:145|186:147|186:147|189:151|189:151|196:153|196:153|194:160|194:160|196:164|196:164|195:171|195:171|201:173|201:173|204:177|204:177|211:179|211:179|209:186|209:186|211:190|211:190|210:197|210:197|216:199|216:199|219:203|219:203|226:205|226:205|224:212|224:212|226:216|226:216|225:223|225:223|231:225|231:225|238:236|234:229|234:229|239:231|239:231|238:236,1,570.690127761121,6|2,3:2|0:2,0:0:0:0:
409,119,58832,2,0,B|404:128|404:128|406:135|406:135|399:137|399:137|397:141|397:141|390:143|390:143|392:150|392:150|390:154|390:154|392:161|392:161|385:163|385:163|383:167|383:167|376:169|376:169|378:176|378:176|375:181|375:181|377:187|377:187|371:189|371:189|368:194|368:194|361:196|361:196|363:202|363:202|362:205|362:205|361:207|361:207|363:214|363:214|356:216|356:216|354:220|354:220|347:223|347:223|349:229|349:229|347:234|347:234|349:240|349:240|342:243|342:243|340:247|340:247|333:249|333:249|335:256|335:256|333:260|333:260|335:267|335:267|328:269|328:269|326:273|326:273|319:276|319:276|321:282|321:282|316:292|316:292|319:287|319:287|320:291|320:291|316:292|316:292|316:283|316:283|321:278|321:278|316:273|316:273|316:268|316:268|310:263|310:263|315:258|315:258|315:253|315:253|320:248|320:248|315:243|315:243|315:238|315:238|310:233|310:233|315:228|315:228|315:223|315:223|319:218|319:218|314:213|314:213|314:208|314:208|309:203|309:203|314:198|314:198|314:194|314:194|314:193|314:193|315:186|315:186|309:184|309:184|306:180|306:180|299:178|299:178|301:171|301:171|299:167|299:167|301:160|301:160|294:158|294:158|292:154|292:154|285:152|285:152|287:145|287:145|284:141|284:141|286:134|286:134|279:132|279:132|277:128|277:128|270:126|270:126|272:119|272:119|270:115|270:115|272:108|272:108|265:106|265:106|262:102|262:102|255:100|255:100|257:93|257:93|255:89|255:89|257:82|257:82|250:80|250:80|244:69|248:76|248:76|243:74|243:74|244:69,1,571.728624858094,2|2,0:2|0:2,0:0:0:0:
93,84,59535,1,10,0:2:0:0:
202,74,59769,1,2,0:2:0:0:
433,265,60004,6,0,B|430:275|430:275|433:281|433:281|426:284|426:284|425:289|425:289|418:292|418:292|421:299|421:299|420:303|420:303|423:310|423:310|417:313|417:313|415:317|415:317|409:320|409:320|412:327|412:327|410:332|410:332|413:338|413:338|407:341|407:341|405:346|405:346|399:349|399:349|402:355|402:355|401:358|401:358|400:356|400:356|393:354|393:354|395:348|395:348|393:343|393:343|395:336|395:336|388:334|388:334|385:330|385:330|379:328|379:328|381:321|381:321|378:317|378:317|380:310|380:310|373:308|373:308|371:304|371:304|364:302|364:302|366:295|366:295|363:291|363:291|365:284|365:284|359:282|359:282|353:272|353:272|356:278|356:278|352:276|352:276|353:272|353:272|349:264|349:264|352:258|352:258|345:255|345:255|343:251|343:251|336:248|336:248|339:242|339:242|337:237|337:237|339:231|339:231|332:228|332:228|330:224|330:224|324:221|324:221|326:215|326:215|324:210|324:210|326:203|326:203|320:201|320:201|317:197|317:197|311:194|311:194|313:188|313:188|311:183|311:183|314:177|314:177|308:173|308:173|307:169|307:169|300:165|300:165|304:159|304:159|302:154|302:154|306:148|306:148|299:145|299:145|298:140|298:140|292:137|292:137|295:130|295:130|293:126|293:126|297:119|297:119|291:116|291:116|289:111|289:111|283:108|283:108|286:102|286:102|285:97|285:97|288:91|288:91|282:88|282:88|280:83|280:83|274:79|274:79|277:73|277:73|276:68|276:68|279:62|279:62|273:59|273:59|269:46|271:54|271:54|266:51|266:51|269:46,1,573.559488059103,2|2,3:2|0:2,0:0:0:0:
106,254,60707,2,0,B|111:263|111:263|118:265|118:265|116:272|116:272|119:276|119:276|117:283|117:283|124:285|124:285|126:289|126:289|133:291|133:291|131:298|131:298|134:302|134:302|132:309|132:309|139:311|139:311|141:315|141:315|148:317|148:317|146:323|146:323|149:328|149:328|147:335|147:335|154:336|154:336|155:339|155:339|156:337|156:337|153:331|153:331|160:328|160:328|162:323|162:323|168:321|168:321|165:314|165:314|167:309|167:309|165:303|165:303|171:300|171:300|173:295|173:295|180:293|180:293|177:286|177:286|179:282|179:282|176:275|176:275|183:272|183:272|185:268|185:268|191:265|191:265|189:259|189:259|193:248|193:248|191:254|191:254|189:250|189:250|193:248|193:248|197:240|197:240|203:238|203:238|201:231|201:231|203:227|203:227|200:220|200:220|207:218|207:218|209:213|209:213|216:211|216:211|213:204|213:204|215:199|215:199|213:193|213:193|220:190|220:190|222:186|222:186|228:183|228:183|226:177|226:177|228:172|228:172|225:166|225:166|232:163|232:163|234:159|234:159|240:155|240:155|237:149|237:149|238:144|238:144|234:138|234:138|240:134|240:134|242:130|242:130|248:126|248:126|244:120|244:120|245:115|245:115|242:109|242:109|248:105|248:105|249:101|249:101|255:97|255:97|252:91|252:91|253:86|253:86|249:80|249:80|256:76|256:76|257:71|257:71|263:68|263:68|259:62|259:62|261:57|261:57|257:51|257:51|263:47|263:47|264:42|264:42|271:39|271:39|267:33|267:33|270:21|270:21|268:28|268:28|266:23|266:23|270:21,1,584.43244705106,2|2,0:2|0:2,0:0:0:0:
374,111,61410,1,10,0:2:0:0:
265,101,61644,1,2,0:2:0:0:
34,95,61879,6,0,B|33:105|33:105|38:111|38:111|33:115|33:115|32:120|32:120|27:125|27:125|32:130|32:130|32:135|32:135|36:141|36:141|31:145|31:145|31:150|31:150|25:155|25:155|30:160|30:160|30:165|30:165|34:170|34:170|29:175|29:175|29:180|29:180|24:185|24:185|28:190|28:190|28:193|28:193|28:195|28:195|34:199|34:199|30:205|30:205|30:210|30:210|26:215|26:215|32:220|32:220|33:225|33:225|38:229|38:229|34:235|34:235|35:240|35:240|31:245|31:245|36:250|36:250|37:255|37:255|43:259|43:259|38:264|38:264|39:269|39:269|35:275|35:275|40:279|40:279|42:290|42:290|41:284|41:284|45:287|45:287|42:290|42:290|40:299|40:299|34:303|34:303|38:309|38:309|37:313|37:313|40:319|40:319|34:323|34:323|33:328|33:328|27:332|27:332|31:338|31:338|30:343|30:343|34:349|34:349|28:352|28:352|27:357|27:357|21:361|21:361|24:367|24:367|23:372|23:372|27:378|27:378|21:382|21:382|20:386|20:386|25:381|25:381|20:376|20:376|20:371|20:371|15:365|15:365|21:361|21:361|21:356|21:356|26:351|26:351|21:346|21:346|21:341|21:341|16:335|16:335|21:330|21:330|21:325|21:325|26:320|26:320|21:315|21:315|22:310|22:310|17:305|17:305|22:300|22:300|22:295|22:295|27:290|27:290|22:285|22:285|22:280|22:280|17:275|17:275|22:270|22:270|23:265|23:265|28:261|28:261|23:255|23:255|23:243|23:250|23:250|19:247|19:247|23:243,1,572.33118740671,2|2,3:2|0:2,0:0:0:0:
187,265,62582,2,0,B|190:275|190:275|196:279|196:279|192:285|192:285|193:290|193:290|190:296|190:296|196:299|196:299|197:304|197:304|203:308|203:308|199:314|199:314|201:319|201:319|197:325|197:325|203:328|203:328|204:333|204:333|210:337|210:337|207:343|207:343|208:348|208:348|204:354|204:354|210:358|210:358|211:360|211:360|212:358|212:358|211:351|211:351|218:350|218:350|221:346|221:346|228:345|228:345|227:338|227:338|230:334|230:334|229:327|229:327|236:326|236:326|239:322|239:322|246:321|246:321|245:314|245:314|248:310|248:310|247:303|247:303|254:302|254:302|257:298|257:298|264:297|264:297|263:290|263:290|270:281|270:281|266:286|266:286|265:282|265:282|270:281|270:281|273:273|273:273|279:270|279:270|276:264|276:264|278:259|278:259|275:252|275:252|281:249|281:249|283:244|283:244|290:241|290:241|286:235|286:235|288:230|288:230|285:224|285:224|292:221|292:221|293:216|293:216|300:213|300:213|297:207|297:207|298:202|298:202|295:196|295:196|302:193|302:193|303:189|303:189|303:188|303:188|310:185|310:185|307:179|307:179|308:174|308:174|305:168|305:168|312:165|312:165|313:160|313:160|320:157|320:157|317:150|317:150|318:146|318:146|315:139|315:139|322:136|322:136|323:132|323:132|330:129|330:129|327:122|327:122|328:118|328:118|325:111|325:111|332:108|332:108|333:103|333:103|340:100|340:100|337:94|337:94|338:89|338:89|335:83|335:83|342:80|342:80|343:75|343:75|350:72|350:72|347:66|347:66|351:54|351:54|348:61|348:61|346:56|346:56|351:54,1,589.100671171976,2|2,0:2|0:2,0:0:0:0:
242,115,63285,1,10,0:2:0:0:
132,109,63519,1,2,0:2:0:0:
326,47,63754,5,2,3:2:0:0:
256,192,64222,12,2,65160,3:2:0:0:
255,160,65629,5,2,3:2:0:0:
116,98,66332,2,0,B|122:107|122:107|128:109|128:109|127:115|127:115|129:120|129:120|128:127|128:127|135:128|135:128|137:132|137:132|144:134|144:134|143:141|143:141|149:151|149:151|145:145|145:145|144:150|144:150|149:151|149:151|150:159|150:159|155:163|155:163|151:169|151:169|151:174|151:174|147:179|147:179|152:184|152:184|153:189|153:189|158:193|158:193|154:199|154:199|155:213|155:213|154:204|154:204|150:209|150:209|155:213|155:213|158:218|158:218|165:219|165:219|164:226|164:226|167:230|167:230|165:237|165:237|172:238|172:238|175:242|175:242|182:243|182:243|181:250|181:250|184:255|184:255|182:261|182:261|189:263|189:263|190:264|190:264|191:267|191:267|197:271|197:271|194:277|194:277|195:282|195:282|191:288|191:288|197:292|197:292|199:297|199:297|205:300|205:300|201:306|201:306|203:311|203:311|199:317|199:317|205:321|205:321|206:324|206:324|207:325|207:325|214:327|214:327|212:334|212:334|215:338|215:338|214:345|214:345|220:346|220:346|223:351|223:351|230:352|230:352|229:359|229:359|232:363|232:363|230:370|230:370|237:371|237:371|240:376|240:376|235:371|235:371|240:366|240:366|240:362|240:362|245:357|245:357|240:352|240:352|240:347|240:347|235:341|235:341|241:336|241:336|241:331|241:331|246:326|246:326|241:321|241:321|241:314|241:314|239:308|239:308|245:306|245:306|246:303|246:303|253:300|253:300|251:294|251:294|253:289|253:289|251:283|251:283|257:280|257:280|259:276|259:276|266:274|266:274|264:267|264:267|268:258|268:258|266:254|266:254|270:252|270:252|271:248|271:248|277:245|277:245|274:238|274:238|276:234|276:234|272:227|272:227|279:224|279:224|280:219|280:219|286:216|286:216|283:210|283:210|285:205|285:205|281:199|281:199|288:196|288:196|289:191|289:191|295:188|295:188|292:181|292:181|293:177|293:177|290:170|290:170|296:167|296:167|299:159|299:159|299:158,1,712.664329139384,2|2,0:2|0:2,0:0:0:0:
390,84,67035,2,0,B|392:94|392:94|398:98|398:98|394:104|394:104|395:109|395:109|391:115|391:115|397:119|397:119|397:124|397:124|403:128|403:128|399:134|399:134|400:139|400:139|396:144|396:144|402:148|402:148|403:153|403:153|409:157|409:157|405:163|405:163|406:168|406:168|402:174|402:174|408:178|408:178|409:183|409:183|414:187|414:187|410:193|410:193|411:196|411:196|411:197|411:197|405:202|405:202|410:207|410:207|409:212|409:212|414:218|414:218|408:222|408:222|408:227|408:227|403:232|403:232|407:237|407:237|407:242|407:242|411:248|411:248|406:252|406:252|405:257|405:257|400:262|400:262|404:267|404:267|404:272|404:272|408:277|408:277|403:282|403:282|402:287|402:287|397:291|397:291|401:297|401:297|401:302|401:302|405:307|405:307|400:312|400:312|399:317|399:317|394:321|394:321|398:327|398:327|398:332|398:332|402:337|402:337|397:342|397:342|396:351,1,336.762666860009,10|2,0:2|0:2,0:0:0:0:
205,147,67504,6,0,B|204:157|204:157|208:163|208:163|203:167|203:167|202:172|202:172|196:177|196:177|201:182|201:182|200:187|200:187|205:193|205:193|199:197|199:197|198:202|198:202|193:206|193:206|197:212|197:212|197:214|197:214|195:216|195:216|196:223|196:223|189:225|189:225|187:229|187:229|180:230|180:230|181:237|181:237|178:241|178:241|179:248|179:248|172:249|172:249|169:253|169:253|162:254|162:254|163:261|163:261|158:269|158:269|161:273|161:273|157:275|157:275|157:279|157:279|151:284|151:284|155:289|155:289|155:294|155:294|159:300|159:300|153:304|153:304|153:309|153:309|147:313|147:313|151:319|151:319|151:324|151:324|155:329|155:329|149:334|149:334|149:336|149:336|149:333|149:333|153:328|153:328|148:323|148:323|147:318|147:318|142:314|142:314|146:308|146:308|146:303|146:303|150:298|150:298|145:293|145:293|144:288|144:288|139:284|139:284|143:278|143:278|142:269|142:269|145:266|145:266|142:263|142:263|142:259|142:259|137:254|137:254|142:249|142:249|142:244|142:244|147:239|147:239|143:234|143:234|143:229|143:229|137:224|137:224|143:218|143:218|143:213|143:213|148:209|148:209|143:203|143:203|143:202|143:202|143:199|143:199|138:194|138:194|142:189|142:189|142:184|142:184|147:178|147:178|142:174|142:174|142:169|142:169|136:164|136:164|141:159|141:159|141:154|141:154|146:148|146:148|140:143|140:143|140:135|140:135|136:131|136:131|140:128|140:128|141:124|141:124|146:119|146:119|141:114|141:114|142:109|142:109|137:103|137:103|142:99|142:99|142:94|142:94|148:89|148:89|143:84|143:84|143:79|143:79|139:74|139:74|144:69|144:69|144:68|144:68|144:64|144:64|150:60|150:60|145:54|145:54|146:49|146:49|142:44|142:44|147:39|147:39|148:34|148:34|153:29|153:29|149:24|149:24|149:19|149:19|145:13|145:13|150:9|150:9|151:1|151:1|148:6|148:6|153:9|153:9|154:13|154:13|160:16|160:16|157:22|157:22|158:27|158:27|155:33|155:33|161:37|161:37|162:41|162:41|168:45|168:45|165:51|165:51|166:56|166:56|162:62|162:62|169:65|169:65|170:70|170:70|176:74|176:74|172:80|172:80|174:85|174:85|170:91|170:91|176:94|176:94|178:99|178:99|184:103|184:103|180:109|180:109|181:111|181:111|182:114|182:114|179:120|179:120|185:123|185:123|187:128|187:128|193:131|193:131|190:137|190:137|192:142|192:142|189:148|189:148|195:152|195:152|197:156|197:156|203:159|203:159|200:166|200:166|202:170|202:170|199:177|199:177|205:180|205:180|206:184|206:184|213:188|213:188|210:194|210:194|211:199|211:199|208:205|208:205|215:208|215:208|216:213|216:213|223:216|223:216|220:222|220:222|221:227|221:227|218:233|218:233|224:236|224:236|226:241|226:241|232:244|232:244|229:250|229:250|232:258|232:258|232:259,1,1022.33260125871,2|2,3:2|0:2,0:0:0:0:
414,299,68675,1,2,0:2:0:0:
322,302,68910,1,10,0:2:0:0:
230,302,69144,1,2,0:2:0:0:
418,25,69379,6,0,B|423:34|423:34|430:36|430:36|429:42|429:42|431:47|431:47|429:54|429:54|436:55|436:55|439:60|439:60|446:61|446:61|444:68|444:68|447:72|447:72|445:79|445:79|452:81|452:81|453:83|453:83|453:85|453:85|459:90|459:90|454:95|454:95|454:100|454:100|450:106|450:106|455:110|455:110|455:115|455:115|461:120|461:120|456:125|456:125|457:130|457:130|452:136|452:136|457:141|457:141|458:150|458:150|461:153|461:153|458:156|458:156|458:160|458:160|453:166|453:166|459:170|459:170|459:175|459:175|464:180|464:180|459:185|459:185|459:190|459:190|454:195|454:195|459:200|459:200|460:205|460:205|465:210|465:210|460:216|460:216|460:217|460:217|462:220|462:220|460:227|460:227|467:228|467:228|470:233|470:233|477:234|477:234|475:241|475:241|478:245|478:245|476:252|476:252|483:254|483:254|486:258|486:258|493:260|493:260|491:266|491:266|496:274|496:274|493:278|493:278|496:281|496:281|496:285|496:285|501:290|501:290|496:295|496:295|496:300|496:300|491:305|491:305|497:310|497:310|497:315|497:315|502:320|502:320|497:325|497:325|497:330|497:330|492:335|492:335|497:340|497:340|497:341|497:341|496:337|496:337|489:334|489:334|492:328|492:328|491:323|491:323|493:317|493:317|487:314|487:314|485:309|485:309|479:306|479:306|482:300|482:300|480:295|480:295|483:289|483:289|477:286|477:286|474:278|474:278|472:273|472:273|477:271|477:271|479:267|479:267|486:265|486:265|483:258|483:258|485:254|485:254|483:247|483:247|489:245|489:245|491:240|491:240|498:238|498:238|496:231|496:231|498:226|498:226|495:220|495:220|502:217|502:217|500:213|500:213|502:206|502:206|496:204|496:204|493:200|493:200|487:197|487:197|489:191|489:191|487:186|487:186|489:179|489:179|482:177|482:177|480:173|480:173|473:170|473:170|476:164|476:164|472:156|472:156|474:151|474:151|469:149|469:149|467:146|467:146|460:143|460:143|463:136|463:136|461:132|461:132|463:125|463:125|457:123|457:123|454:118|454:118|448:116|448:116|450:109|450:109|448:104|448:104|451:98|451:98|444:95|444:95|442:91|442:91|435:88|435:88|438:82|438:82|436:77|436:77|438:71|438:71|432:68|432:68|429:64|429:64|423:61|423:61|425:55|425:55|424:52|424:52|424:54|424:54|418:58|418:58|421:64|421:64|420:69|420:69|424:74|424:74|418:78|418:78|417:84|417:84|411:87|411:87|415:93|415:93|414:98|414:98|418:104|418:104|412:108|412:108|411:113|411:113|405:117|405:117|409:123|409:123|408:128|408:128|411:133|411:133|405:137|405:137|404:142|404:142|399:146|399:146|402:152|402:152|401:157|401:157|405:163|405:163|399:166|399:166|398:171|398:171|392:175|392:175|396:181|396:181|395:186|395:186|399:192|399:192|393:196|393:196|391:204|391:204|391:205,1,1025.80973483428,2|2,3:2|0:2,0:0:0:0:
209,177,70550,1,2,0:2:0:0:
301,180,70785,1,10,0:2:0:0:
393,180,71019,1,2,0:2:0:0:
201,93,71254,5,0,0:2:0:0:
256,192,71722,12,0,73129,3:2:0:0:
