osu file format v14

[General]
AudioFilename: audio.mp3
AudioLeadIn: 0
PreviewTime: 9960
Countdown: 0
SampleSet: Soft
StackLeniency: 0.7
Mode: 2
LetterboxInBreaks: 0
WidescreenStoryboard: 1

[Editor]
DistanceSpacing: 1
BeatDivisor: 1
GridSize: 8
TimelineZoom: 0.4999998

[Metadata]
Title:Atoladinha (Cut Ver.)
TitleUnicode:Atoladinha (Cut Ver.)
Artist:MC Bola de Fogo e as Foguentas
ArtistUnicode:MC Bola de Fogo e as Foguentas
Creator:zerokt
Version:Facil
Source:
Tags:brasil brazilian brasileiro carioca rio de janeiro rj funk português portuguese favela latin piririm alguem alguém ligou pra para mim quem e é sou eu bola de fogo calor ta de matar latino south america hip hop hiphop to tô ficando vou atolar calma dj marlboro tati quebra-barraco version other pop popular (enterradinha) kukkai
BeatmapID:3743456
BeatmapSetID:1824362

[Difficulty]
HPDrainRate:2
CircleSize:2
OverallDifficulty:6
ApproachRate:6
SliderMultiplier:1.69
SliderTickRate:1

[Events]
//Background and Video events
0,0,"riodejaneiro.jpg",0,0
//Break Periods
//Storyboard Layer 0 (Background)
//Storyboard Layer 1 (Fail)
//Storyboard Layer 2 (Pass)
//Storyboard Layer 3 (Foreground)
//Storyboard Layer 4 (Overlay)
//Storyboard Sound Samples

[TimingPoints]
4,468.75,4,2,1,60,1,0
4,-32.3259372609028,4,2,1,60,0,0
6332,-23.6145109737647,4,2,1,65,0,0
7504,-24.054327271677,4,2,1,65,0,0
8675,-25.1882917562681,4,2,1,65,0,0
10082,-23.7289231362785,4,2,1,65,0,0
11254,-23.8774084961173,4,2,1,65,0,0
12425,-25.2411974138239,4,2,1,65,0,0
15004,-23.781520478682,4,2,1,70,0,0
15941,-24.6182043613016,4,2,1,70,0,0
16879,-23.645084467321,4,2,1,70,0,0
17816,-24.1207955959525,4,2,1,70,0,0
18754,-24.5186474757447,4,2,1,70,0,0
22972,-24.0378928422085,4,2,1,70,0,0
26722,-23.9281990396795,4,2,1,70,0,0
30004,-24.7893727632168,4,2,1,75,0,0
31879,-24.7751087651922,4,2,1,75,0,0
33285,-22.9092505259456,4,2,1,75,0,0
35629,-24.7407172102159,4,2,1,75,0,0
37504,-24.554611557341,4,2,1,75,0,0
39379,-24.7435294645353,4,2,1,75,0,0
43129,-24.9540012062047,4,2,1,80,0,0
45004,-25.0323432995563,4,2,1,80,0,0
46879,-24.4826704920079,4,2,1,80,0,0
48754,-23.9854804459416,4,2,1,80,0,0
49457,-23.9987591412686,4,2,1,80,0,0
50629,-24.6358322736802,4,2,1,80,0,0
52504,-24.674997349363,4,2,1,80,0,0
54379,-24.3727837063093,4,2,1,80,0,0
56957,-23.9314084068651,4,2,1,80,0,0
58129,-21.9045402182016,4,2,1,85,0,1
60004,-22.6714882013574,4,2,1,85,0,1
61879,-22.565520504377,4,2,1,85,0,1
63754,-32.3259372609028,4,2,1,80,0,0
65629,-32.3259372609028,4,2,1,60,0,0
67504,-23.5457771975764,4,2,1,60,0,0
69379,-24.1178222546214,4,2,1,60,0,0
71254,-32.3259372609028,4,2,1,70,0,0

[Colours]
Combo1 : 128,0,255
Combo2 : 255,0,0

[HitObjects]
118,29,6332,6,0,B|117:39|117:39|121:45|121:45|116:49|116:49|115:54|115:54|110:59|110:59|114:64|114:64|114:69|114:69|118:75|118:75|113:79|113:79|111:94|111:94|112:84|112:84|107:89|107:89|111:94|111:94|109:99|109:99|112:105|112:105|106:108|106:108|104:113|104:113|98:116|98:116|100:122|100:122|99:127|99:127|102:133|102:133|95:136|95:136|93:141|93:141|87:143|87:143|90:150|90:150|88:155|88:155|91:162|91:162|84:165|84:165|83:169|83:169|76:172|76:172|79:178|79:178|77:183|77:183|80:189|80:189|73:192|73:192|72:197|72:197|65:199|65:199|68:206|68:206|64:216|64:216|66:210|66:210|68:214|68:214|64:216|64:216|60:224|60:224|53:226|53:226|56:233|56:233|53:237|53:237|56:244|56:244|49:247|49:247|47:251|47:251|40:254|40:254|42:260|42:260|40:265|40:265|42:271|42:271|36:274|36:274|35:275|35:275|35:278|35:278|29:283|29:283|33:288|33:288|33:293|33:293|37:299|37:299|32:303|32:303|31:308|31:308|25:313|25:313|30:318|30:318|29:323|29:323|33:329|33:329|28:333|28:333|27:340|27:340|32:337|32:337|29:331|29:331|30:327|30:327|27:321|27:321|33:318|33:318|34:313|34:313|40:309|40:309|36:303|36:303|38:298|38:298|34:292|34:292|40:289|40:289|43:277|43:277|41:284|41:284|46:281|46:281|43:277|43:277|44:269|44:269|39:264|39:264|45:259|45:259|45:254|45:254|51:250|51:250|46:244|46:244|46:239|46:239|42:234|42:234|47:229|47:229|48:224|48:224|53:220|53:220|49:214|49:214|49:212|49:212|49:210|49:210|45:204|45:204|51:200|51:200|52:195|52:195|58:191|58:191|54:185|54:185|54:180|54:180|50:174|50:174|56:170|56:170|57:165|57:165|63:161|63:161|59:155|59:155|60:148|60:148|57:143|57:143|63:140|63:140|64:136|64:136|71:133|71:133|67:126|67:126|69:122|69:122|66:115|66:115|72:112|72:112|74:108|74:108|80:104|80:104|77:98|77:98|79:93|79:93|76:87|76:87|82:84|82:84|84:79|84:79|90:76|90:76|87:70|87:70|89:65|89:65|86:59|86:59|92:56|92:56|96:44|96:44|94:51|94:51|98:49|98:49|96:44|96:44|98:51|98:51|104:55|104:55|101:61|101:61|102:66|102:66|99:72|99:72|105:75|105:75|106:80|106:80|112:83|112:83|109:90|109:90|110:94|110:94|107:101|107:101|113:104|113:104|114:109|114:109|121:113|121:113|117:119|117:119|119:124|119:124|115:130|115:130|121:133|121:133|123:138|123:138|129:142|129:142|125:148|125:148|127:153|127:153|123:159|123:159|129:162|129:162|131:167|131:167|137:170|137:170|133:177|133:177|137:189|137:189|135:181|135:181|132:186|132:186|137:189|137:189|137:190,1,1073.49248215063,2|0,3:2|0:0,0:0:0:0:
308,27,7504,2,0,B|313:36|313:36|320:38|320:38|318:45|318:45|320:49|320:49|318:56|318:56|325:58|325:58|327:63|327:63|334:65|334:65|332:71|332:71|334:76|334:76|332:83|332:83|339:85|339:85|340:89|340:89|346:94|346:94|341:99|341:99|342:104|342:104|338:110|338:110|344:114|344:114|345:119|345:119|351:123|351:123|347:129|347:129|347:134|347:134|343:140|343:140|349:144|349:144|350:149|350:149|355:154|355:154|350:159|350:159|350:163|350:163|345:168|345:168|350:173|350:173|350:179|350:179|355:184|355:184|351:189|351:189|351:194|351:194|346:199|346:199|351:204|351:204|351:214|351:214|351:209|351:209|354:211|354:211|351:214|351:214|355:223|355:223|352:229|352:229|359:232|359:232|361:236|361:236|367:239|367:239|365:246|365:246|367:250|367:250|364:257|364:257|371:259|371:259|373:264|373:264|379:267|379:267|377:273|377:273|377:274|377:274|379:278|379:278|376:284|376:284|383:287|383:287|385:291|385:291|391:294|391:294|389:301|389:301|390:305|390:305|388:312|388:312|394:314|394:314|396:319|396:319|403:321|403:321|400:328|400:328|403:334|403:334|408:329|408:329|403:324|403:324|403:320|403:320|397:315|397:315|402:310|402:310|402:305|402:305|407:300|407:300|402:295|402:295|402:290|402:290|397:286|397:286|401:280|401:280|401:269|401:269|401:275|401:275|404:272|404:272|401:269|401:269|405:262|405:262|403:254|403:254|410:253|410:253|413:248|413:248|420:246|420:246|418:240|418:240|420:235|420:235|419:228|419:228|426:227|426:227|428:222|428:222|435:221|435:221|433:214|433:214|434:212|434:212|433:209|433:209|428:205|428:205|432:199|432:199|431:194|431:194|435:189|435:189|429:184|429:184|428:180|428:180|423:175|423:175|427:170|427:170|426:165|426:165|430:159|430:159|424:155|424:155|423:148|423:148|418:144|418:144|422:139|422:139|421:135|421:135|426:130|426:130|420:125|420:125|420:120|420:120|414:116|414:116|419:110|419:110|418:105|418:105|422:100|422:100|417:95|417:95|416:91|416:91|411:86|411:86|415:81|415:81|414:76|414:76|419:70|419:70|413:66|413:66|413:61|413:61|407:56|407:56|412:51|412:51|410:38|410:38|411:46|411:46|414:41|414:41|410:38|410:38|411:45|411:45|416:49|416:49|411:55|411:55|412:60|412:60|407:66|407:66|413:70|413:70|413:75|413:75|419:80|419:80|414:85|414:85|415:90|415:90|410:96|410:96|415:100|415:100|416:105|416:105|421:110|421:110|417:115|417:115|417:120|417:120|413:125|413:125|418:130|418:130|418:135|418:135|424:139|424:139|419:145|419:145|420:150|420:150|415:155|415:155|421:160|421:160|421:165|421:165|426:169|426:169|422:175|422:175|423:188|423:188|422:180|422:180|418:184|418:184|423:188|423:188|423:189,1,1053.86443419054,2|0,3:2|3:2,0:0:0:0:
240,241,8675,2,0,B|235:250|235:250|236:257|236:257|229:259|229:259|227:263|227:263|220:265|220:265|222:271|222:271|219:276|219:276|221:283|221:283|214:284|214:284|211:289|211:289|205:290|205:290|206:297|206:297|204:301|204:301|205:308|205:308|199:310|199:310|195:316|195:316|198:310|198:310|192:307|192:307|191:304|191:304|185:300|185:300|188:294|188:294|187:289|187:289|190:283|190:283|184:280|184:280|183:275|183:275|177:272|177:272|180:265|180:265|179:261|179:261|182:254|182:254|176:251|176:251|174:246|174:246|168:243|168:243|171:237|171:237|170:232|170:232|175:227|175:227|169:222|169:222|169:217|169:217|163:213|163:213|168:207|168:207|167:202|167:202|172:197|172:197|166:192|166:192|166:187|166:187|161:183|161:183|165:177|165:177|165:172|165:172|169:167|169:167|164:162|164:162|163:157|163:157|158:152|158:152|162:147|162:147|162:144|162:144|161:142|161:142|164:136|164:136|157:133|157:133|156:128|156:128|149:126|149:126|152:119|152:119|150:114|150:114|153:108|153:108|146:105|146:105|144:101|144:101|138:98|138:98|140:91|140:91|138:87|138:87|141:80|141:80|135:78|135:78|133:73|133:73|126:70|126:70|129:64|129:64|127:59|127:59|130:53|130:53|123:50|123:50|121:45|121:45|115:43|115:43|118:36|118:36|113:25|116:31|116:31|118:27|118:27|113:25,1,503.209988301244,0|0,3:2|3:2,0:0:0:0:
239,223,9379,5,2,1:2:0:0:
390,61,10082,2,0,B|396:70|396:70|403:71|403:71|402:78|402:78|404:82|404:82|403:89|403:89|410:90|410:90|413:94|413:94|420:96|420:96|419:103|419:103|427:115|427:115|421:107|421:107|420:114|420:114|427:115|427:115|426:120|426:120|431:126|431:126|425:130|425:130|424:135|424:135|419:139|419:139|423:145|423:145|422:149|422:149|426:155|426:155|421:159|421:159|420:164|420:164|415:168|415:168|419:174|419:174|418:180|418:180|425:182|425:182|423:188|423:188|425:192|425:192|424:199|424:199|431:201|431:201|433:205|433:205|440:207|440:207|438:214|438:214|441:218|441:218|439:225|439:225|446:226|446:226|452:236|452:236|449:230|449:230|453:232|453:232|452:236|452:236|453:244|453:244|448:250|448:250|453:255|453:255|453:260|453:260|459:264|459:264|454:270|454:270|454:275|454:275|450:280|450:280|455:285|455:285|455:290|455:290|461:294|461:294|456:300|456:300|456:301|456:301|457:304|457:304|455:311|455:311|461:313|461:313|463:318|463:318|470:321|470:321|467:327|467:327|469:332|469:332|467:338|467:338|473:341|473:341|475:345|475:345|482:348|482:348|479:355|479:355|482:361|482:361|486:356|486:356|481:352|481:352|480:348|480:348|474:344|474:344|479:338|479:338|478:333|478:333|482:327|482:327|477:323|477:323|476:318|476:318|470:314|470:314|475:308|475:308|473:296|473:296|474:303|474:303|477:299|477:299|473:296|473:296|472:289|472:289|467:284|467:284|471:279|471:279|471:274|471:274|475:268|475:268|470:264|470:264|469:259|469:259|463:254|463:254|468:249|468:249|467:244|467:244|472:238|472:238|466:234|466:234|466:231|466:231|466:229|466:229|460:225|460:225|464:219|464:219|464:214|464:214|468:208|468:208|462:204|462:204|462:199|462:199|456:195|456:195|460:189|460:189|460:184|460:184|464:179|464:179|458:174|458:174|457:166|457:166|453:163|453:163|456:159|456:159|456:155|456:155|460:149|460:149|454:145|454:145|454:140|454:140|448:135|448:135|453:130|453:130|452:125|452:125|457:119|457:119|451:115|451:115|450:110|450:110|445:106|445:106|449:100|449:100|449:95|449:95|453:90|453:90|447:85|447:85|447:80|447:80|441:76|441:76|446:70|446:70|444:56|444:56|445:65|445:65|449:60|449:60|444:56|444:56|442:61|442:61|444:68|444:68|438:71|438:71|436:75|436:75|429:78|429:78|431:84|431:84|429:89|429:89|432:95|432:95|425:98|425:98|423:103|423:103|417:105|417:105|419:112|419:112|417:116|417:116|420:123|420:123|413:125|413:125|411:130|411:130|405:133|405:133|407:139|407:139|405:144|405:144|408:150|408:150|401:153|401:153|399:157|399:157|393:160|393:160|395:167|395:167|393:171|393:171|396:178|396:178|389:180|389:180|383:193|387:185|387:185|381:187|381:187|383:193,1,1068.31649520762,2|0,3:2|0:0,0:0:0:0:
221,51,11254,2,0,B|221:61|221:61|225:67|225:67|220:71|220:71|220:76|220:76|215:81|215:81|220:86|220:86|220:91|220:91|225:96|225:96|219:101|219:101|219:116|219:116|219:106|219:106|214:111|214:111|219:116|219:116|217:121|217:121|220:127|220:127|214:131|214:131|212:135|212:135|206:138|206:138|209:145|209:145|207:149|207:149|210:156|210:156|204:159|204:159|202:163|202:163|196:166|196:166|199:173|199:173|197:177|197:177|197:184|197:184|190:184|190:184|186:188|186:188|179:188|179:188|179:195|179:195|176:199|176:199|176:206|176:206|169:206|169:206|165:209|165:209|158:209|158:209|158:217|158:217|151:224|151:224|155:220|155:220|155:224|155:224|151:224|151:224|148:233|148:233|142:236|142:236|145:242|145:242|144:247|144:247|147:254|147:254|140:257|140:257|139:262|139:262|133:265|133:265|136:271|136:271|134:276|134:276|137:282|137:282|131:286|131:286|131:290|131:290|126:296|126:296|132:300|132:300|132:305|132:305|137:310|137:310|132:315|132:315|133:320|133:320|128:326|128:326|133:331|133:331|133:336|133:336|138:340|138:340|134:346|134:346|134:351|134:351|139:345|139:345|133:341|133:341|133:337|133:337|127:332|127:332|132:327|132:327|131:322|131:322|136:316|136:316|130:312|130:312|130:307|130:307|125:302|125:302|129:297|129:297|128:286|128:286|129:292|129:292|131:289|131:289|128:286|128:286|126:277|126:277|120:274|120:274|124:268|124:268|123:263|123:263|126:256|126:256|120:253|120:253|119:248|119:248|113:244|113:244|117:238|117:238|116:233|116:233|119:227|119:227|113:223|113:223|113:222|113:222|113:219|113:219|107:214|107:214|112:209|112:209|111:204|111:204|115:198|115:198|110:194|110:194|109:189|109:189|104:184|104:184|108:179|108:179|108:174|108:174|112:168|112:168|107:164|107:164|106:157|106:157|101:153|101:153|106:148|106:148|106:144|106:144|111:139|111:139|106:134|106:134|106:129|106:129|101:124|101:124|106:119|106:119|106:114|106:114|111:109|111:109|106:104|106:104|105:99|105:99|100:94|100:94|105:89|105:89|105:84|105:84|110:79|110:79|105:74|105:74|105:69|105:69|100:64|100:64|105:59|105:59|105:46|105:46|105:54|105:54|109:50|109:50|105:46|105:46|105:53|105:53|110:58|110:58|105:63|105:63|105:68|105:68|100:73|100:73|105:78|105:78|105:83|105:83|110:88|110:88|105:93|105:93|105:98|105:98|100:103|100:103|105:108|105:108|105:113|105:113|111:118|111:118|106:123|106:123|106:128|106:128|101:133|101:133|106:138|106:138|106:143|106:143|111:148|111:148|106:153|106:153|106:158|106:158|101:163|101:163|106:168|106:168|106:173|106:173|111:178|111:178|106:183|106:183|106:197|106:188|106:188|101:193|101:193|106:197,1,1061.67300375676,2|0,1:2|1:2,0:0:0:0:
274,233,12425,2,0,B|273:243|273:243|278:249|278:249|273:253|273:253|272:258|272:258|267:263|267:263|272:268|272:268|271:273|271:273|276:279|276:279|271:283|271:283|270:288|270:288|265:293|265:293|270:298|270:298|269:303|269:303|274:308|274:308|269:313|269:313|268:321|268:321|272:317|272:317|267:313|267:313|267:309|267:309|261:305|261:305|266:299|266:299|266:294|266:294|270:289|270:289|265:284|265:284|264:279|264:279|259:275|259:275|263:269|263:269|263:264|263:264|267:259|267:259|262:254|262:254|261:249|261:249|256:245|256:245|261:239|261:239|260:233|260:233|264:228|264:228|259:224|259:224|259:220|259:220|254:215|254:215|259:209|259:209|258:204|258:204|263:199|263:199|258:194|258:194|258:189|258:189|252:185|252:185|257:179|257:179|257:174|257:174|261:169|261:169|256:164|256:164|256:159|256:159|251:155|251:155|255:149|255:149|255:145|255:145|261:140|261:140|256:135|256:135|257:130|257:130|253:124|253:124|258:120|258:120|259:115|259:115|264:111|264:111|260:105|260:105|261:100|261:100|256:94|256:94|262:90|262:90|263:85|263:85|268:80|268:80|264:75|264:75|264:70|264:70|260:64|260:64|266:60|266:60|266:55|266:55|272:51|272:51|268:45|268:45|268:40|268:40|264:35|264:35|269:30|269:30|271:18|270:25|270:25|274:22|274:22|271:18,1,502.155258017126,2|0,1:2|3:2,0:0:0:0:
144,354,13129,5,6,3:2:0:0:
58,75,15004,6,0,B|59:85|59:85|64:90|64:90|59:95|59:95|60:100|60:100|55:106|55:106|60:110|60:110|60:115|60:115|66:120|66:120|61:125|61:125|62:140|62:140|61:130|61:130|57:135|57:135|62:140|62:140|64:145|64:145|70:148|70:148|67:154|67:154|69:159|69:159|66:165|66:165|72:168|72:168|74:173|74:173|80:176|80:176|77:182|77:182|79:187|79:187|76:194|76:194|82:197|82:197|84:201|84:201|90:205|90:205|87:211|87:211|89:216|89:216|85:222|85:222|91:225|91:225|93:230|93:230|99:233|99:233|96:240|96:240|97:244|97:244|94:251|94:251|100:254|100:254|103:263|103:263|107:264|107:264|106:269|106:269|108:272|108:272|105:279|105:279|112:281|112:281|114:286|114:286|121:288|121:288|119:295|119:295|121:299|121:299|119:306|119:306|126:308|126:308|132:321|132:321|128:313|128:313|134:315|134:315|132:321|132:321|136:325|136:325|136:332|136:332|143:332|143:332|146:335|146:335|154:335|154:335|154:343|154:343|157:346|157:346|157:353|157:353|164:353|164:353|168:357|168:357|175:357|175:357|175:364|175:364|178:367|178:367|178:366|178:366|183:362|183:362|178:356|178:356|178:352|178:352|173:346|173:346|178:342|178:342|178:336|178:336|183:332|183:332|178:326|178:326|178:322|178:322|173:316|173:316|178:312|178:312|178:302|178:302|183:301|183:301|182:297|182:297|184:293|184:293|183:286|183:286|190:285|190:285|192:281|192:281|199:280|199:280|198:273|198:273|201:269|201:269|200:262|200:262|207:260|207:260|215:248|215:248|209:256|209:256|216:255|216:255|215:248|215:248|216:243|216:243|212:237|212:237|218:233|218:233|218:228|218:228|224:224|224:224|220:218|220:218|221:214|221:214|217:208|217:208|223:204|223:204|223:199|223:199|229:195|229:195|225:189|225:189|226:184|226:184|222:178|222:178|228:174|228:174|228:169|228:169|234:165|234:165|230:159|230:159|231:154|231:154|226:149|226:149|232:145|232:145|233:140|233:140|239:135|239:135|234:130|234:130|235:125|235:125|231:119|231:119|237:114|237:114|238:110|238:110|243:105|243:105|239:100|239:100|240:95|240:95|236:89|236:89|241:85|241:85|243:75|243:75|242:79|242:79|246:80|246:80|247:84|247:84|254:86|254:86|252:93|252:93|254:97|254:97|252:104|252:104|258:106|258:106|261:111|261:111|267:113|267:113|265:120|265:120|267:124|267:124|265:131|265:131|272:133|272:133|274:138|274:138|280:140|280:140|278:147|278:147|280:151|280:151|278:158|278:158|285:160|285:160|287:165|287:165|294:167|294:167|291:174|291:174|293:178|293:178|291:185|291:185|298:187|298:187|300:192|300:192|307:194|307:194|304:201|304:201|309:210|309:210|307:205|307:205|305:209|305:209|309:210|309:210|311:214,1,1065.95371068574,2|2,3:2|3:2,0:0:0:0:
225,71,15941,2,0,B|223:81|223:81|227:87|227:87|221:91|221:91|220:96|220:96|215:100|215:100|219:106|219:106|218:110|218:110|222:116|222:116|216:120|216:120|214:130|214:130|209:131|209:131|210:135|210:135|208:138|208:138|208:145|208:145|201:146|201:146|198:150|198:150|191:151|191:151|192:158|192:158|189:162|189:162|190:169|190:169|183:170|183:170|177:177|177:177|174:180|174:180|177:183|177:183|178:187|178:187|183:192|183:192|178:197|178:197|178:202|178:202|174:207|174:207|179:212|179:212|179:217|179:217|184:222|184:222|180:228|180:228|180:237|180:237|177:241|177:241|181:243|181:243|181:247|181:247|187:252|187:252|182:257|182:257|183:262|183:262|179:268|179:268|184:272|184:272|185:277|185:277|190:282|190:282|186:287|186:287|187:297|187:297|184:300|184:300|186:303|186:303|186:307|186:307|190:312|190:312|184:317|184:317|183:322|183:322|178:326|178:326|182:331|182:331|181:336|181:336|185:342|185:342|180:346|180:346|178:357|178:357|179:351|179:351|175:354|175:354|178:357|178:357|181:348|181:348|178:342|178:342|184:338|184:338|185:334|185:334|191:330|191:330|188:324|188:324|190:319|190:319|186:313|186:313|193:310|193:310|196:299|196:299|194:305|194:305|198:303|198:303|196:299|196:299|196:291|196:291|192:285|192:285|197:281|197:281|197:276|197:276|203:271|203:271|198:265|198:265|198:260|198:260|193:255|193:255|198:250|198:250|199:239|199:239|199:245|199:245|202:242|202:242|199:239|199:239|201:231|201:231|198:225|198:225|204:221|204:221|206:216|206:216|212:213|212:213|208:207|208:207|210:202|210:202|206:196|206:196|213:192|213:192|214:188|214:188|220:184|220:184|217:178|217:178|218:173|218:173|215:167|215:167|221:164|221:164|222:159|222:159|229:155|229:155|225:149|225:149|227:143|227:143|227:142,1,686.483861778554,2|2,3:2|3:2,0:0:0:0:
399,240,16879,2,0,B|398:250|398:250|403:256|403:256|398:260|398:260|397:265|397:265|392:270|392:270|397:275|397:275|397:280|397:280|401:285|401:285|396:290|396:290|395:305|395:305|396:295|396:295|390:300|390:300|395:305|395:305|393:310|393:310|396:316|396:316|390:319|390:319|388:324|388:324|382:327|382:327|385:333|385:333|383:338|383:338|386:344|386:344|380:347|380:347|378:352|378:352|371:355|371:355|375:362|375:362|373:366|373:366|366:365|366:365|366:358|366:358|363:355|363:355|363:348|363:348|356:347|356:347|353:344|353:344|345:343|345:343|346:336|346:336|342:333|342:333|343:326|343:326|336:325|336:325|329:318|329:318|326:315|326:315|329:312|329:312|329:308|329:308|334:303|334:303|329:298|329:298|329:293|329:293|324:288|324:288|328:283|328:283|328:278|328:278|333:273|333:273|328:268|328:268|328:253|328:253|328:263|328:263|323:258|323:258|328:253|328:253|327:248|327:248|331:242|331:242|325:238|325:238|324:233|324:233|318:229|318:229|322:223|322:223|320:219|320:219|324:213|324:213|318:209|318:209|317:204|317:204|311:200|311:200|315:194|315:194|314:189|314:189|315:182|315:182|308:180|308:180|306:177|306:177|299:176|299:176|300:169|300:169|298:164|298:164|299:158|299:158|292:156|292:156|289:152|289:152|282:151|282:151|284:144|284:144|278:135|278:135|281:140|281:140|282:136|282:136|278:135|278:135|276:125|276:125|270:122|270:122|273:116|273:116|272:111|272:111|276:105|276:105|270:101|270:101|269:96|269:96|263:93|263:93|267:87|267:87|266:82|266:82|269:76|269:76|263:72|263:72|263:71|263:71|261:68|261:68|254:66|254:66|256:59|256:59|254:54|254:54|256:48|256:48|249:46|249:46|246:41|246:41|240:40|240:40|242:33|242:33|239:28|239:28|241:22|241:22|234:20|234:20|231:14|231:14|234:20|234:20|228:23|228:23|227:27|227:27|221:30|221:30|224:36|224:36|222:41|222:41|225:47|225:47|219:51|219:51|218:55|218:55|211:59|211:59|215:65|215:65|213:70|213:70|216:76|216:76|210:79|210:79|208:84|208:84|202:87|202:87|205:93|205:93|204:98|204:98|207:105|207:105|201:108|201:108|197:119|197:119|199:113|199:113|195:115|195:115|197:119|197:119|194:127|194:127|197:133|197:133|191:136|191:136|189:141|189:141|183:144|183:144|186:151|186:151|184:155|184:155|188:162|188:162|181:165|181:165|180:169|180:169|173:173|173:173|176:179|176:179|175:184|175:184|178:190|178:190|171:193|171:193|170:198|170:198|163:201|163:201|167:207|167:207|165:212|165:212|168:218|168:218|162:221|162:221|160:226|160:226|154:229|154:229|157:236|157:236|155:240|155:240|158:247|158:247|152:250|152:250|148:261|148:261|150:254|150:254|146:257|146:257|148:261|148:261|147:263,1,1072.10443824108,2|2,3:2|3:2,0:0:0:0:
232,236,17816,2,0,B|232:246|232:246|237:251|237:251|232:256|232:256|232:261|232:261|228:266|228:266|233:271|233:271|233:276|233:276|238:281|238:281|233:286|233:286|233:296|233:296|234:301|234:301|238:300|238:300|241:302|241:302|248:302|248:302|249:309|249:309|253:312|253:312|254:319|254:319|261:318|261:318|265:321|265:321|272:320|272:320|273:327|273:327|280:333|280:333|283:329|283:329|279:327|279:327|278:323|278:323|272:319|272:319|276:313|276:313|275:308|275:308|279:302|279:302|274:298|274:298|273:294|273:294|267:289|267:289|271:283|271:283|269:274|269:274|272:270|272:270|268:268|268:268|267:264|267:264|262:259|262:259|266:254|266:254|265:249|265:249|269:243|269:243|264:239|264:239|263:234|263:234|257:230|257:230|262:224|262:224|260:214|260:214|261:219|261:219|263:216|263:216|260:214|260:214|261:204|261:204|257:199|257:199|263:194|263:194|263:189|263:189|269:185|269:185|265:180|265:180|265:175|265:175|261:169|261:169|267:165|267:165|268:154|268:154|267:160|267:160|271:157|271:157|268:154|268:154|267:145|267:145|261:140|261:140|265:135|265:135|265:130|265:130|269:124|269:124|263:120|263:120|263:115|263:115|257:111|257:111|262:105|262:105|260:94|260:94|261:100|261:100|264:97|264:97|260:94|260:94|259:86|259:86|254:81|254:81|258:76|258:76|258:70|258:70|262:65|262:65|257:60|257:60|256:55|256:55|251:51|251:51|255:45|255:45|254:34|254:34|255:40|255:40|258:37|258:37|254:34|254:34|252:42|252:42|256:48|256:48|250:52|250:52|248:57|248:57|242:60|242:60|246:67|246:67|245:71|245:71|249:77|249:77|242:81|242:81|241:86|241:86|235:90|235:90|239:96|239:96|238:100|238:100|241:107|241:107|235:110|235:110|234:115|234:115|228:119|228:119|232:125|232:125|230:132,1,700.640239364072,2|2,3:2|3:2,0:0:0:0:
60,355,18754,6,0,B|62:345|62:345|58:339|58:339|64:335|64:335|65:330|65:330|71:326|71:326|68:321|68:321|69:316|69:316|65:310|65:310|71:306|71:306|72:301|72:301|78:297|78:297|74:291|74:291|75:286|75:286|71:280|71:280|77:276|77:276|78:271|78:271|83:267|83:267|79:262|79:262|80:257|80:257|76:251|76:251|82:247|82:247|83:242|83:242|89:238|89:238|85:232|85:232|86:227|86:227|87:220|87:220|94:221|94:221|97:218|97:218|104:219|104:219|105:212|105:212|109:209|109:209|110:202|110:202|117:203|117:203|121:200|121:200|128:201|128:201|129:193|129:193|137:187|137:187|134:184|134:184|138:181|138:181|138:177|138:177|144:173|144:173|140:167|140:167|140:162|140:162|136:157|136:157|142:153|142:153|142:148|142:148|148:143|148:143|144:138|144:138|144:133|144:133|140:127|140:127|146:123|146:123|146:122|146:122|148:118|148:118|154:116|154:116|152:109|152:109|155:105|155:105|152:98|152:98|159:96|159:96|161:91|161:91|168:89|168:89|166:82|166:82|168:78|168:78|165:71|165:71|172:69|172:69|175:63|175:63|171:68|171:68|176:72|176:72|176:76|176:76|182:81|182:81|178:86|178:86|178:91|178:91|174:97|174:97|179:101|179:101|180:106|180:106|185:111|185:111|181:116|181:116|182:128|182:128|181:121|181:121|178:125|178:125|182:128|182:128|184:136|184:136|190:139|190:139|187:145|187:145|188:150|188:150|184:156|184:156|191:160|191:160|192:165|192:165|198:168|198:168|194:174|194:174|196:179|196:179|192:186|192:186|198:189|198:189|199:191|199:191|200:194|200:194|207:196|207:196|205:203|205:203|207:207|207:207|205:214|205:214|212:216|212:216|214:220|214:220|221:222|221:222|219:229|219:229|221:234|221:234|219:240|219:240|226:242|226:242|229:249|229:249|235:251|235:251|232:257|232:257|234:260|234:260|232:267|232:267|238:269|238:269|240:274|240:274|247:277|247:277|244:283|244:283|246:288|246:288|244:294|244:294|250:297|250:297|252:301|252:301|259:304|259:304|257:311|257:311|259:315|259:315|256:322|256:322|263:325|263:325|265:329|265:329|271:332|271:332|269:338|269:338|274:350|274:350|271:343|271:343|269:348|269:348|274:350|274:350|276:343|276:343|272:337|272:337|278:334|278:334|280:329|280:329|286:325|286:325|282:319|282:319|284:314|284:314|280:308|280:308|286:305|286:305|287:300|287:300|293:296|293:296|290:290|290:290|291:285|291:285|288:279|288:279|294:276|294:276|295:271|295:271|301:267|301:267|298:261|298:261|299:257|299:257|295:250|295:250|302:247|302:247|303:242|303:242|309:238|309:238|306:232|306:232|307:227|307:227|303:221|303:221|309:217|309:217|313:204|311:213|311:213|316:209|316:209|313:204,1,1033.90694878572,2|2,3:2|3:2,0:0:0:0:
365,280,19691,1,2,3:2:0:0:
360,195,19925,1,2,3:2:0:0:
283,159,20160,1,2,3:2:0:0:
114,143,20629,5,6,3:2:0:0:
129,248,22972,6,0,B|130:258|130:258|135:263|135:263|131:268|131:268|131:273|131:273|127:279|127:279|132:283|132:283|132:288|132:288|138:293|138:293|133:298|133:298|134:303|134:303|129:309|129:309|134:313|134:313|135:318|135:318|140:323|140:323|136:328|136:328|136:333|136:333|131:338|131:338|137:343|137:343|138:358|138:358|137:348|137:348|143:353|143:353|138:358|138:358|138:353|138:353|142:348|142:348|137:343|137:343|137:338|137:338|132:333|132:333|136:328|136:328|136:323|136:323|141:318|141:318|136:313|136:313|135:308|135:308|130:303|130:303|135:298|135:298|135:293|135:293|139:288|139:288|134:283|134:283|134:278|134:278|129:274|129:274|133:268|133:268|133:263|133:263|138:258|138:258|132:253|132:253|132:248|132:248|127:244|127:244|132:238|132:238|131:233|131:233|136:228|136:228|131:223|131:223|131:218|131:218|125:214|125:214|130:208|130:208|130:207,1,351.528316373993,2|2,3:2|3:2,0:0:0:0:
296,136,23675,1,2,3:2:0:0:
296,136,23910,1,2,3:2:0:0:
296,136,24144,1,2,3:2:0:0:
194,136,24379,5,6,3:2:0:0:
441,334,26722,6,0,B|440:324|440:324|435:319|435:319|440:314|440:314|439:309|439:309|444:303|444:303|439:299|439:299|438:294|438:294|433:289|433:289|438:284|438:284|437:279|437:279|442:273|442:273|437:269|437:269|437:264|437:264|431:259|431:259|436:254|436:254|436:249|436:249|440:244|440:244|435:239|435:239|434:224|434:224|435:234|435:234|429:229|429:229|434:224|434:224|434:219|434:219|439:214|439:214|435:209|435:209|435:204|435:204|430:199|430:199|435:194|435:194|435:189|435:189|441:184|441:184|436:179|436:179|436:174|436:174|431:169|431:169|436:164|436:164|437:159|437:159|442:154|442:154|437:149|437:149|437:144|437:144|432:139|432:139|438:134|438:134|438:129|438:129|443:124|443:124|438:119|438:119|438:114|438:114|434:109|434:109|439:104|439:104|439:99|439:99|444:94|444:94|439:89|439:89|440:84|440:84|435:79|435:79|440:74|440:74|440:73,1,353.139824104087,2|2,3:2|3:2,0:0:0:0:
274,222,27425,1,2,3:2:0:0:
274,222,27660,1,2,3:2:0:0:
274,222,27894,1,2,3:2:0:0:
376,222,28129,5,6,3:2:0:0:
153,264,30004,6,0,B|147:273|147:273|149:280|149:280|142:281|142:281|139:285|139:285|133:287|133:287|134:294|134:294|131:298|131:298|133:305|133:305|126:306|126:306|118:319|118:319|123:311|123:311|116:312|116:312|118:319|118:319|117:324|117:324|121:330|121:330|115:334|115:334|114:339|114:339|108:342|108:342|112:348|112:348|111:353|111:353|115:359|115:359|109:363|109:363|108:368|108:368|102:372|102:372|106:378|106:378|105:383|105:383|98:380|98:380|101:373|101:373|100:369|100:369|103:363|103:363|96:360|96:360|94:355|94:355|88:352|88:352|91:346|91:346|89:341|89:341|92:335|92:335|86:332|86:332|82:322|82:322|84:327|84:327|80:326|80:326|82:322|82:322|81:313|81:313|85:307|85:307|80:303|80:303|79:298|79:298|74:293|74:293|78:288|78:288|78:283|78:283|82:277|82:277|77:273|77:273|76:268|76:268|71:263|71:263|75:258|75:258|75:257|75:257|75:253|75:253|81:249|81:249|76:243|76:243|77:238|77:238|73:233|73:233|78:228|78:228|79:223|79:223|84:219|84:219|80:213|80:213|80:208|80:208|76:202|76:202|81:198|81:198|82:192|82:192|86:186|86:186|80:182|80:182|79:178|79:178|74:174|74:174|78:169|78:169|77:164|77:164|81:158|81:158|75:154|75:154|74:149|74:149|68:145|68:145|72:139|72:139|70:128|70:128|71:134|71:134|74:131|74:131|70:128|70:128|67:120|67:120|60:117|60:117|63:111|63:111|61:106|61:106|64:100|64:100|57:97|57:97|55:92|55:92|49:90|49:90|51:83|51:83|49:79|49:79|52:72|52:72|46:69|46:69|45:68|45:68|45:64|45:64|40:59|40:59|45:54|45:54|45:50|45:50|50:44|50:44|45:40|45:40|45:34|45:34|40:30|40:30|45:24|45:24|45:20|45:20|50:14|50:14|45:10|45:10|45:3|45:3|50:7|50:7|46:12|46:12|47:16|47:16|42:22|42:22|48:26|48:26|48:31|48:31|54:36|54:36|50:42|50:42|50:47|50:47|46:52|46:52|51:57|51:57|52:63|52:63|56:68|56:68|51:72|51:72|51:76|51:76|46:81|46:81|50:86|50:86|50:91|50:91|55:97|55:97|49:101|49:101|49:106|49:106|44:111|44:111|48:116|48:116|48:123|48:123|53:126|53:126|50:132|50:132|51:136|51:136|46:142|46:142|53:146|53:146|54:151|54:151|60:155|60:155|56:161|56:161|57:165|57:165|53:171|53:171|59:175|59:175|60:182|60:182|64:187|64:187|59:191|59:191|58:195|58:195|53:199|53:199|57:205|57:205|57:210|57:210|61:215|61:215|56:220|56:220|55:225|55:225|49:229|49:229|54:235|54:235|53:242|53:242|59:242|59:242|59:247|59:247|63:250|63:250|63:257|63:257|70:257|70:257|74:260|74:260|81:259|81:259|82:266|82:266|85:269|85:269|86:276|86:276|93:276|93:276|99:281|99:281|102:286|102:286|97:289|97:289|97:293|97:293|91:297|91:297|95:303|95:303|94:308|94:308|98:314|98:314|92:318|92:318|91:322|91:322|85:326|85:326|89:332|89:332|88:340|88:340|94:340|94:340|94:345|94:345|98:348|98:348|98:355|98:355|105:355|105:355|109:358|109:358|116:357|116:357|117:364|117:364|120:367|120:367|121:374|121:374|128:374|128:374|134:379|134:379|131:374|131:374|135:371|135:371|136:367|136:367|141:363|141:363|137:357|137:357|138:352|138:352|133:347|133:347|139:342|139:342|140:337|140:337|145:333|145:333|141:328|141:328|142:323|142:323|138:317|138:317|143:313|143:313|144:308|144:308|150:303|150:303|145:298|145:298|146:293|146:293|142:287|142:287|147:283|147:283|148:279|148:279|148:278,1,1363.48750421606,2|2,3:2|3:2,0:0:0:0:
316,32,31410,1,2,3:2:0:0:
140,37,31879,2,0,B|142:47|142:47|148:51|148:51|144:57|144:57|145:62|145:62|142:68|142:68|148:71|148:71|149:76|149:76|154:80|154:80|151:86|151:86|152:91|152:91|148:97|148:97|154:101|154:101|155:106|155:106|161:109|161:109|158:115|158:115|159:120|159:120|156:126|156:126|162:130|162:130|163:135|163:135|169:138|169:138|166:144|166:144|167:149|167:149|163:155|163:155|170:159|170:159|171:164|171:164|178:165|178:165|177:172|177:172|180:175|180:175|179:182|179:182|186:183|186:183|189:187|189:187|196:188|196:188|195:195|195:195|198:199|198:199|198:206|198:206|205:207|205:207|211:215|211:215|208:211|208:211|211:211|211:211|211:215|211:215|214:224|214:224|210:230|210:230|217:234|217:234|218:238|218:238|224:242|224:242|221:248|221:248|223:253|223:253|219:259|219:259|226:263|226:263|230:277|230:277|227:267|227:267|233:271|233:271|230:277|230:277|231:282|231:282|228:288|228:288|234:292|234:292|235:296|235:296|241:300|241:300|237:306|237:306|239:311|239:311|235:317|235:317|241:321|241:321|242:325|242:325|248:329|248:329|245:335|245:335|246:340|246:340|252:336|252:336|248:330|248:330|249:325|249:325|246:319|246:319|252:316|252:316|253:311|253:311|259:307|259:307|255:301|255:301|256:296|256:296|253:290|253:290|258:287|258:287|261:276|261:276|260:282|260:282|263:280|263:280|261:276|261:276|267:269|267:269|266:262|266:262|273:261|273:261|276:257|276:257|283:257|283:257|282:250|282:250|285:246|285:246|285:239|285:239|292:238|292:238|295:234|295:234|302:233|302:233|301:226|301:226|302:225|302:225|302:222|302:222|298:216|298:216|303:212|303:212|304:207|304:207|309:202|309:202|305:197|305:197|306:192|306:192|301:186|301:186|307:182|307:182|307:177|307:177|313:172|313:172|308:166|308:166|309:160|309:160|305:155|305:155|310:151|310:151|311:147|311:147|316:142|316:142|312:137|312:137|313:132|313:132|308:126|308:126|314:122|314:122|315:117|315:117|320:113|320:113|316:107|316:107|317:100|317:100|316:94|316:94|323:93|323:93|325:90|325:90|332:89|332:89|331:82|331:82|335:78|335:78|334:71|334:71|341:70|341:70|344:67|344:67|351:66|351:66|350:59|350:59|355:53|355:53|360:57|360:57|356:61|356:61|357:65|357:65|352:71|352:71|358:75|358:75|359:80|359:80|364:84|364:84|360:90|360:90|361:95|361:95|356:100|356:100|362:105|362:105|363:113|363:113|368:116|368:116|365:121|365:121|365:125|365:125|361:131|361:131|367:134|367:134|368:139|368:139|374:143|374:143|370:149|370:149|371:154|371:154|367:160|367:160|373:164|373:164|375:172|375:172|380:173|380:173|379:178|379:178|382:181|382:181|380:188|380:188|387:189|387:189|390:193|390:193|397:195|397:195|396:202|396:202|399:206|399:206|398:213|398:213|405:214|405:214|410:221|410:221|415:224|415:224|412:228|412:228|413:232|413:232|409:238|409:238|415:242|415:242|417:247|417:247|423:250|423:250|419:256|419:256|420:261|420:261|417:267|417:267|423:271|423:271|425:279|425:279|430:280|430:280|429:285|429:285|431:289|431:289|430:296|430:296|436:297|436:297|439:301|439:301|446:303|446:303|444:310|444:310|447:314|447:314|445:321|445:321|452:322|452:322|457:330|457:330|454:326|454:326|459:323|459:323|459:319|459:319|465:315|465:315|461:309|461:309|463:304|463:304|459:298|459:298|465:294|465:294|466:290|466:290|472:286|472:286|468:280|468:280|469:275|469:275|465:269|465:269|471:265|471:265|472:260|472:260|478:256|478:256|474:251|474:251|475:246|475:246|471:240|471:240|477:236|477:236|478:232|478:232|478:231,1,1364.27251724066,2|2,3:2|3:2,0:0:0:0:
309,18,33285,6,0,B|305:28|305:28|308:34|308:34|301:37|301:37|299:41|299:41|293:44|293:44|296:51|296:51|294:55|294:55|296:62|296:62|290:64|290:64|286:74|286:74|288:69|288:69|285:70|285:70|286:74|286:74|280:82|280:82|281:89|281:89|274:90|274:90|272:94|272:94|265:95|265:95|266:102|266:102|263:106|263:106|264:113|264:113|257:114|257:114|251:123|251:123|254:119|254:119|250:119|250:119|251:123|251:123|251:132|251:132|256:137|256:137|251:142|251:142|251:147|251:147|246:153|246:153|252:158|252:158|252:163|252:163|257:168|257:168|252:173|252:173|252:183|252:183|252:178|252:178|249:180|249:180|252:183|252:183|249:192|249:192|252:198|252:198|245:201|245:201|244:206|244:206|237:209|237:209|240:215|240:215|238:220|238:220|241:226|241:226|235:229|235:229|231:240|231:240|233:234|233:234|229:236|229:236|231:240|231:240|231:249|231:249|235:254|235:254|230:259|230:259|230:264|230:264|225:269|225:269|229:274|229:274|229:279|229:279|234:284|234:284|229:289|229:289|228:300|228:300|228:294|228:294|225:297|225:297|228:300|228:300|225:308|225:308|228:315|228:315|221:317|221:317|219:322|219:322|212:325|212:325|215:331|215:331|213:336|213:336|216:342|216:342|210:345|210:345|205:356|205:356|208:350|208:350|203:351|203:351|205:356|205:356|201:349|201:349|194:348|194:348|195:341|195:341|193:337|193:337|194:330|194:330|187:328|187:328|184:324|184:324|177:322|177:322|179:315|179:315|172:305|172:305|176:311|176:311|177:306|177:306|172:305|172:305|170:298|170:298|163:295|163:295|166:288|166:288|165:284|165:284|168:277|168:277|162:274|162:274|160:270|160:270|154:266|154:266|157:260|157:260|155:255|155:255|158:249|158:249|152:246|152:246|151:241|151:241|144:238|144:238|147:232|147:232|146:227|146:227|149:221|149:221|143:218|143:218|140:210,1,737.693272892541,2|2,3:2|3:2,0:0:0:0:
309,22,34222,1,2,3:2:0:0:
309,22,34691,1,2,3:2:0:0:
140,28,35160,1,2,3:2:0:0:
312,294,35629,6,0,B|312:304|312:304|318:309|318:309|313:314|313:314|313:319|313:319|308:324|308:324|314:329|314:329|314:334|314:334|319:339|319:339|314:344|314:344|315:359|315:359|315:349|315:349|310:354|310:354|315:359|315:359|317:354|317:354|314:348|314:348|321:345|321:345|323:341|323:341|329:338|329:338|327:331|327:331|328:327|328:327|326:320|326:320|332:317|332:317|334:313|334:313|341:310|341:310|338:304|338:304|340:299|340:299|337:293|337:293|343:289|343:289|344:285|344:285|351:281|351:281|347:275|347:275|349:270|349:270|345:264|345:264|352:260|352:260|353:256|353:256|359:252|359:252|356:246|356:246|359:236|359:236|357:241|357:241|356:238|356:238|359:236|359:236|363:227|363:227|370:225|370:225|367:218|367:218|369:214|369:214|367:207|367:207|374:205|374:205|376:200|376:200|383:198|383:198|380:191|380:191|382:187|382:187|380:180|380:180|387:178|387:178|387:177|387:177|387:173|387:173|391:168|391:168|386:163|386:163|386:158|386:158|381:153|381:153|385:148|385:148|385:143|385:143|390:137|390:137|384:133|384:133|384:128|384:128|379:123|379:123|383:118|383:118|383:112|383:112|390:111|390:111|389:104|389:104|391:100|391:100|389:93|389:93|396:92|396:92|399:88|399:88|406:87|406:87|405:80|405:80|407:75|407:75|406:69|406:69|413:67|413:67|419:58|419:58|416:63|416:63|420:62|420:62|419:58|419:58|417:67|417:67|421:73|421:73|415:76|415:76|414:81|414:81|408:85|408:85|412:91|412:91|411:96|411:96|414:102|414:102|408:106|408:106|407:111|407:111|402:115|402:115|405:121|405:121|405:122|405:122|406:125|406:125|412:129|412:129|409:135|409:135|411:140|411:140|407:146|407:146|414:149|414:149|415:154|415:154|422:157|422:157|418:164|418:164|420:168|420:168|417:175|417:175|423:178|423:178|425:184|425:184|431:188|431:188|427:193|427:193|428:197|428:197|424:203|424:203|430:207|430:207|431:212|431:212|437:216|437:216|433:222|433:222|434:226|434:226|431:232|431:232|436:236|436:236|438:243|438:243|441:248|441:248|436:252|436:252|435:256|435:256|429:259|429:259|432:265|432:265|431:270|431:270|435:276|435:276|428:280|428:280|427:285|427:285|421:288|421:288|425:294|425:294|423:301|423:301|428:304|428:304|425:310|425:310|426:314|426:314|422:320|422:320|428:323|428:323|429:328|429:328|434:332|434:332|431:338|431:338|432:343|432:343|428:349|428:349|434:353|434:353|435:360|435:360|429:359|429:359|430:352|430:352|428:349|428:349|429:342|429:342|423:341|423:341|420:337|420:337|413:335|413:335|414:328|414:328|412:324|412:324|413:317|413:317|406:316|406:316|402:309|402:309|399:304|399:304|405:301|405:301|406:298|406:298|412:294|412:294|409:288|409:288|411:283|411:283|407:277|407:277|414:274|414:274|415:269|415:269|422:266|422:266|418:260|418:260|421:252|421:252|416:250|416:250|418:245|418:245|417:241|417:241|419:234|419:234|413:232|413:232|411:227|411:227|405:224|405:224|408:218|408:218|406:213|406:213|408:206|408:206|402:203|402:203|399:196|399:196|395:192|395:192|399:188|399:188|399:184|399:184|404:179|404:179|399:174|399:174|399:169|399:169|394:164|394:164|398:159|398:159|398:154|398:154|403:149|403:149|398:144|398:144|398:136|398:136|393:134|393:134|395:129|395:129|393:125|393:125|396:118|396:118|390:116|390:116|388:111|388:111|381:108|381:108|384:102|384:102|382:97|382:97|385:91|385:91|378:88|378:88|376:83|376:83|370:81|370:81|373:74|373:74|371:69|371:69|374:63|374:63|367:60|367:60|365:55|365:55|359:53|359:53|361:46|361:46|360:43|360:43|359:41,1,1366.16896401222,2|2,3:2|3:2,0:0:0:0:
192,85,37035,1,2,3:2:0:0:
368,90,37504,2,0,B|365:100|365:100|369:106|369:106|363:110|363:110|362:115|362:115|356:118|356:118|359:124|359:124|358:129|358:129|362:135|362:135|356:139|356:139|352:153|352:153|354:144|354:144|349:147|349:147|352:153|352:153|350:158|350:158|354:164|354:164|347:168|347:168|346:173|346:173|340:176|340:176|343:182|343:182|342:187|342:187|345:193|345:193|339:196|339:196|337:201|337:201|331:204|331:204|334:211|334:211|333:215|333:215|336:222|336:222|330:225|330:225|328:230|328:230|322:233|322:233|325:239|325:239|324:244|324:244|327:250|327:250|321:253|321:253|319:258|319:258|313:261|313:261|316:268|316:268|313:277|313:277|315:281|315:281|310:283|310:283|309:287|309:287|302:289|302:289|305:296|305:296|303:301|303:301|306:307|306:307|299:310|299:310|297:314|297:314|291:317|291:317|294:324|294:324|288:337|288:337|292:328|292:328|294:334|294:334|288:337|288:337|286:332|286:332|289:325|289:325|283:322|283:322|281:318|281:318|275:315|275:315|278:308|278:308|276:304|276:304|279:297|279:297|273:294|273:294|271:290|271:290|265:287|265:287|268:280|268:280|266:275|266:275|267:268|267:268|260:267|260:267|257:263|257:263|250:262|250:262|252:255|252:255|249:251|249:251|250:244|250:244|243:243|243:243|240:239|240:239|233:238|233:238|234:231|234:231|227:222|227:222|231:227|231:227|232:223|232:223|227:222|227:222|226:214|226:214|220:209|220:209|224:204|224:204|223:198|223:198|228:193|228:193|222:189|222:189|221:184|221:184|215:179|215:179|220:174|220:174|219:169|219:169|223:163|223:163|217:159|217:159|217:157|217:157|216:154|216:154|210:151|210:151|213:145|213:145|212:140|212:140|215:134|215:134|209:130|209:130|208:126|208:126|202:122|202:122|205:116|205:116|204:111|204:111|207:105|207:105|201:101|201:101|199:94|199:94|194:90|194:90|198:86|198:86|197:82|197:82|202:76|202:76|196:72|196:72|195:67|195:67|190:63|190:63|194:57|194:57|193:52|193:52|198:46|198:46|192:42|192:42|191:34|191:34|194:39|194:39|189:42|189:42|188:46|188:46|181:49|181:49|185:55|185:55|183:60|183:60|187:66|187:66|181:69|181:69|179:74|179:74|173:78|173:78|176:84|176:84|174:92|174:92|175:97|175:97|170:98|170:98|168:102|168:102|162:104|162:104|163:110|163:110|161:115|161:115|163:122|163:122|156:123|156:123|153:128|153:128|146:130|146:130|148:137|148:137|144:144|144:144|146:149|146:149|141:151|141:151|139:154|139:154|132:157|132:157|135:163|135:163|133:168|133:168|135:175|135:175|128:177|128:177|126:181|126:181|119:184|119:184|122:190|122:190|118:198|118:198|122:202|122:202|118:205|118:205|118:209|118:209|114:215|114:215|119:219|119:219|119:224|119:224|124:229|124:229|119:234|119:234|119:240|119:240|115:245|115:245|120:250|120:250|120:258|120:258|121:263|121:263|115:264|115:264|113:267|113:267|106:268|106:268|106:275|106:275|103:279|103:279|104:286|104:286|97:286|97:286|94:290|94:290|87:291|87:291|88:298|88:298|82:305|82:305|83:310|83:310|78:311|78:311|76:314|76:314|69:316|69:316|71:323|71:323|68:327|68:327|70:334|70:334|63:335|63:335|60:340|60:340|53:341|53:341|55:348|55:348|50:356|50:356|46:353|46:353|49:349|49:349|48:345|48:345|52:339|52:339|46:336|46:336|45:331|45:331|39:327|39:327|43:321|43:321|42:316|42:316|46:310|46:310|40:306|40:306|39:301|39:301|33:298|33:298|37:292|37:292|36:287|36:287|40:281|40:281|34:277|34:277|33:272|33:272|27:268|27:268|31:262|31:262|30:258|30:258|30:257,1,1376.52350643254,2|2,3:2|3:2,0:0:0:0:
198,62,38910,1,2,3:2:0:0:
367,62,39379,6,0,B|371:72|371:72|377:75|377:75|374:81|374:81|376:86|376:86|373:92|373:92|379:95|379:95|381:100|381:100|388:103|388:103|385:109|385:109|390:123|390:123|386:114|386:114|384:120|384:120|390:123|390:123|390:128|390:128|395:133|395:133|390:138|390:138|391:143|391:143|386:148|386:148|391:153|391:153|391:158|391:158|396:163|396:163|391:168|391:168|392:173|392:173|387:178|387:178|392:183|392:183|392:188|392:188|399:189|399:189|398:196|398:196|402:199|402:199|401:206|401:206|408:207|408:207|411:211|411:211|418:212|418:212|418:219|418:219|421:222|421:222|420:229|420:229|427:230|427:230|434:238|434:238|430:234|430:234|434:234|434:234|434:238|434:238|437:248|437:248|433:254|433:254|439:257|439:257|440:262|440:262|447:266|447:266|443:272|443:272|444:276|444:276|441:283|441:283|447:286|447:286|448:291|448:291|454:294|454:294|451:301|451:301|452:305|452:305|448:311|448:311|455:315|455:315|456:320|456:320|462:324|462:324|458:330|458:330|459:334|459:334|456:341|456:341|462:344|462:344|463:349|463:349|469:353|469:353|466:359|466:359|467:364|467:364|470:357|470:357|463:354|463:354|462:350|462:350|456:347|456:347|459:341|459:341|457:336|457:336|460:330|460:330|454:327|454:327|452:322|452:322|446:319|446:319|449:313|449:313|445:303|445:303|447:308|447:308|449:305|449:305|445:303|445:303|447:294|447:294|443:288|443:288|449:284|449:284|450:279|450:279|456:275|456:275|452:269|452:269|453:264|453:264|449:258|449:258|455:254|455:254|456:249|456:249|462:245|462:245|458:239|458:239|459:235|459:235|455:229|455:229|460:225|460:225|461:220|461:220|467:216|467:216|463:210|463:210|464:205|464:205|460:199|460:199|466:195|466:195|466:190|466:190|472:186|472:186|468:180|468:180|469:175|469:175|465:169|465:169|471:165|471:165|472:161|472:161|478:157|478:157|474:151|474:151|475:146|475:146|472:140|472:140|477:136|477:136|479:132|479:132|485:128|485:128|481:122|481:122|482:116|482:116|476:113|476:113|479:106|479:106|478:103|478:103|481:96|481:96|475:93|475:93|474:88|474:88|468:85|468:85|471:79|471:79|470:74|470:74|473:68|473:68|467:64|467:64|465:58|465:58|459:55|459:55|462:49|462:49|461:45|461:45|464:39|464:39|457:36|457:36|456:31|456:31|449:28|449:28|452:22|452:22|451:17|451:17|454:11|454:11|447:8|447:8|445:1|445:1|448:7|448:7|442:9|442:9|441:13|441:13|434:17|434:17|438:23|438:23|436:28|436:28|439:34|439:34|433:37|433:37|431:42|431:42|425:45|425:45|428:51|428:51|426:58|426:58|431:62|431:62|427:67|427:67|428:71|428:71|424:77|424:77|430:81|430:81|431:86|431:86|436:90|436:90|432:95|432:95|433:100|433:100|429:106|429:106|435:110|435:110|436:118|436:118|439:123|439:123|434:126|434:126|433:130|433:130|427:133|427:133|430:140|430:140|429:144|429:144|432:150|432:150|426:154|426:154|425:159|425:159|419:162|419:162|422:168|422:168|420:176|420:176|423:181|423:181|418:184|418:184|417:188|417:188|411:192|411:192|415:197|415:197|414:202|414:202|418:208|418:208|412:212|412:212|411:217|411:217|405:221|405:221|409:227|409:227|407:235|407:235|408:240|408:240|403:241|403:241|401:245|401:245|394:247|394:247|396:254|396:254|394:258|394:258|395:265|395:265|389:266|389:266|386:271|386:271|379:273|379:273|381:279|381:279|378:284|378:284|380:290|380:290|373:292|373:292|371:297|371:297|364:298|364:298|366:306|366:306|363:310|363:310|365:317|365:317|358:319|358:319|356:322|356:322|355:323,1,1366.01369050625,2|2,3:2|3:2,0:0:0:0:
187,272,40785,1,2,3:2:0:0:
355,265,41254,5,4,3:2:0:0:
183,54,41722,1,2,0:2:0:0:
183,54,42191,1,2,0:2:0:0:
352,60,42660,1,10,0:2:0:0:
480,142,43129,6,0,B|476:152|476:152|479:158|479:158|473:161|473:161|471:166|471:166|464:168|464:168|467:175|467:175|465:179|465:179|468:186|468:186|462:189|462:189|460:193|460:193|453:196|453:196|456:203|456:203|456:207|456:207|460:213|460:213|455:218|455:218|454:223|454:223|449:227|449:227|454:233|454:233|453:238|453:238|458:243|458:243|453:248|453:248|452:253|452:253|447:257|447:257|451:263|451:263|451:268|451:268|452:275|452:275|445:276|445:276|442:279|442:279|435:280|435:280|436:287|436:287|433:291|433:291|434:298|434:298|427:299|427:299|424:303|424:303|417:304|417:304|417:311|417:311|411:319|411:319|414:315|414:315|415:319|415:319|411:319|411:319|407:328|407:328|400:330|400:330|403:337|403:337|400:342|400:342|403:348|403:348|396:351|396:351|394:355|394:355|387:357|387:357|390:364|390:364|387:369|387:369|390:375|390:375|383:378|383:378|383:374|383:374|388:368|388:368|383:364|383:364|383:358|383:358|378:354|378:354|383:348|383:348|383:344|383:344|388:338|388:338|383:334|383:334|383:328|383:328|378:324|378:324|383:318|383:318|383:313|383:313|386:306|386:306|379:303|379:303|378:300|378:300|371:297|371:297|374:290|374:290|372:286|372:286|375:279|375:279|369:276|369:276|367:272|367:272|360:269|360:269|363:262|363:262|359:252|359:252|361:258|361:258|363:254|363:254|359:252|359:252|354:245|354:245|347:243|347:243|348:236|348:236|345:232|345:232|347:225|347:225|340:224|340:224|337:220|337:220|330:219|330:219|331:212|331:212|328:207|328:207|330:201|330:201|323:199|323:199|322:198|322:198|321:195|321:195|316:190|316:190|320:185|320:185|319:180|319:180|323:174|323:174|317:170|317:170|316:165|316:165|311:161|311:161|315:155|315:155|314:150|314:150|318:144|318:144|312:140|312:140|311:134|311:134|305:132|305:132|307:125|307:125|305:122|305:122|307:115|307:115|301:113|301:113|299:108|299:108|292:106|292:106|294:99|294:99|292:95|292:95|294:88|294:88|288:86|288:86|285:80|285:80|279:76|279:76|283:71|283:71|282:67|282:67|286:61|286:61|280:57|280:57|279:52|279:52|273:48|273:48|277:42|277:42|276:38|276:38|280:31|280:31|274:27|274:27|273:21|273:21|275:27|275:27|269:30|269:30|267:33|267:33|260:35|260:35|263:42|263:42|261:47|261:47|263:53|263:53|256:56|256:56|254:60|254:60|247:62|247:62|250:69|250:69|247:75|247:75|251:80|251:80|246:84|246:84|245:88|245:88|239:92|239:92|244:98|244:98|243:103|243:103|247:109|247:109|241:113|241:113|241:118|241:118|235:122|235:122|239:128|239:128|238:135|238:135|241:140|241:140|235:143|235:143|234:147|234:147|228:150|228:150|231:157|231:157|230:162|230:162|233:168|233:168|227:171|227:171|225:176|225:176|219:179|219:179|222:185|222:185|220:192|220:192|220:198|220:198|213:198|213:198|210:201|210:201|203:200|203:200|203:207|203:207|199:211|199:211|199:218|199:218|192:217|192:217|188:220|188:220|181:220|181:220|181:227|181:227|175:232|175:232|180:236|180:236|176:241|176:241|176:245|176:245|171:250|171:250|177:255|177:255|177:260|177:260|182:264|182:264|178:270|178:270|178:275|178:275|173:280|173:280|179:285|179:285|179:292|179:292|181:298|181:298|175:300|175:300|174:303|174:303|167:305|167:305|169:312|169:312|167:317|167:317|169:323|169:323|163:326|163:326|160:330|160:330|154:332|154:332|156:339|156:339|154:344|154:344|156:351|156:351|149:353|149:353|147:357|147:357|140:360|140:360|143:366|143:366|140:371|140:371|143:377|143:377|136:380|136:380|134:385,1,1354.49227978872,4|2,3:2|3:2,0:0:0:0:
312,115,44535,1,10,0:2:0:0:
142,323,45004,2,0,B|139:333|139:333|142:339|142:339|136:343|136:343|135:347|135:347|128:351|128:351|132:357|132:357|130:362|130:362|134:368|134:368|127:371|127:371|126:376|126:376|120:379|120:379|123:386|123:386|121:382|121:382|114:380|114:380|116:373|116:373|113:369|113:369|115:362|115:362|109:360|109:360|106:356|106:356|99:354|99:354|101:347|101:347|99:343|99:343|101:336|101:336|94:334|94:334|91:329|91:329|87:323|87:323|93:319|93:319|94:315|94:315|100:312|100:312|96:306|96:306|98:301|98:301|94:295|94:295|100:291|100:291|101:286|101:286|107:282|107:282|103:276|103:276|106:265|106:265|105:271|105:271|102:267|102:267|106:265|106:265|100:259|100:259|101:252|101:252|94:251|94:251|90:248|90:248|83:247|83:247|83:240|83:240|80:237|80:237|80:230|80:230|73:229|73:229|70:226|70:226|63:225|63:225|63:218|63:218|62:217|62:217|62:214|62:214|68:209|68:209|63:204|63:204|63:199|63:199|58:193|58:193|64:189|64:189|64:184|64:184|69:179|69:179|65:174|65:174|65:169|65:169|60:164|60:164|66:159|66:159|66:152|66:152|70:147|70:147|66:143|66:143|66:139|66:139|61:134|61:134|66:129|66:129|66:124|66:124|70:119|70:119|65:114|65:114|65:109|65:109|60:104|60:104|65:99|65:99|65:87|65:87|65:94|65:94|69:90|69:90|65:87|65:87|63:79|63:79|57:75|57:75|61:70|61:70|60:64|60:64|64:58|64:58|58:55|58:55|57:50|57:50|51:46|51:46|55:40|55:40|54:35|54:35|57:29|57:29|52:25|52:25|51:23|51:23|51:25|51:25|57:30|57:30|53:35|53:35|53:40|53:40|49:46|49:46|54:50|54:50|55:55|55:55|61:60|61:60|56:65|56:65|57:70|57:70|52:76|52:76|58:80|58:80|59:88|59:88|62:93|62:93|57:96|57:96|57:100|57:100|51:104|51:104|55:109|55:109|54:114|54:114|58:120|58:120|52:125|52:125|51:129|51:129|45:133|45:133|49:139|49:139|47:147|47:147|52:148|52:148|51:154|51:154|53:157|53:157|52:164|52:164|58:166|58:166|61:170|61:170|68:172|68:172|66:178|66:178|69:183|69:183|67:190|67:190|74:191|74:191|78:198|78:198|83:201|83:201|80:206|80:206|81:210|81:210|77:216|77:216|83:219|83:219|84:224|84:224|90:228|90:228|86:235|86:235|87:239|87:239|83:245|83:245|89:249|89:249|91:257|91:257|95:261|95:261|91:265|91:265|91:269|91:269|86:274|86:274|91:279|91:279|91:284|91:284|96:289|96:289|92:294|92:294|92:299|92:299|87:304|87:304|92:309|92:309|92:317|92:317|97:319|97:319|95:324|95:324|97:328|97:328|94:334|94:334|101:337|101:337|103:342|103:342|109:344|109:344|107:351|107:351|109:355|109:355|106:362|106:362|113:364|113:364|116:372|116:372|112:368|112:368|116:364|116:364|116:360|116:360|121:355|121:355|116:350|116:350|116:345|116:345|112:340|112:340|117:335|117:335|117:330|117:330|122:325|122:325|117:320|117:320|117:312|117:312|114:308|114:308|118:304|118:304|119:300|119:300|124:296|124:296|120:290|120:290|121:285|121:285|116:280|116:280|122:276|122:276|123:271|123:271|128:266|128:266|124:261|124:261|125:252|125:252|123:247|123:247|128:245|128:245|129:241|129:241|136:238|136:238|133:232|133:232|134:227|134:227|132:221|132:221|138:218|138:218|140:213|140:213|146:211|146:211|143:204|143:204|145:199|145:199|142:193|142:193|149:190|149:190|150:185|150:185|157:183|157:183|154:176|154:176|156:171|156:171|153:165|153:165|159:162|159:162|161:158|161:158|161:157,1,1350.25313433597,2|2,3:2|3:2,0:0:0:0:
329,55,46410,1,10,0:2:0:0:
494,230,46879,6,0,B|490:240|490:240|493:246|493:246|487:249|487:249|485:254|485:254|479:257|479:257|482:263|482:263|480:268|480:268|483:274|483:274|477:277|477:277|472:291|472:291|475:282|475:282|469:285|469:285|472:291|472:291|470:296|470:296|474:302|474:302|467:306|467:306|466:311|466:311|460:314|460:314|463:320|463:320|462:325|462:325|465:331|465:331|459:334|459:334|457:339|457:339|451:342|451:342|454:349|454:349|453:353|453:353|446:351|446:351|447:345|447:345|444:340|444:340|445:334|445:334|438:332|438:332|435:328|435:328|428:327|428:327|430:320|430:320|426:316|426:316|427:309|427:309|421:308|421:308|415:300|415:300|412:297|412:297|415:294|415:294|415:290|415:290|419:284|419:284|414:280|414:280|414:275|414:275|409:270|409:270|413:265|413:265|413:260|413:260|418:255|418:255|413:250|413:250|412:235|412:235|412:245|412:245|407:240|407:240|412:235|412:235|409:231|409:231|410:224|410:224|403:222|403:222|400:218|400:218|393:217|393:217|394:210|394:210|391:206|391:206|393:199|393:199|386:198|386:198|383:194|383:194|376:193|376:193|377:186|377:186|374:182|374:182|379:177|379:177|375:172|375:172|375:167|375:167|371:162|371:162|376:157|376:157|376:152|376:152|382:148|382:148|377:142|377:142|377:137|377:137|373:132|373:132|378:127|378:127|379:117|379:117|380:113|380:113|376:112|376:112|374:108|374:108|367:107|367:107|369:100|369:100|366:95|366:95|368:89|368:89|361:87|361:87|359:83|359:83|352:81|352:81|354:74|354:74|346:61|346:61|351:70|351:70|353:63|353:63|346:61|346:61|344:66|344:66|348:72|348:72|341:75|341:75|340:80|340:80|333:83|333:83|336:89|336:89|335:94|335:94|338:100|338:100|332:104|332:104|330:108|330:108|324:111|324:111|327:118|327:118|325:123|325:123|328:130|328:130|321:133|321:133|320:136|320:136|313:139|313:139|316:146|316:146|314:150|314:150|317:157|317:157|311:160|311:160|309:164|309:164|302:167|302:167|305:173|305:173|303:179|303:179|305:186|305:186|298:188|298:188|297:192|297:192|290:194|290:194|292:201|292:201|290:205|290:205|292:212|292:212|285:214|285:214|283:219|283:219|276:221|276:221|279:228|279:228|276:233|276:233|280:239|280:239|275:243|275:243|274:247|274:247|269:251|269:251|273:257|273:257|273:262|273:262|277:267|277:267|271:272|271:272|271:277|271:277|265:281|265:281|270:287|270:287|269:293|269:293|273:298|273:298|269:302|269:302|268:306|268:306|263:311|263:311|268:316|268:316|268:321|268:321|272:326|272:326|267:331|267:331|267:337|267:337|262:341|262:341|266:347|266:347|266:353|266:353|259:353|259:353|259:346|259:346|256:343|256:343|256:336|256:336|249:336|249:336|246:333|246:333|239:333|239:333|239:326|239:326|235:322|235:322|235:315|235:315|228:315|228:315|223:310|223:310|218:307|218:307|220:302|220:302|219:298|219:298|222:292|222:292|216:289|216:289|214:284|214:284|208:281|208:281|211:275|211:275|209:270|209:270|212:264|212:264|206:261|206:261|203:253|203:253|198:250|198:250|201:245|201:245|200:241|200:241|204:235|204:235|198:232|198:232|196:227|196:227|190:223|190:223|194:217|194:217|193:212|193:212|196:206|196:206|190:202|190:202|188:194|188:194|183:192|183:192|186:187|186:187|184:183|184:183|187:177|187:177|181:174|181:174|180:169|180:169|173:166|173:166|176:159|176:159|175:155|175:155|178:148|178:148|172:145|172:145|170:141|170:141|164:137|164:137|167:131|167:131|165:126|165:126|168:120|168:120|162:117|162:117|160:112|160:112|154:109|154:109|157:103|157:103|156:99|156:99|156:98,1,1380.56834980618,2|2,3:2|3:2,0:0:0:0:
324,218,48285,1,10,0:2:0:0:
154,221,48754,2,0,B|155:231|155:231|160:236|160:236|156:241|156:241|156:246|156:246|152:252|152:252|157:256|157:256|157:261|157:261|163:266|163:266|158:271|158:271|159:276|159:276|154:282|154:282|159:286|159:286|160:291|160:291|165:296|165:296|161:301|161:301|161:306|161:306|156:311|156:311|162:316|162:316|163:331|163:331|162:321|162:321|168:326|168:326|163:331|163:331|162:326|162:326|166:320|166:320|160:316|160:316|159:311|159:311|154:307|154:307|158:301|158:301|157:297|157:297|161:291|161:291|155:287|155:287|154:282|154:282|148:278|148:278|152:272|152:272|151:267|151:267|155:261|155:261|150:257|150:257|149:252|149:252|143:248|143:248|147:242|147:242|146:238|146:238|150:232|150:232|144:228|144:228|143:223|143:223|137:219|137:219|141:213|141:213|141:208|141:208|145:202|145:202|139:198|139:198|138:193|138:193|132:189|132:189|136:183|136:183|136:182,1,352.296466149367,2|8,3:2|0:2,0:0:0:0:
154,217,49457,2,0,B|155:227|155:227|160:232|160:232|156:237|156:237|156:242|156:242|152:248|152:248|157:252|157:252|158:257|158:257|163:262|163:262|159:267|159:267|159:272|159:272|154:278|154:278|160:282|160:282|160:287|160:287|166:292|166:292|161:297|161:297|162:302|162:302|157:308|157:308|163:312|163:312|164:327|164:327|163:317|163:317|169:322|169:322|164:327|164:327|163:322|163:322|167:316|167:316|161:312|161:312|160:307|160:307|154:303|154:303|158:298|158:298|158:293|158:293|161:287|161:287|156:283|156:283|155:278|155:278|149:274|149:274|153:268|153:268|152:263|152:263|156:257|156:257|150:253|150:253|149:249|149:249|143:245|143:245|147:239|147:239|146:234|146:234|150:228|150:228|145:224|145:224|144:219|144:219|138:215|138:215|142:209|142:209|141:204|141:204|145:199|145:199|139:195|139:195|138:190|138:190|132:186|132:186|136:180|136:180|136:179,1,352.101537844481,2|10,3:2|0:2,0:0:0:0:
304,117,50160,1,10,0:2:0:0:
137,87,50629,6,0,B|142:96|142:96|149:98|149:98|147:105|147:105|149:109|149:109|147:116|147:116|154:118|154:118|156:123|156:123|163:125|163:125|161:131|161:131|168:144|168:144|163:136|163:136|162:142|162:142|168:144|168:144|168:149|168:149|173:154|173:154|168:159|168:159|169:164|169:164|164:169|164:169|169:174|169:174|169:179|169:179|174:184|174:184|169:189|169:189|170:194|170:194|164:199|164:199|170:205|170:205|170:209|170:209|177:211|177:211|176:218|176:218|179:222|179:222|177:229|177:229|184:230|184:230|187:234|187:234|194:236|194:236|192:243|192:243|195:247|195:247|194:254|194:254|201:255|201:255|206:263|206:263|209:266|209:266|206:269|206:269|206:273|206:273|201:278|201:278|206:283|206:283|206:288|206:288|210:293|210:293|205:298|205:298|205:303|205:303|200:308|200:308|205:314|205:314|205:328|205:328|205:319|205:319|210:323|210:323|205:328|205:328|207:323|207:323|213:320|213:320|211:314|211:314|212:309|212:309|210:303|210:303|216:300|216:300|218:295|218:295|224:292|224:292|222:286|222:286|224:281|224:281|221:274|221:274|227:272|227:272|229:267|229:267|236:266|236:266|235:259|235:259|238:255|238:255|238:248|238:248|245:248|245:248|248:244|248:244|255:243|255:243|254:236|254:236|257:232|257:232|256:225|256:225|263:224|263:224|270:216|270:216|267:220|267:220|270:220|270:220|270:216|270:216|275:208|275:208|273:201|273:201|280:199|280:199|282:195|282:195|289:193|289:193|287:186|287:186|290:182|290:182|288:175|288:175|295:173|295:173|297:169|297:169|304:167|304:167|302:160|302:160|303:159|303:159|303:156|303:156|298:150|298:150|304:146|304:146|304:141|304:141|309:136|309:136|304:130|304:130|305:125|305:125|300:120|300:120|305:115|305:115|305:110|305:110|310:106|310:106|306:100|306:100|306:94|306:94|302:89|302:89|307:85|307:85|307:81|307:81|312:76|312:76|308:71|308:71|308:66|308:66|304:60|304:60|309:56|309:56|310:51|310:51|315:46|315:46|310:40|310:40|311:34|311:34|318:35|318:35|316:42|316:42|318:45|318:45|317:52|317:52|324:54|324:54|326:58|326:58|333:59|333:59|332:66|332:66|335:70|335:70|333:77|333:77|340:79|340:79|344:85|344:85|349:88|349:88|346:93|346:93|347:97|347:97|344:103|344:103|350:107|350:107|351:111|351:111|358:115|358:115|354:121|354:121|355:126|355:126|352:132|352:132|358:136|358:136|360:143|360:143|366:145|366:145|364:151|364:151|365:154|365:154|363:161|363:161|370:163|370:163|372:168|372:168|379:170|379:170|376:177|376:177|378:181|378:181|376:188|376:188|383:190|383:190|386:197|386:197|392:199|392:199|390:204|390:204|392:208|392:208|390:215|390:215|397:217|397:217|399:221|399:221|406:223|406:223|404:230|404:230|406:234|406:234|404:241|404:241|411:243|411:243|415:250|415:250|419:253|419:253|416:258|416:258|417:262|417:262|412:267|412:267|418:272|418:272|419:277|419:277|424:281|424:281|420:287|420:287|421:292|421:292|416:297|416:297|422:302|422:302|423:310|423:310|427:313|427:313|424:317|424:317|425:321|425:321|421:327|421:327|426:331|426:331|427:336|427:336|433:340|433:340|428:346|428:346|429:351|429:351|425:357|425:357|431:361|431:361|432:370|432:370|430:365|430:365|435:364|435:364|437:360|437:360|443:358|443:358|441:351|441:351|443:347|443:347|441:340|441:340|447:338|447:338|449:333|449:333|456:331|456:331|454:324|454:324|456:320|456:320|453:313|453:313|460:311|460:311|462:306|462:306|469:304|469:304|466:297|466:297|469:293|469:293|466:286|466:286|473:284|473:284|475:279|475:279|475:278,1,1371.98531084782,6|2,3:2|3:2,0:0:0:0:
305,60,52035,1,10,0:2:0:0:
140,35,52504,2,0,B|140:45|140:45|145:50|145:50|140:55|140:55|140:60|140:60|136:65|136:65|141:70|141:70|141:75|141:75|146:80|146:80|141:85|141:85|141:100|141:100|141:90|141:90|136:95|136:95|141:100|141:100|139:105|139:105|141:112|141:112|134:114|134:114|132:118|132:118|125:121|125:121|128:127|128:127|125:132|125:132|128:138|128:138|121:141|121:141|119:145|119:145|112:147|112:147|114:154|114:154|112:159|112:159|117:164|117:164|112:170|112:170|112:174|112:174|107:178|107:178|112:184|112:184|112:188|112:188|117:194|117:194|112:198|112:198|112:204|112:204|107:208|107:208|112:214|112:214|112:224|112:224|112:218|112:218|115:221|115:221|112:224|112:224|106:232|106:232|100:233|100:233|101:240|101:240|98:244|98:244|99:251|99:251|92:252|92:252|89:256|89:256|82:257|82:257|83:264|83:264|80:268|80:268|82:275|82:275|74:277|74:277|75:281|75:281|72:288|72:288|79:291|79:291|80:295|80:295|87:299|87:299|83:305|83:305|85:310|85:310|82:316|82:316|88:319|88:319|90:324|90:324|96:327|96:327|93:333|93:333|95:339|95:339|96:332|96:332|89:331|89:331|86:328|86:328|79:328|79:328|80:321|80:321|76:317|76:317|77:310|77:310|70:309|70:309|67:305|67:305|60:305|60:305|60:298|60:298|53:289|53:289|57:294|57:294|58:289|58:289|53:289|53:289|54:281|54:281|49:275|49:275|54:271|54:271|54:266|54:266|60:261|60:261|55:256|55:256|55:251|55:251|50:245|50:245|56:240|56:240|56:235|56:235|62:231|62:231|57:225|57:225|57:224|57:224|57:221|57:221|53:215|53:215|58:211|58:211|59:206|59:206|64:201|64:201|60:196|60:196|61:191|61:191|56:185|56:185|62:181|62:181|62:176|62:176|68:171|68:171|63:166|63:166|64:159|64:159|60:154|60:154|64:150|64:150|64:146|64:146|69:141|69:141|64:136|64:136|64:131|64:131|60:126|60:126|65:121|65:121|65:116|65:116|70:111|70:111|65:106|65:106|65:99|65:99|60:95|60:95|64:90|64:90|63:86|63:86|67:80|67:80|61:76|61:76|60:71|60:71|55:67|55:67|59:62|59:62|58:57|58:57|62:51|62:51|56:47|56:47|55:39|55:39|60:42|60:42|57:47|57:47|58:51|58:51|54:57|54:57|60:60|60:60|62:65|62:65|68:69|68:69|64:75|64:75|66:80|66:80|62:86|62:86|68:90|68:90|70:97|70:97|75:101|75:101|71:105|71:105|71:109|71:109|67:115|67:115|73:119|73:119|73:124|73:124|79:129|79:129|74:134|74:134|75:139|75:139|71:145|71:145|76:149|76:149|77:157|77:157|82:159|82:159|80:164|80:164|81:168|81:168|79:175|79:175|85:177|85:177|87:182|87:182|93:185|93:185|90:191|90:191|92:196|92:196|89:202|89:202|96:205|96:205|99:213|99:213|102:217|102:217|98:220|98:220|98:225|98:225|93:229|93:229|97:235|97:235|97:240|97:240|101:245|101:245|96:250|96:250|96:255|96:255|90:259|90:259|95:265|95:265|94:273|94:273|99:275|99:275|97:280|97:280|99:283|99:283|97:290|97:290|103:292|103:292|105:297|105:297|112:299|112:299|110:306|110:306|112:310|112:310|110:317|110:317|116:319|116:319|120:327|120:327|117:323|117:323|121:320|121:320|121:316|121:316|127:311|127:311|123:306|123:306|123:301|123:301|119:295|119:295|124:291|124:291|125:286|125:286|130:282|130:282|126:276|126:276|127:271|127:271|122:265|122:265|128:261|128:261|129:256|129:256|134:251|134:251|130:246|130:246|130:241|130:241|126:235|126:235|132:231|132:231|132:227|132:227|132:226,1,1369.8076446145,2|2,3:2|3:2,0:0:0:0:
296,12,53910,1,10,0:2:0:0:
123,175,54379,6,0,B|127:185|127:185|134:187|134:187|132:194|132:194|134:198|134:198|131:205|131:205|138:207|138:207|140:212|140:212|146:214|146:214|144:221|144:221|150:234|150:234|146:225|146:225|144:232|144:232|150:234|150:234|153:239|153:239|160:241|160:241|158:247|158:247|160:252|160:252|159:259|159:259|165:260|165:260|168:265|168:265|175:266|175:266|173:273|173:273|176:278|176:278|174:284|174:284|181:286|181:286|183:290|183:290|188:295|188:295|183:300|183:300|183:305|183:305|178:310|178:310|183:315|183:315|183:320|183:320|189:325|189:325|184:330|184:330|184:335|184:335|179:340|179:340|184:346|184:346|184:355|184:355|182:351|182:351|187:349|187:349|188:345|188:345|195:343|195:343|193:336|193:336|195:332|195:332|192:325|192:325|199:323|199:323|201:318|201:318|207:316|207:316|205:309|205:309|211:296|211:296|207:305|207:305|205:298|205:298|211:296|211:296|214:291|214:291|221:290|221:290|219:283|219:283|222:279|222:279|221:272|221:272|228:271|228:271|230:266|230:266|237:265|237:265|236:258|236:258|239:254|239:254|237:247|237:247|244:246|244:246|247:241|247:241|254:237|254:237|250:230|250:230|251:227|251:227|247:220|247:220|253:217|253:217|255:212|255:212|261:209|261:209|257:203|257:203|259:198|259:198|255:192|255:192|261:188|261:188|264:178|264:178|263:183|263:183|266:181|266:181|264:178|264:178|264:169|264:169|259:164|259:164|264:159|264:159|264:154|264:154|269:149|269:149|265:144|265:144|265:138|265:138|260:133|260:133|265:128|265:128|265:123|265:123|270:119|270:119|265:113|265:113|267:109|267:109|264:102|264:102|271:100|271:100|273:95|273:95|280:93|280:93|277:86|277:86|279:82|279:82|277:75|277:75|283:73|283:73|285:68|285:68|292:66|292:66|289:59|289:59|292:53|292:53|299:56|299:56|296:62|296:62|298:66|298:66|295:72|295:72|302:75|302:75|304:79|304:79|310:82|310:82|307:88|307:88|309:93|309:93|307:100|307:100|313:102|313:102|316:108|316:108|322:110|322:110|320:116|320:116|322:120|322:120|320:127|320:127|326:129|326:129|329:133|329:133|336:136|336:136|333:143|333:143|336:147|336:147|333:154|333:154|340:156|340:156|343:162|343:162|349:165|349:165|346:171|346:171|347:175|347:175|343:181|343:181|349:185|349:185|351:189|351:189|357:193|357:193|353:199|353:199|355:204|355:204|351:210|351:210|357:213|357:213|359:220|359:220|365:223|365:223|361:229|361:229|362:232|362:232|359:239|359:239|365:243|365:243|367:247|367:247|373:251|373:251|369:257|369:257|371:262|371:262|367:268|367:268|373:271|373:271|375:278|375:278|381:280|381:280|379:286|379:286|380:290|380:290|378:296|378:296|385:299|385:299|387:303|387:303|393:306|393:306|391:313|391:313|393:317|393:317|390:324|390:324|397:326|397:326|400:333|400:333|396:328|396:328|401:325|401:325|402:321|402:321|408:317|408:317|403:311|403:311|404:306|404:306|400:300|400:300|406:296|406:296|406:291|406:291|412:287|412:287|408:281|408:281|409:273|409:273|408:267|408:267|413:266|413:266|415:263|415:263|422:261|422:261|421:255|421:255|424:250|424:250|422:244|422:244|429:242|429:242|432:238|432:238|439:236|439:236|437:230|437:230|442:222|442:222|439:218|439:218|443:215|443:215|444:211|444:211|450:207|450:207|446:201|446:201|447:197|447:197|443:191|443:191|449:187|449:187|450:182|450:182|456:178|456:178|452:172|452:172|453:167|453:167|448:161|448:161|455:157|455:157|455:152|455:152|461:148|461:148|457:142|457:142|458:137|458:137|454:131|454:131|460:127|460:127|461:123|461:123|461:122,1,1386.79276061726,2|2,3:2|0:2,0:0:0:0:
293,163,55785,1,2,0:2:0:0:
455,266,56254,5,2,3:2:0:0:
452,272,56722,1,0,0:2:0:0:
455,262,56957,2,0,B|456:272|456:272|461:277|461:277|456:282|456:282|457:287|457:287|452:293|452:293|457:297|457:297|458:302|458:302|463:307|463:307|458:312|458:312|459:317|459:317|454:323|454:323|459:327|459:327|459:332|459:332|465:337|465:337|460:342|460:342|460:347|460:347|456:352|456:352|461:357|461:357|462:372|462:372|461:362|461:362|467:367|467:367|462:372|462:372|462:367|462:367|468:362|468:362|463:357|463:357|463:352|463:352|459:347|459:347|464:342|464:342|465:337|465:337|470:332|470:332|465:327|465:327|466:322|466:322|461:317|461:317|466:312|466:312|467:307|467:307|472:303|472:303|467:297|467:297|468:292|468:292|463:287|463:287|469:282|469:282|469:277|469:277|474:273|474:273|470:267|470:267|470:262|470:262|465:257|465:257|471:252|471:252|471:247|471:247|476:243|476:243|472:237|472:237|472:232|472:232|468:227|468:227|473:222|473:222|473:221,1,353.092465614183,0|2,3:2|0:2,0:0:0:0:
305,162,57660,1,2,0:2:0:0:
495,40,58129,6,0,B|489:49|489:49|490:56|490:56|483:57|483:57|481:61|481:61|474:62|474:62|475:69|475:69|472:73|472:73|473:80|473:80|466:82|466:82|464:86|464:86|457:87|457:87|458:94|458:94|455:98|455:98|460:103|460:103|455:108|455:108|455:113|455:113|450:118|450:118|455:123|455:123|455:128|455:128|459:133|459:133|454:138|454:138|454:143|454:143|449:148|449:148|454:153|454:153|454:168|454:168|454:158|454:158|459:163|459:163|454:168|454:168|452:173|452:173|445:175|445:175|448:182|448:182|446:186|446:186|448:193|448:193|441:195|441:195|439:200|439:200|433:202|433:202|435:209|435:209|433:213|433:213|435:220|435:220|429:222|429:222|424:232|424:232|427:227|427:227|423:228|423:228|424:232|424:232|418:239|418:239|418:246|418:246|411:246|411:246|408:250|408:250|401:250|401:250|401:257|401:257|398:261|398:261|398:268|398:268|391:269|391:269|388:272|388:272|381:273|381:273|381:280|381:280|377:284|377:284|383:288|383:288|378:294|378:294|379:298|379:298|374:303|374:303|380:308|380:308|381:313|381:313|386:317|386:317|382:322|382:322|383:328|383:328|378:333|378:333|384:338|384:338|385:343|385:343|390:347|390:347|386:353|386:353|386:354|386:354|383:352|383:352|382:345|382:345|375:346|375:346|371:344|371:344|364:345|364:345|363:338|363:338|358:335|358:335|357:328|357:328|350:329|350:329|346:326|346:326|339:328|339:328|338:321|338:321|328:314|328:314|334:318|334:318|333:313|333:313|328:314|328:314|325:307|325:307|318:304|318:304|321:298|321:298|319:293|319:293|321:286|321:286|315:284|315:284|313:279|313:279|306:277|306:277|309:270|309:270|307:266|307:266|309:259|309:259|303:256|303:256|300:250|300:250|295:246|295:246|299:241|299:241|299:237|299:237|303:232|303:232|297:227|297:227|297:222|297:222|291:218|291:218|296:212|296:212|295:207|295:207|300:202|300:202|294:197|294:197|293:192|293:192|288:188|288:188|292:182|292:182|292:180|292:180|292:178|292:178|296:172|296:172|290:168|290:168|290:163|290:163|284:158|284:158|288:152|288:152|287:147|287:147|292:142|292:142|286:138|286:138|285:133|285:133|280:128|280:128|284:123|284:123|282:110|282:110|283:118|283:118|287:113|287:113|282:110|282:110|277:105|277:105|270:106|270:106|269:99|269:99|266:95|266:95|265:88|265:88|258:89|258:89|255:85|255:85|248:86|248:86|247:79|247:79|243:75|243:75|243:68|243:68|236:68|236:68|230:63|230:63|232:68|232:68|227:70|227:70|226:74|226:74|219:77|219:77|222:83|222:83|220:88|220:88|223:95|223:95|216:97|216:97|215:102|215:102|208:105|208:105|211:111|211:111|209:116|209:116|212:122|212:122|205:125|205:125|204:129|204:129|204:130|204:130|198:134|198:134|202:140|202:140|201:145|201:145|205:150|205:150|199:154|199:154|198:159|198:159|192:163|192:163|196:169|196:169|196:174|196:174|199:180|199:180|194:184|194:184|191:198|191:198|193:189|193:189|187:192|187:192|191:198|191:198|191:199,2,1157.29428574423,6|2|10,3:2|0:2|0:2,0:0:0:0:
293,181,60004,2,0,B|287:190|287:190|289:197|289:197|282:198|282:198|280:203|280:203|273:204|273:204|274:211|274:211|272:215|272:215|273:222|273:222|266:224|266:224|264:228|264:228|257:230|257:230|259:237|259:237|256:241|256:241|262:245|262:245|257:251|257:251|258:256|258:256|253:261|253:261|259:266|259:266|259:271|259:271|265:275|265:275|261:281|261:281|261:286|261:286|257:291|257:291|262:296|262:296|263:301|263:301|268:305|268:305|264:311|264:311|262:315|262:315|255:316|255:316|256:323|256:323|253:327|253:327|255:334|255:334|248:336|248:336|245:340|245:340|239:341|239:341|240:348|240:348|237:352|237:352|239:359|239:359|232:361|232:361|226:370|226:370|229:365|229:365|225:366|225:366|226:370|226:370|225:361|225:361|219:357|219:357|224:351|224:351|223:346|223:346|227:340|227:340|222:336|222:336|221:331|221:331|215:327|215:327|220:321|220:321|219:316|219:316|223:311|223:311|218:306|218:306|217:300|217:300|211:298|211:298|213:292|213:292|211:288|211:288|213:281|213:281|207:279|207:279|204:275|204:275|198:272|198:272|200:266|200:266|198:261|198:261|200:254|200:254|193:252|193:252|191:247|191:247|184:245|184:245|187:238|187:238|186:237|186:237|185:234|185:234|188:227|188:227|181:224|181:224|179:220|179:220|173:217|173:217|176:211|176:211|174:206|174:206|177:199|177:199|171:197|171:197|169:192|169:192|163:189|163:189|165:183|165:183|161:171|161:171|164:178|164:178|166:173|166:173|161:171|161:171|158:164|158:164|151:161|151:161|154:155|154:155|152:150|152:150|154:144|154:144|147:141|147:141|145:137|145:137|139:134|139:134|141:127|141:127|139:123|139:123|142:116|142:116|135:114|135:114|132:107|132:107|126:105|126:105|128:99|128:99|127:96|127:96|129:89|129:89|122:87|122:87|120:82|120:82|114:80|114:80|116:73|116:73|114:69|114:69|116:62|116:62|110:60|110:60|107:55|107:55|101:52|101:52|103:46|103:46|102:43|102:43|102:45|102:45|96:49|96:49|100:55|100:55|99:60|99:60|103:65|103:65|97:69|97:69|96:74|96:74|90:78|90:78|94:84|94:84|93:89|93:89|97:95|97:95|91:99|91:99|89:112|89:112|91:104|91:104|86:107|86:107|89:112|89:112|85:117|85:117|85:124|85:124|78:124|78:124|75:128|75:128|68:128|68:128|68:136|68:136|65:139|65:139|65:146|65:146|58:147|58:147|55:150|55:150|48:151|48:151|48:158|48:158|42:165|42:165|45:169|45:169|41:172|41:172|40:176|40:176|35:180|35:180|39:186|39:186|38:191|38:191|43:196|43:196|37:200|37:200|36:205|36:205|31:210|31:210|35:215|35:215|34:220|34:220|38:226|38:226|33:230|33:230|32:235|32:235|27:239|27:239|31:245|31:245|31:250|31:250|35:255|35:255|30:260|30:260|29:265|29:265|24:269|24:269|28:275|28:275|28:280|28:280|32:285|32:285|27:290|27:290|25:305|26:295|26:295|21:299|21:299|25:305,2,1118.14447297119,2|2|10,3:2|0:2|0:2,0:0:0:0:
92,320,61879,6,0,B|95:310|95:310|92:304|92:304|98:300|98:300|99:296|99:296|105:292|105:292|102:286|102:286|104:281|104:281|100:275|100:275|106:272|106:272|108:267|108:267|114:264|114:264|111:257|111:257|112:253|112:253|112:246|112:246|119:245|119:245|122:241|122:241|129:241|129:241|129:234|129:234|132:230|132:230|131:223|131:223|138:222|138:222|141:218|141:218|149:218|149:218|148:211|148:211|151:207|151:207|151:200|151:200|158:199|158:199|160:195|160:195|166:192|166:192|163:186|163:186|165:181|165:181|162:175|162:175|169:172|169:172|171:167|171:167|177:164|177:164|174:158|174:158|176:153|176:153|173:147|173:147|180:144|180:144|184:134|184:134|182:139|182:139|186:138|186:138|184:134|184:134|184:125|184:125|178:120|178:120|183:115|183:115|183:110|183:110|188:104|188:104|183:100|183:100|182:95|182:95|177:90|177:90|182:85|182:85|182:80|182:80|187:74|187:74|181:69|181:69|181:64|181:64|179:57|179:57|186:55|186:55|187:51|187:51|194:49|194:49|192:42|192:42|194:38|194:38|192:31|192:31|198:29|198:29|201:24|201:24|207:22|207:22|205:15|205:15|207:11|207:11|205:4|205:4|212:2|212:2|212:1|212:1|215:4|215:4|215:11|215:11|222:11|222:11|225:14|225:14|233:15|233:15|233:22|233:22|236:25|236:25|236:32|236:32|243:33|243:33|246:36|246:36|253:36|253:36|253:43|253:43|261:51|261:51|257:47|257:47|257:51|257:51|261:51|261:51|262:60|262:60|267:65|267:65|262:70|262:70|262:75|262:75|257:80|257:80|263:85|263:85|263:90|263:90|268:95|268:95|264:100|264:100|264:105|264:105|259:110|259:110|265:115|265:115|265:121|265:121|272:123|272:123|269:130|269:130|271:134|271:134|269:140|269:140|275:143|275:143|277:147|277:147|284:150|284:150|281:156|281:156|284:161|284:161|281:167|281:167|288:170|288:170|290:174|290:174|297:177|297:177|294:184|294:184|295:185|295:185|296:188|296:188|292:194|292:194|298:198|298:198|299:203|299:203|305:206|305:206|302:212|302:212|303:217|303:217|299:223|299:223|305:227|305:227|307:232|307:232|313:235|313:235|309:241|309:241|312:253|312:253|310:246|310:246|308:250|308:250|312:253|312:253|317:259|317:259|325:259|325:259|325:267|325:267|328:270|328:270|328:277|328:277|335:278|335:278|338:281|338:281|345:281|345:281|345:289|345:289|348:292|348:292|348:299|348:299|355:300|355:300|360:305|360:305|365:308|365:308|362:313|362:313|362:317|362:317|359:323|359:323|364:327|364:327|365:332|365:332|371:336|371:336|367:342|367:342|368:347|368:347|365:352|365:352|370:356|370:356|371:361|371:361|377:365|377:365|373:371|373:371|374:374|374:374|375:372|375:372|381:369|381:369|378:363|378:363|379:358|379:358|376:352|376:352|382:349|382:349|384:343|384:343|390:340|390:340|387:334|387:334|389:329|389:329|386:323|386:323|392:320|392:320|396:307|396:307|393:315|393:315|399:312|399:312|396:307|396:307|395:306,2,1123.39528004516,2|2|10,3:2|0:2|0:2,0:0:0:0:
256,192,63754,12,2,65160,3:2:0:0:
304,273,65629,5,2,3:2:0:0:
144,143,67035,1,10,0:2:0:0:
312,135,67504,2,0,B|311:145|311:145|316:151|316:151|310:155|310:155|310:160|310:160|305:165|305:165|309:170|309:170|309:175|309:175|313:181|313:181|308:185|308:185|307:200|307:200|308:190|308:190|302:195|302:195|307:200|307:200|303:203|303:203|301:210|301:210|294:208|294:208|290:211|290:211|283:209|283:209|282:216|282:216|278:219|278:219|276:226|276:226|269:224|269:224|265:227|265:227|258:225|258:225|256:232|256:232|252:235|252:235|256:241|256:241|251:245|251:245|250:250|250:250|244:254|244:254|249:260|249:260|248:265|248:265|252:270|252:270|247:274|247:274|246:279|246:279|240:284|240:284|244:289|244:289|243:300|243:300|244:294|244:294|246:297|246:297|243:300|243:300|242:309|242:309|237:314|237:314|242:319|242:319|241:324|241:324|246:330|246:330|240:334|240:334|240:339|240:339|235:344|235:344|239:349|239:349|239:354|239:354|243:359|243:359|238:364|238:364|238:365|238:365|235:362|235:362|236:355|236:355|229:355|229:355|225:351|225:351|218:351|218:351|219:343|219:343|215:340|215:340|216:333|216:333|209:332|209:332|205:329|205:329|198:328|198:328|199:321|199:321|194:316|194:316|199:311|199:311|194:307|194:307|194:303|194:303|188:298|188:298|193:293|193:293|193:288|193:288|198:283|198:283|193:278|193:278|193:273|193:273|188:268|188:268|192:263|192:263|192:251|192:251|192:258|192:258|196:254|196:254|192:251|192:251|187:245|187:245|180:243|180:243|182:236|182:236|178:232|178:232|180:225|180:225|173:224|173:224|170:220|170:220|163:219|163:219|164:212|164:212|161:208|161:208|162:201|162:201|155:200|155:200|154:198|154:198|153:195|153:195|148:191|148:191|152:185|152:185|151:180|151:180|155:175|155:175|149:170|149:170|148:166|148:166|143:161|143:161|147:156|147:156|146:151|146:151|150:145|150:145|144:141|144:141|143:134|143:134|138:130|138:130|141:125|141:125|141:121|141:121|145:115|145:115|139:111|139:111|138:107|138:107|132:102|132:102|136:97|136:97|135:92|135:92|139:86|139:86|133:82|133:82|133:77|133:77|127:73|127:73|131:67|131:67|130:62|130:62|134:57|134:57|128:52|128:52|127:48|127:48|121:44|121:44|125:38|125:38|123:25|123:25|124:33|124:33|128:28|128:28|123:25|123:25|120:31|120:31|122:38|122:38|116:40|116:40|114:45|114:45|107:47|107:47|109:54|109:54|107:58|107:58|110:65|110:65|103:68|103:68|101:72|101:72|94:75|94:75|96:81|96:81|94:86|94:86|97:93|97:93|90:95|90:95|88:100|88:100|81:102|81:102|84:109|84:109|82:113|82:113|84:120|84:120|77:122|77:122|75:127|75:127|69:129|69:129|71:136|71:136|69:140|69:140|71:147|71:147|65:149|65:149|59:161|59:161|62:154|62:154|57:156|57:156|59:161|59:161|59:162,1,1076.626173232,2|2,3:2|0:2,0:0:0:0:
312,317,68910,1,10,0:2:0:0:
144,309,69379,6,0,B|150:317|150:317|157:318|157:318|156:325|156:325|159:329|159:329|159:336|159:336|166:337|166:337|169:341|169:341|176:342|176:342|175:349|175:349|178:353|178:353|177:360|177:360|184:361|184:361|185:357|185:357|182:350|182:350|188:347|188:347|189:342|189:342|196:338|196:338|192:332|192:332|194:328|194:328|190:321|190:321|196:318|196:318|198:313|198:313|204:310|204:310|200:304|200:304|202:298|202:298|196:294|196:294|200:288|200:288|200:284|200:284|204:278|204:278|198:274|198:274|197:269|197:269|191:265|191:265|195:260|195:260|195:255|195:255|199:249|199:249|193:245|193:245|191:234|191:234|192:240|192:240|189:237|189:237|191:234|191:234|199:229|199:229|206:231|206:231|207:224|207:224|212:221|212:221|213:214|213:214|220:216|220:216|224:213|224:213|231:214|231:214|233:208|233:208|237:205|237:205|238:198|238:198|245:200|245:200|246:199|246:199|245:195|245:195|249:189|249:189|243:185|243:185|242:181|242:181|236:177|236:177|239:171|239:171|238:166|238:166|242:160|242:160|236:156|236:156|235:151|235:151|229:148|229:148|233:142|233:142|231:135|231:135|237:137|237:137|239:131|239:131|243:129|243:129|245:122|245:122|252:124|252:124|256:122|256:122|263:124|263:124|265:117|265:117|269:115|269:115|271:108|271:108|278:110|278:110|289:104|289:104|282:108|282:108|287:109|287:109|289:104|289:104|289:97|289:97|285:91|285:91|290:87|290:87|290:82|290:82|295:77|295:77|290:72|290:72|291:67|291:67|286:61|286:61|291:56|291:56|291:51|291:51|297:47|297:47|292:41|292:41|292:39|292:39|293:41|293:41|299:44|299:44|296:51|296:51|298:56|298:56|294:62|294:62|301:65|301:65|302:70|302:70|309:73|309:73|306:79|306:79|307:84|307:84|304:90|304:90|310:93|310:93|313:101|313:101|318:103|318:103|317:108|317:108|318:112|318:112|316:118|316:118|323:121|323:121|325:125|325:125|332:127|332:127|329:134|329:134|332:139|332:139|329:145|329:145|336:148|336:148|338:152|338:152|345:154|345:154|343:161|343:161|345:166|345:166|343:172|343:172|349:174|349:174|352:179|352:179|358:181|358:181|356:188|356:188|362:200|362:200|358:192|358:192|356:198|356:198|362:200|362:200|364:206|364:206|370:210|370:210|366:216|366:216|367:221|367:221|363:227|363:227|369:231|369:231|370:235|370:235|376:239|376:239|373:245|373:245|374:250|374:250|370:256|370:256|376:260|376:260|377:265|377:265|383:268|383:268|380:274|380:274|381:279|381:279|377:285|377:285|383:289|383:289|384:294|384:294|390:298|390:298|387:304|387:304|388:309|388:309|384:315|384:315|390:318|390:318|391:323|391:323|397:327|397:327|394:333|394:333|397:347|395:338|395:338|391:343|391:343|397:347,1,1051.08992563134,2|2,3:2|0:2,0:0:0:0:
144,293,70785,1,10,0:2:0:0:
256,192,71254,12,0,73129,3:2:0:0:
