osu file format v14

[General]
AudioFilename: audio.mp3
AudioLeadIn: 0
PreviewTime: 70500
Countdown: 0
SampleSet: Soft
StackLeniency: 0.3
Mode: 0
LetterboxInBreaks: 0
WidescreenStoryboard: 1

[Editor]
Bookmarks: 2284,15859,30259,49459,71059,90259,110659,129859,149059,170659,221059,239059
DistanceSpacing: 1
BeatDivisor: 4
GridSize: 32
TimelineZoom: 1.400001

[Metadata]
Title:Mazare Party
TitleUnicode:Mazare Party
Artist:MAZARE
ArtistUnicode:MAZARE
Creator:IntellectualBoy
Version:toybot's Extra
Source:
Tags:toybot walaowey Neoskylove [ L u k a s ] oriental trap jcore utaite Nanahira Kradness Yukacco ななひら Camellia MIND HACK EXIT TUNES
BeatmapID:1414527
BeatmapSetID:667868

[Difficulty]
HPDrainRate:6
CircleSize:4
OverallDifficulty:8
ApproachRate:9.2
SliderMultiplier:1.7
SliderTickRate:1

[Events]
//Background and Video events
0,0,"Mazare.jpg",0,0
//Break Periods
2,197300,200130
//Storyboard Layer 0 (Background)
//Storyboard Layer 1 (Fail)
//Storyboard Layer 2 (Pass)
//Storyboard Layer 3 (Foreground)
//Storyboard Sound Samples

[TimingPoints]
300,300,4,2,1,30,1,0
5100,-151.515151515152,4,2,1,50,0,0
5700,-100,4,3,1,50,0,0
6300,-100,4,2,1,50,0,0
8700,-125,4,2,1,50,0,0
9300,-111.111111111111,4,2,1,50,0,0
9900,-100,4,3,1,50,0,0
11100,-100,4,2,1,50,0,0
13200,-151.515151515152,4,2,1,50,0,0
13500,-100,4,2,1,50,0,0
14700,-200,4,2,1,50,0,0
15900,-100,4,1,1,60,0,0
16125,-100,4,2,1,10,0,0
16200,-100,4,1,1,60,0,0
16425,-100,4,1,1,10,0,0
16500,-100,4,1,1,60,0,0
17325,-100,4,1,1,10,0,0
17400,-100,4,1,1,60,0,0
17625,-100,4,1,1,10,0,0
17700,-100,4,1,1,60,0,0
18525,-100,4,1,1,10,0,0
18600,-100,4,1,1,60,0,0
18825,-100,4,1,1,10,0,0
18900,-100,4,1,1,60,0,0
19725,-100,4,1,1,10,0,0
19800,-100,4,1,1,60,0,0
20025,-100,4,1,1,10,0,0
20100,-100,4,1,1,60,0,0
25500,-125,4,2,1,40,0,0
26700,-111.111111111111,4,2,1,40,0,0
27900,-100,4,2,1,40,0,0
28500,-100,4,2,1,50,0,0
29250,-100,4,2,1,40,0,0
30300,-100,4,1,1,70,0,0
38850,-100,4,3,1,60,0,0
38925,-133.333333333333,4,3,1,60,0,0
39300,-133.333333333333,4,3,1,50,0,0
39900,-111.111111111111,4,1,1,60,0,0
54300,-111.111111111111,4,3,1,60,0,0
56700,-111.111111111111,4,2,1,40,0,0
59100,-133.333333333333,4,2,1,50,0,0
69300,-133.333333333333,4,2,1,30,0,0
69600,-133.333333333333,4,2,1,40,0,0
69900,-151.515151515152,4,2,1,50,0,0
70500,-151.515151515152,4,2,1,60,0,0
71100,-100,4,1,1,60,0,0
71700,-100,4,1,1,50,0,0
73500,-125,4,1,1,50,0,0
74100,-111.111111111111,4,1,1,50,0,0
74700,-100,4,3,1,60,0,0
75900,-100,4,1,1,70,0,1
87900,-100,4,2,1,50,0,0
88125,-100,4,2,1,20,0,0
88200,-100,4,2,1,50,0,0
88425,-100,4,2,1,20,0,0
88500,-100,4,2,1,50,0,0
88725,-100,4,2,1,20,0,0
88800,-100,4,2,1,50,0,0
89025,-100,4,2,1,20,0,0
89100,-133.333333333333,4,2,1,50,0,0
89325,-133.333333333333,4,2,1,20,0,0
89400,-133.333333333333,4,2,1,50,0,0
89700,-151.515151515152,4,2,1,50,0,0
89925,-151.515151515152,4,2,1,20,0,0
90000,-151.515151515152,4,2,1,50,0,0
90225,-151.515151515152,4,2,1,20,0,0
90300,-100,4,1,1,60,0,0
91725,-100,4,2,1,10,0,0
91800,-100,4,1,1,60,0,0
92025,-100,4,2,1,10,0,0
92100,-100,4,1,1,60,0,0
92925,-100,4,2,1,10,0,0
93000,-100,4,1,1,60,0,0
93225,-100,4,2,1,10,0,0
93300,-100,4,1,1,60,0,0
101100,-111.111111111111,4,2,1,30,0,0
104700,-111.111111111111,4,2,1,40,0,0
105600,-111.111111111111,4,2,1,50,0,0
105900,-90.9090909090909,4,1,1,50,0,0
108300,-90.9090909090909,4,1,1,60,0,0
109200,-90.9090909090909,4,2,1,50,0,0
109500,-133.333333333333,4,2,1,50,0,0
110400,-80,4,2,1,50,0,0
110700,-100,4,1,1,70,0,1
118200,-80,4,1,1,70,0,1
119100,-100,4,3,1,60,0,0
120300,-100,4,1,1,70,0,1
127800,-80,4,1,1,70,0,1
128700,-80,4,3,1,50,0,0
129900,-111.111111111111,4,1,1,50,0,0
139500,-100,4,1,1,60,0,0
144300,-100,4,3,1,50,0,0
146550,-80,4,3,1,50,0,0
146700,-80,4,2,1,40,0,0
146925,-80,4,2,1,20,0,0
147000,-80,4,2,1,40,0,0
147375,-80,4,2,1,20,0,0
147450,-80,4,2,1,40,0,0
147825,-80,4,2,1,20,0,0
147900,-80,4,2,1,40,0,0
148800,-111.111111111111,4,2,1,40,0,0
149100,-111.111111111111,4,2,1,50,0,0
159300,-111.111111111111,4,2,1,30,0,0
159600,-111.111111111111,4,2,1,40,0,0
159900,-151.515151515152,4,2,1,50,0,0
161100,-100,4,1,1,60,0,0
163500,-125,4,1,1,60,0,0
164100,-111.111111111111,4,1,1,60,0,0
164700,-111.111111111111,4,3,1,60,0,0
165900,-100,4,1,1,70,0,1
177900,-133.333333333333,4,2,1,50,0,0
178125,-133.333333333333,4,2,1,20,0,0
178200,-133.333333333333,4,2,1,50,0,0
178425,-133.333333333333,4,2,1,20,0,0
178500,-133.333333333333,4,2,1,50,0,0
178725,-133.333333333333,4,2,1,20,0,0
178800,-133.333333333333,4,2,1,50,0,0
179025,-133.333333333333,4,2,1,20,0,0
179100,-133.333333333333,4,2,1,50,0,0
179700,-166.666666666667,4,2,1,50,0,0
182700,-166.666666666667,4,2,1,40,0,0
183300,-166.666666666667,4,2,1,5,0,0
184800,-200,4,2,1,30,0,0
194700,-200,4,2,1,20,0,0
196050,-200,4,2,1,10,0,0
197100,-200,4,2,1,5,0,0
200700,-151.515151515152,4,2,1,50,0,0
201900,-100,4,1,1,60,0,0
202425,-100,4,1,1,20,0,0
202500,-100,4,1,1,60,0,0
203625,-100,4,1,1,20,0,0
203700,-100,4,1,1,60,0,0
204825,-100,4,1,1,20,0,0
204900,-100,4,1,1,60,0,0
205425,-100,4,1,1,20,0,0
205500,-100,4,3,1,60,0,0
206700,-100,4,1,1,70,0,1
214125,-100,4,1,1,30,0,1
214200,-100,4,1,1,70,0,1
215025,-100,4,1,1,30,0,1
215100,-100,4,1,1,70,0,1
218700,-100,4,2,1,40,0,0
219900,-133.333333333333,4,2,1,40,0,0
221100,-100,4,1,1,60,0,0
221325,-100,4,2,1,10,0,0
221400,-100,4,1,1,60,0,0
221625,-100,4,2,1,10,0,0
221700,-100,4,1,1,60,0,0
222525,-100,4,2,1,10,0,0
222600,-100,4,1,1,60,0,0
222825,-100,4,2,1,10,0,0
222900,-100,4,1,1,60,0,0
223725,-100,4,2,1,10,0,0
223800,-100,4,1,1,60,0,0
224025,-100,4,1,1,10,0,0
224100,-100,4,1,1,60,0,0
224925,-100,4,1,1,10,0,0
225000,-100,4,1,1,60,0,0
225225,-100,4,1,1,10,0,0
225300,-100,4,1,1,60,0,0
228300,-90.9090909090909,4,1,1,60,0,0
228525,-90.9090909090909,4,2,1,10,0,0
228600,-90.9090909090909,4,1,1,60,0,0
228825,-90.9090909090909,4,1,1,10,0,0
228900,-90.9090909090909,4,1,1,60,0,0
233100,-90.9090909090909,4,1,1,40,0,0
234300,-90.9090909090909,4,1,1,30,0,0
235500,-90.9090909090909,4,2,1,5,0,0

[Colours]
Combo1 : 221,130,255
Combo2 : 250,48,83
Combo3 : 255,119,176
Combo4 : 102,231,253
Combo5 : 254,210,129
Combo6 : 156,255,132

[HitObjects]
20,136,5100,6,0,L|27:219,1,84.1499997431946,0|0,3:0|0:0,0:0:0:0:
96,108,5400,6,0,L|103:191,1,84.1499997431946,0|0,3:0|0:0,0:0:0:0:
172,80,5700,5,0,0:0:0:0:
174,108,5775,1,0,0:0:0:0:
177,136,5850,1,0,0:0:0:0:
179,164,5925,1,0,0:0:0:0:
183,192,6000,5,0,0:0:0:0:
232,209,6075,1,0,0:0:0:0:
280,189,6150,1,0,0:0:0:0:
304,143,6225,1,0,0:0:0:0:
292,93,6300,5,4,0:0:0:0:
292,93,6900,5,0,0:0:0:0:
103,191,7200,1,0,0:0:0:0:
384,240,7500,5,4,0:0:0:0:
384,240,8100,5,0,0:0:0:0:
195,142,8400,1,0,0:0:0:0:
296,356,8700,5,0,0:0:0:0:
447,334,9000,2,0,L|380:344,1,68,4|0,0:0|0:0,0:0:0:0:
224,262,9300,5,0,0:0:0:0:
384,240,9600,2,0,L|309:251,1,76.4999976654053,4|0,0:0|0:0,0:0:0:0:
152,168,9900,5,8,0:0:0:0:
318,145,10050,1,0,0:0:0:0:
318,145,10125,1,0,0:0:0:0:
318,145,10200,2,0,L|217:159,1,85,8|0,0:0|0:0,0:0:0:0:
70,178,10500,5,8,0:0:0:0:
185,92,10650,1,0,0:0:0:0:
201,234,10800,1,8,0:0:0:0:
152,168,10950,1,0,0:0:0:0:
317,144,11100,5,4,0:0:0:0:
317,144,12000,5,0,0:0:0:0:
268,78,12300,1,0,0:0:0:0:
284,220,12600,1,2,0:0:0:0:
399,134,12900,1,2,0:0:0:0:
317,144,13200,2,0,L|324:52,1,84.1499997431946,0|0,0:0|0:0,0:0:0:0:
405,50,13500,6,0,L|399:134,1,85,8|0,0:0|0:0,0:0:0:0:
97,237,13800,2,0,L|91:154,1,85,8|0,0:0|0:0,0:0:0:0:
173,164,14100,1,8,0:0:0:0:
175,185,14175,1,0,0:0:0:0:
176,206,14250,1,0,0:0:0:0:
178,227,14325,1,0,0:0:0:0:
180,248,14400,5,8,0:0:0:0:
227,268,14475,1,0,0:0:0:0:
278,254,14550,1,0,0:0:0:0:
309,213,14625,1,0,0:0:0:0:
308,161,14700,6,0,L|301:82,1,63.75,2|0,0:0|0:0,0:0:0:0:
236,68,15000,2,0,L|200:56,4,21.25,0|0|0|0|2,0:0|0:0|0:0|0:0|0:0,0:0:0:0:
356,216,15600,6,0,L|392:204,3,21.25,0|0|0|0,0:0|0:0|0:0|0:0,0:0:0:0:
292,288,15900,6,0,B|256:236|256:236|272:144,1,127.5,6|0,0:0|2:0,0:0:0:0:
440,137,16200,2,0,B|476:189|476:189|460:281,1,127.5,2|0,0:0|2:0,0:0:0:0:
348,124,16500,1,2,0:0:0:0:
216,332,17100,6,0,B|252:280|252:280|236:188,1,127.5,6|0,0:0|2:0,0:0:0:0:
68,181,17400,2,0,B|32:233|32:233|48:325,1,127.5,2|0,0:0|2:0,0:0:0:0:
160,168,17700,1,2,0:0:0:0:
124,345,18300,6,0,B|172:340|172:340|200:320|200:320|280:308,1,127.5,6|0,0:0|2:0,0:0:0:0:
361,248,18600,2,0,B|313:243|313:243|285:223|285:223|205:211,1,127.5,2|0,0:0|2:0,0:0:0:0:
68,181,18900,5,2,0:0:0:0:
103,95,19050,1,8,0:0:0:0:
160,168,19200,1,0,0:0:0:0:
11,108,19350,1,8,0:0:0:0:
137,8,19500,6,0,B|185:13|185:13|213:33|213:33|293:45,1,127.5,6|0,0:0|2:0,0:0:0:0:
374,105,19800,2,0,B|326:110|326:110|298:130|298:130|218:142,1,127.5,2|0,0:0|2:0,0:0:0:0:
348,4,20100,1,2,0:0:0:0:
456,256,20700,6,0,L|371:245,1,85,6|0,0:0|0:0,0:0:0:0:
56,256,21000,2,0,L|140:245,1,85,2|0,0:0|0:0,0:0:0:0:
256,136,21300,2,0,L|256:204,1,42.5,2|0,0:0|0:0,0:0:0:0:
256,368,21450,2,0,L|256:300,1,42.5,0|0,0:0|0:0,0:0:0:0:
256,252,21600,1,0,0:0:0:0:
156,160,21900,6,0,B|140:128|140:128|156:72,1,85,6|0,0:0|0:0,0:0:0:0:
358,80,22200,2,0,B|372:128|372:128|356:160,1,85,2|0,0:0|0:0,0:0:0:0:
176,328,22500,2,0,L|108:348,1,42.5,2|0,0:0|0:0,0:0:0:0:
336,328,22650,2,0,L|404:348,1,42.5,0|0,0:0|0:0,0:0:0:0:
256,252,22800,1,0,0:0:0:0:
256,136,22950,1,8,0:0:0:0:
256,124,23025,1,0,0:0:0:0:
256,112,23100,6,0,L|256:12,1,85,6|0,0:0|0:0,0:0:0:0:
256,252,23400,2,0,L|256:348,1,85,2|0,0:0|0:0,0:0:0:0:
160,144,23700,5,2,0:0:0:0:
340,244,23850,1,8,0:0:0:0:
352,144,24000,1,2,0:0:0:0:
172,244,24150,1,8,0:0:0:0:
148,44,24300,6,0,L|142:-8,3,42.5,6|0|0|0,0:0|0:0|0:0|0:0,0:0:0:0:
352,144,24600,2,0,L|347:186,3,42.5,2|0|0|0,0:0|0:0|0:0|0:0,0:0:0:0:
257,82,24900,5,2,0:0:0:0:
236,106,24975,1,0,0:0:0:0:
229,136,25050,1,0,0:0:0:0:
235,167,25125,1,0,0:0:0:0:
256,192,25200,1,0,0:0:0:0:
276,216,25275,1,0,0:0:0:0:
284,246,25350,1,0,0:0:0:0:
277,277,25425,1,0,0:0:0:0:
257,302,25500,5,4,0:0:0:0:
96,200,25800,2,0,L|184:212,1,68,8|0,0:0|0:0,0:0:0:0:
256,312,26100,5,0,0:0:0:0:
414,177,26400,2,0,L|326:189,1,68,8|0,0:0|0:0,0:0:0:0:
256,324,26700,5,8,0:0:0:0:
160,336,26850,1,0,0:0:0:0:
89,276,27000,2,0,L|96:200,1,76.4999976654053,8|0,0:0|0:0,0:0:0:0:
256,336,27300,5,8,0:0:0:0:
332,280,27450,1,0,0:0:0:0:
420,300,27600,2,0,L|428:212,1,76.4999976654053,8|0,0:0|0:0,0:0:0:0:
184,92,27900,6,0,L|192:180,1,85,0|0,0:0|0:0,0:0:0:0:
332,64,28200,2,0,L|324:148,1,85,0|0,0:0|0:0,0:0:0:0:
100,64,28500,2,0,L|108:148,1,85,0|0,0:0|0:0,0:0:0:0:
412,84,28800,1,0,0:0:0:0:
410,103,28875,1,0,0:0:0:0:
408,122,28950,1,0,0:0:0:0:
406,141,29025,1,0,0:0:0:0:
404,160,29100,5,0,0:0:0:0:
337,99,29250,1,0,0:0:0:0:
375,17,29400,1,0,0:0:0:0:
465,26,29550,1,0,0:0:0:0:
482,115,29700,2,0,L|492:200,1,85
366,285,30000,2,0,L|356:200,1,85
371,10,30300,5,0,0:0:0:0:
228,124,30450,2,0,L|236:180,1,42.5,0|0,0:0|0:0,0:0:0:0:
312,188,30600,5,8,0:0:0:0:
148,92,30750,2,0,L|156:36,1,42.5,0|0,0:0|0:0,0:0:0:0:
240,16,30900,5,0,0:0:0:0:
136,184,31050,1,0,0:0:0:0:
136,184,31125,1,0,0:0:0:0:
136,184,31200,2,0,L|40:160,1,85
228,124,31500,6,0,L|316:112,1,85
472,56,31800,1,8,0:0:0:0:
432,69,31875,1,0,0:0:0:0:
405,101,31950,1,0,0:0:0:0:
399,142,32025,1,0,0:0:0:0:
415,181,32100,5,0,0:0:0:0:
304,260,32250,1,0,0:0:0:0:
304,260,32325,1,0,0:0:0:0:
304,260,32400,2,0,L|200:240,1,85
168,48,32700,5,0,0:0:0:0:
325,152,32850,2,0,L|312:112,1,42.5
99,102,33000,5,8,0:0:0:0:
263,203,33150,2,0,L|250:163,1,42.5
37,153,33300,5,0,0:0:0:0:
201,254,33450,1,0,0:0:0:0:
194,234,33525,1,0,0:0:0:0:
188,214,33600,2,0,L|204:112,1,85
100,228,33900,5,0,0:0:0:0:
292,304,34050,2,0,L|308:192,1,85,0|8,0:0|0:0,0:0:0:0:
328,184,34275,1,0,0:0:0:0:
362,159,34350,1,0,0:0:0:0:
403,157,34425,1,0,0:0:0:0:
440,178,34500,1,0,0:0:0:0:
380,280,34650,5,0,0:0:0:0:
236,176,34800,2,0,L|252:64,1,85,8|0,0:0|0:0,0:0:0:0:
292,304,35100,5,0,0:0:0:0:
174,233,35250,2,0,L|132:228,1,42.5,0|0,0:0|0:0,0:0:0:0:
248,240,35400,5,8,0:0:0:0:
365,169,35550,2,0,L|408:164,1,42.5,0|0,0:0|0:0,0:0:0:0:
292,176,35700,5,0,0:0:0:0:
177,98,35850,1,0,0:0:0:0:
175,77,35925,1,0,0:0:0:0:
172,56,36000,1,8,0:0:0:0:
260,28,36150,1,0,0:0:0:0:
120,164,36300,6,0,L|108:264,1,85,0|0,0:0|0:0,0:0:0:0:
248,324,36600,1,8,0:0:0:0:
289,315,36675,1,0,0:0:0:0:
321,288,36750,1,0,0:0:0:0:
335,248,36825,1,0,0:0:0:0:
328,207,36900,1,0,0:0:0:0:
208,144,37050,6,0,L|201:204,1,42.5,0|0,0:0|0:0,0:0:0:0:
192,264,37200,1,8,0:0:0:0:
296,124,37350,1,0,0:0:0:0:
120,164,37500,5,0,0:0:0:0:
293,254,37650,2,0,L|369:242,2,42.5,0|0|8,0:0|0:0|0:0,0:0:0:0:
128,332,37950,2,0,L|52:320,2,42.5,0|0|0,0:0|0:0|0:0,0:0:0:0:
208,144,38250,5,0,0:0:0:0:
204,124,38325,1,0,0:0:0:0:
200,104,38400,1,8,0:0:0:0:
192,264,38550,1,0,0:0:0:0:
296,124,38700,6,0,L|284:52,1,42.5,8|0,0:0|0:0,0:0:0:0:
380,40,38850,1,2,0:0:0:0:
381,46,38925,1,0,0:0:0:0:
382,53,39000,1,2,0:0:0:0:
383,60,39075,1,0,0:0:0:0:
384,67,39150,1,2,0:0:0:0:
385,74,39225,1,0,0:0:0:0:
386,81,39300,1,2,0:0:0:0:
396,168,39450,5,0,0:0:0:0:
396,168,39600,1,2,0:0:0:0:
396,168,39750,1,0,0:0:0:0:
224,236,39900,6,0,L|330:227,1,76.4999976654053,4|0,0:0|0:0,0:0:0:0:
240,360,40200,2,0,L|134:351,1,76.4999976654053,8|0,0:0|0:0,0:0:0:0:
72,168,40500,1,0,0:0:0:0:
128,272,40650,1,0,0:0:0:0:
0,328,40800,2,0,L|8:244,1,76.4999976654053,8|0,0:0|0:0,0:0:0:0:
172,124,41100,6,0,B|216:120|216:120|276:144|276:144|336:137,2,152.999995330811,0|8|0,0:0|0:0|0:0,0:0:0:0:
208,204,41850,1,0,0:0:0:0:
288,56,42000,2,0,L|380:44,1,76.4999976654053,8|0,0:0|0:0,0:0:0:0:
500,144,42300,6,0,L|488:248,1,76.4999976654053,0|0,0:0|0:0,0:0:0:0:
312,240,42600,2,0,L|324:344,1,76.4999976654053,8|0,0:0|0:0,0:0:0:0:
456,336,42900,1,0,0:0:0:0:
360,140,43050,1,0,0:0:0:0:
396,276,43200,1,8,0:0:0:0:
420,200,43350,1,0,0:0:0:0:
248,128,43500,6,0,B|220:172|220:172|236:280,2,152.999995330811,0|8|0,0:0|0:0|0:0,0:0:0:0:
312,240,44250,1,0,0:0:0:0:
136,168,44400,2,0,L|148:108,3,38.2499988327027,10|0|2|0,0:0|0:0|0:0|0:0,0:0:0:0:
168,96,44700,6,0,L|76:112,1,76.4999976654053,0|0,0:0|0:0,0:0:0:0:
40,276,45000,2,0,L|115:262,1,76.4999976654053,8|0,0:0|0:0,0:0:0:0:
292,212,45300,1,0,0:0:0:0:
204,240,45450,1,0,0:0:0:0:
272,304,45600,1,8,0:0:0:0:
224,152,45750,1,0,0:0:0:0:
136,168,45900,6,0,B|24:188|24:188|76:204,1,152.999995330811,0|8,0:0|0:0,0:0:0:0:
164,244,46350,1,0,0:0:0:0:
240,92,46500,2,0,B|184:100|184:100|143:85|143:85|88:94,1,152.999995330811,0|8,0:0|0:0,0:0:0:0:
232,300,46950,5,0,0:0:0:0:
312,260,47100,1,0,0:0:0:0:
164,244,47250,5,2,0:0:0:0:
380,316,47400,1,10,0:0:0:0:
228,304,47550,5,0,0:0:0:0:
316,256,47700,1,0,0:0:0:0:
160,240,47850,5,2,0:0:0:0:
384,320,48000,1,10,0:0:0:0:
308,148,48150,5,0,0:0:0:0:
228,304,48300,2,0,L|144:312,1,76.4999976654053,0|0,0:0|0:0,0:0:0:0:
56,260,48600,1,8,0:0:0:0:
234,203,48750,1,0,0:0:0:0:
241,205,48825,1,0,0:0:0:0:
248,207,48900,2,0,L|164:215,1,76.4999976654053,0|0,0:0|0:0,0:0:0:0:
0,156,49200,2,0,L|84:164,1,76.4999976654053,8|0,0:0|0:0,0:0:0:0:
268,110,49500,6,0,L|252:20,1,76.4999976654053,4|0,0:0|0:0,0:0:0:0:
384,136,49800,2,0,L|368:46,1,76.4999976654053,8|0,0:0|0:0,0:0:0:0:
336,216,50100,1,0,0:0:0:0:
468,168,50250,1,0,0:0:0:0:
312,60,50400,1,8,0:0:0:0:
340,248,50550,1,0,0:0:0:0:
384,136,50700,6,0,B|280:148|280:148|252:196,2,152.999995330811,0|8|0,0:0|0:0|0:0,0:0:0:0:
468,168,51450,1,0,0:0:0:0:
404,288,51600,1,8,0:0:0:0:
377,298,51675,1,0,0:0:0:0:
349,298,51750,1,0,0:0:0:0:
322,288,51825,1,0,0:0:0:0:
302,268,51900,6,0,L|310:348,1,76.4999976654053,0|0,0:0|0:0,0:0:0:0:
172,184,52200,2,0,L|160:268,1,76.4999976654053,8|0,0:0|0:0,0:0:0:0:
161,259,52425,1,0,0:0:0:0:
161,259,52500,1,0,0:0:0:0:
248,140,52650,1,0,0:0:0:0:
88,176,52800,1,8,0:0:0:0:
156,344,52950,1,0,0:0:0:0:
336,236,53100,6,0,B|364:212|364:212|232:228,1,152.999995330811,0|8,0:0|0:0,0:0:0:0:
88,284,53550,1,0,0:0:0:0:
257,150,53700,2,0,L|248:226,1,76.4999976654053,0|0,0:0|0:0,0:0:0:0:
236,340,54000,2,0,L|244:280,1,38.2499988327027,8|0,0:0|0:0,0:0:0:0:
104,268,54150,2,0,L|96:208,1,38.2499988327027,0|0,0:0|0:0,0:0:0:0:
181,108,54300,5,8,0:0:0:0:
208,24,54450,1,0,0:0:0:0:
208,24,54525,1,0,0:0:0:0:
208,24,54600,2,0,L|120:12,1,76.4999976654053,0|0,0:0|0:0,0:0:0:0:
272,120,54900,5,8,0:0:0:0:
299,204,55050,1,0,0:0:0:0:
299,204,55125,1,0,0:0:0:0:
299,204,55200,2,0,L|211:216,1,76.4999976654053,0|0,0:0|0:0,0:0:0:0:
363,132,55500,5,8,0:0:0:0:
390,48,55650,1,0,0:0:0:0:
390,48,55725,1,0,0:0:0:0:
390,48,55800,2,0,L|302:36,1,76.4999976654053,0|0,0:0|0:0,0:0:0:0:
454,144,56100,5,8,0:0:0:0:
470,234,56250,1,0,0:0:0:0:
389,277,56400,1,0,0:0:0:0:
323,214,56550,1,0,0:0:0:0:
363,132,56700,5,0,0:0:0:0:
470,234,57000,1,0,0:0:0:0:
470,234,57150,1,0,0:0:0:0:
323,214,57450,1,0,0:0:0:0:
323,214,57600,1,0,0:0:0:0:
454,144,57900,5,0,0:0:0:0:
389,277,58200,1,0,0:0:0:0:
389,277,58350,1,0,0:0:0:0:
363,132,58650,5,0,0:0:0:0:
470,234,58800,1,0,0:0:0:0:
323,214,58950,1,0,0:0:0:0:
454,144,59100,6,0,L|468:16,1,127.500004863739,4|0,0:0|0:0,0:0:0:0:
363,132,59550,1,0,0:0:0:0:
323,214,59700,2,0,L|332:284,1,63.7500024318696,0|0,0:0|0:0,0:0:0:0:
252,64,60000,2,0,L|243:0,1,63.7500024318696,2|0,0:0|0:0,0:0:0:0:
192,216,60300,5,0,0:0:0:0:
112,248,60450,1,0,0:0:0:0:
56,181,60600,1,0,0:0:0:0:
101,108,60750,1,0,0:0:0:0:
186,129,60900,1,0,0:0:0:0:
260,304,61050,5,2,0:1:0:0:
264,312,61125,1,0,0:0:0:0:
268,320,61200,2,0,L|280:236,1,63.7500024318696,2|0,0:1|0:0,0:0:0:0:
320,152,61500,6,0,B|360:136|360:136|464:160,1,127.500004863739,0|0,0:0|0:0,0:0:0:0:
376,224,61950,1,0,0:0:0:0:
236,136,62100,2,0,L|164:124,1,63.7500024318696,0|0,0:0|0:0,0:0:0:0:
268,320,62400,2,0,L|330:330,1,63.7500024318696,0|0,0:0|0:0,0:0:0:0:
248,224,62700,5,0,0:0:0:0:
168,272,62850,2,0,B|120:276|120:276|89:267|89:267|28:272,1,127.500004863739,0|0,0:0|0:0,0:0:0:0:
42,270,63300,1,0,0:0:0:0:
112,184,63600,2,0,L|116:108,1,63.7500024318696,2|0,0:1|0:0,0:0:0:0:
60,56,63900,6,0,B|120:32|120:32|188:68,1,127.500004863739,0|0,0:0|0:0,0:0:0:0:
167,248,64350,1,0,0:0:0:0:
112,184,64500,2,0,L|116:108,1,63.7500024318696,0|0,0:0|0:0,0:0:0:0:
324,20,64800,2,0,L|327:83,1,63.7500024318696,2|0,0:0|0:0,0:0:0:0:
296,160,65100,5,0,0:0:0:0:
384,140,65250,1,0,0:0:0:0:
288,249,65400,1,0,0:0:0:0:
430,217,65550,1,0,0:0:0:0:
370,284,65700,1,0,0:0:0:0:
212,192,65850,5,0,0:0:0:0:
204,186,65925,1,0,0:0:0:0:
196,180,66000,2,0,L|205:93,1,63.7500024318696,2|0,0:0|0:0,0:0:0:0:
210,35,66300,1,0,0:0:0:0:
289,223,66600,6,0,L|298:136,1,63.7500024318696,0|0,0:0|0:0,0:0:0:0:
303,78,66900,1,0,0:0:0:0:
382,266,67200,6,0,L|391:179,1,63.7500024318696,0|0,0:0|0:0,0:0:0:0:
396,121,67500,1,0,0:0:0:0:
488,316,67650,2,0,B|446:320|446:320|414:344|414:344|350:348,1,127.500004863739,0|0,0:0|0:0,0:0:0:0:
288,296,68100,2,0,L|220:288,1,63.7500024318696,2|0,0:1|0:0,0:0:0:0:
56,336,68400,2,0,L|48:292,3,31.8750012159348,0|0|0|0,0:0|0:0|0:0|0:0,0:0:0:0:
68,276,68700,5,0,0:0:0:0:
68,276,69300,2,0,L|60:232,3,31.8750012159348,0|0|0|0,0:0|0:0|0:0|0:0,0:0:0:0:
80,216,69600,2,0,L|72:172,3,31.8750012159348,0|0|0|0,0:0|0:0|0:0|0:0,0:0:0:0:
92,156,69900,6,0,L|0:144,1,84.1499997431946,8|0,0:0|0:0,0:0:0:0:
152,84,70200,6,0,L|60:72,1,84.1499997431946,8|0,0:0|0:0,0:0:0:0:
204,171,70500,5,8,0:0:0:0:
176,167,70575,1,0,0:0:0:0:
148,163,70650,1,0,0:0:0:0:
120,160,70725,1,0,0:0:0:0:
92,156,70800,5,8,0:0:0:0:
57,189,70875,1,0,0:0:0:0:
49,237,70950,1,0,0:0:0:0:
70,280,71025,1,0,0:0:0:0:
113,302,71100,5,4,0:0:0:0:
272,220,71400,2,0,P|288:176|276:128,1,85,2|0,0:0|2:0,0:0:0:0:
204,171,71700,5,0,0:0:0:0:
340,268,72000,1,0,0:0:0:0:
431,138,72300,5,4,0:0:0:0:
272,220,72600,2,0,P|256:264|268:312,1,85,2|0,0:0|2:0,0:0:0:0:
404,320,72900,5,0,0:0:0:0:
368,72,73200,1,0,0:0:0:0:
272,220,73500,5,0,0:0:0:0:
404,257,73800,2,0,P|373:270|340:268,1,68,4|0,0:0|2:0,0:0:0:0:
264,88,74100,5,0,0:0:0:0:
360,194,74400,2,0,P|326:189|292:160,1,76.4999976654053,4|0,0:0|2:0,0:0:0:0:
260,8,74700,6,0,P|293:12|332:46,1,85,12|0,0:0|0:0,0:0:0:0:
197,132,75000,2,0,P|183:100|193:50,1,85,8|0,0:0|0:0,0:0:0:0:
336,124,75300,2,0,P|315:150|267:167,1,85,8|0,0:0|0:0,0:0:0:0:
120,14,75600,2,0,P|153:19|191:52,1,85,8|0,0:0|0:0,0:0:0:0:
133,257,75900,6,0,P|120:225|130:175,1,85,4|0,0:0|0:0,0:0:0:0:
197,132,76125,1,0,0:0:0:0:
197,132,76200,2,0,B|264:128|264:128|292:184|368:172,1,170,8|0,0:0|0:0,0:0:0:0:
336,92,76650,1,0,0:0:0:0:
240,220,76800,2,0,P|228:272|248:320,1,85,8|0,0:0|0:0,0:0:0:0:
428,344,77100,6,0,P|389:272|308:264,1,170,0|8,0:0|0:0,0:0:0:0:
344,340,77550,1,0,0:0:0:0:
320,184,77700,2,0,B|224:188|264:244|164:248,1,170,0|8,0:0|0:0,0:0:0:0:
182,167,78150,1,0,0:0:0:0:
54,103,78300,6,0,P|38:155|54:215,1,85,0|2,0:0|0:0,0:0:0:0:
41,184,78525,1,0,0:0:0:0:
41,184,78600,1,10,0:0:0:0:
142,87,78750,1,0,0:0:0:0:
169,248,78900,2,0,P|185:196|169:136,1,85,0|0,0:0|0:0,0:0:0:0:
60,16,79200,1,8,0:0:0:0:
142,87,79350,1,0,0:0:0:0:
240,32,79500,6,0,P|288:24|360:120,1,170,0|10,0:0|0:0,0:0:0:0:
216,236,79950,1,0,0:0:0:0:
208,244,80025,1,0,0:0:0:0:
200,252,80100,2,0,P|180:204|204:152,1,85,2|0,0:0|0:0,0:0:0:0:
236,116,80325,1,0,0:0:0:0:
236,116,80400,2,0,P|263:108|298:115,1,42.5,10|0,0:0|0:0,0:0:0:0:
368,200,80550,2,0,P|346:199|326:192,1,42.5,0|0,0:0|0:0,0:0:0:0:
240,32,80700,6,0,P|199:20|157:23,1,85,4|0,0:0|0:0,0:0:0:0:
20,200,81000,2,0,P|68:200|120:128,1,127.5,8|0,0:0|0:0,0:0:0:0:
118,143,81300,6,0,P|158:131|200:134,1,85,0|0,0:0|0:0,0:0:0:0:
338,310,81600,2,0,P|290:310|238:238,1,127.5,8|0,0:0|0:0,0:0:0:0:
239,253,81900,6,0,P|198:241|156:244,1,85,0|0,0:0|0:0,0:0:0:0:
34,371,82200,2,0,P|76:374|116:362,1,85,8|0,0:0|0:0,0:0:0:0:
160,152,82500,6,0,P|104:168|80:296,1,170,0|8,0:0|0:0,0:0:0:0:
116,362,82950,1,0,0:0:0:0:
312,300,83100,6,0,P|324:248|300:192,1,85,0|0,0:0|0:0,0:0:0:0:
166,206,83400,2,0,P|154:258|178:314,1,85,8|0,0:0|0:0,0:0:0:0:
333,301,83700,2,0,P|345:249|321:193,1,85,0|0,0:0|0:0,0:0:0:0:
145,205,84000,2,0,P|133:257|157:313,1,85,8|0,0:0|0:0,0:0:0:0:
239,253,84300,5,0,0:0:0:0:
256,168,84450,1,0,0:0:0:0:
155,117,84600,1,8,0:0:0:0:
172,32,84750,1,0,0:0:0:0:
272,80,84900,2,0,P|324:80|360:60,1,85,0|0,0:0|0:0,0:0:0:0:
444,148,85200,2,0,P|392:148|356:168,1,85,8|0,0:0|0:0,0:0:0:0:
239,253,85500,6,0,P|281:255|319:238,1,85,4|0,0:0|0:0,0:0:0:0:
160,95,85801,2,0,P|140:155|166:211,1,127.5,10|0,0:0|0:0,0:0:0:0:
239,253,86100,6,0,P|265:207|265:166,1,85,0|0,0:0|0:0,0:0:0:0:
63,242,86400,2,0,P|90:279|190:282,1,127.5,10|0,0:0|0:0,0:0:0:0:
239,253,86700,6,0,P|213:207|177:186,1,85,0|0,0:0|0:0,0:0:0:0:
88,320,87000,2,0,P|114:365|149:386,1,85,10|0,0:0|0:0,0:0:0:0:
104,172,87300,5,0,0:0:0:0:
212,332,87450,2,0,P|232:336|280:328,1,42.5,0|0,0:0|0:0,0:0:0:0:
342,213,87600,1,8,0:0:0:0:
311,203,87675,1,0,0:0:0:0:
280,208,87750,1,0,0:0:0:0:
254,226,87825,1,0,0:0:0:0:
239,253,87900,5,0,0:0:0:0:
342,213,88200,1,0,0:0:0:0:
335,102,88500,1,0,0:0:0:0:
228,73,88800,1,0,0:0:0:0:
168,167,89100,6,0,P|116:184|19:88,1,191.250007295609,0|0,0:0|0:0,0:0:0:0:
122,69,89700,2,0,P|127:106|103:71,1,112.199999657593,0|0,0:0|0:0,0:0:0:0:
102,71,90300,6,0,B|174:58|142:114|242:98,1,127.5,6|0,0:0|2:0,0:0:0:0:
328,152,90600,2,0,B|256:139|288:195|188:179,1,127.5,2|0,0:0|2:0,0:0:0:0:
102,233,90900,1,2,0:0:0:0:
328,152,91500,6,0,B|256:139|288:195|188:179,1,127.5,6|0,0:0|2:0,0:0:0:0:
102,233,91800,2,0,B|174:220|142:276|242:260,1,127.5,2|0,0:0|2:0,0:0:0:0:
328,314,92100,1,2,0:0:0:0:
102,233,92700,6,0,P|64:184|92:100,1,127.5,6|0,0:0|2:0,0:0:0:0:
188,91,93000,2,0,P|226:140|198:224,1,127.5,2|0,0:0|2:0,0:0:0:0:
132,312,93300,5,2,0:0:0:0:
146,163,93450,1,8,0:0:0:0:
232,284,93600,1,2,0:0:0:0:
102,233,93750,1,8,0:0:0:0:
188,91,93900,6,0,P|205:53|197:12,1,85,6|0,0:0|0:0,0:0:0:0:
24,58,94200,2,0,P|37:97|72:121,1,85,2|0,0:0|0:0,0:0:0:0:
104,12,94500,1,2,0:0:0:0:
104,12,95100,6,0,P|160:20|192:64,1,85,6|0,0:0|0:0,0:0:0:0:
408,12,95400,2,0,P|352:20|320:64,1,85,2|0,0:0|0:0,0:0:0:0:
184,132,95700,2,0,P|208:160|216:176,1,42.5,2|0,0:0|0:0,0:0:0:0:
328,132,95850,2,0,P|304:160|296:176,1,42.5,0|0,0:0|0:0,0:0:0:0:
256,80,96000,5,0,0:0:0:0:
140,196,96300,6,0,P|106:220|64:221,1,85,6|0,0:0|0:0,0:0:0:0:
372,196,96600,2,0,P|405:220|447:221,1,85,2|0,0:0|0:0,0:0:0:0:
200,288,96900,2,0,P|176:300|136:300,1,42.5,2|0,0:0|0:0,0:0:0:0:
312,288,97050,2,0,P|336:300|376:300,1,42.5,0|0,0:0|0:0,0:0:0:0:
256,192,97200,5,0,0:0:0:0:
256,80,97350,1,0,0:0:0:0:
256,68,97425,1,0,0:0:0:0:
256,56,97500,6,0,P|204:80|200:152,1,127.5,6|0,0:0|2:0,0:0:0:0:
316,144,97800,2,0,P|310:83|256:56,1,127.5,2|0,0:0|2:0,0:0:0:0:
140,196,98100,5,2,0:0:0:0:
312,288,98250,1,8,0:0:0:0:
372,196,98400,1,2,0:0:0:0:
200,288,98550,1,8,0:0:0:0:
136,116,98700,6,0,P|196:136|216:184,1,85,6|0,0:0|0:0,0:0:0:0:
376,116,99000,2,0,P|316:136|296:184,1,85,0|0,0:0|0:0,0:0:0:0:
256,260,99300,2,0,L|256:300,14,21.25,0|0|0|0|0|0|0|0|0|0|0|0|0|0|0,0:0|0:0|0:0|0:0|0:0|0:0|0:0|0:0|0:0|0:0|0:0|0:0|0:0|0:0|0:0,0:0:0:0:
256,356,99900,5,0,3:0:0:0:
100,132,100800,1,0,0:0:0:0:
96,120,100875,1,0,0:0:0:0:
92,108,100950,1,0,0:0:0:0:
88,96,101025,1,0,0:0:0:0:
84,84,101100,6,0,P|156:68|192:112,1,114.749996498108,4|0,0:0|0:0,0:0:0:0:
224,156,101400,2,0,P|296:172|332:128,1,114.749996498108,8|0,0:0|0:0,0:0:0:0:
352,80,101700,2,0,P|396:132|376:200,1,114.749996498108,8|0,0:0|0:0,0:0:0:0:
294,218,102000,2,0,P|254:178|253:122,1,114.749996498108,8|0,0:0|0:0,0:0:0:0:
301,23,102300,6,0,P|341:3|390:14,1,76.4999976654053,8|0,0:0|0:0,0:0:0:0:
463,192,102600,2,0,P|425:192|392:174,1,76.4999976654053,8|0,0:0|0:0,0:0:0:0:
492,42,102900,2,0,B|411:27|433:97|352:80,1,152.999995330811,8|8,0:0|0:0,0:0:0:0:
212,44,103350,2,0,P|204:28|204:-8,1,38.2499988327027,0|0,0:0|0:0,0:0:0:0:
276,88,103500,6,0,P|224:120|152:96,1,114.749996498108,8|0,0:0|0:0,0:0:0:0:
48,208,103800,2,0,P|100:176|172:200,1,114.749996498108,8|0,0:0|0:0,0:0:0:0:
216,228,104100,2,0,L|224:280,3,38.2499988327027,8|0|0|0,0:0|0:0|0:0|0:0,0:0:0:0:
281,125,104400,2,0,L|275:87,3,38.2499988327027,8|0|0|0,0:0|0:0|0:0|0:0,0:0:0:0:
360,220,104700,5,8,0:0:0:0:
380,234,104775,1,0,0:0:0:0:
405,240,104850,1,0,0:0:0:0:
430,236,104925,1,0,0:0:0:0:
453,224,105000,1,8,0:0:0:0:
469,205,105075,1,0,0:0:0:0:
478,182,105150,1,0,0:0:0:0:
478,156,105225,1,0,0:0:0:0:
468,132,105300,2,0,L|472:76,3,38.2499988327027,8|0|0|0,0:0|0:0|0:0|0:0,0:0:0:0:
368,36,105600,5,10,0:1:0:0:
368,45,105675,1,0,0:0:0:0:
369,55,105750,1,2,0:1:0:0:
370,64,105825,1,0,0:0:0:0:
371,74,105900,6,0,L|252:56,1,93.5000028533936,12|0,0:0|0:0,0:0:0:0:
48,196,106200,2,0,L|140:209,1,93.5000028533936,8|0,0:0|0:0,0:0:0:0:
380,164,106500,2,0,L|261:146,1,93.5000028533936,8|0,0:0|0:0,0:0:0:0:
57,286,106800,2,0,L|149:299,1,93.5000028533936,8|0,0:0|0:0,0:0:0:0:
389,254,107100,6,0,L|324:244,3,46.7500014266968,8|0|0|0,0:0|0:0|0:0|0:0,0:0:0:0:
232,160,107400,1,8,0:0:0:0:
224,164,107475,1,0,0:0:0:0:
216,168,107550,1,0,0:0:0:0:
208,172,107625,1,0,0:0:0:0:
200,176,107700,2,0,L|196:248,3,46.7500014266968,8|0|0|0,0:0|0:0|0:0|0:0,0:0:0:0:
312,112,108000,2,0,L|309:65,3,46.7500014266968,8|0|0|0,0:0|0:0|0:0|0:0,0:0:0:0:
196,24,108300,5,8,0:0:0:0:
157,26,108375,1,0,0:0:0:0:
124,46,108450,1,0,0:0:0:0:
106,80,108525,1,0,0:0:0:0:
106,118,108600,1,8,0:0:0:0:
125,152,108675,1,0,0:0:0:0:
157,172,108750,1,0,0:0:0:0:
189,192,108825,1,0,0:0:0:0:
208,226,108900,1,8,0:0:0:0:
208,264,108975,1,0,0:0:0:0:
190,298,109050,1,0,0:0:0:0:
157,318,109125,1,0,0:0:0:0:
119,321,109200,6,0,L|79:313,6,23.3750007133484,8|0|0|0|0|0|0,0:0|0:0|0:0|0:0|0:0|0:0|0:0,0:0:0:0:
24,304,109500,5,0,0:0:0:0:
208,264,109650,1,0,0:0:0:0:
28,224,109800,5,0,0:0:0:0:
212,184,109950,1,0,0:0:0:0:
32,144,110100,5,0,0:0:0:0:
46,53,110400,6,0,B|5:32|5:32|32:144,1,159.375,2|0,0:0|0:0,0:0:0:0:
28,224,110700,6,0,P|81:237|137:177,1,127.5,4|0,0:0|0:0,0:0:0:0:
160,88,111000,2,0,P|128:96|160:112,1,85,8|0,0:0|0:0,0:0:0:0:
236,68,111225,1,0,0:0:0:0:
232,57,111300,2,0,P|200:20|148:9,1,85,0|0,0:0|0:0,0:0:0:0:
300,160,111525,1,0,0:0:0:0:
307,151,111600,2,0,P|323:104|306:54,1,85,8|0,0:0|0:0,0:0:0:0:
263,262,111900,6,0,P|311:252|346:213,1,85,0|0,0:0|0:0,0:0:0:0:
198,214,112200,2,0,P|181:260|198:310,1,85,8|0,0:0|0:0,0:0:0:0:
272,181,112500,2,0,P|239:144|188:133,1,85,0|0,0:0|0:0,0:0:0:0:
156,76,112725,1,0,0:0:0:0:
164,68,112800,2,0,P|115:77|80:116,1,85,8|0,0:0|0:0,0:0:0:0:
15,115,113025,1,0,0:0:0:0:
12,105,113100,6,0,P|-4:151|12:201,1,85,0|0,0:0|0:0,0:0:0:0:
188,293,113400,2,0,P|203:254|197:213,1,85,8|0,0:0|0:0,0:0:0:0:
104,172,113700,2,0,P|156:184|232:104,1,170,0|8,0:0|0:0,0:0:0:0:
224,8,114150,1,0,0:0:0:0:
319,71,114300,6,0,P|359:87|401:83,1,85,0|0,0:0|0:0,0:0:0:0:
412,78,114525,1,0,0:0:0:0:
421,69,114600,1,10,0:0:0:0:
396,88,114675,1,0,0:0:0:0:
379,115,114750,1,2,0:0:0:0:
371,146,114825,1,0,0:0:0:0:
375,177,114900,1,0,0:0:0:0:
480,152,115050,2,0,P|447:148|474:167,2,85,0|8|2,0:0|0:0|0:0,0:0:0:0:
512,232,115500,6,0,P|463:245|411:230,1,85,4|0,0:0|0:0,0:0:0:0:
289,153,115800,2,0,P|337:139|389:154,1,85,8|0,0:0|0:0,0:0:0:0:
448,320,116100,2,0,B|352:328|388:260|280:268,1,170,0|8,0:0|0:0,0:0:0:0:
136,300,116550,1,0,0:0:0:0:
204,352,116700,6,0,P|220:304|208:256,1,85,0|0,0:0|0:0,0:0:0:0:
76,240,116925,1,0,0:0:0:0:
68,248,117000,2,0,P|52:296|64:344,1,85,8|0,0:0|0:0,0:0:0:0:
214,270,117225,1,0,0:0:0:0:
222,262,117300,2,0,P|238:214|226:166,1,85,0|0,0:0|0:0,0:0:0:0:
86,158,117600,2,0,P|70:206|82:254,1,85,8|0,0:0|0:0,0:0:0:0:
96,72,117900,6,0,P|46:82|10:116,1,85,0|0,0:0|0:0,0:0:0:0:
155,210,118200,2,0,B|251:230|215:162|331:182,1,159.375,8|0,0:0|0:0,0:0:0:0:
380,212,118500,2,0,P|396:244|384:288,1,53.125,0|0,0:0|0:0,0:0:0:0:
280,100,118650,2,0,P|299:70|343:58,1,53.125
233,264,118800,2,0,P|197:261|161:169,1,106.25,8|0,0:0|0:0,0:0:0:0:
176,28,119100,5,8,0:0:0:0:
248,88,119250,1,8,0:0:0:0:
255,87,119325,1,8,0:0:0:0:
262,86,119400,1,8,0:0:0:0:
316,12,119550,1,0,0:0:0:0:
376,92,119700,5,8,0:0:0:0:
452,80,119850,1,0,0:0:0:0:
364,167,120000,1,8,0:0:0:0:
486,148,120150,1,0,0:0:0:0:
413,318,120300,6,0,P|400:256|430:201,1,127.5,4|0,0:0|0:0,0:0:0:0:
508,276,120600,2,0,P|474:278|495:252,1,85,8|0,0:0|0:0,0:0:0:0:
364,167,120900,2,0,P|324:152|282:158,1,85,0|0,0:0|0:0,0:0:0:0:
252,272,121125,1,0,0:0:0:0:
248,280,121200,2,0,P|208:294|166:288,1,85,8|0,0:0|0:0,0:0:0:0:
191,200,121500,6,0,P|158:173|143:134,1,85,0|0,0:0|0:0,0:0:0:0:
260,40,121725,1,0,0:0:0:0:
264,48,121800,2,0,P|257:90|230:123,1,85,8|0,0:0|0:0,0:0:0:0:
172,40,122025,1,0,0:0:0:0:
172,40,122100,1,0,0:0:0:0:
292,204,122250,1,0,0:0:0:0:
88,216,122400,1,0,0:0:0:0:
232,124,122550,1,0,0:0:0:0:
428,168,122700,6,0,P|435:148|436:127,1,42.5
352,72,122850,2,0,P|345:92|344:113,1,42.5
504,224,123000,2,0,P|532:172|536:136,1,85,8|0,0:0|0:0,0:0:0:0:
296,188,123300,2,0,P|284:224|308:280,1,85
188,352,123600,1,0,0:0:0:0:
176,140,123750,1,0,0:0:0:0:
368,232,123900,5,0,0:0:0:0:
216,224,124050,1,0,0:0:0:0:
224,236,124125,1,0,0:0:0:0:
232,248,124200,1,10,0:0:0:0:
206,266,124275,1,0,0:0:0:0:
175,271,124350,1,2,0:0:0:0:
144,263,124425,1,0,0:0:0:0:
120,243,124500,5,0,0:0:0:0:
324,184,124650,1,0,0:0:0:0:
220,368,124800,2,0,L|228:304,1,42.5
216,240,124950,2,0,L|224:176,1,42.5
239,95,125100,6,0,P|224:57|189:34,1,85,4|0,0:0|0:0,0:0:0:0:
60,132,125325,1,0,0:0:0:0:
69,137,125400,2,0,P|110:143|148:124,1,85,8|0,0:0|0:0,0:0:0:0:
336,80,125700,2,0,B|300:60|300:60|240:108|266:174,1,170,0|8,0:0|0:0,0:0:0:0:
360,256,126150,1,0,0:0:0:0:
470,189,126300,6,0,P|430:173|374:197,1,85,0|0,0:0|0:0,0:0:0:0:
420,308,126525,1,0,0:0:0:0:
420,308,126600,2,0,P|461:297|492:245,1,85,8|0,0:0|0:0,0:0:0:0:
470,189,126825,1,0,0:0:0:0:
470,189,126900,1,0,0:0:0:0:
232,280,127050,1,0,0:0:0:0:
325,44,127200,2,0,L|312:128,1,85
360,256,127500,6,0,P|382:292|442:305,1,85,0|0,0:0|0:0,0:0:0:0:
397,157,127800,2,0,B|388:134|388:134|323:188|365:267,1,159.375,10|0,0:0|0:0,0:0:0:0:
300,320,128100,6,0,P|264:336|244:332,1,53.125,0|0,0:0|0:0,0:0:0:0:
196,256,128250,2,0,P|172:243|159:221,1,53.125,0|0,0:0|0:0,0:0:0:0:
199,133,128400,2,0,P|200:80|256:32,1,106.25,10|0,0:0|0:0,0:0:0:0:
344,176,128700,5,8,0:0:0:0:
276,112,128850,1,0,0:0:0:0:
274,125,128925,1,0,0:0:0:0:
272,140,129000,1,0,0:0:0:0:
271,153,129075,1,0,0:0:0:0:
270,168,129150,1,0,0:0:0:0:
268,182,129225,1,0,0:0:0:0:
267,196,129300,5,0,0:0:0:0:
120,220,129450,1,0,0:0:0:0:
267,320,129600,5,0,0:0:0:0:
120,296,129750,1,0,0:0:0:0:
128,140,129900,6,0,B|95:113|95:113|119:219,1,152.999995330811,4|0,0:0|0:0,0:0:0:0:
267,320,130350,1,0,0:0:0:0:
292,240,130500,2,0,B|252:236|252:236|208:256,1,76.4999976654053,8|0,0:0|0:0,0:0:0:0:
46,307,130800,2,0,B|86:311|86:311|130:291,1,76.4999976654053,0|0,0:0|0:0,0:0:0:0:
216,152,131100,6,0,B|267:144|267:144|310:161|310:161|367:152,2,152.999995330811,0|0|8,0:0|0:0|0:0,0:0:0:0:
320,76,131850,1,0,0:0:0:0:
188,4,132000,2,0,L|180:88,1,76.4999976654053,0|0,0:0|0:0,0:0:0:0:
160,220,132300,6,0,B|128:204|128:204|192:168|248:224,1,152.999995330811,0|0,0:0|0:0,0:0:0:0:
288,324,132750,1,0,0:0:0:0:
296,328,132825,1,0,0:0:0:0:
304,332,132900,2,0,P|324:284|304:232,1,76.4999976654053,8|0,0:0|0:0,0:0:0:0:
380,136,133200,2,0,P|400:184|380:236,1,76.4999976654053,0|0,0:0|0:0,0:0:0:0:
480,254,133500,5,0,0:0:0:0:
320,260,133800,1,0,0:0:0:0:
396,207,134100,1,8,0:0:0:0:
236,213,134250,5,0,0:0:0:0:
236,213,134325,1,0,0:0:0:0:
236,213,134400,1,2,0:1:0:0:
199,205,134475,1,0,0:0:0:0:
163,218,134550,1,2,0:1:0:0:
140,247,134625,1,0,0:0:0:0:
135,285,134700,6,0,B|171:297|171:297|227:285,1,76.4999976654053,0|0,0:0|0:0,0:0:0:0:
220,120,135000,2,0,B|184:108|184:108|128:120,1,76.4999976654053,0|0,0:0|0:0,0:0:0:0:
16,148,135300,1,8,0:0:0:0:
64,308,135450,1,0,0:0:0:0:
80,200,135600,1,0,0:0:0:0:
0,256,135750,1,0,0:0:0:0:
136,348,135900,6,0,B|184:340|184:340|228:304|228:304|296:292,2,152.999995330811,0|0|8,0:0|0:0|0:0,0:0:0:0:
251,180,136950,5,0,0:0:0:0:
339,188,137100,1,0,0:0:0:0:
259,100,137250,5,2,0:1:0:0:
331,268,137400,1,2,0:1:0:0:
244,179,137550,5,0,0:0:0:0:
345,188,137700,1,8,0:0:0:0:
253,87,137850,5,2,0:1:0:0:
336,280,138000,1,2,0:1:0:0:
412,24,138150,5,0,0:0:0:0:
311,33,138300,2,0,B|304:72|304:72|324:116,1,76.4999976654053,0|0,0:0|0:0,0:0:0:0:
468,140,138600,2,0,B|404:128|404:128|388:184|328:192,1,152.999995330811,0|8,0:0|0:0,0:0:0:0:
311,33,139050,1,0,0:0:0:0:
185,163,139200,2,0,L|265:175,1,76.4999976654053,0|0,0:0|0:0,0:0:0:0:
188,24,139500,6,0,L|92:40,1,85,4|0,0:0|0:0,0:0:0:0:
80,277,139800,2,0,L|164:264,1,85,8|0,0:0|0:0,0:0:0:0:
336,112,140100,1,0,0:0:0:0:
212,172,140250,1,0,0:0:0:0:
408,228,140400,1,0,0:0:0:0:
372,28,140550,1,0,0:0:0:0:
316,260,140700,6,0,B|328:204|328:204|304:160|304:160|320:84,2,170,0|8|0,0:0|0:0|0:0,0:0:0:0:
412,140,141450,1,0,0:0:0:0:
216,124,141600,2,0,L|208:24,1,85,8|0,0:0|0:0,0:0:0:0:
360,264,141900,6,0,B|320:280|320:280|252:264,1,85,0|0,0:0|0:0,0:0:0:0:
136,216,142200,2,0,B|176:200|176:200|244:216,1,85,8|0,0:0|0:0,0:0:0:0:
204,320,142500,1,0,0:0:0:0:
216,124,142650,1,0,0:0:0:0:
279,270,142800,1,8,0:0:0:0:
136,216,142950,1,0,0:0:0:0:
308,148,143100,6,0,B|368:152|368:152|404:180|404:180|472:184,2,170,0|8|0,0:0|0:0|0:0,0:0:0:0:
204,320,143850,1,8,0:0:0:0:
273,227,144000,2,0,L|279:270,1,42.5,8|0,0:0|0:0,0:0:0:0:
118,318,144150,2,0,L|123:275,1,42.5,0|0,0:0|0:0,0:0:0:0:
204,176,144300,5,4,0:0:0:0:
44,212,144450,1,0,0:0:0:0:
44,212,144525,1,0,0:0:0:0:
44,212,144600,2,0,L|56:120,1,85,0|0,0:0|0:0,0:0:0:0:
124,276,144900,5,4,0:0:0:0:
284,312,145050,1,0,0:0:0:0:
284,312,145125,1,0,0:0:0:0:
284,312,145200,2,0,L|272:220,1,85,0|0,0:0|0:0,0:0:0:0:
192,92,145500,5,4,0:0:0:0:
352,56,145650,1,0,0:0:0:0:
352,56,145725,1,0,0:0:0:0:
352,56,145800,2,0,L|340:148,1,85,0|0,0:0|0:0,0:0:0:0:
176,248,146100,6,0,B|164:208|164:208|176:160,1,85
256,212,146325,1,0,0:0:0:0:
256,212,146400,2,0,B|268:252|268:252|256:300,1,85
96,120,146700,5,0,0:0:0:0:
256,192,146850,12,0,148350,0:0:0:0:
284,156,148800,5,0,0:0:0:0:
348,84,148950,1,0,0:0:0:0:
440,112,149100,2,0,P|448:176|440:272,1,152.999995330811,4|0,0:0|0:0,0:0:0:0:
324,324,149550,1,0,0:0:0:0:
280,240,149700,2,0,P|316:230|354:234,1,76.4999976654053,0|0,0:0|0:0,0:0:0:0:
164,348,150000,2,0,P|127:357|89:353,1,76.4999976654053,2|0,0:0|0:0,0:0:0:0:
58,246,150300,5,0,0:0:0:0:
86,162,150450,1,0,0:0:0:0:
144,228,150600,1,0,0:0:0:0:
0,180,150750,1,0,0:0:0:0:
113,79,150900,1,0,0:0:0:0:
232,224,151050,5,2,0:1:0:0:
240,232,151125,1,0,0:0:0:0:
247,240,151200,2,0,P|252:202|247:164,1,76.4999976654053,2|0,0:1|0:0,0:0:0:0:
108,296,151500,6,0,B|140:296|160:272|160:272|180:328|240:328,1,152.999995330811,0|0,0:0|0:0,0:0:0:0:
344,312,151950,1,0,0:0:0:0:
386,198,152100,2,0,P|310:198|248:240,2,152.999995330811,0|2|0,0:0|0:0|0:0,0:0:0:0:
444,44,152850,6,0,P|452:96|444:136,1,76.4999976654053,0|2,0:0|0:1,0:0:0:0:
386,198,153150,1,0,0:0:0:0:
349,103,153300,1,0,0:0:0:0:
485,214,153600,2,0,P|480:248|476:268,1,38.2499988327027,2|0,0:1|0:0,0:0:0:0:
388,324,153750,2,0,P|384:305|382:286,1,38.2499988327027,0|0,0:0|0:0,0:0:0:0:
292,208,153900,6,0,P|224:200|140:208,1,152.999995330811,4|0,0:0|0:0,0:0:0:0:
244,360,154350,1,0,0:0:0:0:
112,336,154500,2,0,P|148:320|184:288,1,76.4999976654053,0|0,0:0|0:0,0:0:0:0:
211,115,154800,2,0,P|202:78|184:45,1,76.4999976654053,2|0,0:0|0:0,0:0:0:0:
128,112,155100,5,0,0:0:0:0:
280,52,155250,1,0,0:0:0:0:
160,196,155400,1,0,0:0:0:0:
312,136,155550,1,0,0:0:0:0:
192,280,155700,1,0,0:0:0:0:
344,220,155850,5,0,0:0:0:0:
351,216,155925,1,0,0:0:0:0:
358,213,156000,2,0,P|399:212|437:222,1,76.4999976654053,2|0,0:0|0:0,0:0:0:0:
388,292,156300,1,0,0:0:0:0:
190,117,156600,6,0,P|149:116|111:126,1,76.4999976654053,0|0,0:0|0:0,0:0:0:0:
160,196,156900,1,0,0:0:0:0:
348,16,157200,6,0,P|389:15|427:25,1,76.4999976654053,0|0,0:0|0:0,0:0:0:0:
464,160,157500,1,0,0:0:0:0:
378,95,157650,2,0,P|328:96|264:172,1,152.999995330811,0|0,0:0|0:0,0:0:0:0:
348,256,158100,2,0,P|356:204|348:168,1,76.4999976654053,2|0,0:1|0:0,0:0:0:0:
232,60,158400,2,0,L|188:56,3,38.2499988327027,0|0|0|0,0:0|0:0|0:0|0:0,0:0:0:0:
164,32,158700,5,0,0:0:0:0:
164,32,159300,2,0,L|123:50,3,38.2499988327027,0|0|0|0,0:0|0:0|0:0|0:0,0:0:0:0:
91,41,159600,2,0,L|65:77,3,38.2499988327027,0|0|0|0,0:0|0:0|0:0|0:0,0:0:0:0:
32,85,159900,6,0,P|28:132|44:168,1,84.1499997431946,8|0,0:0|0:0,0:0:0:0:
192,168,160200,2,0,P|153:141|114:136,1,84.1499997431946,8|0,0:0|0:0,0:0:0:0:
40,265,160500,5,8,0:0:0:0:
60,258,160575,1,0,0:0:0:0:
78,248,160650,1,0,0:0:0:0:
93,233,160725,1,0,0:0:0:0:
104,216,160800,5,8,0:0:0:0:
106,257,160875,1,0,0:0:0:0:
127,293,160950,1,0,0:0:0:0:
162,316,161025,1,0,0:0:0:0:
203,321,161100,5,12,0:0:0:0:
304,172,161400,2,0,L|292:84,1,85,2|0,0:0|2:0,0:0:0:0:
203,321,161700,5,0,0:0:0:0:
292,328,162000,1,0,0:0:0:0:
381,335,162300,5,4,0:0:0:0:
482,186,162600,2,0,L|470:98,1,85,2|0,0:0|2:0,0:0:0:0:
381,335,162900,5,0,0:0:0:0:
292,328,163200,1,0,0:0:0:0:
203,321,163500,5,0,0:0:0:0:
381,335,163800,2,0,L|460:340,1,68,4|0,0:0|2:0,0:0:0:0:
196,308,164100,5,0,0:0:0:0:
357,231,164400,2,0,L|430:195,1,76.4999976654053,4|0,0:0|2:0,0:0:0:0:
183,300,164700,5,8,0:0:0:0:
284,152,164850,1,0,0:0:0:0:
167,299,165000,5,8,0:0:0:0:
181,120,165150,1,0,0:0:0:0:
153,305,165300,5,8,0:0:0:0:
75,143,165450,1,0,0:0:0:0:
233,228,165600,1,8,0:0:0:0:
56,252,165750,1,0,0:0:0:0:
184,128,165900,6,0,B|284:112|236:176|348:156,1,170,4|8,0:0|0:0,0:0:0:0:
448,104,166350,1,0,0:0:0:0:
364,16,166500,2,0,P|320:48|316:92,1,85,0|0,0:0|0:0,0:0:0:0:
370,229,166800,2,0,P|371:187|344:155,1,85,8|0,0:0|0:0,0:0:0:0:
184,128,167100,6,0,B|140:136|112:180|116:220|116:220|96:176,1,170,0|8,0:0|0:0,0:0:0:0:
64,92,167550,1,0,0:0:0:0:
208,216,167700,2,0,P|264:228|324:140,1,170,0|8,0:0|0:0,0:0:0:0:
280,56,168150,1,0,0:0:0:0:
420,188,168300,6,0,L|428:88,1,85,0|0,0:0|0:0,0:0:0:0:
214,300,168600,2,0,L|206:200,1,85,8|0,0:0|0:0,0:0:0:0:
284,360,168900,1,0,0:0:0:0:
128,280,169050,1,0,0:0:0:0:
296,264,169200,1,8,0:0:0:0:
156,372,169350,1,0,0:0:0:0:
72,212,169500,6,0,B|60:172|60:172|74:131,1,85,0|0,0:0|0:0,0:0:0:0:
104,48,169800,1,8,0:0:0:0:
264,112,169950,1,0,0:0:0:0:
268,124,170025,1,0,0:0:0:0:
272,136,170100,2,0,B|284:176|284:176|269:216,1,85,0|0,0:0|0:0,0:0:0:0:
216,272,170325,1,0,0:0:0:0:
216,272,170400,2,0,L|228:324,1,42.5,8|0,0:0|0:0,0:0:0:0:
404,192,170550,2,0,L|352:200,1,42.5,0|0,0:0|0:0,0:0:0:0:
312,364,170700,6,0,P|348:368|396:340,1,85,4|0,0:0|0:0,0:0:0:0:
480,111,171000,2,0,P|428:127|408:207,1,127.5,8|0,0:0|0:0,0:0:0:0:
428,264,171300,6,0,P|392:268|344:240,1,85,0|0,0:0|0:0,0:0:0:0:
260,11,171600,2,0,P|312:27|332:107,1,127.5,8|0,0:0|0:0,0:0:0:0:
240,188,171900,6,0,P|219:151|222:109,1,85,0|0,0:0|0:0,0:0:0:0:
462,32,172200,2,0,P|482:68|479:110,1,85,8|0,0:0|0:0,0:0:0:0:
376,240,172500,2,0,B|280:224|312:296|204:276,1,170,0|8,0:0|0:0,0:0:0:0:
320,120,172950,1,0,0:0:0:0:
180,68,173100,6,0,B|136:44|136:44|172:172,1,170,0|8,0:0|0:0,0:0:0:0:
128,244,173550,1,0,0:0:0:0:
40,192,173700,2,0,L|52:100,1,85,0|0,0:0|0:0,0:0:0:0:
228,240,174000,2,0,L|217:324,1,85,8|0,0:0|0:0,0:0:0:0:
160,168,174300,5,0,0:0:0:0:
256,145,174450,1,0,0:0:0:0:
323,216,174600,1,8,0:0:0:0:
295,309,174750,1,0,0:0:0:0:
146,162,174900,5,0,0:0:0:0:
332,216,175050,1,0,0:0:0:0:
255,135,175200,1,8,0:0:0:0:
300,323,175350,1,0,0:0:0:0:
432,188,175500,6,0,P|448:144|432:92,1,85,4|0,0:0|0:0,0:0:0:0:
244,32,175800,2,0,B|292:64|344:48|344:48|312:40,1,127.5,8|0,0:0|0:0,0:0:0:0:
244,32,176100,6,0,P|228:76|244:128,1,85,0|0,0:0|0:0,0:0:0:0:
432,188,176400,2,0,B|384:156|332:172|332:172|364:180,1,127.5,8|0,0:0|0:0,0:0:0:0:
432,188,176700,6,0,L|448:96,1,85,0|0,0:0|0:0,0:0:0:0:
236,280,177000,2,0,L|220:188,1,85,8|0,0:0|0:0,0:0:0:0:
320,128,177300,1,0,0:0:0:0:
136,64,177450,1,0,0:0:0:0:
133,88,177525,1,0,0:0:0:0:
130,113,177600,5,8,0:0:0:0:
170,124,177675,1,0,0:0:0:0:
211,115,177750,1,0,0:0:0:0:
241,86,177825,1,0,0:0:0:0:
254,46,177900,5,0,0:0:0:0:
130,113,178200,1,0,0:0:0:0:
294,270,178500,1,0,0:0:0:0:
355,143,178800,1,0,0:0:0:0:
155,251,179100,6,0,P|136:292|220:272,1,191.250007295609,0|0,0:0|0:0,0:0:0:0:
161,171,179700,6,0,B|97:171|73:235|73:235|69:195,1,152.999995330811,0|8,0:0|3:0,0:0:0:0:
155,251,180300,5,4,0:0:0:0:
256,192,180600,12,0,183300,0:0:0:0:
56,136,184800,5,0,0:0:0:0:
56,136,184950,1,0,0:0:0:0:
56,136,185100,2,0,P|104:152|144:144,1,85,0|0,0:0|0:0,0:0:0:0:
208,112,185550,1,0,0:0:0:0:
360,88,185700,2,0,P|312:72|272:80,1,85,0|2,0:0|0:1,0:0:0:0:
278,77,186300,6,0,L|266:29,1,42.5,0|0,0:0|0:0,0:0:0:0:
137,146,186600,2,0,L|149:194,1,42.5,0|0,0:0|0:0,0:0:0:0:
208,112,186900,1,0,0:0:0:0:
208,112,187200,5,2,0:1:0:0:
232,212,187350,1,0,0:0:0:0:
256,312,187500,2,0,P|296:320|344:312,1,85,0|0,0:0|0:0,0:0:0:0:
404,272,187950,1,0,0:0:0:0:
365,124,188100,2,0,P|391:154|409:200,1,85,0|2,0:0|0:1,0:0:0:0:
404,272,188700,5,0,0:0:0:0:
292,204,189000,2,0,P|278:195|256:192,2,28.3333333333333,2|0|0,0:1|0:0|0:0,0:0:0:0:
284,300,189300,2,0,P|297:292|312:274,2,28.3333333333333,2|0|0,0:1|0:0|0:0,0:0:0:0:
204,245,189600,2,0,P|203:260|211:282,2,28.3333333333333,0|0|0,0:0|0:0|0:0,0:0:0:0:
260,252,189900,5,0,0:0:0:0:
328,104,190200,1,0,0:0:0:0:
328,104,190350,1,0,0:0:0:0:
328,104,190500,2,0,L|244:96,1,85,0|2,0:0|0:1,0:0:0:0:
96,188,191100,6,0,P|120:188|144:176,1,42.5,0|0,0:0|0:0,0:0:0:0:
112,44,191400,2,0,P|88:44|64:56,1,42.5,0|0,0:0|0:0,0:0:0:0:
104,116,191700,1,0,0:1:0:0:
104,116,192000,5,2,0:1:0:0:
200,96,192150,1,0,0:0:0:0:
296,76,192300,2,0,P|336:72|372:100,1,85,0|0,0:0|0:0,0:0:0:0:
200,108,192750,5,0,0:0:0:0:
265,181,192900,2,0,P|288:213|282:258,1,85,0|0,0:0|0:0,0:0:0:0:
189,113,193350,5,0,0:0:0:0:
158,206,193500,2,0,P|141:242|24:148,1,255,0|0,0:0|0:0,0:0:0:0:
89,167,194500,2,0,L|84:195,1,28.3333333333333,0|0,0:0|0:0,0:0:0:0:
104,92,194700,5,0,0:0:0:0:
256,192,194850,12,0,197100,0:0:0:0:
404,232,200700,6,0,L|392:324,1,84.1499997431946,8|0,0:0|0:0,0:0:0:0:
316,208,201000,6,0,L|304:300,1,84.1499997431946,8|0,0:0|0:0,0:0:0:0:
228,184,201300,5,8,0:0:0:0:
225,204,201375,1,0,0:0:0:0:
222,225,201450,1,0,0:0:0:0:
219,246,201525,1,0,0:0:0:0:
217,267,201600,5,8,0:0:0:0:
169,293,201675,1,0,0:0:0:0:
116,279,201750,1,0,0:0:0:0:
87,233,201825,1,0,0:0:0:0:
98,179,201900,5,12,0:0:0:0:
217,268,202200,2,0,L|228:184,1,85,2|0,0:0|2:0,0:0:0:0:
118,9,202500,5,0,0:0:0:0:
108,94,202800,1,0,0:0:0:0:
98,179,203100,5,4,0:0:0:0:
304,244,203400,2,0,L|314:159,1,85,2|0,0:0|2:0,0:0:0:0:
118,9,203700,5,0,0:0:0:0:
108,94,204000,1,0,0:0:0:0:
98,179,204300,5,0,0:0:0:0:
390,219,204600,2,0,L|400:134,1,85,4|0,0:0|0:0,0:0:0:0:
108,94,204900,5,0,0:0:0:0:
304,244,205200,2,0,L|314:159,1,85,4|0,0:0|0:0,0:0:0:0:
118,9,205500,5,12,0:0:0:0:
227,183,205650,1,0,0:0:0:0:
227,183,205725,1,0,0:0:0:0:
227,183,205800,2,0,L|217:268,1,85,8|0,0:0|0:0,0:0:0:0:
108,94,206100,5,8,0:0:0:0:
314,159,206250,1,0,0:0:0:0:
98,179,206400,5,8,0:0:0:0:
304,244,206550,1,0,0:0:0:0:
324,73,206700,6,0,B|288:40|288:40|314:159,1,170,4|8,0:0|0:0,0:0:0:0:
424,260,207150,1,0,0:0:0:0:
436,268,207225,1,0,0:0:0:0:
448,276,207300,2,0,B|464:240|464:240|448:176,1,85,0|0,0:0|0:0,0:0:0:0:
232,208,207600,1,8,0:0:0:0:
392,136,207750,1,0,0:0:0:0:
216,104,207900,6,0,P|164:104|116:208,1,170,0|8,0:0|0:0,0:0:0:0:
232,208,208350,1,0,0:0:0:0:
280,36,208500,2,0,P|240:16|184:12,1,85,0|0,0:0|0:0,0:0:0:0:
336,208,208800,2,0,P|377:201|415:182,1,85,8|0,0:0|0:0,0:0:0:0:
352,112,209100,5,0,0:0:0:0:
232,208,209250,1,0,0:0:0:0:
232,208,209325,1,0,0:0:0:0:
232,208,209400,1,10,0:1:0:0:
372,288,209550,1,0,0:0:0:0:
256,48,209700,2,0,L|272:144,1,85,0|0,0:0|0:0,0:0:0:0:
132,248,210000,2,0,L|145:164,1,85,8|0,0:0|0:0,0:0:0:0:
355,134,210300,6,0,P|313:204|232:208,1,170,0|10,0:0|0:0,0:0:0:0:
132,68,210750,2,0,L|124:24,1,42.5,0|0,0:0|0:0,0:0:0:0:
84,136,210900,5,2,0:0:0:0:
102,146,210975,1,0,0:0:0:0:
122,151,211050,1,0,0:0:0:0:
144,150,211125,1,0,0:0:0:0:
164,144,211200,5,10,0:0:0:0:
202,128,211275,1,0,0:0:0:0:
242,138,211350,1,0,0:0:0:0:
268,171,211425,1,0,0:0:0:0:
268,213,211500,6,0,L|248:300,1,85,4|0,0:0|0:0,0:0:0:0:
396,192,211800,2,0,P|400:156|308:100,1,127.5,8|0,0:0|0:0,0:0:0:0:
248,130,212100,6,0,L|268:216,1,85,0|0,0:0|0:0,0:0:0:0:
120,108,212400,2,0,P|116:72|208:16,1,127.5,8|0,0:0|0:0,0:0:0:0:
267,47,212700,6,0,L|246:133,1,85,0|0,0:0|0:0,0:0:0:0:
8,168,213000,2,0,L|28:81,1,85,8|0,0:0|0:0,0:0:0:0:
172,188,213300,2,0,P|188:232|96:308,1,170,0|8,0:0|0:0,0:0:0:0:
113,235,213750,1,0,0:0:0:0:
244,308,213900,6,0,B|300:316|344:256|344:256|351:290|368:304,1,170,0|8,0:0|0:0,0:0:0:0:
476,312,214350,1,0,0:0:0:0:
448,168,214500,2,0,P|424:220|432:264,1,85,0|0,0:0|0:0,0:0:0:0:
332,88,214800,2,0,P|356:140|348:184,1,85,8|0,0:0|0:0,0:0:0:0:
244,308,215100,5,0,0:0:0:0:
212,208,215250,1,0,0:0:0:0:
312,176,215400,1,8,0:0:0:0:
344,276,215550,1,0,0:0:0:0:
172,276,215700,5,0,0:0:0:0:
384,208,215850,1,0,0:0:0:0:
140,176,216000,1,8,0:0:0:0:
352,108,216150,1,0,0:0:0:0:
108,76,216300,6,0,P|71:91|43:131,1,85,4|0,0:0|0:0,0:0:0:0:
140,176,216600,2,0,L|280:148,1,127.5,8|0,0:0|0:0,0:0:0:0:
336,180,216900,6,0,P|372:195|400:235,1,85,0|0,0:0|0:0,0:0:0:0:
304,279,217200,2,0,L|164:251,1,127.5,8|0,0:0|0:0,0:0:0:0:
108,283,217500,6,0,P|71:298|43:338,1,85,0|0,0:0|0:0,0:0:0:0:
188,177,217800,2,0,P|192:137|171:93,1,85,8|0,0:0|0:0,0:0:0:0:
0,80,218100,5,0,0:0:0:0:
28,93,218175,1,0,0:0:0:0:
59,94,218250,1,0,0:0:0:0:
89,82,218325,1,0,0:0:0:0:
110,59,218400,1,8,0:0:0:0:
131,36,218475,1,0,0:0:0:0:
161,24,218550,1,0,0:0:0:0:
192,25,218625,1,0,0:0:0:0:
220,38,218700,5,0,0:0:0:0:
188,177,219000,1,0,0:0:0:0:
327,209,219300,1,0,0:0:0:0:
359,70,219600,1,0,0:0:0:0:
188,177,219900,6,0,L|200:316,1,127.500004863739,0|0,0:0|0:0,0:0:0:0:
218,315,220275,1,0,0:0:0:0:
237,326,220350,1,0,0:0:0:0:
256,337,220425,1,0,0:0:0:0:
275,348,220500,6,0,L|263:209,1,127.500004863739,0|0,0:0|0:0,0:0:0:0:
245,210,220875,1,0,0:0:0:0:
226,199,220950,1,0,0:0:0:0:
207,188,221025,1,0,0:0:0:0:
188,177,221100,6,0,B|148:183|148:183|127:181|127:181|107:190|107:190|36:201,1,127.5,6|0,0:0|2:0,0:0:0:0:
16,112,221400,2,0,B|56:106|56:106|77:108|77:108|97:99|97:99|168:88,1,127.5,6|0,0:0|2:0,0:0:0:0:
228,44,221700,1,6,0:0:0:0:
324,268,222300,6,0,B|364:274|364:274|385:272|385:272|405:281|405:281|476:292,1,127.5,6|0,0:0|2:0,0:0:0:0:
496,203,222600,2,0,B|456:197|456:197|435:199|435:199|415:190|415:190|344:179,1,127.5,6|0,0:0|2:0,0:0:0:0:
284,135,222900,1,6,0:0:0:0:
200,332,223500,6,0,L|64:356,1,127.5,6|0,0:0|2:0,0:0:0:0:
16,280,223800,2,0,L|152:256,1,127.5,6|0,0:0|2:0,0:0:0:0:
280,341,224100,6,0,P|238:347|200:332,1,85,2|8,0:0|0:0,0:0:0:0:
180,84,224400,2,0,P|206:116|212:158,1,85,2|8,0:0|0:0,0:0:0:0:
16,280,224700,6,0,B|28:180|28:180|44:224,1,127.5,6|0,0:0|2:0,0:0:0:0:
92,316,225000,2,0,B|101:341|101:341|113:241,1,127.5,6|0,0:0|2:0,0:0:0:0:
124,152,225300,1,6,0:0:0:0:
388,336,225600,1,0,2:0:0:0:
388,336,225900,6,0,P|400:288|380:236,1,85,6|0,0:0|0:0,0:0:0:0:
192,248,226200,2,0,P|180:296|200:348,1,85,6|0,0:0|0:0,0:0:0:0:
316,292,226500,1,6,0:0:0:0:
304,264,226575,1,0,0:0:0:0:
274,264,226650,1,0,0:0:0:0:
264,292,226725,1,0,0:0:0:0:
286,312,226800,1,0,0:0:0:0:
286,312,227100,6,0,L|295:207,1,85,6|0,0:0|0:0,0:0:0:0:
427,35,227400,2,0,L|417:139,1,85,6|0,0:0|0:0,0:0:0:0:
380,252,227700,2,0,B|373:220|372:192|372:192|340:156|340:156|338:132|332:80,1,170,6|0,0:0|2:0,0:0:0:0:
228,24,228150,2,0,L|220:76,1,42.5,0|0,0:0|0:0,0:0:0:0:
184,140,228300,6,0,B|104:156|92:92|92:92|110:97|116:116,1,140.25000428009,6|0,0:0|2:0,0:0:0:0:
224,220,228600,2,0,B|304:236|316:172|316:172|297:177|292:196,1,140.25000428009,6|0,0:0|2:0,0:0:0:0:
148,260,228900,1,0,0:0:0:0:
387,344,229050,1,0,0:0:0:0:
124,344,229200,1,0,0:0:0:0:
364,260,229350,1,0,0:0:0:0:
199,145,229500,6,0,L|179:180,6,23.3750007133484,6|0|0|0|0|0|0,0:0|0:0|0:0|0:0|0:0|0:0|0:0,0:0:0:0:
244,264,229800,6,0,L|284:264,6,23.3750007133484,6|0|0|0|0|0|0,0:0|0:0|0:0|0:0|0:0|0:0|0:0,0:0:0:0:
324,166,230100,6,0,L|304:131,16,23.3750007133484,6|0|0|0|0|0|0|0|0|0|0|0|0|0|0|0|2,0:0|0:0|0:0|0:0|0:0|0:0|0:0|0:0|0:0|0:0|0:0|0:0|0:0|0:0|0:0|0:0|0:0,0:0:0:0:
256,192,230850,5,8,3:1:0:0:
256,200,230925,1,0,0:0:0:0:
256,208,231000,1,12,3:1:0:0:
256,192,231150,12,0,235500,0:0:0:0:
