osu file format v14

[General]
AudioFilename: audio.mp3
AudioLeadIn: 0
PreviewTime: 70500
Countdown: 0
SampleSet: Soft
StackLeniency: 0.6
Mode: 0
LetterboxInBreaks: 0
WidescreenStoryboard: 1

[Editor]
Bookmarks: 1500,15900,30300,30900,39900,44250,49500,59100,71100,80700,87900,90300,101100,110700,120300,129900,139500,140700,149100,161100,170700,177900,185100,197100,201900,211500,218700,221100,231000,235500
DistanceSpacing: 1.2
BeatDivisor: 4
GridSize: 32
TimelineZoom: 1.6

[Metadata]
Title:Mazare Party
TitleUnicode:Mazare Party
Artist:MAZARE
ArtistUnicode:MAZARE
Creator:IntellectualBoy
Version:NeoSL's Hard
Source:
Tags:toybot walaowey Neoskylove [ L u k a s ] oriental trap jcore utaite Nanahira Kradness Yukacco ななひら Camellia MIND HACK EXIT TUNES
BeatmapID:1434972
BeatmapSetID:667868

[Difficulty]
HPDrainRate:6
CircleSize:4
OverallDifficulty:7
ApproachRate:8
SliderMultiplier:1
SliderTickRate:1

[Events]
//Background and Video events
0,0,"Mazare.jpg",0,0
//Break Periods
2,194900,199950
//Storyboard Layer 0 (Background)
//Storyboard Layer 1 (Fail)
//Storyboard Layer 2 (Pass)
//Storyboard Layer 3 (Foreground)
//Storyboard Sound Samples

[TimingPoints]
300,300,4,2,4,50,1,0
1500,-71.4285714285714,4,2,4,50,0,0
5100,-71.4285714285714,4,2,12,50,0,0
5325,-71.4285714285714,4,2,12,5,0,0
5400,-71.4285714285714,4,2,12,50,0,0
5625,-71.4285714285714,4,2,12,5,0,0
5700,-71.4285714285714,4,1,1,50,0,0
6300,-100,4,2,4,50,0,0
6900,-100,4,2,1,50,0,0
7500,-100,4,2,4,50,0,0
8925,-100,4,2,4,5,0,0
9000,-100,4,2,4,50,0,0
9225,-100,4,2,4,5,0,0
9300,-100,4,2,4,50,0,0
9525,-100,4,2,4,5,0,0
9600,-100,4,2,4,50,0,0
9825,-100,4,2,4,5,0,0
9900,-71.4285714285714,4,2,4,50,0,0
11100,-71.4285714285714,4,2,12,50,0,0
12300,-71.4285714285714,4,2,1,30,0,0
12600,-71.4285714285714,4,2,1,40,0,0
12900,-71.4285714285714,4,2,1,50,0,0
13200,-71.4285714285714,4,2,1,60,0,0
13500,-71.4285714285714,4,2,9,50,0,0
15900,-71.4285714285714,4,2,4,60,0,0
16125,-71.4285714285714,4,2,4,5,0,0
16200,-71.4285714285714,4,2,4,60,0,0
16425,-71.4285714285714,4,2,4,5,0,0
16500,-71.4285714285714,4,2,4,60,0,0
17325,-71.4285714285714,4,2,4,5,0,0
17400,-71.4285714285714,4,2,4,60,0,0
17625,-71.4285714285714,4,2,4,5,0,0
17700,-71.4285714285714,4,2,4,60,0,0
18525,-71.4285714285714,4,2,4,5,0,0
18600,-71.4285714285714,4,2,4,60,0,0
18825,-71.4285714285714,4,2,4,5,0,0
18900,-71.4285714285714,4,2,4,60,0,0
19725,-71.4285714285714,4,2,4,5,0,0
19800,-71.4285714285714,4,2,4,60,0,0
20025,-71.4285714285714,4,2,4,5,0,0
20100,-71.4285714285714,4,2,4,60,0,0
20925,-71.4285714285714,4,2,4,5,0,0
21000,-71.4285714285714,4,2,4,60,0,0
22125,-71.4285714285714,4,2,4,5,0,0
22200,-71.4285714285714,4,2,4,60,0,0
22425,-71.4285714285714,4,2,4,5,0,0
22500,-71.4285714285714,4,2,4,60,0,0
23325,-71.4285714285714,4,2,4,5,0,0
23400,-71.4285714285714,4,2,4,60,0,0
23625,-71.4285714285714,4,2,4,5,0,0
23700,-71.4285714285714,4,2,4,60,0,0
25200,-71.4285714285714,4,2,9,30,0,0
25500,-83.3333333333333,4,2,9,30,0,0
26700,-83.3333333333333,4,1,1,30,0,0
27000,-83.3333333333333,4,1,1,35,0,0
27300,-83.3333333333333,4,1,1,40,0,0
27600,-83.3333333333333,4,1,1,45,0,0
27900,-83.3333333333333,4,1,1,50,0,0
29100,-83.3333333333333,4,2,1,50,0,0
30300,-71.4285714285714,4,2,13,70,0,0
38700,-83.3333333333333,4,2,13,70,0,0
38850,-83.3333333333333,4,3,1,70,0,0
39300,-83.3333333333333,4,3,14,50,0,0
39900,-71.4285714285714,4,2,15,65,0,0
40125,-71.4285714285714,4,2,15,5,0,0
40200,-71.4285714285714,4,2,15,65,0,0
42225,-71.4285714285714,4,2,15,5,0,0
42300,-71.4285714285714,4,2,15,65,0,0
43725,-71.4285714285714,4,2,15,5,0,0
43800,-71.4285714285714,4,2,15,65,0,0
44025,-71.4285714285714,4,2,15,5,0,0
44100,-71.4285714285714,4,2,15,65,0,0
46125,-71.4285714285714,4,2,15,5,0,0
46200,-71.4285714285714,4,2,15,65,0,0
46425,-71.4285714285714,4,2,15,5,0,0
46500,-71.4285714285714,4,2,15,65,0,0
46725,-71.4285714285714,4,2,15,5,0,0
46800,-71.4285714285714,4,2,15,65,0,0
47100,-71.4285714285714,4,2,15,65,0,0
48300,-71.4285714285714,4,2,15,65,0,0
48825,-71.4285714285714,4,2,15,5,0,0
48900,-71.4285714285714,4,2,15,65,0,0
49500,-71.4285714285714,4,2,9,65,0,0
49725,-71.4285714285714,4,2,15,5,0,0
49800,-71.4285714285714,4,2,15,65,0,0
50925,-71.4285714285714,4,2,15,5,0,0
51000,-71.4285714285714,4,2,15,65,0,0
51225,-71.4285714285714,4,2,15,5,0,0
51300,-71.4285714285714,4,2,15,65,0,0
52125,-71.4285714285714,4,2,15,5,0,0
52200,-71.4285714285714,4,2,15,65,0,0
53325,-71.4285714285714,4,2,15,5,0,0
53400,-71.4285714285714,4,2,15,65,0,0
53625,-71.4285714285714,4,2,15,5,0,0
53700,-71.4285714285714,4,2,15,65,0,0
54300,-71.4285714285714,4,3,1,65,0,0
56700,-83.3333333333333,4,1,1,50,0,0
59100,-100,4,2,9,50,0,0
59400,-100,4,2,15,50,0,0
60000,-100,4,2,77,65,0,0
60225,-100,4,2,77,5,0,0
60300,-100,4,2,15,50,0,0
61200,-100,4,2,16,50,0,0
61725,-100,4,2,16,5,0,0
61800,-100,4,2,16,50,0,0
62625,-100,4,2,16,5,0,0
62700,-100,4,2,16,50,0,0
63000,-100,4,2,88,65,0,0
63900,-100,4,2,16,50,0,0
64725,-100,4,2,16,5,0,0
64800,-100,4,2,16,50,0,0
65025,-100,4,2,16,5,0,0
65100,-100,4,2,16,50,0,0
66525,-100,4,2,16,5,0,0
66600,-100,4,2,16,50,0,0
67125,-100,4,2,16,5,0,0
67200,-100,4,2,16,50,0,0
67800,-100,4,2,88,65,0,0
68700,-100,4,2,16,50,0,0
69600,-100,4,2,16,5,0,0
69900,-71.4285714285714,4,2,12,60,0,0
70125,-71.4285714285714,4,2,12,5,0,0
70200,-71.4285714285714,4,2,12,60,0,0
70425,-71.4285714285714,4,2,12,5,0,0
70500,-71.4285714285714,4,1,1,60,0,0
71100,-71.4285714285714,4,2,4,60,0,0
71400,-71.4285714285714,4,1,0,60,0,0
71550,-71.4285714285714,4,2,4,60,0,0
72600,-71.4285714285714,4,1,0,60,0,0
72750,-71.4285714285714,4,2,4,60,0,0
73725,-71.4285714285714,4,2,4,5,0,0
73800,-71.4285714285714,4,2,4,60,0,0
74025,-71.4285714285714,4,2,4,5,0,0
74100,-71.4285714285714,4,2,4,60,0,0
74325,-71.4285714285714,4,2,4,5,0,0
74400,-71.4285714285714,4,2,4,60,0,0
74625,-71.4285714285714,4,2,4,5,0,0
74700,-71.4285714285714,4,1,0,60,0,0
75900,-71.4285714285714,4,1,15,70,0,1
76725,-71.4285714285714,4,2,15,5,0,1
76800,-71.4285714285714,4,1,15,70,0,1
80025,-71.4285714285714,4,2,15,5,0,1
80100,-71.4285714285714,4,1,15,70,0,1
80925,-71.4285714285714,4,2,15,5,0,1
81000,-71.4285714285714,4,1,15,70,0,1
81225,-71.4285714285714,4,2,15,5,0,1
81300,-71.4285714285714,4,1,15,70,0,1
81825,-71.4285714285714,4,2,15,5,0,1
81900,-71.4285714285714,4,1,15,70,0,1
82125,-71.4285714285714,4,2,15,5,0,1
82200,-71.4285714285714,4,1,15,70,0,1
83925,-71.4285714285714,4,2,15,5,0,1
84000,-71.4285714285714,4,1,15,70,0,1
84225,-71.4285714285714,4,2,15,5,0,1
84300,-71.4285714285714,4,1,15,70,0,1
87900,-125,4,1,1,50,0,0
88200,-125,4,2,15,50,0,0
90225,-125,4,2,15,5,0,0
90300,-71.4285714285714,4,2,4,60,0,0
90525,-71.4285714285714,4,2,4,5,0,0
90600,-71.4285714285714,4,2,4,60,0,0
90825,-71.4285714285714,4,2,4,5,0,0
90900,-71.4285714285714,4,2,4,60,0,0
91725,-71.4285714285714,4,2,4,5,0,0
91800,-71.4285714285714,4,2,4,60,0,0
92025,-71.4285714285714,4,2,4,5,0,0
92100,-71.4285714285714,4,2,4,60,0,0
92925,-71.4285714285714,4,2,4,5,0,0
93000,-71.4285714285714,4,2,4,60,0,0
93225,-71.4285714285714,4,2,4,5,0,0
93300,-71.4285714285714,4,2,4,60,0,0
94125,-71.4285714285714,4,2,4,5,0,0
94200,-71.4285714285714,4,2,4,60,0,0
94425,-71.4285714285714,4,2,4,5,0,0
94500,-71.4285714285714,4,2,4,60,0,0
95325,-71.4285714285714,4,2,4,5,0,0
95400,-71.4285714285714,4,2,4,60,0,0
95625,-71.4285714285714,4,2,4,5,0,0
95700,-71.4285714285714,4,2,4,60,0,0
96525,-71.4285714285714,4,2,4,5,0,0
96600,-71.4285714285714,4,2,4,60,0,0
96825,-71.4285714285714,4,2,4,5,0,0
96900,-71.4285714285714,4,2,4,60,0,0
97725,-71.4285714285714,4,2,4,5,0,0
97800,-71.4285714285714,4,2,4,60,0,0
98025,-71.4285714285714,4,2,4,5,0,0
98100,-71.4285714285714,4,2,4,60,0,0
99300,-100,4,2,4,60,0,0
100800,-100,4,2,15,30,0,0
101100,-83.3333333333333,4,2,9,30,0,0
101400,-83.3333333333333,4,2,15,30,0,0
103500,-83.3333333333333,4,2,15,40,0,0
104100,-83.3333333333333,4,2,15,50,0,0
104700,-83.3333333333333,4,2,15,60,0,0
105900,-83.3333333333333,4,1,15,65,0,0
109650,-83.3333333333333,4,2,15,50,0,0
110700,-71.4285714285714,4,1,15,70,0,1
119100,-83.3333333333333,4,3,1,70,0,0
120300,-71.4285714285714,4,1,15,70,0,1
120525,-71.4285714285714,4,2,15,5,0,1
120600,-71.4285714285714,4,1,15,70,0,1
124125,-71.4285714285714,4,1,15,5,0,1
124200,-71.4285714285714,4,1,15,70,0,1
128700,-83.3333333333333,4,1,15,70,0,0
128850,-83.3333333333333,4,3,1,70,0,0
129300,-83.3333333333333,4,3,14,70,0,0
129900,-100,4,2,17,50,0,0
130125,-100,4,2,17,5,0,0
130200,-100,4,2,17,50,0,0
130425,-100,4,2,17,5,0,0
130500,-100,4,2,17,50,0,0
130875,-100,4,2,17,5,0,0
130950,-100,4,2,17,50,0,0
131325,-100,4,2,17,5,0,0
131400,-100,4,2,17,50,0,0
132075,-100,4,2,17,5,0,0
132150,-100,4,2,17,50,0,0
132525,-100,4,2,17,5,0,0
132600,-100,4,2,17,50,0,0
132825,-100,4,2,17,5,0,0
132900,-100,4,2,17,50,0,0
133275,-100,4,2,17,5,0,0
133350,-100,4,2,17,50,0,0
133725,-100,4,2,17,5,0,0
133800,-100,4,2,17,50,0,0
134925,-100,4,2,17,5,0,0
135000,-100,4,2,17,50,0,0
135225,-100,4,2,17,5,0,0
135300,-100,4,2,17,50,0,0
135675,-100,4,2,17,5,0,0
135750,-100,4,2,17,50,0,0
136125,-100,4,2,17,5,0,0
136200,-100,4,2,17,50,0,0
136875,-100,4,2,17,5,0,0
136950,-100,4,2,17,50,0,0
137250,-100,4,3,14,50,0,0
137700,-100,4,2,17,50,0,0
137850,-100,4,3,14,50,0,0
138300,-100,4,2,17,50,0,0
138825,-100,4,2,17,5,0,0
138900,-100,4,2,17,50,0,0
139500,-71.4285714285714,4,2,15,65,0,0
139725,-71.4285714285714,4,2,15,5,0,0
139800,-71.4285714285714,4,2,15,65,0,0
140925,-71.4285714285714,4,2,15,5,0,0
141000,-71.4285714285714,4,2,15,65,0,0
141225,-71.4285714285714,4,2,15,5,0,0
141300,-71.4285714285714,4,2,15,65,0,0
141600,-71.4285714285714,4,2,33,65,0,0
141900,-71.4285714285714,4,2,15,65,0,0
143325,-71.4285714285714,4,2,15,5,0,0
143400,-71.4285714285714,4,2,15,65,0,0
143625,-71.4285714285714,4,2,15,5,0,0
143700,-71.4285714285714,4,2,15,65,0,0
143850,-71.4285714285714,4,2,33,65,0,0
144300,-71.4285714285714,4,2,15,65,0,0
146700,-83.3333333333333,4,1,1,50,0,0
149100,-100,4,2,9,50,0,0
149400,-100,4,2,15,50,0,0
149925,-100,4,2,15,5,0,0
150000,-100,4,2,77,50,0,0
150225,-100,4,2,77,5,0,0
150300,-100,4,2,16,50,0,0
151725,-100,4,2,16,5,0,0
151800,-100,4,2,16,50,0,0
153000,-100,4,2,88,65,0,0
153600,-100,4,2,16,50,0,0
154725,-100,4,2,16,5,0,0
154800,-100,4,2,16,50,0,0
155025,-100,4,2,16,5,0,0
155100,-100,4,2,16,50,0,0
156525,-100,4,2,16,5,0,0
156600,-100,4,2,16,50,0,0
157125,-100,4,2,16,5,0,0
157200,-100,4,2,16,50,0,0
157800,-100,4,2,88,65,0,0
158700,-100,4,2,16,65,0,0
159900,-71.4285714285714,4,2,12,50,0,0
160125,-71.4285714285714,4,2,12,5,0,0
160200,-71.4285714285714,4,2,12,50,0,0
160425,-71.4285714285714,4,2,12,5,0,0
160500,-71.4285714285714,4,1,1,50,0,0
161100,-71.4285714285714,4,2,4,50,0,0
161400,-71.4285714285714,4,1,0,50,0,0
161550,-71.4285714285714,4,2,4,50,0,0
162600,-71.4285714285714,4,1,0,50,0,0
162750,-71.4285714285714,4,2,4,50,0,0
163725,-71.4285714285714,4,2,4,5,0,0
163800,-71.4285714285714,4,2,4,50,0,0
164025,-71.4285714285714,4,2,4,5,0,0
164100,-71.4285714285714,4,2,4,50,0,0
164325,-71.4285714285714,4,2,4,5,0,0
164400,-71.4285714285714,4,2,4,50,0,0
164625,-71.4285714285714,4,2,4,5,0,0
164700,-71.4285714285714,4,1,0,50,0,0
165900,-71.4285714285714,4,1,15,70,0,1
166725,-71.4285714285714,4,2,15,5,0,1
166800,-71.4285714285714,4,1,15,70,0,1
170025,-71.4285714285714,4,2,15,5,0,1
170100,-71.4285714285714,4,1,15,70,0,1
170925,-71.4285714285714,4,2,15,5,0,1
171000,-71.4285714285714,4,1,15,70,0,1
171225,-71.4285714285714,4,2,15,5,0,1
171300,-71.4285714285714,4,1,15,70,0,1
171825,-71.4285714285714,4,1,15,5,0,1
171900,-71.4285714285714,4,1,15,70,0,1
172125,-71.4285714285714,4,2,15,5,0,1
172200,-71.4285714285714,4,1,15,70,0,1
173925,-71.4285714285714,4,2,15,5,0,1
174000,-71.4285714285714,4,1,15,70,0,1
174225,-71.4285714285714,4,2,15,5,0,1
174300,-71.4285714285714,4,1,15,70,0,1
177900,-125,4,1,0,50,0,0
178200,-125,4,2,15,50,0,0
184500,-125,4,2,0,5,0,0
184800,-125,4,2,66,50,0,0
185100,-100,4,2,66,50,0,0
185925,-100,4,2,66,5,0,0
186000,-100,4,2,66,50,0,0
188925,-100,4,2,66,5,0,0
189000,-100,4,2,88,50,0,0
189900,-100,4,2,66,50,0,0
191025,-100,4,2,66,5,0,0
191100,-100,4,2,66,50,0,0
193800,-100,4,2,88,50,0,0
194700,-100,4,2,66,50,0,0
197100,-100,4,2,66,5,0,0
200700,-71.4285714285714,4,2,12,60,0,0
200925,-71.4285714285714,4,2,12,5,0,0
201000,-71.4285714285714,4,2,12,60,0,0
201225,-71.4285714285714,4,2,12,5,0,0
201300,-71.4285714285714,4,1,1,60,0,0
201900,-71.4285714285714,4,2,4,60,0,0
202200,-71.4285714285714,4,1,0,60,0,0
202350,-71.4285714285714,4,2,4,60,0,0
203400,-71.4285714285714,4,1,0,60,0,0
203550,-71.4285714285714,4,2,4,60,0,0
204525,-71.4285714285714,4,2,4,5,0,0
204600,-71.4285714285714,4,2,4,60,0,0
204825,-71.4285714285714,4,2,4,5,0,0
204900,-71.4285714285714,4,2,4,60,0,0
205125,-71.4285714285714,4,2,4,5,0,0
205200,-71.4285714285714,4,2,4,60,0,0
205425,-71.4285714285714,4,2,4,5,0,0
205500,-71.4285714285714,4,1,2,60,0,0
206700,-71.4285714285714,4,1,15,70,0,1
207525,-71.4285714285714,4,2,15,5,0,1
207600,-71.4285714285714,4,1,15,70,0,1
210825,-71.4285714285714,4,2,15,5,0,1
210900,-71.4285714285714,4,1,15,70,0,1
211725,-71.4285714285714,4,2,15,5,0,1
211800,-71.4285714285714,4,1,15,70,0,1
212325,-71.4285714285714,4,2,15,5,0,1
212400,-71.4285714285714,4,1,15,70,0,1
214125,-71.4285714285714,4,2,15,5,0,1
214200,-71.4285714285714,4,1,15,70,0,1
218700,-125,4,1,15,60,0,0
219000,-125,4,2,17,60,0,0
219900,-125,4,2,15,60,0,0
221025,-125,4,2,17,5,0,0
221100,-71.4285714285714,4,2,4,60,0,0
221325,-71.4285714285714,4,2,4,5,0,0
221400,-71.4285714285714,4,2,4,60,0,0
221625,-71.4285714285714,4,2,4,5,0,0
221700,-71.4285714285714,4,2,4,60,0,0
222525,-71.4285714285714,4,2,4,5,0,0
222600,-71.4285714285714,4,2,4,60,0,0
222825,-71.4285714285714,4,2,4,5,0,0
222900,-71.4285714285714,4,2,4,60,0,0
223725,-71.4285714285714,4,2,4,5,0,0
223800,-71.4285714285714,4,2,4,60,0,0
224025,-71.4285714285714,4,2,4,5,0,0
224100,-71.4285714285714,4,2,4,60,0,0
224925,-71.4285714285714,4,2,4,5,0,0
225000,-71.4285714285714,4,2,4,60,0,0
225225,-71.4285714285714,4,2,4,5,0,0
225300,-71.4285714285714,4,2,4,60,0,0
226125,-71.4285714285714,4,2,4,5,0,0
226200,-71.4285714285714,4,2,4,60,0,0
226425,-71.4285714285714,4,2,4,5,0,0
226500,-71.4285714285714,4,2,4,60,0,0
227325,-71.4285714285714,4,2,4,5,0,0
227400,-71.4285714285714,4,2,4,60,0,0
227625,-71.4285714285714,4,2,4,5,0,0
227700,-71.4285714285714,4,2,4,60,0,0
228525,-71.4285714285714,4,2,4,5,0,0
228600,-71.4285714285714,4,2,4,60,0,0
228825,-71.4285714285714,4,2,4,5,0,0
228900,-71.4285714285714,4,2,4,60,0,0
230700,-133.333333333333,4,2,9,60,0,0
235500,-133.333333333333,4,2,9,5,0,0

[Colours]
Combo1 : 221,130,255
Combo2 : 250,48,83
Combo3 : 255,119,176
Combo4 : 102,231,253
Combo5 : 254,210,129
Combo6 : 156,255,132

[HitObjects]
256,192,1500,12,0,3900,0:0:0:0:
69,154,5100,5,8,0:0:0:0:
69,154,5400,1,8,0:0:0:0:
69,154,5700,2,0,L|103:157,3,34.9999989318848,0|0|0|0,0:0|0:0|0:0|0:0,0:0:0:0:
133,186,6000,2,0,L|167:189,3,34.9999989318848,0|0|0|0,0:0|0:0|0:0|0:0,0:0:0:0:
197,218,6300,5,6,0:0:0:0:
197,217,6900,2,0,P|239:192|288:199,1,100,0|0,0:0|0:0,0:0:0:0:
407,320,7500,5,2,0:0:0:0:
407,320,8100,2,0,L|413:220,1,100,0|0,0:0|0:0,0:0:0:0:
329,72,8700,5,0,0:0:0:0:
241,218,9000,2,0,P|193:231|146:216,1,100,2|0,0:0|0:0,0:0:0:0:
76,60,9600,1,2,0:0:0:0:
243,71,9900,6,0,L|239:175,1,104.999996795654,2|0,0:0|0:0,0:0:0:0:
241,218,10200,2,0,P|271:201|306:199,1,69.9999978637696,2|0,0:0|0:0,0:0:0:0:
355,268,10500,2,0,L|424:265,2,69.9999978637696,2|0|2,0:0|0:0|0:0,0:0:0:0:
196,323,11100,5,6,0:0:0:0:
161,319,11400,1,0,0:0:0:0:
126,315,11700,1,8,0:0:0:0:
91,312,12000,1,8,0:0:0:0:
206,190,12300,5,8,0:0:0:0:
241,186,12600,1,8,0:0:0:0:
275,183,12900,1,8,0:0:0:0:
310,179,13200,1,8,0:0:0:0:
195,57,13500,6,0,P|161:49|126:53,1,69.9999978637696,2|2,0:0|0:0,0:0:0:0:
84,126,13800,2,0,L|86:195,1,69.9999978637696,2|2,0:0|0:0,0:0:0:0:
136,264,14100,2,0,L|170:258,3,34.9999989318848,2|2|2|2,0:0|0:0|0:0|0:0,0:0:0:0:
198,226,14400,2,0,L|232:231,3,34.9999989318848,2|2|2|2,0:0|0:0|0:0|0:0,0:0:0:0:
260,264,14700,5,2,0:0:0:0:
260,264,15900,6,0,P|226:204|243:138,2,139.999995727539,6|2|2,0:0|0:0|0:0,0:0:0:0:
315,78,17100,2,0,P|255:44|189:61,2,139.999995727539,2|2|2,0:0|0:0|0:0,0:0:0:0:
393,270,18300,6,2,B|349:279|349:279|308:257|308:257|260:264,1,139.999995727539,2|2,0:0|0:0,0:0:0:0:
96,302,18900,2,0,P|86:268|95:235,1,69.9999978637696,2|0,0:0|0:0,0:0:0:0:
148,168,19200,2,0,P|156:134|147:101,1,69.9999978637696,2|0,0:0|0:0,0:0:0:0:
80,48,19500,6,0,L|219:53,2,139.999995727539,2|2|0,0:0|0:0|0:0,0:0:0:0:
301,300,20700,6,0,L|370:297,1,69.9999978637696,2|0,0:0|0:0,0:0:0:0:
333,222,21000,2,0,L|402:219,1,69.9999978637696,2|0,0:0|0:0,0:0:0:0:
363,144,21300,2,0,L|432:141,1,69.9999978637696,2|0,0:0|0:0,0:0:0:0:
197,55,21900,6,0,L|127:52,1,69.9999978637696,2|0,0:0|0:0,0:0:0:0:
159,130,22200,2,0,L|89:127,1,69.9999978637696,2|0,0:0|0:0,0:0:0:0:
121,205,22500,2,0,L|51:202,1,69.9999978637696,2|0,0:0|0:0,0:0:0:0:
168,323,22950,1,0,0:0:0:0:
168,323,23025,1,0,0:0:0:0:
168,323,23100,6,0,B|207:332|236:313|236:313|266:295|302:299,1,139.999995727539,2|2,0:0|0:0,0:0:0:0:
432,191,23700,2,0,P|398:198|364:189,1,69.9999978637696,2|0,0:0|0:0,0:0:0:0:
304,129,24000,2,0,P|270:121|236:130,1,69.9999978637696,2|0,0:0|0:0,0:0:0:0:
175,188,24300,6,0,P|152:123|184:63,2,139.999995727539,2|2|2,0:0|0:0|0:0,0:0:0:0:
302,299,25200,1,0,0:0:0:0:
334,132,25500,6,0,P|393:126|453:125,1,119.999996337891,2|0,0:0|0:0,0:0:0:0:
404,286,26100,2,0,P|344:285|284:278,1,119.999996337891,2|2,0:0|0:0,0:0:0:0:
132,207,26700,5,0,1:0:0:0:
132,207,26850,2,0,P|106:259|126:314,1,119.999996337891,0|0,0:0|0:0,0:0:0:0:
51,354,27300,2,0,P|30:298|29:238,1,119.999996337891,0|0,0:0|0:0,0:0:0:0:
156,127,27900,5,0,0:0:0:0:
156,127,28200,2,0,L|215:120,1,59.9999981689454,0|0,0:0|0:0,0:0:0:0:
282,69,28500,2,0,L|401:81,1,119.999996337891,0|0,0:0|0:0,0:0:0:0:
365,245,29100,6,0,B|352:263|359:300|359:300|317:279|280:298|280:298|247:278|207:293|207:293|230:256|213:221|213:221|181:252|150:245,1,359.999989013672,0|0,0:0|0:0,0:0:0:0:
76,94,30300,5,2,0:0:0:0:
158,111,30450,2,0,L|155:145,2,34.9999989318848,0|0|8,0:0|0:0|0:0,0:0:0:0:
240,128,30750,2,0,L|237:162,2,34.9999989318848,0|0|2,0:0|0:0|0:0,0:0:0:0:
322,145,31050,2,0,L|319:179,2,34.9999989318848,0|0|8,0:0|0:0|0:0,0:0:0:0:
382,86,31350,1,0,0:0:0:0:
446,140,31500,6,0,P|455:174|444:207,1,69.9999978637696,2|0,0:0|0:0,0:0:0:0:
383,265,31800,2,0,L|348:266,3,34.9999989318848,8|0|0|0,0:0|0:0|0:0|0:0,0:0:0:0:
307,252,32100,2,0,P|312:286|306:320,1,69.9999978637696,2|0,0:0|0:0,0:0:0:0:
267,337,32325,1,0,0:0:0:0:
267,337,32400,2,0,L|197:334,1,69.9999978637696,8|0,0:0|0:0,0:0:0:0:
109,250,32700,5,2,0:0:0:0:
175,198,32850,2,0,L|169:163,2,34.9999989318848,0|0|8,0:0|0:0|0:0,0:0:0:0:
241,146,33150,2,0,L|235:111,2,34.9999989318848,0|0|2,0:0|0:0|0:0,0:0:0:0:
307,94,33450,2,0,L|301:59,2,34.9999989318848,0|0|8,0:0|0:0|0:0,0:0:0:0:
359,160,33750,1,0,0:0:0:0:
293,212,33900,6,0,P|300:245|292:279,1,69.9999978637696,2|0,0:0|0:0,0:0:0:0:
221,326,34200,2,0,L|186:320,3,34.9999989318848,8|0|0|0,0:0|0:0|0:0|0:0,0:0:0:0:
145,310,34500,2,0,P|137:276|145:242,1,69.9999978637696,2|0,0:0|0:0,0:0:0:0:
209,188,34800,2,0,P|217:154|209:120,1,69.9999978637696,10|0,0:0|0:0,0:0:0:0:
154,56,35100,5,2,0:0:0:0:
236,40,35250,2,0,L|233:5,2,34.9999989318848,0|0|8,0:0|0:0|0:0,0:0:0:0:
291,104,35550,2,0,L|288:139,2,34.9999989318848,0|0|2,0:0|0:0|0:0,0:0:0:0:
373,88,35850,2,0,L|370:53,2,34.9999989318848,0|0|8,0:0|0:0|0:0,0:0:0:0:
428,152,36150,1,0,0:0:0:0:
400,231,36300,6,0,P|366:221|332:227,1,69.9999978637696,2|0,0:0|0:0,0:0:0:0:
267,281,36600,2,0,L|270:316,3,34.9999989318848,8|0|0|0,0:0|0:0|0:0|0:0,0:0:0:0:
242,347,36900,2,0,P|210:333|175:338,1,69.9999978637696,2|0,0:0|0:0,0:0:0:0:
134,349,37125,1,0,0:0:0:0:
134,349,37200,2,0,P|139:314|125:282,1,69.9999978637696,8|0,0:0|0:0,0:0:0:0:
59,231,37500,5,2,0:0:0:0:
69,147,37650,2,0,L|42:124,2,34.9999989318848,0|0|8,0:0|0:0|0:0,0:0:0:0:
146,113,37950,2,0,L|152:78,2,34.9999989318848,0|0|2,0:0|0:0|0:0,0:0:0:0:
213,163,38250,2,0,L|245:151,2,34.9999989318848,0|0|8,0:0|0:0|0:0,0:0:0:0:
204,247,38550,1,0,0:0:0:0:
135,197,38700,5,2,0:0:0:0:
125,282,38850,1,0,0:0:0:0:
128,285,38925,1,0,0:0:0:0:
131,288,39000,2,0,L|133:317,3,29.9999990844727,0|0|0|0,0:0|0:0|0:0|0:0,0:0:0:0:
171,337,39300,2,0,P|200:330|230:330,1,59.9999981689454,8|8,0:0|0:0,0:0:0:0:
263,252,39600,2,0,P|233:252|203:246,1,59.9999981689454,8|8,0:0|0:0,0:0:0:0:
321,192,39900,6,0,B|309:237|309:237|327:282|327:282|315:325,2,139.999995727539,2|8|2,0:0|0:0|0:0,0:0:0:0:
347,111,40650,1,0,0:0:0:0:
263,127,40800,2,0,P|229:136|194:134,1,69.9999978637696,8|0,0:0|0:0,0:0:0:0:
123,89,41100,6,0,P|141:136|124:185,1,104.999996795654,2|0,0:0|0:0,0:0:0:0:
109,200,41400,2,0,L|112:269,1,69.9999978637696,8|0,0:0|0:0,0:0:0:0:
195,226,41700,2,0,L|192:296,1,69.9999978637696,2|0,0:0|0:0,0:0:0:0:
275,253,42000,2,0,L|279:323,1,69.9999978637696,8|0,0:0|0:0,0:0:0:0:
366,210,42300,6,0,L|359:350,2,139.999995727539,2|8|2,0:0|0:0|0:0,0:0:0:0:
319,140,43050,1,0,0:0:0:0:
268,207,43200,2,0,P|235:218|200:216,1,69.9999978637696,8|0,0:0|0:0,0:0:0:0:
182,134,43500,6,0,B|217:113|217:113|280:123,1,104.999996795654,2|0,0:0|0:0,0:0:0:0:
319,140,43800,2,0,L|316:70,1,69.9999978637696,8|0,0:0|0:0,0:0:0:0:
392,32,44100,1,2,0:0:0:0:
444,96,44250,2,0,L|486:92,2,34.9999989318848,0|0|8,0:0|0:0|0:0,0:0:0:0:
400,168,44550,1,0,0:0:0:0:
319,140,44700,6,0,L|323:244,1,104.999996795654,2|0,0:0|0:0,0:0:0:0:
316,286,45000,2,0,P|281:279|246:277,1,69.9999978637696,8|0,0:0|0:0,0:0:0:0:
180,329,45300,2,0,P|145:335|110:337,1,69.9999978637696,2|0,0:0|0:0,0:0:0:0:
100,253,45600,2,0,P|134:246|169:244,1,69.9999978637696,8|0,0:0|0:0,0:0:0:0:
246,276,45900,6,0,P|249:225|223:181,1,104.999996795654,2|0,0:0|0:0,0:0:0:0:
207,167,46200,2,0,L|211:97,1,69.9999978637696,8|0,0:0|0:0,0:0:0:0:
293,135,46500,2,0,L|289:66,1,69.9999978637696,2|0,0:0|0:0,0:0:0:0:
370,104,46800,2,0,L|375:35,1,69.9999978637696,8|0,0:0|0:0,0:0:0:0:
460,142,47100,6,0,L|451:2,1,139.999995727539,2|8,0:0|0:0,0:0:0:0:
451,2,47550,1,0,0:0:0:0:
375,34,47700,2,0,L|366:173,1,139.999995727539,2|8,0:0|0:0,0:0:0:0:
367,173,48150,1,0,0:0:0:0:
289,66,48300,6,0,L|293:135,1,69.9999978637696,2|0,0:0|0:0,0:0:0:0:
215,105,48600,2,0,L|219:174,1,69.9999978637696,8|0,0:0|0:0,0:0:0:0:
141,144,48900,2,0,L|145:213,1,69.9999978637696,2|0,0:0|0:0,0:0:0:0:
67,183,49200,2,0,L|71:252,1,69.9999978637696,8|0,0:0|0:0,0:0:0:0:
173,332,49500,6,0,B|138:316|106:329|106:329|70:344|38:330,2,139.999995727539,6|8|2,0:0|0:0|0:0,0:0:0:0:
248,372,50250,1,0,0:0:0:0:
306,311,50400,2,0,B|314:276|314:276|302:243,1,69.9999978637696,8|0,0:0|0:0,0:0:0:0:
244,182,50700,6,0,P|309:159|369:191,2,139.999995727539,2|8|2,0:0|0:0|0:0,0:0:0:0:
219,261,51450,1,0,0:0:0:0:
302,243,51600,1,8,0:0:0:0:
141,80,51900,6,0,B|129:130|129:130|147:167|147:167|136:213,2,139.999995727539,2|8|2,0:0|0:0|0:0,0:0:0:0:
211,33,52650,1,0,0:0:0:0:
277,84,52800,2,0,L|346:78,1,69.9999978637696,8|0,0:0|0:0,0:0:0:0:
386,153,53100,6,0,L|246:163,2,139.999995727539,2|8|2,0:0|0:0|0:0,0:0:0:0:
436,219,53850,1,0,0:0:0:0:
433,222,53925,1,0,0:0:0:0:
430,225,54000,2,0,L|427:259,3,34.9999989318848,8|0|0|0,0:0|0:0|0:0|0:0,0:0:0:0:
408,297,54300,5,2,0:0:0:0:
422,89,54900,5,2,0:0:0:0:
214,75,55500,5,2,0:0:0:0:
200,283,56100,5,2,0:0:0:0:
408,296,56700,6,0,P|425:240|402:186,1,119.999996337891,0|0,0:0|0:0,0:0:0:0:
326,153,57150,2,0,L|206:162,1,119.999996337891,0|0,0:0|0:0,0:0:0:0:
137,115,57600,1,0,0:0:0:0:
80,273,57900,6,0,L|199:282,1,119.999996337891,0|0,0:0|0:0,0:0:0:0:
271,326,58350,2,0,L|390:316,1,119.999996337891,0|0,0:0|0:0,0:0:0:0:
428,241,58800,2,0,L|368:236,1,59.9999981689454,0|0,0:0|0:0,0:0:0:0:
268,206,59100,6,0,B|253:183|264:160|264:160|289:167|312:156|312:156|332:165|364:155,1,150,6|0,0:0|0:0,0:0:0:0:
417,96,59700,1,0,0:0:0:0:
485,241,60000,1,2,0:0:0:0:
485,241,60300,6,0,B|457:247|457:247|431:243|431:243|410:249|410:249|387:245|387:245|363:250|363:250|337:247,1,150,2|2,0:0|0:0,0:0:0:0:
268,206,60900,1,2,0:0:0:0:
193,347,61200,1,8,0:0:0:0:
193,347,61500,6,0,B|185:316|196:291|196:291|176:263|176:263|190:236|182:205,1,150,2|2,0:0|0:0,0:0:0:0:
140,137,62100,1,2,0:0:0:0:
297,164,62400,1,8,0:0:0:0:
140,137,62700,5,0,0:0:0:0:
298,117,63000,2,0,L|330:109,2,33.3333333333333,0|0|0,0:0|0:0|0:0,0:0:0:0:
297,164,63300,2,0,L|329:156,2,33.3333333333333,2|0|0,0:0|0:0|0:0,0:0:0:0:
296,211,63600,2,0,L|328:203,2,33.3333333333333,8|0|0,0:0|0:0|0:0,0:0:0:0:
295,258,63900,6,0,B|302:290|296:313|296:313|246:292|204:313,1,150,2|2,0:0|0:0,0:0:0:0:
138,359,64500,1,2,0:0:0:0:
212,217,64800,1,8,0:0:0:0:
212,217,65100,6,0,B|173:226|147:199|147:199|118:221|71:214,1,150,2|2,0:0|0:0,0:0:0:0:
0,175,65700,1,2,0:0:0:0:
110,59,66000,1,8,0:0:0:0:
110,59,66300,6,0,B|159:49|159:49|203:75|203:75|250:63,1,150,2|2,0:0|0:0,0:0:0:0:
319,21,66900,1,2,0:0:0:0:
310,180,67200,1,8,0:0:0:0:
319,21,67500,5,0,0:0:0:0:
356,176,67800,2,0,L|366:207,2,33.3333333333333,0|0|0,0:0|0:0|0:0,0:0:0:0:
310,180,68100,2,0,L|320:211,2,33.3333333333333,2|0|0,0:0|0:0|0:0,0:0:0:0:
263,183,68400,2,0,L|273:214,2,33.3333333333333,8|0|0,0:0|0:0|0:0,0:0:0:0:
283,140,68700,5,2,0:0:0:0:
114,293,69900,5,8,0:0:0:0:
114,293,70200,1,8,0:0:0:0:
114,293,70500,2,0,L|148:288,3,34.9999989318848,0|0|0|0,0:0|0:0|0:0|0:0,0:0:0:0:
179,260,70800,2,0,L|213:255,3,34.9999989318848,0|0|0|0,0:0|0:0|0:0|0:0,0:0:0:0:
243,226,71100,6,0,P|243:279|249:331,1,104.999996795654,2|0,0:0|0:0,0:0:0:0:
271,368,71400,1,2,0:0:0:0:
125,58,72300,6,0,P|125:110|119:162,1,104.999996795654,2|0,0:0|0:0,0:0:0:0:
97,199,72600,1,2,0:0:0:0:
311,59,73500,5,0,0:0:0:0:
251,215,73800,2,0,P|296:191|346:201,1,104.999996795654,2|0,0:0|0:0,0:0:0:0:
379,228,74100,1,0,0:0:0:0:
237,318,74400,2,0,P|184:316|132:312,1,104.999996795654,2|0,0:0|0:0,0:0:0:0:
95,290,74700,6,0,L|94:220,1,69.9999978637696,2|0,0:0|0:0,0:0:0:0:
176,237,75000,2,0,L|175:167,1,69.9999978637696,2|0,0:0|0:0,0:0:0:0:
205,88,75300,1,2,0:0:0:0:
287,73,75450,1,0,0:0:0:0:
257,152,75600,1,2,0:0:0:0:
339,137,75750,1,0,0:0:0:0:
309,216,75900,6,0,P|376:212|419:159,2,139.999995727539,2|8|2,0:0|0:0|0:0,0:0:0:0:
257,152,76650,1,0,0:0:0:0:
192,204,76800,2,0,B|181:238|181:238|192:270,1,69.9999978637696,8|0,0:0|0:0,0:0:0:0:
264,315,77100,6,0,B|225:308|195:323|195:323|166:337|126:327,2,139.999995727539,2|8|2,0:0|0:0|0:0,0:0:0:0:
335,360,77850,1,0,0:0:0:0:
387,294,78000,2,0,L|382:224,1,69.9999978637696,8|0,0:0|0:0,0:0:0:0:
339,151,78300,6,0,P|290:165|242:146,1,104.999996795654,2|0,0:0|0:0,0:0:0:0:
231,128,78600,2,0,L|161:128,1,69.9999978637696,8|0,0:0|0:0,0:0:0:0:
105,192,78900,1,2,0:0:0:0:
77,111,79050,1,0,0:0:0:0:
104,191,79200,2,0,P|105:226|103:261,1,69.9999978637696,8|0,0:0|0:0,0:0:0:0:
138,338,79500,6,0,P|181:310|232:316,1,104.999996795654,2|0,0:0|0:0,0:0:0:0:
271,333,79800,2,0,L|305:327,3,34.9999989318848,8|0|0|0,0:0|0:0|0:0|0:0,0:0:0:0:
344,344,80100,2,0,L|378:338,3,34.9999989318848,2|0|0|0,0:0|0:0|0:0|0:0,0:0:0:0:
417,355,80400,2,0,L|451:349,3,34.9999989318848,8|0|0|0,0:0|0:0|0:0|0:0,0:0:0:0:
490,366,80700,5,2,0:0:0:0:
490,366,80850,1,0,0:0:0:0:
495,282,81000,2,0,L|498:212,1,69.9999978637696,8|0,0:0|0:0,0:0:0:0:
414,270,81300,1,2,0:0:0:0:
414,270,81450,1,0,0:0:0:0:
418,185,81600,2,0,L|421:115,1,69.9999978637696,8|0,0:0|0:0,0:0:0:0:
337,173,81900,5,2,0:0:0:0:
337,173,82050,1,0,0:0:0:0:
341,88,82200,2,0,L|344:18,1,69.9999978637696,8|0,0:0|0:0,0:0:0:0:
266,128,82500,2,0,B|228:141|198:126|198:126|163:111|129:121,1,139.999995727539,2|8,0:0|0:0,0:0:0:0:
70,181,82950,1,0,0:0:0:0:
128,240,83100,6,0,P|130:292|128:344,1,104.999996795654,2|0,0:0|0:0,0:0:0:0:
141,362,83400,2,0,P|174:351|209:350,1,69.9999978637696,8|0,0:0|0:0,0:0:0:0:
284,311,83700,2,0,P|265:281|240:257,1,69.9999978637696,2|0,0:0|0:0,0:0:0:0:
206,180,84000,2,0,P|239:169|274:168,1,69.9999978637696,8|0,0:0|0:0,0:0:0:0:
341,219,84300,6,0,B|378:219|405:191|405:191|430:224|461:226,1,139.999995727539,2|8,0:0|0:0,0:0:0:0:
476,143,84750,1,0,0:0:0:0:
407,94,84900,2,0,B|367:90|336:113|336:113|306:87|277:88,1,139.999995727539,2|8,0:0|0:0,0:0:0:0:
224,153,85350,1,0,0:0:0:0:
70,89,85500,5,2,0:0:0:0:
70,89,85650,1,0,0:0:0:0:
32,164,85800,2,0,L|32:233,1,69.9999978637696,8|0,0:0|0:0,0:0:0:0:
147,121,86100,1,2,0:0:0:0:
147,121,86250,1,0,0:0:0:0:
109,196,86400,2,0,L|109:265,1,69.9999978637696,8|0,0:0|0:0,0:0:0:0:
224,153,86700,5,2,0:0:0:0:
224,153,86850,1,0,0:0:0:0:
186,228,87000,2,0,L|186:297,1,69.9999978637696,8|0,0:0|0:0,0:0:0:0:
288,314,87300,2,0,B|301:282|276:248|276:248|301:226|301:185,1,139.999995727539,2|8,0:0|0:0,0:0:0:0:
224,153,87750,1,0,0:0:0:0:
327,106,87900,6,0,B|380:95|380:95|430:123|430:123|481:125,2,160,0|0|0,0:0|0:0|0:0,0:0:0:0:
186,228,89700,1,0,0:0:0:0:
186,228,90300,6,0,P|152:168|169:102,2,139.999995727539,2|2|2,0:0|0:0|0:0,0:0:0:0:
241,42,91500,2,0,P|181:8|115:25,2,139.999995727539,2|2|2,0:0|0:0|0:0,0:0:0:0:
319,234,92700,6,2,B|275:243|275:243|234:221|234:221|186:228,1,139.999995727539,2|2,0:0|0:0,0:0:0:0:
304,348,93300,2,0,P|337:356|370:346,1,69.9999978637696,2|0,0:0|0:0,0:0:0:0:
430,286,93600,2,0,P|438:252|429:219,1,69.9999978637696,2|0,0:0|0:0,0:0:0:0:
364,164,93900,6,0,L|503:169,2,139.999995727539,2|2|2,0:0|0:0|0:0,0:0:0:0:
72,330,95100,6,0,L|141:327,1,69.9999978637696,2|0,0:0|0:0,0:0:0:0:
104,252,95400,2,0,L|173:249,1,69.9999978637696,2|0,0:0|0:0,0:0:0:0:
134,174,95700,2,0,L|203:171,1,69.9999978637696,2|0,0:0|0:0,0:0:0:0:
452,131,96300,6,0,L|382:128,1,69.9999978637696,2|0,0:0|0:0,0:0:0:0:
414,206,96600,2,0,L|344:203,1,69.9999978637696,2|0,0:0|0:0,0:0:0:0:
376,281,96900,2,0,L|306:278,1,69.9999978637696,2|0,0:0|0:0,0:0:0:0:
151,343,97350,1,0,0:0:0:0:
151,343,97425,1,0,0:0:0:0:
151,343,97500,6,0,B|132:307|143:274|143:274|152:241|139:207,1,139.999995727539,2|2,0:0|0:0,0:0:0:0:
85,47,98100,2,0,P|118:38|152:45,1,69.9999978637696,2|0,0:0|0:0,0:0:0:0:
220,96,98400,2,0,P|254:104|288:95,1,69.9999978637696,2|0,0:0|0:0,0:0:0:0:
342,31,98700,6,0,B|319:76|319:76|333:164,1,139.999995727539,2|2,0:0|0:0,0:0:0:0:
395,312,99300,2,0,P|405:286|364:325,1,200,2|0,0:0|0:0,0:0:0:0:
275,301,101100,6,0,L|394:311,1,119.999996337891,6|2,0:0|0:0,0:0:0:0:
286,182,101700,2,0,L|166:192,1,119.999996337891,2|2,0:0|0:0,0:0:0:0:
245,43,102300,5,2,0:0:0:0:
245,42,102449,2,0,P|301:26|358:44,1,119.999996337891,0|0,0:0|0:0,0:0:0:0:
400,118,102900,2,0,L|389:237,1,119.999996337891,2|2,0:0|0:0,0:0:0:0:
258,342,103500,5,2,0:0:0:0:
258,342,103800,2,0,L|256:282,1,59.9999981689454,2|0,0:0|0:0,0:0:0:0:
215,208,104100,2,0,P|157:195|107:225,1,119.999996337891,2|2,0:0|0:0,0:0:0:0:
240,122,104700,6,0,P|297:134|347:104,2,119.999996337891,2|2|2,0:0|0:0|0:0,0:0:0:0:
84,57,105600,1,2,0:0:0:0:
84,57,105900,6,0,L|92:176,1,119.999996337891,6|2,0:0|0:0,0:0:0:0:
147,239,106350,1,0,0:0:0:0:
211,185,106500,2,0,P|268:172|318:202,1,119.999996337891,2|2,0:0|0:0,0:0:0:0:
436,322,107100,5,2,0:0:0:0:
436,322,107250,2,0,P|378:309|328:339,1,119.999996337891,0|0,0:0|0:0,0:0:0:0:
247,362,107700,2,0,L|127:351,1,119.999996337891,2|2,0:0|0:0,0:0:0:0:
26,217,108300,6,0,L|55:214,3,29.9999990844727,0|0|0|0,0:0|0:0|0:0|0:0,0:0:0:0:
91,235,108600,2,0,L|120:232,3,29.9999990844727,0|0|0|0,0:0|0:0|0:0|0:0,0:0:0:0:
156,253,108900,2,0,L|185:250,3,29.9999990844727,0|0|0|0,0:0|0:0|0:0|0:0,0:0:0:0:
221,271,109200,2,0,L|250:268,3,29.9999990844727,0|0|0|0,0:0|0:0|0:0|0:0,0:0:0:0:
286,289,109500,6,0,B|280:242|295:203|295:203|341:222|387:220|387:220|375:179|388:137|388:137|346:143|301:108,1,359.999989013672,0|0,0:0|0:0,0:0:0:0:
154,24,110700,6,0,L|144:163,1,139.999995727539,2|2,0:0|0:0,0:0:0:0:
92,230,111150,1,0,0:0:0:0:
153,287,111300,2,0,P|186:295|220:288,1,69.9999978637696,2|0,0:0|0:0,0:0:0:0:
280,229,111600,2,0,L|284:159,1,69.9999978637696,2|0,0:0|0:0,0:0:0:0:
354,111,111900,6,0,L|423:115,2,69.9999978637696,2|0|2,0:0|0:0|0:0,0:0:0:0:
284,159,112350,1,0,0:0:0:0:
212,115,112500,2,0,L|216:45,1,69.9999978637696,2|0,0:0|0:0,0:0:0:0:
135,67,112800,2,0,L|130:136,1,69.9999978637696,2|0,0:0|0:0,0:0:0:0:
55,231,113100,6,0,B|99:215|99:215|131:230|131:230|156:220|188:228,1,139.999995727539,2|2,0:0|0:0,0:0:0:0:
244,290,113550,1,0,0:0:0:0:
313,243,113700,2,0,P|319:208|309:175,1,69.9999978637696,2|0,0:0|0:0,0:0:0:0:
264,104,114000,2,0,L|333:99,1,69.9999978637696,2|0,0:0|0:0,0:0:0:0:
408,59,114300,6,0,L|477:63,2,69.9999978637696,2|0|2,0:0|0:0|0:0,0:0:0:0:
333,99,114750,1,0,0:0:0:0:
386,164,114900,2,0,L|381:233,2,69.9999978637696,2|0|2,0:0|0:0|0:0,0:0:0:0:
333,99,115350,1,0,0:0:0:0:
286,205,115500,6,0,P|225:234|162:209,1,139.999995727539,2|2,0:0|0:0,0:0:0:0:
141,126,115950,1,0,0:0:0:0:
214,82,116100,2,0,P|226:115|223:150,1,69.9999978637696,2|0,0:0|0:0,0:0:0:0:
162,209,116400,2,0,P|150:241|153:276,1,69.9999978637696,2|0,0:0|0:0,0:0:0:0:
220,328,116700,6,0,L|290:335,2,69.9999978637696,2|0|2,0:0|0:0|0:0,0:0:0:0:
153,276,117150,1,0,0:0:0:0:
86,328,117300,2,0,L|16:335,2,69.9999978637696,2|0|2,0:0|0:0|0:0,0:0:0:0:
153,276,117750,1,0,0:0:0:0:
42,227,117900,6,0,L|56:87,1,139.999995727539,2|2,0:0|0:0,0:0:0:0:
125,40,118350,1,0,0:0:0:0:
171,110,118500,2,0,L|241:117,1,69.9999978637696,2|0,0:0|0:0,0:0:0:0:
266,197,118800,2,0,L|196:204,1,69.9999978637696,2|0,0:0|0:0,0:0:0:0:
153,276,119100,5,2,0:0:0:0:
215,331,119250,1,8,0:0:0:0:
218,328,119325,1,8,0:0:0:0:
221,324,119400,2,0,P|250:318|279:321,1,59.9999981689454,8|8,0:0|0:0,0:0:0:0:
361,343,119700,2,0,P|354:313|357:284,1,59.9999981689454,8|8,0:0|0:0,0:0:0:0:
433,250,120000,2,0,P|440:279|437:309,1,59.9999981689454,8|8,0:0|0:0,0:0:0:0:
366,201,120300,6,0,B|356:164|368:108|368:108|343:130|328:129,1,139.999995727539,2|2,0:0|0:0,0:0:0:0:
262,76,120750,1,0,0:0:0:0:
218,147,120900,2,0,P|184:158|150:157,1,69.9999978637696,2|0,0:0|0:0,0:0:0:0:
120,236,121200,2,0,P|154:234|187:245,1,69.9999978637696,2|0,0:0|0:0,0:0:0:0:
245,305,121500,6,0,P|239:340|252:372,2,69.9999978637696,2|0|2,0:0|0:0|0:0,0:0:0:0:
313,255,121950,1,0,0:0:0:0:
364,323,122100,2,0,P|398:328|430:315,2,69.9999978637696,2|0|2,0:0|0:0|0:0,0:0:0:0:
313,255,122550,1,0,0:0:0:0:
431,227,122700,6,0,B|443:188|442:157|442:157|429:126|402:100,1,139.999995727539,2|2,0:0|0:0,0:0:0:0:
326,66,123150,1,0,0:0:0:0:
262,120,123300,2,0,L|192:125,1,69.9999978637696,2|0,0:0|0:0,0:0:0:0:
170,206,123600,2,0,L|100:211,1,69.9999978637696,2|0,0:0|0:0,0:0:0:0:
48,277,123900,6,0,L|53:346,2,69.9999978637696,2|0|2,0:0|0:0|0:0,0:0:0:0:
100,211,124350,1,0,0:0:0:0:
48,145,124500,2,0,L|53:75,2,69.9999978637696,2|0|2,0:0|0:0|0:0,0:0:0:0:
100,211,124950,1,0,0:0:0:0:
192,125,125100,6,0,L|331:114,1,139.999995727539,2|2,0:0|0:0,0:0:0:0:
392,171,125550,1,0,0:0:0:0:
359,247,125700,2,0,P|325:258|291:251,1,69.9999978637696,2|0,0:0|0:0,0:0:0:0:
219,206,126000,2,0,P|184:199|151:209,1,69.9999978637696,2|0,0:0|0:0,0:0:0:0:
78,251,126300,6,0,L|80:320,2,69.9999978637696,2|0|2,0:0|0:0|0:0,0:0:0:0:
18,192,126750,1,0,0:0:0:0:
78,133,126900,2,0,L|80:63,2,69.9999978637696,2|0|2,0:0|0:0|0:0,0:0:0:0:
18,192,127350,1,0,0:0:0:0:
151,209,127500,6,0,P|218:206|255:262,1,139.999995727539,2|2,0:0|0:0,0:0:0:0:
245,345,127950,1,0,0:0:0:0:
321,312,128100,2,0,L|390:313,1,69.9999978637696,2|0,0:0|0:0,0:0:0:0:
426,237,128400,2,0,L|357:236,1,69.9999978637696,2|0,0:0|0:0,0:0:0:0:
286,188,128700,5,2,0:0:0:0:
201,198,128850,1,0,0:0:0:0:
198,195,128925,1,0,0:0:0:0:
195,192,129000,2,0,L|166:190,3,29.9999990844727,0|0|0|0,0:0|0:0|0:0|0:0,0:0:0:0:
146,152,129300,2,0,P|153:123|153:93,1,59.9999981689454,8|8,0:0|0:0,0:0:0:0:
231,60,129600,2,0,P|231:90|237:120,1,59.9999981689454,8|8,0:0|0:0,0:0:0:0:
296,202,129900,6,0,L|284:351,1,150,6|0,0:0|0:0,0:0:0:0:
209,322,130500,2,0,P|161:337|115:321,1,100,8|0,0:0|0:0,0:0:0:0:
10,199,131100,6,0,L|2:298,2,100,2|0|8,0:0|0:0|0:0,0:0:0:0:
122,84,132000,2,0,P|146:89|171:92,1,50,0|0,0:0|0:0,0:0:0:0:
236,45,132300,6,0,P|203:111|230:178,1,150,2|0,0:0|0:0,0:0:0:0:
299,220,132900,2,0,P|348:216|398:218,1,100,8|0,0:0|0:0,0:0:0:0:
298,342,133500,6,0,P|248:343|198:340,2,100,2|0|8,0:0|0:0|0:0,0:0:0:0:
374,317,134250,2,0,L|398:320,4,25,0|0|0|0|0,0:0|0:0|0:0|0:0|0:0,0:0:0:0:
392,238,134700,6,0,B|407:202|391:166|391:166|375:133|387:91,1,150,2|0,0:0|0:0,0:0:0:0:
456,52,135300,2,0,P|421:19|372:14,1,100,8|0,0:0|0:0,0:0:0:0:
228,85,135900,2,0,L|129:70,2,100,2|0|8,0:0|0:0|0:0,0:0:0:0:
341,198,136800,2,0,L|291:205,1,50,0|0,0:0|0:0,0:0:0:0:
225,251,137100,6,0,B|187:248|166:231|166:231|151:245|133:248,1,100,2|0,0:0|0:0,0:0:0:0:
77,192,137550,1,0,0:0:0:0:
133,135,137700,2,0,B|151:138|166:152|166:152|187:135|225:133,1,100,8|0,0:0|0:0,0:0:0:0:
294,172,138150,1,0,0:0:0:0:
362,128,138300,6,0,P|365:104|359:80,1,50,2|0,0:0|0:0,0:0:0:0:
306,20,138600,2,0,P|353:32|400:15,2,100,0|8|0,0:0|0:0|0:0,0:0:0:0:
169,118,139500,6,0,P|195:162|187:213,1,104.999996795654,2|0,0:0|0:0,0:0:0:0:
175,231,139800,2,0,L|179:300,1,69.9999978637696,8|0,0:0|0:0,0:0:0:0:
262,260,140100,2,0,L|258:330,1,69.9999978637696,2|0,0:0|0:0,0:0:0:0:
341,290,140400,2,0,L|346:360,1,69.9999978637696,8|0,0:0|0:0,0:0:0:0:
424,285,140700,6,0,P|393:224|328:206,2,139.999995727539,2|8|0,0:0|0:0|0:0,0:0:0:0:
341,290,141450,1,0,0:0:0:0:
262,260,141600,1,8,0:0:0:0:
341,111,141900,6,0,P|288:113|236:117,1,104.999996795654,2|0,0:0|0:0,0:0:0:0:
218,128,142200,2,0,L|148:128,1,69.9999978637696,8|0,0:0|0:0,0:0:0:0:
194,208,142500,2,0,L|125:209,1,69.9999978637696,2|0,0:0|0:0,0:0:0:0:
170,288,142800,2,0,L|100:288,1,69.9999978637696,8|0,0:0|0:0,0:0:0:0:
145,367,143100,6,0,B|186:379|218:355|218:355|241:367|279:358,2,139.999995727539,2|8|2,0:0|0:0|0:0,0:0:0:0:
170,288,143850,1,8,0:0:0:0:
252,270,144000,1,8,0:0:0:0:
85,249,144300,5,2,0:0:0:0:
71,41,144900,5,2,0:0:0:0:
279,28,145500,5,2,0:0:0:0:
293,235,146100,5,2,0:0:0:0:
84,248,146700,6,0,P|55:198|75:144,1,119.999996337891,0|0,0:0|0:0,0:0:0:0:
147,100,147150,2,0,L|266:103,1,119.999996337891,0|0,0:0|0:0,0:0:0:0:
350,106,147600,1,0,0:0:0:0:
286,261,147900,6,0,L|166:264,1,119.999996337891,0|0,0:0|0:0,0:0:0:0:
84,248,148350,2,0,P|113:298|93:352,1,119.999996337891,0|0,0:0|0:0,0:0:0:0:
176,376,148800,2,0,L|235:374,1,59.9999981689454,0|0,0:0|0:0,0:0:0:0:
370,354,149100,6,0,B|385:331|374:308|374:308|349:315|326:304|326:304|306:313|274:303,1,150,6|0,0:0|0:0,0:0:0:0:
235,233,149700,1,2,0:0:0:0:
176,376,150000,1,2,0:0:0:0:
88,241,150300,6,0,B|115:233|115:233|141:237|141:237|162:231|162:231|185:235|185:235|209:230|209:230|235:233,1,150,2|2,0:0|0:0,0:0:0:0:
305,270,150900,1,2,0:0:0:0:
380,128,151200,1,8,0:0:0:0:
224,92,151500,6,0,B|231:121|217:148|217:148|237:176|237:176|226:201|234:232,1,150,2|2,0:0|0:0,0:0:0:0:
266,306,152100,1,2,0:0:0:0:
366,181,152400,1,8,0:0:0:0:
266,306,152700,5,2,0:0:0:0:
425,323,153000,2,0,L|457:331,2,33.3333333333333,0|0|0,0:0|0:0|0:0,0:0:0:0:
424,276,153300,2,0,L|456:284,2,33.3333333333333,0|0|0,0:0|0:0|0:0,0:0:0:0:
423,229,153600,2,0,L|455:237,2,33.3333333333333,8|0|0,0:0|0:0|0:0,0:0:0:0:
376,255,153900,6,0,B|383:223|377:200|377:200|327:221|285:200,1,150,2|2,0:0|0:0,0:0:0:0:
225,146,154500,1,2,0:0:0:0:
107,255,154800,1,8,0:0:0:0:
225,362,155100,6,0,B|186:371|160:344|160:344|131:366|84:359,1,150,2|2,0:0|0:0,0:0:0:0:
22,308,155700,1,2,0:0:0:0:
151,214,156000,1,8,0:0:0:0:
110,59,156300,6,0,B|159:49|159:49|203:75|203:75|250:63,1,150,2|2,0:0|0:0,0:0:0:0:
319,21,156900,1,2,0:0:0:0:
310,180,157200,1,0,0:0:0:0:
319,21,157500,5,0,0:0:0:0:
356,176,157800,2,0,L|366:207,2,33.3333333333333,0|0|0,0:0|0:0|0:0,0:0:0:0:
310,180,158100,2,0,L|320:211,2,33.3333333333333,2|0|0,0:0|0:0|0:0,0:0:0:0:
263,183,158400,2,0,L|273:214,2,33.3333333333333,8|0|0,0:0|0:0|0:0,0:0:0:0:
283,140,158700,5,2,0:0:0:0:
80,224,159900,5,8,0:0:0:0:
80,224,160200,1,8,0:0:0:0:
80,224,160500,2,0,L|114:219,3,34.9999989318848,0|0|0|0,0:0|0:0|0:0|0:0,0:0:0:0:
144,190,160800,2,0,L|178:185,3,34.9999989318848,0|0|0|0,0:0|0:0|0:0|0:0,0:0:0:0:
208,156,161100,6,0,L|210:272,1,104.999996795654,2|0,0:0|0:0,0:0:0:0:
212,302,161400,1,2,0:0:0:0:
324,76,162300,6,0,L|326:192,1,104.999996795654,2|0,0:0|0:0,0:0:0:0:
328,222,162600,1,2,0:0:0:0:
149,104,163500,5,0,0:0:0:0:
209,260,163800,2,0,P|164:236|114:246,1,104.999996795654,2|0,0:0|0:0,0:0:0:0:
81,273,164100,1,0,0:0:0:0:
223,363,164400,2,0,P|275:357|327:356,1,104.999996795654,2|0,0:0|0:0,0:0:0:0:
370,360,164700,6,0,P|362:326|364:291,1,69.9999978637696,2|0,0:0|0:0,0:0:0:0:
423,231,165000,2,0,P|425:196|417:162,1,69.9999978637696,2|0,0:0|0:0,0:0:0:0:
350,111,165300,1,2,0:0:0:0:
318,33,165450,1,0,0:0:0:0:
396,1,165600,1,2,0:0:0:0:
428,79,165750,1,0,0:0:0:0:
349,111,165900,6,0,P|282:109|238:57,2,139.999995727539,2|8|2,0:0|0:0|0:0,0:0:0:0:
428,79,166650,1,0,0:0:0:0:
415,162,166800,2,0,L|419:231,1,69.9999978637696,8|0,0:0|0:0,0:0:0:0:
360,292,167100,6,0,L|499:282,2,139.999995727539,2|8|2,0:0|0:0|0:0,0:0:0:0:
290,244,167850,1,0,0:0:0:0:
230,303,168000,2,0,L|160:298,1,69.9999978637696,8|0,0:0|0:0,0:0:0:0:
95,244,168300,6,0,P|120:307|90:368,2,139.999995727539,2|8|2,0:0|0:0|0:0,0:0:0:0:
34,185,169050,1,0,0:0:0:0:
100,133,169200,2,0,B|133:123|133:123|167:132,1,69.9999978637696,8|0,0:0|0:0,0:0:0:0:
242,171,169500,6,0,P|294:169|346:165,1,104.999996795654,2|0,0:0|0:0,0:0:0:0:
387,152,169800,2,0,L|383:186,3,34.9999989318848,8|0|0|0,0:0|0:0|0:0|0:0,0:0:0:0:
412,217,170100,2,0,L|408:251,3,34.9999989318848,2|0|0|0,0:0|0:0|0:0|0:0,0:0:0:0:
437,282,170400,2,0,L|433:316,3,34.9999989318848,8|0|0|0,0:0|0:0|0:0|0:0,0:0:0:0:
462,347,170700,5,2,0:0:0:0:
462,347,170850,1,0,0:0:0:0:
381,369,171000,2,0,L|311:363,1,69.9999978637696,8|0,0:0|0:0,0:0:0:0:
352,269,171300,1,2,0:0:0:0:
352,269,171450,1,0,0:0:0:0:
271,291,171600,2,0,L|201:285,1,69.9999978637696,8|0,0:0|0:0,0:0:0:0:
242,191,171900,5,2,0:0:0:0:
242,191,172050,1,0,0:0:0:0:
161,213,172200,2,0,L|91:207,1,69.9999978637696,8|0,0:0|0:0,0:0:0:0:
183,131,172500,2,0,P|246:107|306:138,1,139.999995727539,2|8,0:0|0:0,0:0:0:0:
242,191,172949,1,0,0:0:0:0:
161,213,173100,6,0,L|56:204,1,104.999996795654,2|0,0:0|0:0,0:0:0:0:
36,209,173400,2,0,L|41:278,1,69.9999978637696,8|0,0:0|0:0,0:0:0:0:
62,360,173700,2,0,L|131:365,1,69.9999978637696,2|0,0:0|0:0,0:0:0:0:
188,303,174000,2,0,L|257:297,1,69.9999978637696,8|0,0:0|0:0,0:0:0:0:
342,302,174300,54,0,B|357:264|398:264|398:264|466:264,1,139.999995727539,2|8,0:0|0:0,0:0:0:0:
509,192,174750,1,0,0:0:0:0:
466,120,174900,2,0,B|398:120|398:120|357:120|342:82,1,139.999995727539,2|8,0:0|0:0,0:0:0:0:
284,21,175350,1,0,0:0:0:0:
204,47,175500,5,2,0:0:0:0:
204,47,175650,1,0,0:0:0:0:
226,128,175800,2,0,L|220:197,1,69.9999978637696,8|0,0:0|0:0,0:0:0:0:
137,302,176100,1,2,0:0:0:0:
137,302,176250,1,0,0:0:0:0:
218,280,176400,2,0,L|287:285,1,69.9999978637696,8|0,0:0|0:0,0:0:0:0:
419,350,176700,5,2,0:0:0:0:
419,350,176850,1,0,0:0:0:0:
338,372,177000,2,0,L|268:366,1,69.9999978637696,8|0,0:0|0:0,0:0:0:0:
357,291,177300,2,0,L|217:279,1,139.999995727539,2|8,0:0|0:0,0:0:0:0:
137,302,177750,1,0,0:0:0:0:
69,173,177900,6,0,B|30:225|30:225|53:318,2,160,0|0|0,0:0|0:0|0:0,0:0:0:0:
220,61,179700,1,0,0:0:0:0:
261,314,180300,1,0,0:0:0:0:
256,192,180375,12,0,183900,0:0:0:0:
26,239,185100,6,0,P|69:216|116:229,1,100,2|0,0:0|0:0,0:0:0:0:
181,277,185550,1,0,0:0:0:0:
240,223,185700,2,0,L|235:123,1,100,2|4,0:0|0:0,0:0:0:0:
381,187,186300,6,0,L|376:286,2,100,2|0|2,0:0|0:0|0:0,0:0:0:0:
235,123,187200,2,0,L|237:172,1,50,2|0,0:0|0:0,0:0:0:0:
161,197,187500,6,0,P|139:153|156:107,1,100,2|2,0:0|0:0,0:0:0:0:
235,123,187950,1,0,0:0:0:0:
300,80,188100,2,0,L|399:75,1,100,2|2,0:0|0:0,0:0:0:0:
292,193,188700,5,2,0:0:0:0:
155,275,189000,2,0,L|122:279,2,33.3333333333333,0|0|0,0:0|0:0|0:0,0:0:0:0:
139,231,189300,2,0,L|106:235,2,33.3333333333333,0|0|0,0:0|0:0|0:0,0:0:0:0:
123,187,189600,2,0,L|90:191,2,33.3333333333333,0|0|0,0:0|0:0|0:0,0:0:0:0:
166,156,189900,6,0,P|176:108|152:65,1,100,2|2,0:0|0:0,0:0:0:0:
216,17,190350,1,0,0:0:0:0:
276,69,190500,2,0,L|375:67,1,100,2|6,0:0|0:0,0:0:0:0:
269,186,191100,6,0,L|169:187,2,100,0|0|2,0:0|0:0|0:0,0:0:0:0:
427,208,192000,2,0,P|421:183|419:158,1,50,2|0,0:0|0:0,0:0:0:0:
493,125,192300,6,0,P|459:88|411:78,1,100,2|2,0:0|0:0,0:0:0:0:
346,125,192750,1,0,0:0:0:0:
339,206,192900,2,0,P|387:195|419:158,1,100,2|2,0:0|0:0,0:0:0:0:
412,78,193350,1,0,0:0:0:0:
339,45,193500,5,2,0:0:0:0:
215,146,193800,2,0,L|182:141,2,33.3333333333333,0|0|0,0:0|0:0|0:0,0:0:0:0:
199,190,194100,2,0,L|166:185,2,33.3333333333333,0|0|0,0:0|0:0|0:0,0:0:0:0:
183,234,194400,2,0,L|150:229,2,33.3333333333333,0|0|0,0:0|0:0|0:0,0:0:0:0:
230,226,194700,5,2,0:0:0:0:
132,178,200700,5,8,0:0:0:0:
132,178,201000,1,8,0:0:0:0:
132,178,201300,2,0,L|166:174,3,34.9999989318848,0|0|0|0,0:0|0:0|0:0|0:0,0:0:0:0:
202,196,201600,2,0,L|236:192,3,34.9999989318848,0|0|0|0,0:0|0:0|0:0|0:0,0:0:0:0:
272,214,201900,6,0,P|263:162|269:110,1,104.999996795654,2|0,0:0|0:0,0:0:0:0:
277,68,202200,1,2,0:0:0:0:
373,304,203100,6,0,P|321:312|269:306,1,104.999996795654,2|0,0:0|0:0,0:0:0:0:
226,299,203400,1,2,0:0:0:0:
130,88,204300,5,0,0:0:0:0:
45,232,204600,2,0,P|86:203|137:210,1,104.999996795654,2|0,0:0|0:0,0:0:0:0:
171,235,204900,1,0,0:0:0:0:
287,114,205200,2,0,B|263:158|263:158|278:210,1,104.999996795654,2|0,0:0|0:0,0:0:0:0:
314,233,205500,6,0,L|383:233,1,69.9999978637696,2|0,0:0|0:0,0:0:0:0:
365,316,205800,2,0,L|295:315,1,69.9999978637696,2|0,0:0|0:0,0:0:0:0:
222,275,206100,1,2,0:0:0:0:
150,318,206250,1,0,0:0:0:0:
149,235,206400,1,2,0:0:0:0:
222,275,206550,1,0,0:0:0:0:
150,318,206700,6,0,B|79:330|79:330|25:287,2,139.999995727539,2|8|2,0:0|0:0|0:0,0:0:0:0:
222,275,207450,1,0,0:0:0:0:
295,315,207600,2,0,L|365:316,1,69.9999978637696,8|0,0:0|0:0,0:0:0:0:
427,259,207900,6,0,P|448:323|415:382,2,139.999995727539,2|8|2,0:0|0:0|0:0,0:0:0:0:
370,197,208650,1,0,0:0:0:0:
313,135,208800,2,0,L|243:139,1,69.9999978637696,8|0,0:0|0:0,0:0:0:0:
185,77,209100,6,0,B|217:133|217:133|189:203,2,139.999995727539,2|8|2,0:0|0:0|0:0,0:0:0:0:
101,64,209850,1,0,0:0:0:0:
43,124,210000,2,0,L|47:193,1,69.9999978637696,8|0,0:0|0:0,0:0:0:0:
114,244,210300,6,0,P|165:234|217:230,1,104.999996795654,2|0,0:0|0:0,0:0:0:0:
255,251,210600,2,0,L|289:250,3,34.9999989318848,8|0|0|0,0:0|0:0|0:0|0:0,0:0:0:0:
325,270,210900,2,0,L|359:269,3,34.9999989318848,2|0|0|0,0:0|0:0|0:0|0:0,0:0:0:0:
395,289,211200,2,0,L|429:288,3,34.9999989318848,8|0|0|0,0:0|0:0|0:0|0:0,0:0:0:0:
465,308,211500,5,2,0:0:0:0:
465,308,211650,1,0,0:0:0:0:
504,234,211800,2,0,P|504:199|488:168,1,69.9999978637696,8|0,0:0|0:0,0:0:0:0:
359,269,212100,1,2,0:0:0:0:
359,269,212250,1,0,0:0:0:0:
356,184,212400,2,0,P|338:154|308:135,1,69.9999978637696,8|0,0:0|0:0,0:0:0:0:
247,288,212700,5,2,0:0:0:0:
247,288,212850,1,0,0:0:0:0:
202,216,213000,2,0,P|171:198|137:197,1,69.9999978637696,8|0,0:0|0:0,0:0:0:0:
124,328,213300,6,0,B|203:331|203:331|247:288,1,139.999995727539,2|8,0:0|0:0,0:0:0:0:
202,216,213750,1,0,0:0:0:0:
241,139,213900,6,0,P|290:125|338:144,1,104.999996795654,2|0,0:0|0:0,0:0:0:0:
372,169,214200,2,0,P|369:134|371:99,1,69.9999978637696,8|0,0:0|0:0,0:0:0:0:
450,128,214500,2,0,P|452:162|450:197,1,69.9999978637696,2|0,0:0|0:0,0:0:0:0:
407,269,214800,2,0,P|405:303|407:338,1,69.9999978637696,8|0,0:0|0:0,0:0:0:0:
324,348,215100,6,0,B|301:316|297:282|297:282|261:305|232:297,1,139.999995727539,2|8,0:0|0:0,0:0:0:0:
160,254,215550,1,0,0:0:0:0:
110,185,215700,2,0,B|162:155|208:186|208:186|182:154|189:157,1,139.999995727539,2|8,0:0|0:0,0:0:0:0:
222,80,216150,1,0,0:0:0:0:
306,85,216300,5,2,0:0:0:0:
306,85,216450,1,0,0:0:0:0:
376,128,216600,2,0,P|393:158|394:192,1,69.9999978637696,8|0,0:0|0:0,0:0:0:0:
233,171,216900,1,2,0:0:0:0:
233,171,217050,1,0,0:0:0:0:
273,246,217200,2,0,P|272:280|256:311,1,69.9999978637696,8|0,0:0|0:0,0:0:0:0:
127,211,217500,5,2,0:0:0:0:
127,211,217650,1,0,0:0:0:0:
124,296,217800,2,0,P|106:325|76:344,1,69.9999978637696,8|0,0:0|0:0,0:0:0:0:
0,237,218100,6,0,B|66:195|66:195|126:210,1,139.999995727539,2|8,0:0|0:0,0:0:0:0:
124,296,218550,1,0,0:0:0:0:
237,348,218700,6,0,B|249:309|225:265|225:265|259:275|297:262,2,160,2|0|0,0:0|0:0|0:0,0:0:0:0:
326,156,220500,1,0,0:0:0:0:
326,156,221100,6,0,P|360:216|343:282,2,139.999995727539,2|2|2,0:0|0:0|0:0,0:0:0:0:
271,342,222300,2,0,P|331:376|397:359,2,139.999995727539,2|2|2,0:0|0:0|0:0,0:0:0:0:
193,150,223500,6,2,B|237:141|237:141|278:163|278:163|326:156,1,139.999995727539,2|2,0:0|0:0,0:0:0:0:
208,36,224100,2,0,P|175:28|142:38,1,69.9999978637696,2|0,0:0|0:0,0:0:0:0:
82,98,224400,2,0,P|74:132|83:165,1,69.9999978637696,2|0,0:0|0:0,0:0:0:0:
148,220,224700,6,0,L|9:215,2,139.999995727539,2|2|2,0:0|0:0|0:0,0:0:0:0:
440,54,225900,6,0,L|371:57,1,69.9999978637696,2|0,0:0|0:0,0:0:0:0:
408,132,226200,2,0,L|339:135,1,69.9999978637696,2|0,0:0|0:0,0:0:0:0:
378,210,226500,2,0,L|309:213,1,69.9999978637696,2|0,0:0|0:0,0:0:0:0:
60,253,227100,6,0,L|130:256,1,69.9999978637696,2|0,0:0|0:0,0:0:0:0:
98,178,227400,2,0,L|168:181,1,69.9999978637696,2|0,0:0|0:0,0:0:0:0:
136,103,227700,2,0,L|206:106,1,69.9999978637696,2|0,0:0|0:0,0:0:0:0:
361,41,228150,1,0,0:0:0:0:
361,41,228225,1,0,0:0:0:0:
361,41,228300,6,0,B|380:77|369:110|369:110|360:143|373:177,1,139.999995727539,2|2,0:0|0:0,0:0:0:0:
427,337,228900,2,0,P|394:346|360:339,1,69.9999978637696,2|0,0:0|0:0,0:0:0:0:
292,288,229200,2,0,P|258:280|224:289,1,69.9999978637696,2|0,0:0|0:0,0:0:0:0:
170,353,229500,6,0,B|193:308|193:308|179:220,1,139.999995727539,2|2,0:0|0:0,0:0:0:0:
149,53,230100,2,0,P|173:129|203:55,1,209.999993591309,2|0,0:0|0:0,0:0:0:0:
119,44,230700,6,0,P|108:80|115:116,1,75.0000028610231,2|6,0:0|0:0,0:0:0:0:
256,192,231075,12,0,235500,0:0:0:0:
