osu file format v14

[General]
AudioFilename: audio.mp3
AudioLeadIn: 0
PreviewTime: 70500
Countdown: 0
SampleSet: Soft
StackLeniency: 0.2
Mode: 0
LetterboxInBreaks: 0
WidescreenStoryboard: 1

[Editor]
Bookmarks: 2284,15859,30259,49459,71059,90259,110659,129859,149059,170659,197059,197134,197209,197284,197359,197434,197509,197584,197659,197734,197809,197884,197959,198034,198109,198184,198259,198334,198409,198484,198559,198634,198709,198784,198859,198934,199009,199084,199159,199234,199309,199384,199459,199534,199609,199684,199759,199834,199909,199984,200059,200134,200209,200284,200359,200434,200509,200584,200659,221059,239059
DistanceSpacing: 1
BeatDivisor: 6
GridSize: 32
TimelineZoom: 2.200001

[Metadata]
Title:Mazare Party
TitleUnicode:Mazare Party
Artist:MAZARE
ArtistUnicode:MAZARE
Creator:IntellectualBoy
Version:Lukas' Insane
Source:
Tags:toybot walaowey Neoskylove [ L u k a s ] oriental trap jcore utaite Nanahira Kradness Yukacco ななひら Camellia MIND HACK EXIT TUNES
BeatmapID:1416924
BeatmapSetID:667868

[Difficulty]
HPDrainRate:6
CircleSize:4
OverallDifficulty:8
ApproachRate:9
SliderMultiplier:1.5
SliderTickRate:1

[Events]
//Background and Video events
0,0,"Mazare.jpg",0,0
//Break Periods
2,183500,196500
//Storyboard Layer 0 (Background)
//Storyboard Layer 1 (Fail)
//Storyboard Layer 2 (Pass)
//Storyboard Layer 3 (Foreground)
//Storyboard Sound Samples

[TimingPoints]
300,300,4,2,4,50,1,0
5100,-151.515151515152,4,2,12,50,0,0
5325,-151.515151515152,4,2,12,5,0,0
5400,-151.515151515152,4,2,12,50,0,0
5625,-151.515151515152,4,2,12,5,0,0
5700,-100,4,1,1,50,0,0
6300,-100,4,2,4,50,0,0
6900,-100,4,2,1,50,0,0
7500,-100,4,2,4,50,0,0
8700,-125,4,2,4,50,0,0
8925,-125,4,2,4,5,0,0
9000,-125,4,2,4,50,0,0
9225,-125,4,2,4,5,0,0
9300,-111.111111111111,4,2,4,50,0,0
9525,-111.111111111111,4,2,4,5,0,0
9600,-111.111111111111,4,2,4,50,0,0
9825,-111.111111111111,4,2,4,5,0,0
9900,-100,4,2,4,50,0,0
11100,-100,4,2,12,50,0,0
12300,-100,4,2,1,30,0,0
12600,-100,4,2,1,40,0,0
12900,-100,4,2,1,50,0,0
13200,-151.515151515152,4,2,1,60,0,0
13500,-100,4,2,9,50,0,0
14400,-66.6666666666667,4,2,9,50,0,0
14700,-200,4,2,9,50,0,0
15900,-100,4,2,4,60,0,0
16125,-100,4,2,4,5,0,0
16200,-100,4,2,4,60,0,0
16425,-100,4,2,4,5,0,0
16500,-100,4,2,4,60,0,0
17325,-100,4,2,4,5,0,0
17400,-100,4,2,4,60,0,0
17625,-100,4,2,4,5,0,0
17700,-100,4,2,4,60,0,0
18525,-100,4,2,4,5,0,0
18600,-100,4,2,4,60,0,0
18825,-100,4,2,4,5,0,0
18900,-100,4,2,4,60,0,0
19725,-100,4,2,4,5,0,0
19800,-100,4,2,4,60,0,0
20025,-100,4,2,4,5,0,0
20100,-100,4,2,4,60,0,0
20925,-100,4,2,4,5,0,0
21000,-100,4,2,4,60,0,0
22125,-100,4,2,4,5,0,0
22200,-100,4,2,4,60,0,0
22425,-100,4,2,4,5,0,0
22500,-100,4,2,4,60,0,0
23325,-100,4,2,4,5,0,0
23400,-100,4,2,4,60,0,0
23625,-100,4,2,4,5,0,0
23700,-100,4,2,4,60,0,0
25200,-100,4,2,9,30,0,0
25500,-125,4,2,9,30,0,0
26700,-111.111111111111,4,1,1,30,0,0
27000,-111.111111111111,4,1,1,35,0,0
27300,-111.111111111111,4,1,1,40,0,0
27600,-111.111111111111,4,1,1,45,0,0
27900,-100,4,1,1,50,0,0
28500,-100,4,1,1,50,0,0
29100,-100,4,2,1,50,0,0
29250,-100,4,2,1,50,0,0
30300,-100,4,2,15,70,0,0
38850,-100,4,3,1,70,0,0
38925,-133.333333333333,4,3,1,70,0,0
39300,-133.333333333333,4,3,14,50,0,0
39900,-111.111111111111,4,2,15,65,0,0
40125,-111.111111111111,4,2,15,5,0,0
40200,-111.111111111111,4,2,15,65,0,0
42225,-111.111111111111,4,2,15,5,0,0
42300,-111.111111111111,4,2,15,65,0,0
43725,-111.111111111111,4,2,15,5,0,0
43800,-111.111111111111,4,2,15,65,0,0
44025,-111.111111111111,4,2,15,5,0,0
44100,-111.111111111111,4,2,15,65,0,0
46125,-111.111111111111,4,2,15,5,0,0
46200,-111.111111111111,4,2,15,65,0,0
46425,-111.111111111111,4,2,15,5,0,0
46500,-111.111111111111,4,2,15,65,0,0
46725,-111.111111111111,4,2,15,5,0,0
46800,-111.111111111111,4,2,15,65,0,0
48300,-111.111111111111,4,2,15,65,0,0
48825,-111.111111111111,4,2,15,5,0,0
48900,-111.111111111111,4,2,15,65,0,0
49500,-111.111111111111,4,2,9,65,0,0
49725,-111.111111111111,4,2,15,5,0,0
49800,-111.111111111111,4,2,15,65,0,0
50925,-111.111111111111,4,2,15,5,0,0
51000,-111.111111111111,4,2,15,65,0,0
51225,-111.111111111111,4,2,15,5,0,0
51300,-111.111111111111,4,2,15,65,0,0
52125,-111.111111111111,4,2,15,5,0,0
52200,-111.111111111111,4,2,15,65,0,0
53325,-111.111111111111,4,2,15,5,0,0
53400,-111.111111111111,4,2,15,65,0,0
53625,-111.111111111111,4,2,15,5,0,0
53700,-111.111111111111,4,2,15,65,0,0
54300,-111.111111111111,4,3,1,65,0,0
56700,-200,4,1,1,50,0,0
59100,-133.333333333333,4,2,9,50,0,0
59400,-133.333333333333,4,2,15,50,0,0
60000,-133.333333333333,4,2,77,65,0,0
60225,-133.333333333333,4,2,77,5,0,0
60300,-133.333333333333,4,2,15,50,0,0
61200,-133.333333333333,4,2,33,50,0,0
61725,-133.333333333333,4,2,33,5,0,0
61800,-133.333333333333,4,2,33,50,0,0
62625,-133.333333333333,4,2,33,5,0,0
62700,-133.333333333333,4,2,33,50,0,0
63000,-133.333333333333,4,2,1,65,0,0
63900,-133.333333333333,4,2,33,50,0,0
64725,-133.333333333333,4,2,33,5,0,0
64800,-133.333333333333,4,2,33,50,0,0
65025,-133.333333333333,4,2,33,5,0,0
65100,-133.333333333333,4,2,33,50,0,0
66525,-133.333333333333,4,2,33,5,0,0
66600,-133.333333333333,4,2,33,50,0,0
67125,-133.333333333333,4,2,33,5,0,0
67200,-133.333333333333,4,2,33,50,0,0
67800,-133.333333333333,4,2,1,40,0,0
68700,-133.333333333333,4,2,33,50,0,0
69300,-133.333333333333,4,2,33,50,0,0
69900,-151.515151515152,4,2,12,60,0,0
70125,-151.515151515152,4,2,12,5,0,0
70200,-151.515151515152,4,2,12,60,0,0
70425,-151.515151515152,4,2,12,5,0,0
70500,-151.515151515152,4,1,1,60,0,0
71100,-100,4,2,4,60,0,0
71400,-100,4,1,0,60,0,0
71550,-100,4,2,4,60,0,0
71700,-100,4,2,4,60,0,0
72600,-100,4,1,0,60,0,0
72750,-100,4,2,4,60,0,0
73500,-125,4,2,4,60,0,0
73725,-125,4,2,4,5,0,0
73800,-125,4,2,4,60,0,0
74025,-125,4,2,4,5,0,0
74100,-111.111111111111,4,2,4,60,0,0
74325,-111.111111111111,4,2,4,5,0,0
74400,-111.111111111111,4,2,4,60,0,0
74625,-111.111111111111,4,2,4,5,0,0
74700,-100,4,1,0,60,0,0
75900,-100,4,1,15,70,0,1
76725,-100,4,2,15,5,0,1
76800,-100,4,1,15,70,0,1
80025,-100,4,2,15,5,0,1
80100,-100,4,1,15,70,0,1
80925,-100,4,2,15,5,0,1
81000,-100,4,1,15,70,0,1
81225,-100,4,2,15,5,0,1
81300,-100,4,1,15,70,0,1
81825,-100,4,2,15,5,0,1
81900,-100,4,1,15,70,0,1
82125,-100,4,2,15,5,0,1
82200,-100,4,1,15,70,0,1
83925,-100,4,2,15,5,0,1
84000,-100,4,1,15,70,0,1
84225,-100,4,2,15,5,0,1
84300,-100,4,1,15,70,0,1
87900,-100,4,1,1,50,0,0
88125,-100,4,1,1,50,0,0
88200,-100,4,2,15,50,0,0
88425,-100,4,2,15,50,0,0
88500,-100,4,2,15,50,0,0
88725,-100,4,2,15,50,0,0
88800,-100,4,2,15,50,0,0
89025,-100,4,2,15,50,0,0
89100,-133.333333333333,4,2,15,50,0,0
89325,-133.333333333333,4,2,15,50,0,0
89400,-133.333333333333,4,2,15,50,0,0
89700,-151.515151515152,4,2,15,50,0,0
89925,-151.515151515152,4,2,15,50,0,0
90000,-151.515151515152,4,2,15,50,0,0
90225,-151.515151515152,4,2,15,5,0,0
90300,-100,4,2,4,60,0,0
90525,-100,4,2,4,5,0,0
90600,-100,4,2,4,60,0,0
90825,-100,4,2,4,5,0,0
90900,-100,4,2,4,60,0,0
91725,-100,4,2,4,5,0,0
91800,-100,4,2,4,60,0,0
92025,-100,4,2,4,5,0,0
92100,-100,4,2,4,60,0,0
92925,-100,4,2,4,5,0,0
93000,-100,4,2,4,60,0,0
93225,-100,4,2,4,5,0,0
93300,-100,4,2,4,60,0,0
94125,-100,4,2,4,5,0,0
94200,-100,4,2,4,60,0,0
94425,-100,4,2,4,5,0,0
94500,-100,4,2,4,60,0,0
95325,-100,4,2,4,5,0,0
95400,-100,4,2,4,60,0,0
95625,-100,4,2,4,5,0,0
95700,-100,4,2,4,60,0,0
96525,-100,4,2,4,5,0,0
96600,-100,4,2,4,60,0,0
96825,-100,4,2,4,5,0,0
96900,-100,4,2,4,60,0,0
97725,-100,4,2,4,5,0,0
97800,-100,4,2,4,60,0,0
98025,-100,4,2,4,5,0,0
98100,-100,4,2,4,60,0,0
100800,-100,4,2,15,30,0,0
101100,-111.111111111111,4,2,9,30,0,0
101400,-111.111111111111,4,2,15,30,0,0
103500,-111.111111111111,4,2,15,40,0,0
104100,-111.111111111111,4,2,15,50,0,0
104700,-111.111111111111,4,2,15,60,0,0
105600,-111.111111111111,4,2,15,60,0,0
105900,-90.9090909090909,4,1,15,65,0,0
108300,-90.9090909090909,4,1,15,65,0,0
109200,-90.9090909090909,4,1,15,65,0,0
109500,-133.333333333333,4,1,15,65,0,0
109650,-133.333333333333,4,2,15,50,0,0
110400,-80,4,2,15,50,0,0
110700,-100,4,1,15,70,0,1
118200,-80,4,1,15,70,0,1
119100,-100,4,3,1,70,0,0
120300,-100,4,1,15,70,0,1
120525,-100,4,2,15,5,0,1
120600,-100,4,1,15,70,0,1
124125,-100,4,1,15,5,0,1
124200,-100,4,1,15,70,0,1
127800,-80,4,1,15,70,0,1
128700,-80,4,1,15,70,0,0
128850,-80,4,3,1,70,0,0
129300,-80,4,3,14,70,0,0
129900,-111.111111111111,4,2,17,50,0,0
130125,-111.111111111111,4,2,17,5,0,0
130200,-111.111111111111,4,2,17,50,0,0
130425,-111.111111111111,4,2,17,5,0,0
130500,-111.111111111111,4,2,17,50,0,0
130875,-111.111111111111,4,2,17,5,0,0
130950,-111.111111111111,4,2,17,50,0,0
131325,-111.111111111111,4,2,17,5,0,0
131400,-111.111111111111,4,2,17,50,0,0
132075,-111.111111111111,4,2,17,5,0,0
132150,-111.111111111111,4,2,17,50,0,0
132525,-111.111111111111,4,2,17,5,0,0
132600,-111.111111111111,4,2,17,50,0,0
132825,-111.111111111111,4,2,17,5,0,0
132900,-111.111111111111,4,2,17,50,0,0
133275,-111.111111111111,4,2,17,5,0,0
133350,-111.111111111111,4,2,17,50,0,0
133725,-111.111111111111,4,2,17,5,0,0
133800,-111.111111111111,4,2,17,50,0,0
134925,-111.111111111111,4,2,17,5,0,0
135000,-111.111111111111,4,2,17,50,0,0
135225,-111.111111111111,4,2,17,5,0,0
135300,-111.111111111111,4,2,17,50,0,0
135675,-111.111111111111,4,2,17,5,0,0
135750,-111.111111111111,4,2,17,50,0,0
136125,-111.111111111111,4,2,17,5,0,0
136200,-111.111111111111,4,2,17,50,0,0
136875,-111.111111111111,4,2,17,5,0,0
136950,-111.111111111111,4,2,17,50,0,0
137250,-111.111111111111,4,3,14,65,0,0
137700,-111.111111111111,4,2,17,65,0,0
137850,-111.111111111111,4,3,14,65,0,0
138300,-111.111111111111,4,2,17,50,0,0
138825,-111.111111111111,4,2,17,5,0,0
138900,-111.111111111111,4,2,17,50,0,0
139500,-111.111111111111,4,2,15,65,0,0
139725,-111.111111111111,4,2,15,5,0,0
139800,-111.111111111111,4,2,15,65,0,0
140925,-111.111111111111,4,2,15,5,0,0
141000,-111.111111111111,4,2,15,65,0,0
141225,-111.111111111111,4,2,15,5,0,0
141300,-111.111111111111,4,2,15,65,0,0
141600,-111.111111111111,4,2,33,65,0,0
141900,-111.111111111111,4,2,15,65,0,0
143325,-111.111111111111,4,2,15,5,0,0
143400,-111.111111111111,4,2,15,65,0,0
143625,-111.111111111111,4,2,15,5,0,0
143700,-111.111111111111,4,2,15,65,0,0
143850,-111.111111111111,4,2,33,65,0,0
144300,-100,4,2,15,65,0,0
146550,-80,4,2,15,65,0,0
146700,-133.333333333333,4,1,1,50,0,0
146925,-133.333333333333,4,1,1,50,0,0
147000,-133.333333333333,4,1,1,50,0,0
147375,-133.333333333333,4,1,1,50,0,0
147450,-133.333333333333,4,1,1,50,0,0
147825,-133.333333333333,4,1,1,50,0,0
147900,-133.333333333333,4,1,1,50,0,0
148800,-111.111111111111,4,1,1,50,0,0
149100,-133.333333333333,4,2,9,50,0,0
149400,-133.333333333333,4,2,15,50,0,0
149925,-133.333333333333,4,2,15,5,0,0
150000,-133.333333333333,4,2,77,50,0,0
150225,-133.333333333333,4,2,77,5,0,0
150300,-133.333333333333,4,2,33,50,0,0
151725,-133.333333333333,4,2,33,5,0,0
151800,-133.333333333333,4,2,33,50,0,0
153000,-133.333333333333,4,2,1,65,0,0
153600,-133.333333333333,4,2,33,50,0,0
154725,-133.333333333333,4,2,33,5,0,0
154800,-133.333333333333,4,2,33,50,0,0
155025,-133.333333333333,4,2,33,5,0,0
155100,-133.333333333333,4,2,33,50,0,0
156525,-133.333333333333,4,2,33,5,0,0
156600,-133.333333333333,4,2,33,50,0,0
157125,-133.333333333333,4,2,33,5,0,0
157200,-133.333333333333,4,2,33,50,0,0
157800,-133.333333333333,4,2,1,40,0,0
158700,-133.333333333333,4,2,33,65,0,0
159300,-125,4,2,33,65,0,0
159600,-125,4,2,33,65,0,0
159900,-151.515151515152,4,2,12,50,0,0
160125,-151.515151515152,4,2,12,5,0,0
160200,-151.515151515152,4,2,12,50,0,0
160425,-151.515151515152,4,2,12,5,0,0
160500,-151.515151515152,4,1,1,50,0,0
161100,-100,4,2,4,50,0,0
161400,-100,4,1,0,50,0,0
161550,-100,4,2,4,50,0,0
162300,-100,4,2,4,50,0,0
162600,-100,4,1,0,50,0,0
162750,-100,4,2,4,50,0,0
162850,-100,4,2,4,50,0,0
163500,-125,4,2,4,50,0,0
163725,-125,4,2,4,5,0,0
163800,-125,4,2,4,50,0,0
164025,-125,4,2,4,5,0,0
164100,-111.111111111111,4,2,4,50,0,0
164325,-111.111111111111,4,2,4,5,0,0
164400,-111.111111111111,4,2,4,50,0,0
164625,-111.111111111111,4,2,4,5,0,0
164700,-100,4,1,0,50,0,0
165900,-100,4,1,15,70,0,1
166725,-100,4,2,15,5,0,1
166800,-100,4,1,15,70,0,1
170025,-100,4,2,15,5,0,1
170100,-100,4,1,15,70,0,1
170925,-100,4,2,15,5,0,1
171000,-100,4,1,15,70,0,1
171225,-100,4,2,15,5,0,1
171300,-100,4,1,15,70,0,1
171825,-100,4,1,15,5,0,1
171900,-100,4,1,15,70,0,1
172125,-100,4,2,15,5,0,1
172200,-100,4,1,15,70,0,1
173925,-100,4,2,15,5,0,1
174000,-100,4,1,15,70,0,1
174225,-100,4,2,15,5,0,1
174300,-100,4,1,15,70,0,1
177900,-133.333333333333,4,1,0,50,0,0
178125,-133.333333333333,4,1,0,50,0,0
178200,-133.333333333333,4,2,15,50,0,0
178425,-133.333333333333,4,2,15,50,0,0
178500,-133.333333333333,4,2,15,50,0,0
178725,-133.333333333333,4,2,15,50,0,0
178800,-133.333333333333,4,2,15,50,0,0
179025,-133.333333333333,4,2,15,50,0,0
179100,-133.333333333333,4,2,15,50,0,0
179700,-166.666666666667,4,2,15,50,0,0
182700,-166.666666666667,4,2,15,50,0,0
183300,-166.666666666667,4,2,15,50,0,0
184500,-166.666666666667,4,2,0,5,0,0
184800,-200,4,2,66,50,0,0
185925,-200,4,2,66,5,0,0
186000,-200,4,2,66,50,0,0
188925,-200,4,2,66,5,0,0
189000,-200,4,2,1,50,0,0
189900,-200,4,2,66,50,0,0
191025,-200,4,2,66,5,0,0
191100,-200,4,2,66,50,0,0
193800,-200,4,2,1,30,0,0
194700,-200,4,2,66,30,0,0
196050,-200,4,2,66,30,0,0
200700,-151.515151515152,4,2,12,60,0,0
200925,-151.515151515152,4,2,12,5,0,0
201000,-151.515151515152,4,2,12,60,0,0
201225,-151.515151515152,4,2,12,5,0,0
201300,-151.515151515152,4,1,1,60,0,0
201900,-100,4,2,4,60,0,0
202200,-100,4,1,0,60,0,0
202350,-100,4,2,4,60,0,0
202425,-100,4,2,4,60,0,0
202500,-100,4,2,4,60,0,0
203400,-100,4,1,0,60,0,0
203550,-100,4,2,4,60,0,0
203625,-100,4,2,4,60,0,0
203700,-100,4,2,4,60,0,0
204525,-100,4,2,4,5,0,0
204600,-100,4,2,4,60,0,0
204825,-100,4,2,4,5,0,0
204900,-100,4,2,4,60,0,0
205125,-100,4,2,4,5,0,0
205200,-100,4,2,4,60,0,0
205425,-100,4,2,4,5,0,0
205500,-100,4,1,2,60,0,0
206700,-100,4,1,15,70,0,1
207525,-100,4,2,15,5,0,1
207600,-100,4,1,15,70,0,1
210825,-100,4,2,15,5,0,1
210900,-100,4,1,15,70,0,1
211725,-100,4,2,15,5,0,1
211800,-100,4,1,15,70,0,1
212325,-100,4,2,15,5,0,1
212400,-100,4,1,15,70,0,1
214125,-100,4,2,15,5,0,1
214200,-100,4,1,15,70,0,1
215025,-100,4,1,15,70,0,1
215100,-100,4,1,15,70,0,1
218700,-100,4,1,15,60,0,0
219000,-100,4,2,17,60,0,0
219900,-133.333333333333,4,2,15,60,0,0
221025,-133.333333333333,4,2,17,5,0,0
221100,-100,4,2,4,60,0,0
221325,-100,4,2,4,5,0,0
221400,-100,4,2,4,60,0,0
221625,-100,4,2,4,5,0,0
221700,-100,4,2,4,60,0,0
222525,-100,4,2,4,5,0,0
222600,-100,4,2,4,60,0,0
222825,-100,4,2,4,5,0,0
222900,-100,4,2,4,60,0,0
223725,-100,4,2,4,5,0,0
223800,-100,4,2,4,60,0,0
224025,-100,4,2,4,5,0,0
224100,-100,4,2,4,60,0,0
224925,-100,4,2,4,5,0,0
225000,-100,4,2,4,60,0,0
225225,-100,4,2,4,5,0,0
225300,-100,4,2,4,60,0,0
226125,-100,4,2,4,5,0,0
226200,-100,4,2,4,60,0,0
226425,-100,4,2,4,5,0,0
226500,-100,4,2,4,60,0,0
227325,-100,4,2,4,5,0,0
227400,-100,4,2,4,60,0,0
227625,-100,4,2,4,5,0,0
227700,-100,4,2,4,60,0,0
228300,-100,4,2,4,60,0,0
228525,-100,4,2,4,5,0,0
228600,-100,4,2,4,60,0,0
228825,-100,4,2,4,5,0,0
228900,-100,4,2,4,60,0,0
230700,-100,4,2,9,60,0,0
231000,-200,4,2,9,60,0,0
231900,-200,4,2,9,60,0,0
231975,-200,4,2,9,60,0,0
233100,-90.9090909090909,4,2,9,60,0,0
234300,-90.9090909090909,4,2,9,60,0,0
235500,-90.9090909090909,4,2,9,5,0,0
236100,-90.9090909090909,4,2,9,5,0,0
236700,-90.9090909090909,4,2,9,5,0,0

[Colours]
Combo1 : 221,130,255
Combo2 : 250,48,83
Combo3 : 255,119,176
Combo4 : 102,231,253
Combo5 : 254,210,129
Combo6 : 156,255,132

[HitObjects]
108,14,5100,5,8,0:0:0:0:
115,32,5400,1,8,0:0:0:0:
120,50,5700,6,0,L|135:119,3,37.5,0|0|0|0,0:0|0:0|0:0|0:0,0:0:0:0:
145,102,6000,2,0,L|135:166,1,37.5,0|0,0:0|0:0,0:0:0:0:
91,196,6150,2,0,L|101:260,1,37.5,0|0,0:0|0:0,0:0:0:0:
151,357,6300,5,6,0:0:0:0:
479,87,7500,5,2,0:0:0:0:
34,49,9000,6,0,L|50:186,1,120,2|0,0:0|0:0,0:0:0:0:
320,27,9600,1,2,0:0:0:0:
115,25,9900,6,0,B|65:16|20:25|20:25|41:64|42:68,1,112.5,2|0,0:0|0:0,0:0:0:0:
68,76,10200,2,0,P|86:125|78:187,1,112.5,2|0,0:0|0:0,0:0:0:0:
68,236,10500,1,2,0:0:0:0:
164,194,10650,1,0,0:0:0:0:
245,259,10800,2,0,P|282:254|316:240,1,75,2|0,0:0|0:0,0:0:0:0:
406,185,11100,5,6,0:0:0:0:
413,202,11400,1,0,0:0:0:0:
336,245,11700,1,8,0:0:0:0:
343,234,12000,1,8,0:0:0:0:
450,287,12300,5,8,0:0:0:0:
444,276,12600,1,8,0:0:0:0:
471,192,12900,1,8,0:0:0:0:
469,185,13200,1,8,0:0:0:0:
362,130,13500,5,2,0:0:0:0:
276,178,13650,1,2,0:0:0:0:
363,112,13800,1,2,0:0:0:0:
282,200,13950,1,2,0:0:0:0:
360,96,14100,2,0,L|307:86,3,37.5,2|2|2|2,0:0|0:0|0:0|0:0,0:0:0:0:
376,117,14400,2,0,L|387:177,1,56.2500021457673,2|2,0:0|0:0,0:0:0:0:
462,266,14550,2,0,L|472:210,1,56.2500021457673,2|2,0:0|0:0,0:0:0:0:
485,118,14700,5,2,0:0:0:0:
485,118,15900,6,0,L|354:128,1,112.5,6|0,0:0|0:0,0:0:0:0:
318,183,16200,2,0,L|430:191,1,112.5,2|0,0:0|0:0,0:0:0:0:
504,200,16500,1,2,0:0:0:0:
504,200,17100,6,0,P|516:258|482:325,1,112.5,2|0,0:0|0:0,0:0:0:0:
480,325,17400,2,0,P|423:306|382:243,1,112.5,2|0,0:0|0:0,0:0:0:0:
385,243,17700,1,2,0:0:0:0:
385,243,18300,6,0,B|353:247|353:247|311:234|311:234|270:240,1,112.5,2|0,0:0|0:0,0:0:0:0:
254,252,18600,2,0,B|222:248|222:248|180:261|180:261|139:255,1,112.5,2|0,0:0|0:0,0:0:0:0:
122,243,18900,1,2,0:0:0:0:
28,273,19050,1,0,0:0:0:0:
37,111,19200,1,2,0:0:0:0:
58,198,19350,1,0,0:0:0:0:
14,31,19500,6,0,B|71:17|71:17|121:58,1,112.5,2|0,0:0|0:0,0:0:0:0:
126,71,19800,2,0,B|183:85|183:85|233:44,1,112.5,2|0,0:0|0:0,0:0:0:0:
240,24,20100,1,0,0:0:0:0:
205,172,20700,6,0,P|223:229|225:298,1,112.5,2|0,0:0|0:0,0:0:0:0:
276,336,21000,2,0,P|280:280|297:226,1,112.5,2|0,0:0|0:0,0:0:0:0:
338,157,21300,2,0,L|391:147,4,37.5,2|0|0|0|0,0:0|0:0|0:0|0:0|0:0,0:0:0:0:
454,332,21900,6,0,B|479:345|479:345|476:254,1,112.5,2|0,0:0|0:0,0:0:0:0:
417,213,22200,2,0,B|393:228|393:228|473:271,1,112.5,2|0,0:0|0:0,0:0:0:0:
494,194,22500,1,2,0:0:0:0:
224,30,22950,1,0,0:0:0:0:
224,30,23025,1,0,0:0:0:0:
224,30,23100,6,0,P|198:79|127:106,1,112.5,2|0,0:0|0:0,0:0:0:0:
115,109,23400,2,0,P|170:107|229:155,1,112.5,2|0,0:0|0:0,0:0:0:0:
230,167,23700,1,2,0:0:0:0:
112,214,23850,1,0,0:0:0:0:
233,186,24000,1,2,0:0:0:0:
116,233,24150,1,0,0:0:0:0:
238,205,24300,6,0,P|222:268|247:311,1,112.5,2|0,0:0|0:0,0:0:0:0:
254,322,24600,2,0,P|306:339|356:317,1,112.5,2|0,0:0|0:0,0:0:0:0:
366,303,24900,2,0,B|344:234|366:188|396:149|360:82,1,225,2|0,0:0|0:0,0:0:0:0:
358,10,25500,6,0,L|394:12,3,30,2|0|0|0,0:0|0:0|0:0|0:0,0:0:0:0:
429,22,25800,2,0,L|430:51,3,30,0|0|0|0,0:0|0:0|0:0|0:0,0:0:0:0:
462,80,26100,2,0,L|460:109,3,30,2|0|0|0,0:0|0:0|0:0|0:0,0:0:0:0:
425,141,26400,2,0,L|427:171,3,30,2|0|0|0,0:0|0:0|0:0|0:0,0:0:0:0:
424,214,26700,6,0,L|380:217,7,33.7499989700318,0|0|0|0|0|0|0|0,1:0|0:0|0:0|0:0|0:0|0:0|0:0|0:0,0:0:0:0:
369,193,27300,6,0,L|334:192,3,33.7499989700318,0|0|0|0,0:0|0:0|0:0|0:0,0:0:0:0:
312,178,27600,2,0,L|277:179,3,33.7499989700318,0|0|0|0,0:0|0:0|0:0|0:0,0:0:0:0:
227,178,27900,6,0,L|228:215,3,37.5,0|0|0|0,0:0|0:0|0:0|0:0,0:0:0:0:
210,243,28200,1,0,0:0:0:0:
210,243,28275,1,0,0:0:0:0:
210,243,28350,1,0,0:0:0:0:
210,243,28425,1,0,0:0:0:0:
210,243,28500,2,0,L|218:283,3,37.5,0|0|0|0,0:0|0:0|0:0|0:0,0:0:0:0:
237,307,28800,2,0,L|233:335,6,18.75,0|0|0|0|0|0|0,0:0|0:0|0:0|0:0|0:0|0:0|0:0,0:0:0:0:
251,274,29100,5,0,0:0:0:0:
75,345,30300,6,0,L|66:202,1,112.5,2|0,0:0|0:0,0:0:0:0:
29,196,30600,2,0,L|38:53,1,112.5,8|0,0:0|0:0,0:0:0:0:
46,32,30900,1,2,0:0:0:0:
193,86,31125,1,0,0:0:0:0:
193,86,31200,2,0,L|283:77,1,75,8|0,0:0|0:0,0:0:0:0:
358,25,31500,6,0,L|371:147,1,112.5,2|0,0:0|0:0,0:0:0:0:
396,182,31800,2,0,L|410:120,1,37.5,8|0,0:0|0:0,0:0:0:0:
466,90,31950,2,0,L|474:126,1,37.5,0|0,0:0|0:0,0:0:0:0:
494,202,32100,1,2,0:0:0:0:
367,296,32325,1,0,0:0:0:0:
367,296,32400,2,0,B|330:288|330:288|288:297|288:297|243:288,1,112.5,8|0,0:0|0:0,0:0:0:0:
223,249,32700,5,2,0:0:0:0:
176,155,32850,2,0,L|170:100,2,37.5,0|0|8,0:0|0:0|0:0,0:0:0:0:
280,161,33150,1,0,0:0:0:0:
280,161,33225,1,0,0:0:0:0:
280,161,33300,2,0,L|290:44,1,112.5,2|0,0:0|0:0,0:0:0:0:
331,17,33600,2,0,L|346:105,1,75,8|0,0:0|0:0,0:0:0:0:
366,193,33900,5,2,0:0:0:0:
366,193,34050,1,0,0:0:0:0:
263,168,34200,2,0,L|205:167,1,37.5,8|0,0:0|0:0,0:0:0:0:
162,120,34350,2,0,L|124:120,1,37.5,0|0,0:0|0:0,0:0:0:0:
63,171,34500,2,0,P|54:217|59:253,1,75,2|0,0:0|0:0,0:0:0:0:
179,296,34800,2,0,P|181:258|172:222,1,75,10|0,0:0|0:0,0:0:0:0:
73,183,35100,6,0,L|64:40,1,112.5,2|0,0:0|0:0,0:0:0:0:
123,25,35400,2,0,L|115:137,1,112.5,8|0,0:0|0:0,0:0:0:0:
127,195,35700,1,2,0:0:0:0:
226,106,35925,1,0,0:0:0:0:
233,111,36000,2,0,L|323:102,1,75,8|0,0:0|0:0,0:0:0:0:
389,37,36300,6,0,P|408:86|402:159,1,112.5,2|0,0:0|0:0,0:0:0:0:
386,183,36600,2,0,P|411:177|448:193,1,37.5,8|0,0:0|0:0,0:0:0:0:
498,214,36750,2,0,P|506:232|503:261,1,37.5,0|0,0:0|0:0,0:0:0:0:
472,331,36900,1,2,0:0:0:0:
296,300,37125,1,0,0:0:0:0:
296,300,37200,2,0,B|217:291|217:291|170:301,1,112.5,8|0,0:0|0:0,0:0:0:0:
141,328,37500,5,2,0:0:0:0:
81,241,37650,2,0,L|75:186,2,37.5,0|0|8,0:0|0:0|0:0,0:0:0:0:
185,234,37950,1,0,0:0:0:0:
185,234,38025,1,0,0:0:0:0:
185,234,38100,2,0,L|195:117,1,112.5,2|0,0:0|0:0,0:0:0:0:
217,74,38400,2,0,L|232:162,1,75,8|0,0:0|0:0,0:0:0:0:
273,244,38700,5,2,0:0:0:0:
181,296,38850,1,0,0:0:0:0:
181,296,38925,1,0,0:0:0:0:
181,296,39000,1,0,0:0:0:0:
181,296,39075,1,0,0:0:0:0:
181,296,39150,1,0,0:0:0:0:
181,296,39225,1,0,0:0:0:0:
181,296,39300,5,8,0:0:0:0:
125,352,39450,1,8,0:0:0:0:
89,281,39600,1,8,0:0:0:0:
114,206,39750,1,8,0:0:0:0:
228,225,39900,6,0,P|258:261|262:317,1,101.249996910095,2|0,0:0|0:0,0:0:0:0:
232,376,40200,2,0,P|245:340|283:314,1,67.4999979400635,8|0,0:0|0:0,0:0:0:0:
370,341,40500,1,2,0:0:0:0:
363,332,40650,1,0,0:0:0:0:
307,211,40800,2,0,B|309:122,1,67.4999979400635,8|0,0:0|0:0,0:0:0:0:
271,56,41100,6,0,B|231:67|231:67|157:58,1,101.249996910095,2|0,0:0|0:0,0:0:0:0:
123,1,41400,2,0,P|155:32|168:56,1,67.4999979400635,8|0,0:0|0:0,0:0:0:0:
192,189,41700,2,0,P|209:160|235:138,1,67.4999979400635,2|0,0:0|0:0,0:0:0:0:
346,58,42000,2,0,B|405:49|405:49|463:67,1,101.249996910095,8|0,0:0|0:0,0:0:0:0:
459,79,42300,6,0,P|477:113|465:180,1,101.249996910095,2|0,0:0|0:0,0:0:0:0:
400,190,42600,2,0,P|425:170|471:162,1,67.4999979400635,8|0,0:0|0:0,0:0:0:0:
431,268,42900,1,2,0:0:0:0:
305,231,43050,1,0,0:0:0:0:
424,284,43200,1,8,0:0:0:0:
306,218,43350,1,0,0:0:0:0:
439,282,43500,6,0,B|447:394,1,101.249996910095,2|0,0:0|0:0,0:0:0:0:
493,384,43800,2,0,L|497:306,1,67.4999979400635,8|0,0:0|0:0,0:0:0:0:
493,161,44100,2,0,L|445:163,3,33.7499989700318,2|0|0|0,0:0|0:0|0:0|0:0,0:0:0:0:
382,136,44400,2,0,L|334:134,3,33.7499989700318,8|0|0|0,0:0|0:0|0:0|0:0,0:0:0:0:
272,126,44700,5,2,0:0:0:0:
284,219,44850,1,0,0:0:0:0:
266,102,45000,2,0,L|257:30,1,67.4999979400635,8|0,0:0|0:0,0:0:0:0:
358,121,45300,5,2,0:0:0:0:
370,214,45450,1,0,0:0:0:0:
352,97,45600,2,0,L|343:25,1,67.4999979400635,8|0,0:0|0:0,0:0:0:0:
456,70,45900,6,0,L|447:136,1,67.4999979400635,2|0,0:0|0:0,0:0:0:0:
372,285,46200,2,0,L|363:218,1,67.4999979400635,8|0,0:0|0:0,0:0:0:0:
352,97,46500,2,0,P|296:86|237:107,1,101.249996910095,2|0,0:0|0:0,0:0:0:0:
225,178,46800,2,0,P|248:141|249:105,1,67.4999979400635,8|0,0:0|0:0,0:0:0:0:
156,101,47100,5,2,0:0:0:0:
153,241,47250,1,0,0:0:0:0:
156,101,47400,2,0,L|161:17,1,67.4999979400635,8|8,0:0|0:0,0:0:0:0:
243,114,47700,5,2,0:0:0:0:
240,254,47850,1,0,0:0:0:0:
243,114,48000,2,0,L|248:30,1,67.4999979400635,8|0,0:0|0:0,0:0:0:0:
338,19,48300,6,0,L|342:86,1,67.4999979400635,2|0,0:0|0:0,0:0:0:0:
418,209,48600,2,0,L|407:311,1,101.249996910095,8|0,0:0|0:0,0:0:0:0:
405,340,48900,2,0,P|352:311|325:315,1,67.4999979400635,2|0,0:0|0:0,0:0:0:0:
203,364,49200,2,0,P|235:315|235:255,1,101.249996910095,8|0,0:0|0:0,0:0:0:0:
302,195,49500,6,0,P|298:145|267:106,1,101.249996910095,6|0,0:0|0:0,0:0:0:0:
223,42,49800,2,0,P|198:65|188:97,1,67.4999979400635,8|0,0:0|0:0,0:0:0:0:
197,191,50100,1,2,0:0:0:0:
190,182,50250,1,0,0:0:0:0:
62,132,50400,2,0,B|64:43,1,67.4999979400635,8|0,0:0|0:0,0:0:0:0:
130,0,50700,6,0,B|189:-7|189:-7|229:3,1,101.249996910095,2|0,0:0|0:0,0:0:0:0:
310,31,51000,2,0,P|302:67|274:93,1,67.4999979400635,8|0,0:0|0:0,0:0:0:0:
244,180,51300,2,0,P|215:163|193:137,1,67.4999979400635,2|0,0:0|0:0,0:0:0:0:
325,155,51600,2,0,B|326:204|326:204|285:266,1,101.249996910095,8|0,0:0|0:0,0:0:0:0:
280,291,51900,6,0,P|314:273|381:285,1,101.249996910095,2|0,0:0|0:0,0:0:0:0:
470,286,52200,2,0,P|462:253|441:227,1,67.4999979400635,8|0,0:0|0:0,0:0:0:0:
360,178,52500,1,2,0:0:0:0:
270,207,52650,1,0,0:0:0:0:
369,191,52800,1,8,0:0:0:0:
263,195,52950,1,0,0:0:0:0:
374,200,53100,6,0,B|382:312,1,101.249996910095,2|0,0:0|0:0,0:0:0:0:
446,352,53400,2,0,L|454:281,1,67.4999979400635,8|0,0:0|0:0,0:0:0:0:
488,179,53700,2,0,P|452:129|391:122,1,101.249996910095,2|0,0:0|0:0,0:0:0:0:
366,179,54000,2,0,P|333:194|299:193,1,67.4999979400635,8|0,0:0|0:0,0:0:0:0:
168,127,54300,5,2,0:0:0:0:
148,219,54450,2,0,L|127:186,2,33.7499989700318,0|0|0,0:0|0:0|0:0,0:0:0:0:
200,297,54750,1,0,0:0:0:0:
166,114,54900,5,2,0:0:0:0:
74,136,55050,2,0,L|85:98,2,33.7499989700318,0|0|0,0:0|0:0|0:0,0:0:0:0:
45,226,55350,1,0,0:0:0:0:
173,105,55500,5,2,0:0:0:0:
123,24,55650,2,0,L|154:11,2,33.7499989700318,0|0|0,0:0|0:0|0:0,0:0:0:0:
30,45,55950,1,0,0:0:0:0:
189,102,56100,5,2,0:0:0:0:
221,190,56250,1,0,0:0:0:0:
318,196,56400,1,0,0:0:0:0:
396,145,56550,1,0,0:0:0:0:
464,98,56700,6,0,B|505:191|458:326|458:326|345:284|318:196|318:196|348:165|406:140,1,525,0|0,0:0|0:0,0:0:0:0:
395,144,59100,6,0,P|323:118|219:137,1,168.750006437302,6|0,0:0|0:0,0:0:0:0:
147,183,59700,2,0,P|158:129|143:78,1,84.3750032186509,0|0,0:0|0:0,0:0:0:0:
139,79,60000,2,0,P|161:62|188:55,1,56.2500021457673,2|0,0:0|0:0,0:0:0:0:
264,79,60300,6,0,P|306:91|414:35,1,168.750006437302,2|2,0:0|0:0,0:0:0:0:
484,63,60900,2,0,B|503:104|503:104|479:154,1,84.3750032186509,2|0,0:0|0:0,0:0:0:0:
476,174,61200,2,0,B|449:167|449:167|422:176,1,56.2500021457673,8|0,0:0|0:0,0:0:0:0:
361,249,61500,6,0,L|178:257,1,168.750006437302,2|2,0:0|0:0,0:0:0:0:
60,302,62100,2,0,L|47:198,1,84.3750032186509,2|0,0:0|0:0,0:0:0:0:
47,186,62400,2,0,P|75:179|106:179,1,56.2500021457673,8|0,0:0|0:0,0:0:0:0:
212,166,62700,5,0,0:0:0:0:
212,166,62850,2,0,L|221:231,1,56.2500021457673,0|2,0:0|0:1,0:0:0:0:
300,274,63150,1,0,0:0:0:0:
300,274,63300,2,0,L|307:218,1,56.2500021457673,2|0,0:1|0:0,0:0:0:0:
355,118,63600,2,0,L|346:28,1,84.3750032186509,10|0,0:1|0:0,0:0:0:0:
312,16,63900,6,0,P|240:-10|136:9,1,168.750006437302,2|2,0:0|0:0,0:0:0:0:
137,75,64500,2,0,P|141:116|130:157,1,84.3750032186509,2|0,0:0|0:0,0:0:0:0:
102,191,64800,2,0,P|119:234|136:249,1,56.2500021457673,8|0,0:0|0:0,0:0:0:0:
180,305,65100,6,0,P|222:293|330:349,1,168.750006437302,2|2,0:0|0:0,0:0:0:0:
408,367,65700,2,0,B|424:331|424:331|405:290,1,84.3750032186509,2|0,0:0|0:0,0:0:0:0:
390,265,66000,2,0,B|363:256|363:256|336:263,1,56.2500021457673,8|0,0:0|0:0,0:0:0:0:
233,259,66300,5,2,0:0:0:0:
389,223,66600,2,0,B|362:214|362:214|335:221,1,56.2500021457673,0|0,0:0|0:0,0:0:0:0:
233,231,66900,1,2,0:0:0:0:
390,180,67200,2,0,B|363:171|363:171|336:178,1,56.2500021457673,8|2,0:0|0:0,0:0:0:0:
233,207,67500,1,0,0:0:0:0:
233,207,67650,2,0,L|240:267,1,56.2500021457673,2|2,0:0|0:1,0:0:0:0:
317,311,67950,1,0,0:0:0:0:
317,311,68100,2,0,L|323:255,1,56.2500021457673,2|0,0:1|0:0,0:0:0:0:
313,103,68400,2,0,P|265:115|221:83,1,84.3750032186509,2|0,0:1|0:0,0:0:0:0:
225,99,68700,6,0,B|265:180|196:217|239:289,1,196.875007510186,2|0,0:0|0:0,0:0:0:0:
217,367,69300,2,0,L|169:383,2,37.5000014305115,0|0|0,0:0|0:0|0:0,0:0:0:0:
301,327,69600,2,0,L|353:339,2,37.5000014305115,0|0|0,0:0|0:0|0:0,0:0:0:0:
157,295,69900,5,8,0:0:0:0:
344,336,70200,1,8,0:0:0:0:
391,166,70500,1,0,0:0:0:0:
391,166,70575,1,0,0:0:0:0:
391,166,70650,1,0,0:0:0:0:
391,166,70725,1,0,0:0:0:0:
391,166,70800,2,0,L|427:162,3,24.749999924469,0|0|0|0,0:0|0:0|0:0|0:0,0:0:0:0:
493,147,71100,5,2,0:0:0:0:
0,312,72300,5,2,0:0:0:0:
460,360,73800,6,0,L|444:240,1,120,2|0,0:0|0:0,0:0:0:0:
420,12,74400,1,2,0:0:0:0:
228,176,74700,6,0,P|196:204|136:212,1,75,2|0,0:0|0:0,0:0:0:0:
136,204,74925,1,0,0:0:0:0:
136,204,75000,2,0,L|144:292,1,75,2|0,0:0|0:0,0:0:0:0:
150,312,75225,1,0,0:0:0:0:
150,312,75300,1,2,0:0:0:0:
248,292,75450,1,0,0:0:0:0:
352,272,75600,1,2,0:0:0:0:
452,300,75750,1,0,0:0:0:0:
264,372,75900,6,0,P|253:336|253:296,1,75,2|0,0:0|0:0,0:0:0:0:
360,212,76200,2,0,P|359:249|348:285,1,75,8|0,0:0|0:0,0:0:0:0:
276,184,76500,2,0,P|300:144|364:128,1,112.5,2|0,0:0|0:0,0:0:0:0:
399,158,76800,2,0,B|391:114|391:114|399:66,1,75,8|0,0:0|0:0,0:0:0:0:
400,0,77100,6,0,P|356:24|304:24,1,75,2|0,0:0|0:0,0:0:0:0:
231,102,77400,2,0,P|275:126|327:126,1,75,8|0,0:0|0:0,0:0:0:0:
399,158,77700,2,0,P|375:202|391:270,1,112.5,2|0,0:0|0:0,0:0:0:0:
393,303,78000,2,0,P|365:259|333:251,1,75,8|0,0:0|0:0,0:0:0:0:
286,329,78300,5,2,0:0:0:0:
228,254,78450,2,0,L|144:258,2,75,0|8|0,0:0|0:0|0:0,0:0:0:0:
345,251,78900,1,2,0:0:0:0:
336,144,79050,1,0,0:0:0:0:
403,335,79200,2,0,L|479:327,1,75,8|0,0:0|0:0,0:0:0:0:
484,204,79500,6,0,P|492:152|480:108,1,75,2|0,0:0|0:0,0:0:0:0:
331,70,79800,2,0,P|327:107|335:143,1,75,8|0,0:0|0:0,0:0:0:0:
420,208,80100,2,0,L|484:204,2,50,2|0|0,0:0|0:0|0:0,0:0:0:0:
328,264,80400,2,0,L|264:260,2,50,8|0|0,0:0|0:0|0:0,0:0:0:0:
412,200,80700,6,0,B|424:140|424:140|404:64,1,112.5,2|0,0:0|0:0,0:0:0:0:
397,67,81000,2,0,P|345:59|313:63,1,75,8|0,0:0|0:0,0:0:0:0:
220,100,81300,2,0,P|168:108|136:104,1,75,2|0,0:0|0:0,0:0:0:0:
52,56,81600,2,0,P|44:108|48:140,1,75,8|0,0:0|0:0,0:0:0:0:
128,196,81900,2,0,P|136:248|132:280,1,75,2|0,0:0|0:0,0:0:0:0:
84,360,82200,2,0,P|136:368|168:364,1,75,8|0,0:0|0:0,0:0:0:0:
224,284,82500,2,0,P|276:276|308:280,1,75,2|0,0:0|0:0,0:0:0:0:
384,336,82800,1,8,0:0:0:0:
376,232,82950,1,0,0:0:0:0:
503,354,83100,6,0,L|495:226,1,112.5,2|0,0:0|0:0,0:0:0:0:
492,207,83400,2,0,P|459:237|411:249,1,75,8|0,0:0|0:0,0:0:0:0:
289,82,83700,6,0,L|297:210,1,112.5,2|0,0:0|0:0,0:0:0:0:
304,229,84000,2,0,P|336:201|384:189,1,75,8|0,0:0|0:0,0:0:0:0:
481,232,84300,5,2,0:0:0:0:
433,111,84450,1,0,0:0:0:0:
491,210,84600,1,8,0:0:0:0:
455,110,84750,1,0,0:0:0:0:
499,234,84900,2,0,P|511:166|499:130,1,75,2|0,0:0|0:0,0:0:0:0:
423,25,85200,2,0,P|422:62|434:97,1,75,8|0,0:0|0:0,0:0:0:0:
416,249,85500,6,0,B|376:241|376:241|340:257|340:257|292:249,1,112.5,2|0,0:0|0:0,0:0:0:0:
268,227,85800,2,0,L|272:307,1,75,8|0,0:0|0:0,0:0:0:0:
144,335,86100,6,0,L|140:199,1,112.5,2|0,0:0|0:0,0:0:0:0:
140,180,86400,2,0,P|176:192|220:192,1,75,8|0,0:0|0:0,0:0:0:0:
300,64,86700,6,0,P|352:48|416:60,1,112.5,2|0,0:0|0:0,0:0:0:0:
433,86,87000,2,0,L|445:170,1,75,8|0,0:0|0:0,0:0:0:0:
448,296,87300,2,0,P|412:252|300:248,1,150,2|8,0:0|0:0,0:0:0:0:
357,326,87750,1,0,0:0:0:0:
443,160,87900,5,0,0:0:0:0:
224,297,90300,6,0,L|93:307,1,112.5,2|0,0:0|0:0,0:0:0:0:
75,262,90600,2,0,L|187:270,1,112.5,2|0,0:0|0:0,0:0:0:0:
235,259,90900,1,2,0:0:0:0:
504,200,91500,6,0,B|520:256|520:256|482:325,1,112.5,2|0,0:0|0:0,0:0:0:0:
469,323,91800,2,0,B|413:339|413:339|344:301,1,112.5,2|0,0:0|0:0,0:0:0:0:
340,297,92100,1,2,0:0:0:0:
412,95,92700,6,0,B|380:99|380:99|338:86|338:86|297:92,1,112.5,2|0,0:0|0:0,0:0:0:0:
276,81,93000,2,0,B|244:77|244:77|202:90|202:90|166:84,1,112.5,2|0,0:0|0:0,0:0:0:0:
128,92,93300,1,2,0:0:0:0:
67,180,93450,1,0,0:0:0:0:
184,252,93600,1,2,0:0:0:0:
175,166,93750,1,0,0:0:0:0:
133,317,93900,6,0,B|185:326|185:326|242:312,1,112.5,2|0,0:0|0:0,0:0:0:0:
261,293,94200,2,0,B|313:283|313:283|370:297,1,112.5,2|0,0:0|0:0,0:0:0:0:
402,318,94500,1,2,0:0:0:0:
205,172,95100,6,0,P|223:229|225:298,1,112.5,2|0,0:0|0:0,0:0:0:0:
265,336,95400,2,0,P|269:280|286:226,1,112.5,2|0,0:0|0:0,0:0:0:0:
345,147,95700,2,0,L|398:137,4,37.5,2|0|0|0|0,0:0|0:0|0:0|0:0|0:0,0:0:0:0:
450,336,96300,6,0,B|453:277|453:277|479:215,1,112.5,2|0,0:0|0:0,0:0:0:0:
489,205,96600,2,0,B|430:202|430:202|368:176,1,112.5,2|0,0:0|0:0,0:0:0:0:
360,162,96900,1,2,0:0:0:0:
224,30,97350,1,0,0:0:0:0:
224,30,97425,1,0,0:0:0:0:
224,30,97500,6,0,P|198:79|127:106,1,112.5,2|0,0:0|0:0,0:0:0:0:
128,113,97800,2,0,P|72:114|13:66,1,112.5,2|0,0:0|0:0,0:0:0:0:
12,64,98100,1,2,0:0:0:0:
36,193,98250,1,0,0:0:0:0:
22,61,98400,1,2,0:0:0:0:
45,206,98550,1,0,0:0:0:0:
128,117,98700,6,0,P|144:180|119:223,1,112.5,2|0,0:0|0:0,0:0:0:0:
112,253,99000,2,0,P|162:231|214:248,1,112.5,2|0,0:0|0:0,0:0:0:0:
246,271,99300,2,0,B|313:235|352:265|398:287|466:265,1,225,2|0,0:0|0:0,0:0:0:0:
483,133,99900,5,0,0:0:0:0:
424,272,101100,6,0,L|415:221,7,33.7499989700318,6|0|0|0|2|0|0|0,0:0|0:0|0:0|0:0|0:0|0:0|0:0|0:0,0:0:0:0:
450,204,101700,2,0,L|459:153,7,33.7499989700318,2|0|0|0|2|0|0|0,0:0|0:0|0:0|0:0|0:0|0:0|0:0|0:0,0:0:0:0:
446,124,102300,2,0,L|392:131,3,33.7499989700318,2|0|0|0,0:0|0:0|0:0|0:0,0:0:0:0:
376,159,102600,2,0,L|322:152,3,33.7499989700318,2|0|0|0,0:0|0:0|0:0|0:0,0:0:0:0:
306,123,102900,2,0,L|252:130,3,33.7499989700318,2|0|0|0,0:0|0:0|0:0|0:0,0:0:0:0:
226,137,103200,1,2,0:0:0:0:
232,183,103275,1,0,0:0:0:0:
237,229,103350,1,0,0:0:0:0:
246,275,103425,1,0,0:0:0:0:
255,321,103500,6,0,P|202:315|171:329,1,67.4999979400635,2|0,0:0|0:0,0:0:0:0:
98,315,103725,1,0,0:0:0:0:
98,315,103800,2,0,P|129:272|133:238,1,67.4999979400635,2|0,0:0|0:0,0:0:0:0:
177,167,104025,1,0,0:0:0:0:
177,167,104100,2,0,P|198:215|225:235,1,67.4999979400635,2|0,0:0|0:0,0:0:0:0:
298,272,104325,1,0,0:0:0:0:
298,272,104400,2,0,P|346:250|366:223,1,67.4999979400635,2|0,0:0|0:0,0:0:0:0:
439,221,104700,6,0,L|433:168,3,33.7499989700318,2|0|0|0,0:0|0:0|0:0|0:0,0:0:0:0:
460,166,105000,2,0,L|466:113,3,33.7499989700318,2|0|0|0,0:0|0:0|0:0|0:0,0:0:0:0:
435,103,105300,2,0,L|429:50,3,33.7499989700318,2|0|0|0,0:0|0:0|0:0|0:0,0:0:0:0:
465,33,105600,2,0,L|467:-20,3,33.7499989700318,2|0|0|0,0:0|0:0|0:0|0:0,0:0:0:0:
409,24,105900,6,0,P|359:4|296:12,1,82.5000025177003,6|0,0:0|0:0,0:0:0:0:
263,33,106125,1,0,0:0:0:0:
263,33,106200,2,0,P|266:73|283:111,1,82.5000025177003,2|0,0:0|0:0,0:0:0:0:
332,178,106425,1,0,0:0:0:0:
332,178,106500,2,0,P|291:181|253:198,1,82.5000025177003,2|0,0:0|0:0,0:0:0:0:
217,266,106725,1,0,0:0:0:0:
217,266,106800,2,0,P|176:262|138:245,1,82.5000025177003,2|0,0:0|0:0,0:0:0:0:
86,196,107025,1,0,0:0:0:0:
86,196,107100,6,0,P|82:155|65:117,1,82.5000025177003,2|0,0:0|0:0,0:0:0:0:
3,77,107325,1,0,0:0:0:0:
3,77,107400,2,0,P|11:23|50:-27,1,82.5000025177003,2|0,0:0|0:0,0:0:0:0:
110,10,107625,1,0,0:0:0:0:
110,10,107700,2,0,P|153:43|177:101,1,82.5000025177003,2|0,0:0|0:0,0:0:0:0:
215,126,107925,1,0,0:0:0:0:
215,126,108000,2,0,P|223:72|262:22,1,82.5000025177003,2|0,0:0|0:0,0:0:0:0:
312,48,108225,1,0,0:0:0:0:
312,48,108300,6,0,L|321:98,3,41.2500012588501,2|0|0|0,0:0|0:0|0:0|0:0,0:0:0:0:
344,123,108600,2,0,L|336:163,3,41.2500012588501,0|0|0|0,0:0|0:0|0:0|0:0,0:0:0:0:
347,204,108900,1,0,0:0:0:0:
347,204,108975,1,0,0:0:0:0:
347,204,109050,1,0,0:0:0:0:
347,204,109125,1,0,0:0:0:0:
347,204,109200,6,0,L|369:201,6,20.6250006294251,0|0|0|0|0|0|0,0:0|0:0|0:0|0:0|0:0|0:0|0:0,0:0:0:0:
388,202,109500,5,0,0:0:0:0:
244,345,110700,6,0,P|216:277|245:187,1,150,2|2,0:0|0:0,0:0:0:0:
316,268,111150,1,0,0:0:0:0:
244,345,111300,2,0,P|202:361|171:355,1,75,2|0,0:0|0:0,0:0:0:0:
85,298,111600,2,0,P|64:239|71:162,1,112.5,2|0,0:0|0:0,0:0:0:0:
63,137,111900,5,2,0:0:0:0:
163,106,112050,1,0,0:0:0:0:
166,210,112200,1,2,0:0:0:0:
262,167,112350,1,0,0:0:0:0:
170,90,112500,5,2,0:0:0:0:
270,59,112650,1,0,0:0:0:0:
273,163,112800,1,2,0:0:0:0:
369,120,112950,1,0,0:0:0:0:
273,163,113100,6,0,P|256:234|284:303,1,150,2|2,0:0|0:0,0:0:0:0:
284,303,113550,1,0,0:0:0:0:
196,360,113700,2,0,P|162:375|125:370,1,75,2|0,0:0|0:0,0:0:0:0:
33,320,114000,2,0,P|13:267|12:211,1,112.5,2|0,0:0|0:0,0:0:0:0:
12,158,114300,5,2,0:0:0:0:
116,143,114450,1,0,0:0:0:0:
87,244,114600,1,2,0:0:0:0:
14,167,114750,1,0,0:0:0:0:
49,68,114900,5,2,0:0:0:0:
146,29,115050,1,0,0:0:0:0:
126,132,115200,1,2,0:0:0:0:
39,72,115350,1,0,0:0:0:0:
135,30,115500,6,0,L|308:12,1,150,2|2,0:0|0:0,0:0:0:0:
372,71,115950,1,0,0:0:0:0:
300,147,116100,2,0,L|201:137,1,75,2|0,0:0|0:0,0:0:0:0:
185,237,116400,2,0,L|67:250,1,112.5,2|0,0:0|0:0,0:0:0:0:
24,269,116700,5,2,0:0:0:0:
62,366,116850,1,0,0:0:0:0:
166,374,117000,1,2,0:0:0:0:
241,300,117150,1,0,0:0:0:0:
180,379,117300,5,2,0:0:0:0:
283,372,117450,1,0,0:0:0:0:
323,276,117600,1,2,0:0:0:0:
276,182,117750,1,0,0:0:0:0:
176,216,117900,6,0,P|166:260|163:296,1,75,2|0,0:0|0:0,0:0:0:0:
190,136,118200,2,0,P|145:141|101:178,1,93.75,2|0,0:0|0:0,0:0:0:0:
270,107,118500,2,0,P|260:67|192:48,1,93.75,2|0,0:0|0:0,0:0:0:0:
348,171,118800,2,0,P|386:142|329:108,1,93.75,2|0,0:0|0:0,0:0:0:0:
254,199,119100,5,8,1:0:0:0:
254,199,119250,2,0,L|256:251,2,37.5,0|8|8,0:0|0:0|1:0,0:0:0:0:
183,277,119550,1,8,1:0:0:0:
268,338,119700,2,0,P|318:353|368:343,1,75,8|8,0:0|1:0,0:0:0:0:
453,192,120000,2,0,P|415:227|398:276,1,75,8|0,1:0|0:0,0:0:0:0:
267,345,120300,6,0,P|295:277|266:187,1,150,2|2,0:0|0:0,0:0:0:0:
195,268,120750,1,0,0:0:0:0:
267,345,120900,2,0,P|309:361|340:355,1,75,2|0,0:0|0:0,0:0:0:0:
426,298,121200,2,0,P|447:239|440:162,1,112.5,2|0,0:0|0:0,0:0:0:0:
448,137,121500,5,2,0:0:0:0:
348,106,121650,1,0,0:0:0:0:
345,210,121800,1,2,0:0:0:0:
249,167,121950,1,0,0:0:0:0:
341,90,122100,5,2,0:0:0:0:
241,59,122250,1,0,0:0:0:0:
238,163,122400,1,2,0:0:0:0:
142,120,122550,1,0,0:0:0:0:
238,163,122700,6,0,P|254:234|226:303,1,150,2|2,0:0|0:0,0:0:0:0:
227,303,123150,1,0,0:0:0:0:
315,360,123300,2,0,P|348:375|385:370,1,75,2|0,0:0|0:0,0:0:0:0:
478,320,123600,2,0,P|497:267|498:211,1,112.5,2|0,0:0|0:0,0:0:0:0:
499,158,123900,5,2,0:0:0:0:
395,143,124050,1,0,0:0:0:0:
424,244,124200,1,2,0:0:0:0:
497,167,124350,1,0,0:0:0:0:
462,68,124500,5,2,0:0:0:0:
365,29,124650,1,0,0:0:0:0:
385,132,124800,1,2,0:0:0:0:
472,72,124950,1,0,0:0:0:0:
376,30,125100,6,0,L|203:12,1,150,2|2,0:0|0:0,0:0:0:0:
139,71,125550,1,0,0:0:0:0:
211,147,125700,2,0,L|310:137,1,75,2|0,0:0|0:0,0:0:0:0:
326,237,126000,2,0,L|444:250,1,112.5,2|0,0:0|0:0,0:0:0:0:
487,269,126300,5,2,0:0:0:0:
449,366,126450,1,0,0:0:0:0:
345,374,126600,1,2,0:0:0:0:
270,300,126750,1,0,0:0:0:0:
331,379,126900,5,2,0:0:0:0:
228,372,127050,1,0,0:0:0:0:
188,276,127200,1,2,0:0:0:0:
235,182,127350,1,0,0:0:0:0:
335,215,127500,6,0,B|348:248|348:248|348:295,1,75,2|0,0:0|0:0,0:0:0:0:
321,135,127800,2,0,B|362:123|362:123|410:177,1,93.75,2|0,0:0|0:0,0:0:0:0:
240,107,128100,2,0,B|239:57|239:57|318:49,1,93.75,2|0,0:0|0:0,0:0:0:0:
163,171,128400,2,0,B|123:134|123:134|171:89,1,93.75,2|0,0:0|0:0,0:0:0:0:
257,199,128700,5,2,0:0:0:0:
371,135,128850,1,0,0:0:0:0:
371,135,128925,1,0,0:0:0:0:
371,135,129000,1,0,0:0:0:0:
371,135,129075,1,0,0:0:0:0:
371,135,129150,1,0,0:0:0:0:
371,135,129225,1,0,0:0:0:0:
371,135,129300,5,8,0:0:0:0:
389,264,129450,1,8,0:0:0:0:
497,190,129600,1,8,0:0:0:0:
456,65,129750,1,8,0:0:0:0:
257,9,129900,6,0,L|242:175,1,134.999995880127,6|0,0:0|0:0,0:0:0:0:
135,307,130500,2,0,P|103:237|112:157,1,134.999995880127,8|0,0:0|0:0,0:0:0:0:
154,99,130950,1,0,0:0:0:0:
269,226,131100,2,0,P|250:252|242:168,1,202.499993820191,2|0,0:0|0:0,0:0:0:0:
355,249,131700,2,0,P|310:311|236:343,1,134.999995880127,8|0,0:0|0:0,0:0:0:0:
286,77,132300,6,0,B|390:75|390:75|359:108,1,134.999995880127,2|0,0:0|0:0,0:0:0:0:
180,235,132900,2,0,L|176:73,1,134.999995880127,8|0,0:0|0:0,0:0:0:0:
176,100,133350,1,0,0:0:0:0:
286,158,133500,2,0,L|282:292,1,134.999995880127,2|0,0:0|0:0,0:0:0:0:
458,361,134100,2,0,L|450:313,3,33.7499989700318,8|0|0|0,0:0|0:0|0:0|0:0,0:0:0:0:
429,286,134400,2,0,L|434:252,3,33.7499989700318,0|0|0|0,0:0|0:0|0:0|0:0,0:0:0:0:
452,208,134700,6,0,P|400:224|322:173,1,134.999995880127,2|0,0:0|0:0,0:0:0:0:
211,41,135300,2,0,B|221:68|206:100|206:100|219:121|219:121|199:152|215:193,1,134.999995880127,8|0,0:0|0:0,0:0:0:0:
208,168,135750,1,0,0:0:0:0:
109,242,135900,2,0,P|87:181|107:103,1,134.999995880127,2|0,0:0|0:0,0:0:0:0:
329,0,136500,2,0,P|351:61|331:139,1,134.999995880127,8|0,0:0|0:0,0:0:0:0:
305,217,136950,1,0,0:0:0:0:
305,217,137100,6,0,B|196:222|196:222|243:255,1,134.999995880127,2|0,0:0|0:0,0:0:0:0:
282,305,137550,1,0,0:0:0:0:
311,125,137700,2,0,L|171:132,1,134.999995880127,8|0,0:0|0:0,0:0:0:0:
81,139,138150,1,0,0:0:0:0:
167,264,138300,6,0,P|182:200|168:110,2,134.999995880127,2|0|8,0:0|0:0|0:0,0:0:0:0:
81,94,139200,1,0,0:0:0:0:
302,195,139500,6,0,P|298:145|267:106,1,101.249996910095,2|0,0:0|0:0,0:0:0:0:
223,42,139800,2,0,P|198:65|188:97,1,67.4999979400635,8|0,0:0|0:0,0:0:0:0:
197,191,140100,1,2,0:0:0:0:
190,182,140250,1,0,0:0:0:0:
62,132,140400,2,0,B|64:43,1,67.4999979400635,8|0,0:0|0:0,0:0:0:0:
63,64,140700,6,0,B|122:57|122:57|162:67,1,101.249996910095,2|0,0:0|0:0,0:0:0:0:
248,105,141000,2,0,P|217:137|193:150,1,67.4999979400635,8|0,0:0|0:0,0:0:0:0:
134,202,141300,1,0,0:0:0:0:
241,275,141450,1,0,0:0:0:0:
387,221,141600,2,0,B|415:177|415:177|414:128,1,101.249996910095,8|0,0:0|0:0,0:0:0:0:
397,84,141900,6,0,L|475:80,1,67.4999979400635,2|0,0:0|0:0,0:0:0:0:
512,279,142200,2,0,L|444:275,1,67.4999979400635,8|0,0:0|0:0,0:0:0:0:
360,178,142500,1,2,0:0:0:0:
270,207,142650,1,0,0:0:0:0:
340,268,142800,1,8,0:0:0:0:
360,178,142950,1,0,0:0:0:0:
270,207,143100,6,0,P|265:275|272:301,1,67.4999979400635,2|0,0:0|0:0,0:0:0:0:
268,115,143400,2,0,P|202:134|180:150,1,67.4999979400635,8|0,0:0|0:0,0:0:0:0:
475,205,143700,1,2,0:0:0:0:
305,340,143850,1,8,0:0:0:0:
259,203,144000,1,8,0:0:0:0:
168,127,144300,5,2,0:0:0:0:
148,219,144450,2,0,L|128:184,2,37.5,0|0|0,0:0|0:0|0:0,0:0:0:0:
200,297,144750,1,0,0:0:0:0:
332,181,144900,5,2,0:0:0:0:
255,181,145050,2,0,L|267:140,2,37.5,0|0|0,0:0|0:0|0:0,0:0:0:0:
200,297,145350,1,0,0:0:0:0:
343,357,145500,5,2,0:0:0:0:
307,289,145650,2,0,L|343:277,2,37.5,0|0|0,0:0|0:0|0:0,0:0:0:0:
200,297,145950,1,0,0:0:0:0:
219,119,146100,5,2,0:0:0:0:
251,207,146250,1,0,0:0:0:0:
251,207,146325,1,0,0:0:0:0:
251,207,146400,1,0,0:0:0:0:
309,141,146550,1,0,0:0:0:0:
127,100,146700,6,0,B|100:152|136:220|188:224|200:268|168:332|116:348|64:336|28:304|0:252|28:196|88:192|112:212|104:268,1,450.000017166138
110,309,148800,2,0,L|204:298,1,67.4999979400635,0|0,0:0|0:0,0:0:0:0:
395,144,149100,6,0,P|323:118|219:137,1,168.750006437302,6|0,0:0|0:0,0:0:0:0:
150,248,149700,2,0,P|161:194|146:143,1,84.3750032186509,2|0,0:0|0:0,0:0:0:0:
104,95,150000,2,0,P|121:138|138:153,1,56.2500021457673,2|0,0:0|0:0,0:0:0:0:
242,116,150300,6,0,P|284:104|392:160,1,168.750006437302,2|0,0:0|0:0,0:0:0:0:
369,249,150900,2,0,B|410:230|410:230|445:247,1,84.3750032186509,0|0,0:0|0:0,0:0:0:0:
467,268,151200,2,0,L|478:330,1,56.2500021457673,8|0,0:0|0:0,0:0:0:0:
349,355,151500,6,0,L|166:363,1,168.750006437302,2|2,0:0|0:0,0:0:0:0:
97,335,152100,2,0,L|84:231,1,84.3750032186509,2|0,0:0|0:0,0:0:0:0:
86,227,152400,2,0,B|113:217|113:217|145:220,1,56.2500021457673,8|2,0:0|0:0,0:0:0:0:
239,239,152700,5,2,0:0:0:0:
239,239,152850,2,0,L|231:183,1,56.2500021457673,0|2,0:0|0:1,0:0:0:0:
161,123,153150,1,0,0:0:0:0:
161,123,153300,2,0,L|168:67,1,56.2500021457673,2|0,0:1|0:0,0:0:0:0:
286,0,153600,2,0,L|294:83,1,84.3750032186509,8|0,0:0|0:0,0:0:0:0:
294,112,153900,6,0,B|364:137|364:137|457:125,1,168.750006437302,2|2,0:0|0:0,0:0:0:0:
476,233,154500,2,0,P|480:274|469:315,1,84.3750032186509,2|0,0:0|0:0,0:0:0:0:
435,334,154800,2,0,P|418:311|411:284,1,56.2500021457673,8|0,0:0|0:0,0:0:0:0:
335,196,155100,6,0,P|268:146|186:155,1,168.750006437302,2|2,0:0|0:0,0:0:0:0:
126,285,155700,2,0,B|142:249|142:249|123:208,1,84.3750032186509,2|0,0:0|0:0,0:0:0:0:
100,179,156000,2,0,B|73:170|73:170|46:177,1,56.2500021457673,8|0,0:0|0:0,0:0:0:0:
32,302,156300,5,2,0:0:0:0:
99,165,156600,2,0,B|72:156|72:156|45:163,1,56.2500021457673,0|2,0:0|0:0,0:0:0:0:
29,287,156900,1,2,0:0:0:0:
101,142,157200,2,0,B|74:133|74:133|47:140,1,56.2500021457673,0|2,0:0|0:0,0:0:0:0:
27,272,157500,1,0,0:0:0:0:
142,327,157650,2,0,L|198:321,1,56.2500021457673,2|2,0:0|0:1,0:0:0:0:
296,357,157950,1,0,0:0:0:0:
296,357,158100,2,0,L|302:301,1,56.2500021457673,2|0,0:1|0:0,0:0:0:0:
338,174,158400,2,0,P|290:186|246:154,1,84.3750032186509,2|0,0:1|0:0,0:0:0:0:
211,91,158700,6,0,B|251:172|182:209|225:281,1,196.875007510186,2|0,0:0|0:0,0:0:0:0:
209,294,159300,2,0,L|160:308,2,40
295,224,159600,2,0,L|352:236,2,40
140,142,159900,5,8,0:0:0:0:
312,384,160200,1,8,0:0:0:0:
485,78,160500,1,0,0:0:0:0:
485,78,160575,1,0,0:0:0:0:
485,78,160650,1,0,0:0:0:0:
485,78,160725,1,0,0:0:0:0:
485,78,160800,2,0,L|489:113,3,24.749999924469,0|0|0|0,0:0|0:0|0:0|0:0,0:0:0:0:
493,138,161100,5,2,0:0:0:0:
138,198,161400,2,0,L|142:289,1,75,2|0,0:0|0:0,0:0:0:0:
141,272,162300,5,2,0:0:0:0:
300,120,162600,2,0,L|297:46,1,75,2|0,0:0|0:0,0:0:0:0:
460,360,163800,6,0,L|444:240,1,120,2|0,0:0|0:0,0:0:0:0:
420,12,164400,1,2,0:0:0:0:
228,176,164700,6,0,P|196:204|136:212,1,75,2|0,0:0|0:0,0:0:0:0:
136,204,164925,1,0,0:0:0:0:
136,204,165000,2,0,L|144:292,1,75,2|0,0:0|0:0,0:0:0:0:
144,310,165225,1,0,0:0:0:0:
144,310,165300,1,2,0:0:0:0:
40,273,165450,1,0,0:0:0:0:
40,178,165600,1,2,0:0:0:0:
117,109,165750,1,0,0:0:0:0:
251,243,165900,6,0,P|219:223|182:215,1,75,2|0,0:0|0:0,0:0:0:0:
259,148,166200,2,0,P|290:128|327:120,1,75,8|0,0:0|0:0,0:0:0:0:
454,144,166499,2,0,P|429:94|440:40,1,112.5,2|0,0:0|0:0,0:0:0:0:
419,1,166801,2,0,P|403:34|371:52,1,75,8|0,0:0|0:0,0:0:0:0:
211,91,167100,6,0,P|211:128|222:164,1,75,2|0,0:0|0:0,0:0:0:0:
316,205,167399,2,0,P|314:242|303:278,1,75,8|0,0:0|0:0,0:0:0:0:
332,361,167700,2,0,P|363:315|416:304,1,112.5,2|0,0:0|0:0,0:0:0:0:
461,319,168000,2,0,B|453:275|453:275|457:245,1,75,8|0,0:0|0:0,0:0:0:0:
441,134,168300,5,2,0:0:0:0:
304,220,168450,2,0,L|220:224,2,75,0|8|0,0:0|0:0|0:0,0:0:0:0:
408,220,168900,1,2,0:0:0:0:
336,144,169050,1,0,0:0:0:0:
364,304,169200,2,0,L|440:296,1,75,8|0,0:0|0:0,0:0:0:0:
484,204,169500,6,0,P|492:152|480:108,1,75,2|0,0:0|0:0,0:0:0:0:
331,70,169800,2,0,P|327:107|335:143,1,75,8|0,0:0|0:0,0:0:0:0:
420,208,170100,2,0,L|484:204,2,50,2|0|0,0:0|0:0|0:0,0:0:0:0:
328,264,170400,2,0,L|264:260,2,50,8|0|0,0:0|0:0|0:0,0:0:0:0:
412,200,170700,6,0,B|424:140|424:140|404:64,1,112.5,2|0,0:0|0:0,0:0:0:0:
401,65,171000,2,0,P|349:57|317:61,1,75,8|0,0:0|0:0,0:0:0:0:
271,133,171300,2,0,P|307:140|345:138,1,75,2|0,0:0|0:0,0:0:0:0:
296,31,171600,2,0,P|244:37|214:49,1,75,8|0,0:0|0:0,0:0:0:0:
195,179,171900,2,0,P|232:177|268:165,1,75,2|0,0:0|0:0,0:0:0:0:
204,28,172200,2,0,P|155:48|129:67,1,75,8|0,0:0|0:0,0:0:0:0:
126,221,172500,2,0,P|161:209|193:188,1,75,2|0,0:0|0:0,0:0:0:0:
65,144,172800,1,8,0:0:0:0:
178,241,172950,1,0,0:0:0:0:
5,348,173100,6,0,L|12:235,1,112.5,2|0,0:0|0:0,0:0:0:0:
10,193,173400,2,0,P|37:218|72:231,1,75,8|0,0:0|0:0,0:0:0:0:
225,107,173700,6,0,L|217:219,1,112.5,2|0,0:0|0:0,0:0:0:0:
204,260,174000,2,0,P|176:234|141:221,1,75,8|0,0:0|0:0,0:0:0:0:
16,350,174300,5,2,0:0:0:0:
59,259,174450,1,0,0:0:0:0:
113,360,174600,1,8,0:0:0:0:
16,350,174750,1,0,0:0:0:0:
59,259,174900,2,0,P|47:223|47:186,1,75,2|0,0:0|0:0,0:0:0:0:
128,39,175201,2,0,P|128:76|116:111,1,75,8|0,0:0|0:0,0:0:0:0:
124,300,175500,6,0,B|178:311|178:311|242:282,1,112.5,2|0,0:0|0:0,0:0:0:0:
258,270,175800,2,0,L|254:344,1,75,8|0,0:0|0:0,0:0:0:0:
396,339,176100,6,0,L|393:226,1,112.5,2|0,0:0|0:0,0:0:0:0:
393,201,176400,2,0,P|357:212|320:214,1,75,8|0,0:0|0:0,0:0:0:0:
166,98,176700,6,0,P|221:89|274:106,1,112.5,2|0,0:0|0:0,0:0:0:0:
321,134,177000,2,0,L|332:60,1,75,8|0,0:0|0:0,0:0:0:0:
202,15,177300,2,0,P|129:22|79:75,1,150,2|8,0:0|0:0,0:0:0:0:
74,174,177750,1,0,0:0:0:0:
261,114,177900,5,0,0:0:0:0:
221,240,180150,5,0,0:0:0:0:
200,79,180300,1,2,0:0:0:0:
256,192,180375,12,0,183300,0:0:0:0:
342,325,197100,6,0,B|371:281|379:210|343:153|343:153|338:211|324:241,1,262.5,2|0,0:0|0:0,0:0:0:0:
265,289,198300,2,0,B|218:278|191:295|167:313|118:281|118:281|128:322|109:356|109:356|94:354|77:332,1,262.5,2|0,0:0|0:0,0:0:0:0:
22,283,199500,2,0,B|41:230|26:149|26:149|34:192|84:211,1,225,2|0,0:0|0:0,0:0:0:0:
390,48,200700,5,8,0:0:0:0:
112,34,201000,1,8,0:0:0:0:
304,225,201300,1,0,0:0:0:0:
304,225,201375,1,0,0:0:0:0:
304,225,201450,1,0,0:0:0:0:
304,225,201525,1,0,0:0:0:0:
304,225,201600,1,0,0:0:0:0:
304,225,201675,1,0,0:0:0:0:
304,225,201750,2,0,L|287:253,1,24.749999924469,0|0,0:0|0:0,0:0:0:0:
168,354,201900,6,0,P|147:311|151:235,1,112.5,2|0,0:0|0:0,0:0:0:0:
201,246,202200,2,0,P|200:298|212:328,1,75,2|0,0:0|0:0,0:0:0:0:
305,360,202500,1,0,0:0:0:0:
305,360,202800,1,0,0:0:0:0:
399,171,203100,6,0,B|338:157|338:157|262:171,1,112.5,2|0,0:0|0:0,0:0:0:0:
300,183,203400,2,0,B|341:177|341:177|398:191,1,75,2|0,0:0|0:0,0:0:0:0:
404,168,204600,2,0,L|386:329,1,150,2|0,0:0|0:0,0:0:0:0:
226,67,205200,1,2,0:0:0:0:
226,67,205500,6,0,L|322:62,1,75,2|0,0:0|0:0,0:0:0:0:
381,140,205725,1,0,0:0:0:0:
381,140,205800,2,0,L|307:136,1,75,2|0,0:0|0:0,0:0:0:0:
227,183,206025,1,0,0:0:0:0:
227,183,206100,1,2,0:0:0:0:
236,58,206250,1,0,0:0:0:0:
108,101,206400,1,2,0:0:0:0:
117,226,206550,1,0,0:0:0:0:
320,349,206700,6,0,P|288:329|251:321,1,75,2|0,0:0|0:0,0:0:0:0:
185,266,207000,2,0,P|216:246|253:238,1,75,8|0,0:0|0:0,0:0:0:0:
405,349,207300,2,0,P|380:299|391:245,1,112.5,2|0,0:0|0:0,0:0:0:0:
377,202,207601,2,0,P|361:235|329:253,1,75,8|0,0:0|0:0,0:0:0:0:
204,127,207900,6,0,P|204:164|215:200,1,75,2|0,0:0|0:0,0:0:0:0:
300,75,208199,2,0,P|298:112|287:148,1,75,8|0,0:0|0:0,0:0:0:0:
245,300,208500,2,0,P|276:254|329:243,1,112.5,2|0,0:0|0:0,0:0:0:0:
376,267,208800,2,0,B|368:223|368:223|372:193,1,75,8|0,0:0|0:0,0:0:0:0:
470,157,209100,5,2,0:0:0:0:
512,315,209250,2,0,L|428:319,2,75,0|8|0,0:0|0:0|0:0,0:0:0:0:
466,157,209700,1,2,0:0:0:0:
335,202,209850,1,0,0:0:0:0:
438,348,210000,2,0,L|514:344,1,75,8|0,0:0|0:0,0:0:0:0:
466,157,210300,6,0,P|474:105|462:61,1,75,2|0,0:0|0:0,0:0:0:0:
331,70,210600,2,0,P|327:107|335:143,1,75,8|0,0:0|0:0,0:0:0:0:
422,237,210900,2,0,L|486:233,2,50,2|0|0,0:0|0:0|0:0,0:0:0:0:
328,264,211200,2,0,L|264:260,2,50,8|0|0,0:0|0:0|0:0,0:0:0:0:
422,237,211500,6,0,B|434:177|434:177|414:101,1,112.5,2|0,0:0|0:0,0:0:0:0:
394,88,211800,2,0,P|331:77|299:81,1,75,8|0,0:0|0:0,0:0:0:0:
242,172,212100,2,0,P|278:179|316:177,1,75,2|0,0:0|0:0,0:0:0:0:
248,53,212400,2,0,P|196:59|166:71,1,75,8|0,0:0|0:0,0:0:0:0:
169,185,212700,2,0,P|206:183|242:171,1,75,2|0,0:0|0:0,0:0:0:0:
103,46,213000,2,0,P|54:66|28:85,1,75,8|0,0:0|0:0,0:0:0:0:
102,217,213300,2,0,P|137:205|169:184,1,75,2|0,0:0|0:0,0:0:0:0:
184,96,213600,1,8,0:0:0:0:
75,140,213750,1,0,0:0:0:0:
250,264,213900,6,0,L|257:151,1,112.5,2|0,0:0|0:0,0:0:0:0:
254,104,214200,2,0,P|281:129|316:142,1,75,8|0,0:0|0:0,0:0:0:0:
399,78,214500,6,0,L|406:191,1,112.5,2|0,0:0|0:0,0:0:0:0:
403,238,214800,2,0,P|430:213|465:200,1,75,8|0,0:0|0:0,0:0:0:0:
428,313,215100,5,2,0:0:0:0:
324,266,215250,1,0,0:0:0:0:
196,350,215400,1,8,0:0:0:0:
304,381,215550,1,0,0:0:0:0:
324,266,215700,2,0,P|335:230|336:193,1,75,2|0,0:0|0:0,0:0:0:0:
240,101,216001,2,0,P|240:138|228:173,1,75,8|0,0:0|0:0,0:0:0:0:
155,315,216300,2,0,B|63:324|63:324|87:291,1,112.5,2|0,0:0|0:0,0:0:0:0:
122,231,216600,2,0,P|149:265|161:319,1,75,8|0,0:0|0:0,0:0:0:0:
266,372,216900,6,0,P|259:320|269:259,1,112.5,2|0,0:0|0:0,0:0:0:0:
268,231,217200,2,0,P|305:228|341:218,1,75,8|0,0:0|0:0,0:0:0:0:
436,87,217500,6,0,P|382:69|327:78,1,112.5,2|0,0:0|0:0,0:0:0:0:
295,84,217800,2,0,L|284:158,1,75,8|0,0:0|0:0,0:0:0:0:
188,274,218100,2,0,B|145:259|115:282|95:304|43:281,1,150,2|8,0:0|0:0,0:0:0:0:
84,208,218550,1,0,0:0:0:0:
121,379,218700,5,2,0:0:0:0:
90,71,221100,6,0,L|221:81,1,112.5,2|0,0:0|0:0,0:0:0:0:
248,125,221400,2,0,L|136:117,1,112.5,2|0,0:0|0:0,0:0:0:0:
88,112,221700,1,2,0:0:0:0:
315,123,222300,6,0,P|303:181|337:248,1,112.5,2|0,0:0|0:0,0:0:0:0:
373,278,222600,2,0,P|315:266|248:300,1,112.5,2|0,0:0|0:0,0:0:0:0:
239,353,222900,1,2,0:0:0:0:
34,148,223500,6,0,B|66:152|66:152|108:139|108:139|149:145,1,112.5,2|0,0:0|0:0,0:0:0:0:
170,166,223800,2,0,B|202:162|202:162|244:175|244:175|279:169,1,112.5,2|0,0:0|0:0,0:0:0:0:
308,146,224100,1,2,0:0:0:0:
401,101,224250,1,0,0:0:0:0:
422,259,224400,1,2,0:0:0:0:
318,244,224550,1,0,0:0:0:0:
491,183,224700,2,0,L|499:302,1,112.5,2|0,0:0|0:0,0:0:0:0:
503,348,225000,2,0,P|456:329|379:345,1,112.5,2|0,0:0|0:0,0:0:0:0:
374,351,225300,1,2,0:0:0:0:
307,172,225900,6,0,P|289:229|287:298,1,112.5,2|0,0:0|0:0,0:0:0:0:
290,327,226200,2,0,P|239:302|184:290,1,112.5,2|0,0:0|0:0,3:0:0:0:
170,298,226500,2,0,L|163:258,4,37.5,2|0|0|0|0,0:0|0:0|0:0|0:0|0:0,0:0:0:0:
58,332,227100,6,0,B|33:345|33:345|36:254,1,112.5,2|0,0:0|0:0,0:0:0:0:
95,213,227400,2,0,B|119:228|119:228|39:271,1,112.5,2|0,0:0|0:0,0:0:0:0:
18,194,227700,1,2,0:0:0:0:
288,30,228150,1,0,0:0:0:0:
288,30,228225,1,0,0:0:0:0:
288,30,228300,6,0,P|314:79|385:106,1,112.5,2|0,0:0|0:0,0:0:0:0:
415,124,228600,2,0,P|359:122|300:170,1,112.5,2|0,0:0|0:0,0:0:0:0:
302,189,228900,1,2,0:0:0:0:
421,203,229050,1,0,0:0:0:0:
290,183,229200,1,2,0:0:0:0:
429,216,229350,1,0,0:0:0:0:
287,199,229500,6,0,P|303:262|278:305,1,112.5,2|0,0:0|0:0,0:0:0:0:
260,332,229800,2,0,P|197:348|154:323,1,112.5,2|0,0:0|0:0,0:0:0:0:
148,292,230100,2,0,B|184:225|154:186|132:140|153:72,1,225,2|0,0:0|0:0,0:0:0:0:
272,16,230700,5,2,0:0:0:0:
271,15,230850,2,0,L|276:53,1,37.5,2|0,0:0|0:0,0:0:0:0:
290,168,231000,2,0,P|347:239|371:150,1,225,6|0,0:0|0:0,0:0:0:0:
256,192,231975,12,0,235500,0:0:0:0:
