osu file format v14

[General]
AudioFilename: audio.mp3
AudioLeadIn: 0
PreviewTime: 70500
Countdown: 0
SampleSet: Soft
StackLeniency: 0.7
Mode: 0
LetterboxInBreaks: 0
WidescreenStoryboard: 1

[Editor]
DistanceSpacing: 1.2
BeatDivisor: 4
GridSize: 32
TimelineZoom: 1

[Metadata]
Title:Mazare Party
TitleUnicode:Mazare Party
Artist:MAZARE
ArtistUnicode:MAZARE
Creator:IntellectualBoy
Version:Easy
Source:
Tags:toybot walaowey Neoskylove [ L u k a s ] oriental trap jcore utaite Nanahira Kradness Yukacco ななひら Camellia MIND HACK EXIT TUNES
BeatmapID:1415157
BeatmapSetID:667868

[Difficulty]
HPDrainRate:3
CircleSize:3
OverallDifficulty:2
ApproachRate:3
SliderMultiplier:0.799999999999999
SliderTickRate:1

[Events]
//Background and Video events
0,0,"Mazare.jpg",0,0
//Break Periods
2,197300,199260
//Storyboard Layer 0 (Background)
//Storyboard Layer 1 (Fail)
//Storyboard Layer 2 (Pass)
//Storyboard Layer 3 (Foreground)
//Storyboard Sound Samples

[TimingPoints]
300,300,4,2,4,50,1,0
5100,-100,4,2,12,50,0,0
6300,-100,4,2,4,60,0,0
11700,-100,4,2,12,30,0,0
12300,-100,4,2,12,40,0,0
12900,-100,4,2,12,50,0,0
13500,-100,4,2,15,60,0,0
15900,-100,4,2,4,60,0,0
30300,-100,4,2,15,70,0,0
39900,-100,4,2,15,60,0,0
40125,-100,4,2,55,60,0,0
40275,-100,4,2,15,60,0,0
41325,-100,4,2,55,60,0,0
41475,-100,4,2,15,60,0,0
41925,-100,4,2,55,60,0,0
42075,-100,4,2,15,60,0,0
43725,-100,4,2,55,60,0,0
43875,-100,4,2,15,60,0,0
44925,-100,4,2,55,60,0,0
45075,-100,4,2,15,60,0,0
46125,-100,4,2,55,60,0,0
46275,-100,4,2,15,60,0,0
47325,-100,4,2,55,60,0,0
47475,-100,4,2,15,60,0,0
48525,-100,4,2,55,60,0,0
48675,-100,4,2,15,60,0,0
49125,-100,4,2,55,60,0,0
49275,-100,4,2,15,60,0,0
50325,-100,4,2,55,60,0,0
50475,-100,4,2,15,60,0,0
51525,-100,4,2,55,60,0,0
51675,-100,4,2,15,60,0,0
52725,-100,4,2,55,60,0,0
52875,-100,4,2,15,60,0,0
53325,-100,4,2,55,60,0,0
53475,-100,4,2,15,60,0,0
59100,-100,4,2,33,50,0,0
60000,-100,4,2,77,50,0,0
60300,-100,4,2,33,50,0,0
64800,-100,4,2,77,50,0,0
65100,-100,4,2,33,50,0,0
69900,-100,4,2,12,50,0,0
71100,-100,4,2,4,60,0,0
74700,-100,4,1,2,60,0,0
75900,-100,4,1,15,70,0,1
76125,-100,4,1,20,70,0,1
76275,-100,4,1,15,70,0,1
77325,-100,4,1,20,70,0,1
77475,-100,4,1,15,70,0,1
78525,-100,4,1,20,70,0,1
78675,-100,4,1,15,70,0,1
79725,-100,4,1,20,70,0,1
79875,-100,4,1,15,70,0,1
80325,-100,4,1,20,70,0,1
80475,-100,4,1,15,70,0,1
82125,-100,4,1,20,70,0,1
82275,-100,4,1,15,70,0,1
83325,-100,4,1,20,70,0,1
83475,-100,4,1,15,70,0,1
83925,-100,4,1,20,70,0,1
84075,-100,4,1,15,70,0,1
85125,-100,4,1,20,70,0,1
85275,-100,4,1,15,70,0,1
86925,-100,4,1,20,70,0,1
87075,-100,4,1,15,70,0,1
87900,-100,4,2,15,50,0,0
90300,-100,4,2,4,60,0,0
100800,-100,4,2,9,30,0,0
101400,-100,4,2,15,30,0,0
103500,-100,4,2,15,40,0,0
104100,-100,4,2,15,50,0,0
104700,-100,4,2,15,60,0,0
105900,-100,4,1,15,70,0,0
106725,-100,4,1,30,70,0,0
106875,-100,4,1,15,70,0,0
107925,-100,4,1,30,70,0,0
108075,-100,4,1,15,70,0,0
110700,-100,4,1,30,70,0,1
119100,-100,4,3,1,50,0,0
120300,-100,4,1,30,70,0,1
128700,-100,4,3,1,50,0,1
129900,-100,4,2,17,50,0,0
130500,-100,4,2,17,50,0,0
131100,-100,4,2,17,50,0,0
131700,-100,4,2,17,50,0,0
132300,-100,4,2,17,50,0,0
132600,-100,4,2,17,50,0,0
132900,-100,4,2,17,50,0,0
133500,-100,4,2,17,50,0,0
135000,-100,4,2,17,50,0,0
135300,-100,4,2,17,50,0,0
135900,-100,4,2,17,50,0,0
136500,-100,4,2,17,50,0,0
136950,-100,4,2,17,50,0,0
139500,-100,4,2,15,60,0,0
139725,-100,4,2,55,60,0,0
139875,-100,4,2,15,60,0,0
140925,-100,4,2,55,60,0,0
141075,-100,4,2,15,60,0,0
141600,-100,4,2,33,60,0,0
141900,-100,4,2,15,60,0,0
142125,-100,4,2,55,60,0,0
142275,-100,4,2,15,60,0,0
143325,-100,4,2,55,60,0,0
143475,-100,4,2,15,60,0,0
144000,-100,4,2,33,60,0,0
144300,-100,4,2,15,60,0,0
146700,-100,4,2,17,50,0,0
149100,-100,4,2,9,50,0,0
150000,-100,4,2,77,50,0,0
150300,-100,4,2,33,50,0,0
154800,-100,4,2,77,50,0,0
155100,-100,4,2,33,50,0,0
159900,-100,4,2,12,50,0,0
161100,-100,4,2,4,60,0,0
161400,-100,4,2,4,60,0,0
161700,-100,4,2,4,60,0,0
162600,-100,4,2,4,60,0,0
163500,-100,4,2,4,60,0,0
163800,-100,4,2,4,60,0,0
164100,-100,4,2,4,60,0,0
164400,-100,4,2,4,60,0,0
164700,-100,4,1,2,60,0,0
165900,-100,4,1,15,70,0,1
166125,-100,4,1,20,70,0,1
166275,-100,4,1,15,70,0,1
167325,-100,4,1,20,70,0,1
167475,-100,4,1,15,70,0,1
168525,-100,4,1,20,70,0,1
168675,-100,4,1,15,70,0,1
169725,-100,4,1,20,70,0,1
169875,-100,4,1,15,70,0,1
170325,-100,4,1,20,70,0,1
170475,-100,4,1,15,70,0,1
172125,-100,4,1,20,70,0,1
172275,-100,4,1,15,70,0,1
173325,-100,4,1,20,70,0,1
173475,-100,4,1,15,70,0,1
173925,-100,4,1,20,70,0,1
174075,-100,4,1,15,70,0,1
175125,-100,4,1,20,70,0,1
175275,-100,4,1,15,70,0,1
176925,-100,4,1,20,70,0,1
177075,-100,4,1,15,70,0,1
177900,-100,4,2,15,50,0,0
179100,-100,4,2,15,50,0,0
183300,-100,4,2,15,5,0,0
184800,-100,4,2,66,50,0,0
186000,-100,4,2,66,50,0,0
186300,-100,4,2,66,50,0,0
190800,-100,4,2,66,50,0,0
191100,-100,4,2,66,50,0,0
197100,-100,4,2,66,5,0,0
200700,-100,4,2,12,50,0,0
201900,-100,4,2,4,60,0,0
202200,-100,4,2,4,60,0,0
202500,-100,4,2,4,60,0,0
203400,-100,4,2,4,60,0,0
203700,-100,4,2,4,60,0,0
204600,-100,4,2,4,60,0,0
204900,-100,4,2,4,60,0,0
205200,-100,4,1,2,60,0,0
205500,-100,4,1,2,60,0,0
206700,-100,4,1,15,70,0,1
206925,-100,4,1,20,70,0,1
207075,-100,4,1,15,70,0,1
208125,-100,4,1,20,70,0,1
208275,-100,4,1,15,70,0,1
208725,-100,4,1,20,70,0,1
208875,-100,4,1,15,70,0,1
209925,-100,4,1,20,70,0,1
210075,-100,4,1,15,70,0,1
210525,-100,4,1,20,70,0,1
210675,-100,4,1,15,70,0,1
212925,-100,4,1,20,70,0,1
213075,-100,4,1,15,70,0,1
214125,-100,4,1,20,70,0,1
214275,-100,4,1,15,70,0,1
214725,-100,4,1,20,70,0,1
214875,-100,4,1,15,70,0,1
215925,-100,4,1,20,70,0,1
216075,-100,4,1,15,70,0,1
217725,-100,4,1,20,70,0,1
217875,-100,4,1,15,70,0,1
218700,-100,4,1,15,50,0,0
219900,-100,4,2,15,50,0,0
221100,-100,4,2,4,60,0,0
230700,-100,4,2,33,60,0,0
236700,-100,4,2,1,5,0,0

[Colours]
Combo1 : 221,130,255
Combo2 : 250,48,83
Combo3 : 255,119,176
Combo4 : 102,231,253
Combo5 : 254,210,129
Combo6 : 156,255,132

[HitObjects]
120,188,1350,6,0,L|176:184,1,40,2|2,0:0|0:0,0:0:0:0:
256,192,1650,12,0,3900,0:0:0:0:
64,136,5100,6,0,P|100:124|148:132,1,79.9999999999999,8|8,0:0|0:0,0:0:0:0:
236,132,5700,2,0,P|256:96|320:156,1,160,0|2,0:0|0:0,0:0:0:0:
492,240,6900,6,0,P|472:276|408:216,1,160,0|2,0:0|0:0,0:0:0:0:
256,340,8100,2,0,L|176:332,1,79.9999999999999
80,324,8700,6,0,P|44:288|52:184,2,160,0|0|2,0:0|0:0|0:0,0:0:0:0:
136,244,10200,1,2,0:0:0:0:
232,248,10500,2,0,L|324:252,1,79.9999999999999,2|2,0:0|0:0,0:0:0:0:
408,244,11100,5,2,0:0:0:0:
456,56,11700,1,8,0:0:0:0:
268,24,12300,1,8,0:0:0:0:
228,212,12900,1,8,0:0:0:0:
64,116,13500,6,0,P|28:148|88:228,1,160,2|0,0:0|0:0,0:0:0:0:
84,324,14400,2,0,L|168:312,1,79.9999999999999,0|2,0:0|0:0,0:0:0:0:
476,88,15900,6,0,B|424:64|424:64|392:116|328:104,1,160,2|2,0:0|0:0,0:0:0:0:
308,296,17100,2,0,B|264:296|232:276|232:276|220:320|180:340,1,160,2|2,0:0|0:0,0:0:0:0:
24,232,18300,6,0,P|16:184|32:148,1,79.9999999999999,2|2,0:0|0:0,0:0:0:0:
64,68,18900,2,0,P|100:88|228:68,1,160,2|2,0:0|0:0,0:0:0:0:
300,32,19800,1,2,0:0:0:0:
312,128,20100,1,2,0:0:0:0:
256,312,20700,6,0,B|288:284|288:284|412:308,1,160,2|2,0:0|0:0,0:0:0:0:
476,128,21900,2,0,P|472:88|380:112,1,160,2|2,0:0|0:0,0:0:0:0:
200,44,23100,6,0,L|120:36,1,79.9999999999999,2|2,0:0|0:0,0:0:0:0:
44,96,23700,2,0,P|24:148|80:244,2,160,2|2|2,0:0|0:0|0:0,0:0:0:0:
224,168,25500,5,0,1:0:0:0:
356,28,26100,1,0,1:0:0:0:
508,148,26700,1,0,1:0:0:0:
384,296,27300,1,0,1:0:0:0:
200,352,27900,6,0,B|212:304|212:304|200:248|200:248|212:184,1,160,0|0,1:0|1:0,0:0:0:0:
226,102,28800,2,0,P|264:112|287:143,1,79.9999999999999,0|0,1:0|0:0,0:0:0:0:
20,332,30300,6,0,P|52:300|168:312,1,160,2|2,0:0|0:0,0:0:0:0:
240,360,31200,1,8,0:0:0:0:
316,300,31500,2,0,P|336:268|308:156,1,160,2|2,0:0|0:0,0:0:0:0:
240,88,32400,1,8,0:0:0:0:
144,80,32700,6,0,L|-16:64,2,160,2|2|2,0:0|0:0|0:0,0:0:0:0:
184,168,34200,1,8,0:0:0:0:
280,176,34500,2,0,P|320:172|348:128,1,79.9999999999999,2|8,0:0|0:0,0:0:0:0:
424,88,35100,6,0,B|448:124|444:164|444:164|484:192|476:244,1,160,2|2,0:0|0:0,0:0:0:0:
476,328,36000,1,8,0:0:0:0:
384,352,36300,2,0,B|336:316|288:368|220:344,1,160,2|2,0:0|0:0,0:0:0:0:
140,312,37200,1,8,0:0:0:0:
44,300,37500,6,0,P|33:229|104:228,1,160,2|2,0:0|0:0,0:0:0:0:
200,232,38400,2,0,P|196:184|172:160,1,79.9999999999999,2|2,0:0|0:0,0:0:0:0:
404,40,39900,6,0,P|432:76|416:184,1,160,2|2,0:0|0:0,0:0:0:0:
324,208,40800,1,8,0:0:0:0:
228,196,41100,2,0,P|176:172|80:220,2,160,2|2|2,0:0|0:0|0:0,0:0:0:0:
160,264,42600,5,8,0:0:0:0:
248,300,42900,2,0,P|292:284|312:248,1,79.9999999999999,2|8,0:0|0:0,0:0:0:0:
320,160,43500,2,0,B|384:116|384:116|464:144,1,160,2|2,0:0|0:0,0:0:0:0:
496,232,44400,1,8,0:0:0:0:
472,324,44700,6,0,B|408:368|408:368|328:340,1,160,2|2,0:0|0:0,0:0:0:0:
244,300,45600,1,8,0:0:0:0:
160,348,45900,2,0,B|140:300|164:252|164:252|136:280|92:280,1,160,2|2,0:0|0:0,0:0:0:0:
96,184,46800,1,8,0:0:0:0:
36,108,47100,6,0,P|108:88|184:136,1,160,2|2,0:0|0:0,0:0:0:0:
256,184,48000,1,8,0:0:0:0:
333,128,48300,2,0,P|400:88|476:108,2,160,2|2|2,0:0|0:0|0:0,0:0:0:0:
416,180,49800,5,8,0:0:0:0:
332,224,50100,2,0,B|292:200|244:252|176:232,1,160,2|2,0:0|0:0,0:0:0:0:
112,160,51000,1,8,0:0:0:0:
20,180,51300,2,0,B|8:224|8:224|44:332,1,160,2|2,0:0|0:0,0:0:0:0:
132,364,52200,5,8,0:0:0:0:
216,316,52500,2,0,P|256:292|312:368,2,160,2|2|2,0:0|0:0|0:0,0:0:0:0:
140,256,54000,1,8,0:0:0:0:
160,160,54300,6,0,P|168:100|260:80,1,160,2|2,0:0|0:0,0:0:0:0:
396,204,55500,2,0,P|388:264|296:284,1,160,2|2,0:0|0:0,0:0:0:0:
120,352,56700,6,0,P|76:224|152:208,1,240,2|0,0:0|0:0,0:0:0:0:
224,256,57900,2,0,P|284:280|460:252,1,240
472,160,59100,6,0,B|428:136|384:192|316:176,1,160,2|2,0:0|0:0,0:0:0:0:
252,104,60000,1,2,0:0:0:0:
168,56,60300,2,0,P|124:68|88:168,1,160,2|2,0:0|0:0,0:0:0:0:
52,256,61200,1,8,0:0:0:0:
116,328,61500,6,0,B|176:316|176:316|208:332|208:332|272:320,2,160,2|2|2,0:0|0:0|0:0,0:0:0:0:
52,256,63000,1,0,0:0:0:0:
136,212,63300,2,0,L|224:200,1,79.9999999999999,2|8,0:0|0:0,0:0:0:0:
312,188,63900,6,0,P|336:136|364:204,1,160,2|2,0:0|0:0,0:0:0:0:
464,228,64800,1,2,0:0:0:0:
400,300,65100,2,0,P|376:352|348:284,1,160,2|2,0:0|0:0,0:0:0:0:
252,256,66000,1,8,0:0:0:0:
156,264,66300,6,0,B|44:272|44:272|84:240,1,160,2|2,0:0|0:0,0:0:0:0:
144,168,67200,1,8,0:0:0:0:
200,92,67500,2,0,P|132:68|64:116,2,160,2|2|2,0:0|0:0|0:0,0:0:0:0:
488,344,69900,2,0,P|468:324|408:312,1,79.9999999999999,8|8,0:0|0:0,0:0:0:0:
324,320,70500,6,0,B|304:272|304:272|328:248|328:248|296:228|312:172,1,160,0|2,0:0|0:0,0:0:0:0:
168,52,71700,2,0,P|120:44|48:132,1,160,0|2,0:0|0:0,0:0:0:0:
56,308,72900,1,0,0:0:0:0:
244,336,73500,6,0,P|292:344|364:256,2,160,0|0|2,0:0|0:0|0:0,0:0:0:0:
172,276,75000,1,2,0:0:0:0:
120,196,75300,2,0,L|132:116,1,79.9999999999999,2|2,0:0|0:0,0:0:0:0:
196,44,75900,6,0,P|236:80|340:76,1,160,2|2,0:0|0:0,0:0:0:0:
424,36,76800,1,8,0:0:0:0:
480,112,77100,2,0,B|472:160|472:160|492:204|492:204|476:272,1,160,2|2,0:0|0:0,0:0:0:0:
452,360,78000,1,8,0:0:0:0:
380,296,78300,6,0,P|332:264|232:288,1,160,2|2,0:0|0:0,0:0:0:0:
148,324,79200,1,8,0:0:0:0:
60,284,79500,2,0,P|28:256|40:144,2,160,2|2|2,0:0|0:0|0:0,0:0:0:0:
116,204,81000,6,0,B|168:176|220:232|272:204,1,160,8|8,0:0|0:0,0:0:0:0:
348,264,81900,2,0,P|368:216|312:124,1,160,2|0,0:0|0:0,0:0:0:0:
240,76,82800,1,8,0:0:0:0:
152,40,83100,6,0,L|-8:52,2,160,2|2|2,0:0|0:0|0:0,0:0:0:0:
240,76,84600,1,8,0:0:0:0:
336,76,84900,2,0,P|376:44|448:112,1,160,2|2,0:0|0:0,0:0:0:0:
488,192,85800,6,0,B|444:204|396:180|396:180|412:216|400:256,1,160,8|8,0:0|0:0,0:0:0:0:
456,324,86700,2,0,P|388:340|316:284,1,160,2|2,0:0|0:0,0:0:0:0:
300,196,87600,1,8,0:0:0:0:
232,260,87900,5,2,0:0:0:0:
232,260,89100,5,0,0:0:0:0:
232,260,90300,6,0,P|192:216|88:240,1,160,2|2,0:0|0:0,0:0:0:0:
244,352,91500,2,0,P|300:328|320:236,1,160,2|2,0:0|0:0,0:0:0:0:
296,48,92700,6,0,P|228:85|219:162,2,160,2|2|2,0:0|0:0|0:0,0:0:0:0:
372,108,94200,2,0,L|460:100,1,79.9999999999999,2|2,0:0|0:0,0:0:0:0:
468,292,95100,6,0,B|432:296|408:268|408:268|368:316|320:316,1,160,2|2,0:0|0:0,0:0:0:0:
140,348,96300,2,0,P|160:304|80:304,1,160,2|2,0:0|0:0,0:0:0:0:
52,112,97500,6,0,P|88:136|200:112,2,160,2|2|2,0:0|0:0|0:0,0:0:0:0:
36,208,99000,1,2,0:0:0:0:
64,300,99300,2,0,B|96:288|116:256|116:256|140:292|204:296,1,160,2|0,0:0|0:0,0:0:0:0:
468,24,101100,6,0,P|496:64|452:168,2,160,6|0|2,0:0|0:0|0:0,0:0:0:0:
396,88,102600,1,2,0:0:0:0:
300,76,102900,2,0,L|212:68,1,79.9999999999999,0|2,0:0|0:0,0:0:0:0:
124,60,103500,6,0,P|80:84|68:192,2,160,2|0|2,0:0|0:0|0:0,0:0:0:0:
160,148,105000,1,0,0:0:0:0:
252,176,105300,2,0,P|258:252|198:300,1,160,0|2,0:0|0:0,0:0:0:0:
104,300,106200,5,2,0:0:0:0:
24,244,106500,2,0,P|17:167|77:119,1,160,2|2,0:0|0:0,0:0:0:0:
160,68,107400,1,2,0:0:0:0:
248,104,107700,2,0,B|312:88|344:144|416:128,1,160,2|2,0:0|0:0,0:0:0:0:
488,88,108600,5,2,0:0:0:0:
496,184,108900,2,0,B|488:240|488:240|504:264|504:264|492:344,2,160,2|2|0,0:0|0:0|0:0,0:0:0:0:
368,40,110700,6,0,P|336:72|224:64,1,160,2|2,0:0|0:0,0:0:0:0:
132,60,111600,1,2,0:0:0:0:
48,108,111900,2,0,P|28:152|56:264,1,160,2|2,0:0|0:0,0:0:0:0:
112,332,112800,1,2,0:0:0:0:
160,248,113100,6,0,B|204:236|204:236|264:260|264:260|316:248,1,160,2|2,0:0|0:0,0:0:0:0:
400,288,114000,1,2,0:0:0:0:
468,220,114300,2,0,P|496:184|424:104,1,160,2|2,0:0|0:0,0:0:0:0:
344,92,115200,1,2,0:0:0:0:
260,136,115500,6,0,P|232:172|304:252,1,160,2|2,0:0|0:0,0:0:0:0:
368,308,116400,1,2,0:0:0:0:
292,368,116700,2,0,B|248:332|184:380|136:360,1,160,2|2,0:0|0:0,0:0:0:0:
40,344,117600,1,2,0:0:0:0:
28,248,117900,6,0,B|12:216|12:216|32:192|32:192|0:152|24:88,2,160,2|2|0,0:0|0:0|0:0,0:0:0:0:
400,340,120300,6,0,P|364:308|256:320,1,160,2|2,0:0|0:0,0:0:0:0:
168,344,121200,1,2,0:0:0:0:
92,284,121500,2,0,P|60:244|80:144,1,160,2|2,0:0|0:0,0:0:0:0:
136,64,122400,1,2,0:0:0:0:
220,108,122700,6,0,B|280:88|324:140|376:116,1,160,2|2,0:0|0:0,0:0:0:0:
456,60,123600,1,2,0:0:0:0:
496,148,123900,2,0,L|484:316,1,160,2|2,0:0|0:0,0:0:0:0:
400,348,124800,1,0,0:0:0:0:
328,284,125100,6,0,P|300:228|348:144,1,160,2|2,0:0|0:0,0:0:0:0:
396,68,126000,1,2,0:0:0:0:
308,32,126300,2,0,P|276:56|160:48,1,160,2|2,0:0|0:0,0:0:0:0:
68,64,127200,1,2,0:0:0:0:
108,152,127500,6,0,P|152:176|176:280,2,160,2|2|0,0:0|0:0|0:0,0:0:0:0:
452,328,129900,6,0,P|416:304|300:308,1,160,2|8,0:0|0:0,0:0:0:0:
224,364,130800,1,0,0:0:0:0:
136,332,131100,2,0,P|104:292|128:192,1,160,2|8,0:0|0:0,0:0:0:0:
320,176,132300,6,0,B|368:168|368:168|424:200|476:176,2,160,2|8|2,0:0|0:0|0:0,0:0:0:0:
240,124,133800,2,0,P|220:164|228:204,1,79.9999999999999,0|8,0:0|0:0,0:0:0:0:
324,364,134700,6,0,P|352:328|468:328,1,160,2|8,0:0|0:0,0:0:0:0:
512,240,135600,1,0,0:0:0:0:
492,148,135900,2,0,P|448:136|388:40,1,160,2|8,0:0|0:0,0:0:0:0:
208,108,137100,6,0,B|148:96|112:136|36:116,2,160,2|8|2,0:0|0:0|0:0,0:0:0:0:
288,52,138600,1,0,0:0:0:0:
320,144,138900,2,0,P|336:184|328:232,1,79.9999999999999,8|0,0:0|0:0,0:0:0:0:
328,316,139500,6,0,P|280:296|176:336,1,160,2|2,0:0|0:0,0:0:0:0:
92,360,140400,1,8,0:0:0:0:
32,284,140700,2,0,P|16:240|72:144,1,160,2|2,0:0|0:0,0:0:0:0:
156,116,141600,1,8,0:0:0:0:
240,164,141900,6,0,B|284:164|312:136|312:136|336:168|388:176,1,160,2|2,0:0|0:0,0:0:0:0:
396,80,142800,1,8,0:0:0:0:
476,136,143100,2,0,P|496:180|424:264,1,160,2|2,0:0|0:0,0:0:0:0:
352,308,144000,1,8,0:0:0:0:
256,304,144300,6,0,L|96:288,1,160,2|2,0:0|0:0,0:0:0:0:
52,100,145500,2,0,L|212:116,1,160,2|2,0:0|0:0,0:0:0:0:
188,308,146700,6,0,P|128:352|40:240,1,240,2|0,0:0|0:0,0:0:0:0:
24,156,147900,2,0,B|-4:88|24:16|24:16|48:76|88:84,1,240
180,104,149100,6,0,P|224:76|248:156,1,160,2|2,0:0|0:0,0:0:0:0:
172,212,150000,1,2,0:0:0:0:
260,252,150300,2,0,B|308:252|332:224|332:224|364:260|412:260,1,160,2|2,0:0|0:0,0:0:0:0:
408,164,151200,1,8,0:0:0:0:
480,224,151500,6,0,P|500:180|436:80,2,160,2|2|2,0:0|0:0|0:0,0:0:0:0:
484,320,153000,1,2,0:0:0:0:
396,356,153300,2,0,L|316:344,1,79.9999999999999,2|8,0:0|0:0,0:0:0:0:
220,332,153900,6,0,P|184:288|196:184,1,160,2|2,0:0|0:0,0:0:0:0:
260,120,154800,1,2,0:0:0:0:
220,32,155100,2,0,P|168:16|80:68,1,160,2|2,0:0|0:0,0:0:0:0:
52,156,156000,1,8,0:0:0:0:
116,228,156300,6,0,B|156:296|156:296|124:372,2,160,2|2|2,0:0|0:0|0:0,0:0:0:0:
168,148,157800,1,2,0:0:0:0:
256,188,158100,2,0,B|304:176|352:224|412:208,1,160,2|2,0:0|0:0,0:0:0:0:
56,348,159900,2,0,L|56:264,1,79.9999999999999,8|8,0:0|0:0,0:0:0:0:
60,172,160500,6,0,P|92:144|200:188,1,160,8|2,0:0|0:0,0:0:0:0:
344,296,161700,2,0,P|410:334|477:299,1,160,0|2,0:0|0:0,0:0:0:0:
456,108,162900,1,0,0:0:0:0:
280,36,163500,6,0,B|248:64|248:64|128:44,2,160,0|0|2,0:0|0:0|0:0,0:0:0:0:
356,92,165000,1,2,0:0:0:0:
320,180,165300,2,0,P|304:216|312:264,1,79.9999999999999,2|2,0:0|0:0,0:0:0:0:
364,336,165900,6,0,P|320:308|216:332,1,160,2|2,0:0|0:0,0:0:0:0:
124,352,166800,1,8,0:0:0:0:
44,300,167100,2,0,B|36:240|36:240|8:204|8:204|4:148,1,160,2|2,0:0|0:0,0:0:0:0:
4,56,168000,1,8,0:0:0:0:
92,96,168300,6,0,P|132:108|244:52,1,160,2|2,0:0|0:0,0:0:0:0:
328,36,169200,1,8,0:0:0:0:
420,68,169500,2,0,P|468:116|444:208,2,160,2|2|2,0:0|0:0|0:0,0:0:0:0:
372,152,171000,6,0,B|328:136|268:180|208:160,1,160,8|8,0:0|0:0,0:0:0:0:
120,136,171900,2,0,P|76:168|72:276,1,160,2|2,0:0|0:0,0:0:0:0:
112,352,172800,1,8,0:0:0:0:
208,348,173100,6,0,L|384:340,2,160,2|2|2,0:0|0:0|0:0,0:0:0:0:
172,260,174600,1,8,0:0:0:0:
268,248,174900,2,0,P|312:228|348:128,1,160,2|2,0:0|0:0,0:0:0:0:
332,32,175800,2,0,P|288:52|252:152,1,160,8|8,0:0|0:0,0:0:0:0:
212,240,176700,6,0,B|164:216|156:188|156:188|124:208|64:200,1,160,2|2,0:0|0:0,0:0:0:0:
100,108,177600,1,8,0:0:0:0:
196,92,177900,5,2,0:0:0:0:
196,92,179100,5,0,0:0:0:0:
196,92,180300,5,2,0:0:0:0:
256,192,180450,12,0,183300,0:0:0:0:
88,164,184800,5,2,0:0:0:0:
156,96,185100,6,0,P|204:72|304:112,2,160,2|2|2,0:0|0:0|0:0,0:0:0:0:
224,164,186600,2,0,L|216:256,1,79.9999999999999,2|2,0:0|0:0,0:0:0:0:
376,352,187500,6,0,P|428:352|508:264,1,160,2|2,0:0|0:0,0:0:0:0:
480,188,188400,1,2,0:0:0:0:
416,116,188700,2,0,P|364:116|284:204,1,160,2|2,0:0|0:0,0:0:0:0:
164,332,189900,6,0,B|96:348|96:348|0:304,2,160,2|2|2,0:0|0:0|0:0,0:0:0:0:
116,248,191400,2,0,L|124:164,1,79.9999999999999,2|2,0:0|0:0,0:0:0:0:
260,36,192300,6,0,P|300:32|344:52,1,79.9999999999999,2|0,0:0|0:0,0:0:0:0:
432,32,192900,2,0,P|428:80|408:116,1,79.9999999999999,2|0,0:0|0:0,0:0:0:0:
324,136,193500,2,0,P|280:180|424:196,1,320,2|2,0:0|0:0,0:0:0:0:
256,192,194850,12,0,197100,0:0:0:0:
404,180,200700,6,0,P|372:160|320:160,1,79.9999999999999,8|8,0:0|0:0,0:0:0:0:
240,192,201300,2,0,B|260:240|260:240|224:348,1,160,8|2,0:0|0:0,0:0:0:0:
72,228,202500,2,0,B|52:180|52:180|88:72,1,160,0|2,0:0|0:0,0:0:0:0:
272,36,203700,1,0,0:0:0:0:
448,112,204300,6,0,P|388:104|316:164,2,160,0|0|2,0:0|0:0|0:0,0:0:0:0:
404,196,205800,1,2,0:0:0:0:
480,256,206100,2,0,P|456:280|396:288,1,79.9999999999999,2|2,0:0|0:0,0:0:0:0:
344,356,206700,6,0,B|320:324|316:292|316:292|284:312|220:296,1,160,2|2,0:0|0:0,0:0:0:0:
248,204,207600,1,8,0:0:0:0:
156,228,207900,2,0,P|124:288|156:376,2,160,2|2|2,0:0|0:0|0:0,0:0:0:0:
248,204,209400,5,8,0:0:0:0:
344,208,209700,2,0,B|400:216|400:216|432:196|432:196|500:204,2,160,2|2|2,0:0|0:0|0:0,0:0:0:0:
352,112,211200,2,0,L|360:32,1,79.9999999999999,8|2,0:0|0:0,0:0:0:0:
264,32,211800,6,0,P|232:64|116:72,1,160,8|8,0:0|0:0,0:0:0:0:
60,148,212700,2,0,P|88:176|104:292,1,160,2|2,0:0|0:0,0:0:0:0:
180,352,213600,1,8,0:0:0:0:
276,348,213900,6,0,B|332:336|332:336|376:356|376:356|440:348,2,160,2|2|2,0:0|0:0|0:0,0:0:0:0:
224,268,215400,1,8,0:0:0:0:
272,184,215700,2,0,P|204:168|132:232,1,160,2|2,0:0|0:0,0:0:0:0:
48,252,216600,6,0,L|32:88,1,160,8|8,0:0|0:0,0:0:0:0:
116,44,217500,2,0,P|152:72|272:76,1,160,2|2,0:0|0:0,0:0:0:0:
348,36,218400,1,8,0:0:0:0:
340,132,218700,5,2,0:0:0:0:
340,132,219900,5,0,0:0:0:0:
32,360,221100,6,0,P|68:320|176:312,1,160,2|2,0:0|0:0,0:0:0:0:
360,280,222300,2,0,P|304:260|248:176,1,160,2|2,0:0|0:0,0:0:0:0:
120,40,223500,6,0,P|132:76|92:188,2,160,2|2|2,0:0|0:0|0:0,0:0:0:0:
216,40,225000,2,0,P|252:60|300:64,1,79.9999999999999,2|0,0:0|0:0,0:0:0:0:
452,168,225900,6,0,P|392:168|312:224,1,160,2|2,0:0|0:0,0:0:0:0:
180,360,227100,2,0,P|204:312|180:208,1,160,2|2,0:0|0:0,0:0:0:0:
116,32,228300,6,0,P|168:84|268:88,2,160,2|2|2,0:0|0:0|0:0,0:0:0:0:
32,76,229800,1,2,0:0:0:0:
44,172,230100,2,0,P|122:179|178:233,1,160,2|2,0:0|0:0,0:0:0:0:
256,292,231000,1,6,0:0:0:0:
256,192,231150,12,0,236700,0:0:0:0:
