osu file format v14

[General]
AudioFilename: audio.mp3
AudioLeadIn: 0
PreviewTime: 70500
Countdown: 0
SampleSet: Soft
StackLeniency: 0.7
Mode: 0
LetterboxInBreaks: 0
WidescreenStoryboard: 1

[Editor]
DistanceSpacing: 1
BeatDivisor: 4
GridSize: 32
TimelineZoom: 1

[Metadata]
Title:Mazare Party
TitleUnicode:Mazare Party
Artist:MAZARE
ArtistUnicode:MAZARE
Creator:IntellectualBoy
Version:Normal
Source:
Tags:toybot walaowey Neoskylove [ L u k a s ] oriental trap jcore utaite Nanahira Kradness Yukacco ななひら Camellia MIND HACK EXIT TUNES
BeatmapID:1415176
BeatmapSetID:667868

[Difficulty]
HPDrainRate:5
CircleSize:3.5
OverallDifficulty:5
ApproachRate:6
SliderMultiplier:1.1
SliderTickRate:1

[Events]
//Background and Video events
0,0,"Mazare.jpg",0,0
//Break Periods
2,197300,199650
//Storyboard Layer 0 (Background)
//Storyboard Layer 1 (Fail)
//Storyboard Layer 2 (Pass)
//Storyboard Layer 3 (Foreground)
//Storyboard Sound Samples

[TimingPoints]
300,300,4,2,4,50,1,0
5100,-100,4,2,12,50,0,0
6300,-100,4,2,4,50,0,0
11700,-100,4,2,1,30,0,0
12000,-100,4,2,1,40,0,0
12300,-100,4,2,1,50,0,0
12600,-100,4,2,1,60,0,0
13500,-100,4,2,9,60,0,0
15900,-100,4,2,4,60,0,0
25500,-100,4,2,4,30,0,0
27000,-100,4,2,4,40,0,0
27300,-100,4,2,4,50,0,0
27600,-100,4,2,4,60,0,0
30300,-100,4,2,15,70,0,0
38700,-100,4,3,1,60,0,0
39300,-100,4,3,14,60,0,0
39900,-100,4,2,15,60,0,0
47400,-100,4,2,15,60,0,0
47700,-100,4,2,15,60,0,0
48000,-100,4,2,15,60,0,0
48300,-100,4,2,15,60,0,0
54300,-100,4,3,1,60,0,0
56700,-100,4,2,15,60,0,0
58500,-100,4,2,15,5,0,0
59100,-100,4,2,9,50,0,0
60000,-100,4,2,77,50,0,0
60300,-100,4,2,33,50,0,0
63000,-100,4,2,1,65,0,0
63900,-100,4,2,33,50,0,0
67800,-100,4,2,1,50,0,0
68100,-100,4,2,33,50,0,0
69900,-100,4,2,12,50,0,0
70500,-100,4,2,4,50,0,0
75900,-100,4,1,15,70,0,1
87900,-100,4,2,15,50,0,0
89100,-100,4,2,15,50,0,0
90300,-100,4,2,4,60,0,0
100800,-100,4,2,9,30,0,0
101400,-100,4,2,15,30,0,0
103800,-100,4,2,15,40,0,0
104100,-100,4,2,15,50,0,0
104400,-100,4,2,15,60,0,0
105900,-100,4,1,15,65,0,0
110700,-100,4,1,15,70,0,1
119100,-100,4,1,15,50,0,0
119400,-100,4,3,1,70,0,0
120300,-100,4,1,15,70,0,1
129000,-100,4,3,1,70,0,1
129300,-100,4,3,14,70,0,1
129900,-100,4,2,17,60,0,0
130200,-100,4,2,17,60,0,0
130500,-100,4,2,17,60,0,0
131100,-100,4,2,17,60,0,0
131700,-100,4,2,17,60,0,0
132300,-100,4,2,17,60,0,0
132600,-100,4,2,17,60,0,0
132900,-100,4,2,17,60,0,0
133500,-100,4,2,17,60,0,0
135000,-100,4,2,17,60,0,0
135300,-100,4,2,17,60,0,0
135900,-100,4,2,17,60,0,0
136500,-100,4,2,17,60,0,0
136950,-100,4,2,17,60,0,0
137700,-100,4,2,17,60,0,0
138300,-100,4,2,17,60,0,0
139500,-100,4,2,15,60,0,0
141600,-100,4,2,16,60,0,0
141900,-100,4,2,15,60,0,0
143850,-100,4,2,16,60,0,0
144300,-100,4,3,1,60,0,0
146700,-100,4,2,15,60,0,0
148500,-100,4,2,15,5,0,0
149100,-100,4,2,9,50,0,0
150000,-100,4,2,77,50,0,0
150300,-100,4,2,33,50,0,0
153000,-100,4,2,1,65,0,0
153900,-100,4,2,33,50,0,0
154800,-100,4,2,77,50,0,0
155100,-100,4,2,33,50,0,0
157800,-100,4,2,1,65,0,0
158100,-100,4,2,33,50,0,0
159900,-100,4,2,12,50,0,0
161100,-100,4,2,4,50,0,0
161400,-100,4,2,4,50,0,0
161700,-100,4,2,4,50,0,0
162600,-100,4,2,4,50,0,0
163500,-100,4,2,4,50,0,0
163800,-100,4,2,4,50,0,0
164100,-100,4,2,4,50,0,0
164400,-100,4,2,4,50,0,0
164700,-100,4,1,2,50,0,0
165900,-100,4,1,15,70,0,1
177900,-100,4,2,15,50,0,0
179100,-100,4,2,15,50,0,0
184200,-100,4,2,15,5,0,0
185100,-100,4,2,66,50,0,0
186000,-100,4,2,77,50,0,0
186300,-100,4,2,66,50,0,0
190800,-100,4,2,77,50,0,0
191100,-100,4,2,66,50,0,0
193800,-100,4,2,1,65,0,0
194700,-100,4,2,33,40,0,0
197100,-100,4,2,66,5,0,0
200700,-100,4,2,12,50,0,0
201900,-100,4,2,4,50,0,0
202200,-100,4,2,4,50,0,0
202500,-100,4,2,4,50,0,0
203400,-100,4,2,4,50,0,0
203700,-100,4,2,4,50,0,0
204600,-100,4,2,4,50,0,0
204900,-100,4,2,4,50,0,0
205200,-100,4,2,4,50,0,0
205500,-100,4,1,2,50,0,0
206700,-100,4,1,15,50,0,1
218700,-100,4,2,15,50,0,0
221100,-100,4,2,4,60,0,0
230700,-100,4,2,16,60,0,0
236700,-100,4,2,16,5,0,0

[Colours]
Combo1 : 221,130,255
Combo2 : 250,48,83
Combo3 : 255,119,176
Combo4 : 102,231,253
Combo5 : 254,210,129
Combo6 : 156,255,132

[HitObjects]
168,184,1350,6,0,L|224:180,1,55,2|2,0:0|0:0,0:0:0:0:
256,192,1575,12,0,4500,0:0:0:0:
400,72,5100,6,0,L|392:140,1,55,8|0,0:0|0:0,0:0:0:0:
444,144,5400,2,0,L|436:212,1,55,8|0,0:0|0:0,0:0:0:0:
436,252,5700,2,0,P|396:268|328:256,1,110,0|2,0:0|0:0,0:0:0:0:
260,176,6300,5,2,0:0:0:0:
84,44,6900,2,0,B|52:68|52:68|64:136,1,110
80,244,7500,1,2,0:0:0:0:
276,144,8100,6,0,P|324:136|384:168,1,110
464,232,8700,1,0,0:0:0:0:
480,124,9000,2,0,P|468:76|508:16,2,110,2|0|2,0:0|0:0|0:0,0:0:0:0:
464,232,9900,6,0,L|452:296,2,55,2|0|2,0:0|0:0|0:0,0:0:0:0:
424,196,10350,1,0,0:0:0:0:
372,212,10500,2,0,P|336:224|248:200,1,110,2|2,0:0|0:0,0:0:0:0:
212,116,11100,5,2,0:0:0:0:
104,124,11400,2,0,P|72:144|52:224,2,110,0|8|8,0:0|0:0|0:0,0:0:0:0:
160,220,12300,2,0,P|216:248|268:236,1,110,8|8,0:0|0:0,0:0:0:0:
316,336,12900,2,0,P|360:308|376:240,1,110,8|8,0:0|0:0,0:0:0:0:
332,152,13500,6,0,L|328:92,2,55,2|2|2,0:0|0:0|0:0,0:0:0:0:
376,184,13950,1,2,0:0:0:0:
432,180,14100,2,0,P|464:172|536:196,1,110,2|0,0:0|0:0,0:0:0:0:
464,280,14700,1,2,0:0:0:0:
88,56,15900,6,0,P|56:80|44:156,1,110,2|2,0:0|0:0,0:0:0:0:
92,244,16500,1,2,0:0:0:0:
312,228,17100,6,0,L|202:235,1,110,2|2,0:0|0:0,0:0:0:0:
148,332,17700,1,2,0:0:0:0:
228,128,18300,6,0,B|216:56|216:56|256:92,1,110,2|2,0:0|0:0,0:0:0:0:
352,76,18900,2,0,L|348:16,2,55,2|0|2,0:0|0:0|0:0,0:0:0:0:
360,132,19350,1,2,0:0:0:0:
400,168,19500,2,0,P|448:164|500:120,2,110,2|2|2,0:0|0:0|0:0,0:0:0:0:
272,348,20700,6,0,L|396:336,1,110,2|2,0:0|0:0,0:0:0:0:
480,292,21300,2,0,L|492:352,2,55,2|0|0,0:0|0:0|0:0,0:0:0:0:
388,232,21900,2,0,P|340:220|308:152,1,110,2|2,0:0|0:0,0:0:0:0:
352,68,22500,1,2,0:0:0:0:
132,40,23100,6,0,B|100:72|100:72|112:136,1,110,2|2,0:0|0:0,0:0:0:0:
92,244,23700,2,0,L|32:252,2,55,2|0|2,0:0|0:0|0:0,0:0:0:0:
144,232,24150,1,2,0:0:0:0:
196,220,24300,2,0,P|232:244|300:240,1,110,2|2,0:0|0:0,0:0:0:0:
376,168,24900,2,0,L|368:52,1,110,2|0,0:0|0:0,0:0:0:0:
476,36,25500,6,0,P|504:72|492:152,1,110
500,244,26100,2,0,P|456:232|384:268,1,110
320,332,26700,1,0,1:0:0:0:
212,320,27000,1,0,1:0:0:0:
136,240,27300,2,0,P|120:204|136:132,1,110,0|0,1:0|1:0,0:0:0:0:
220,68,27900,5,0,1:0:0:0:
328,80,28200,2,0,P|368:100|444:88,2,110,0|0|0,1:0|1:0|1:0,0:0:0:0:
252,160,29100,1,0,0:0:0:0:
72,344,30300,6,0,B|52:292|52:292|72:236,1,110,6|8,0:0|0:0,0:0:0:0:
168,288,30900,2,0,P|208:284|268:236,1,110,2|8,0:0|0:0,0:0:0:0:
300,204,31350,1,0,0:0:0:0:
356,212,31500,2,0,L|464:232,1,110,2|8,0:0|0:0,0:0:0:0:
504,128,32100,2,0,L|396:108,1,110,2|8,0:0|0:0,0:0:0:0:
308,40,32700,6,0,P|284:68|292:140,1,110,2|8,0:0|0:0,0:0:0:0:
192,184,33300,2,0,P|203:236|173:281,1,110,2|8,0:0|0:0,0:0:0:0:
120,296,33750,1,0,0:0:0:0:
68,276,33900,2,0,P|56:223|86:178,1,110,2|8,0:0|0:0,0:0:0:0:
88,68,34500,2,0,L|24:56,2,55,2|0|8,0:0|0:0|0:0,0:0:0:0:
192,32,35100,6,0,P|228:68|288:68,1,110,2|8,0:0|0:0,0:0:0:0:
388,36,35700,2,0,B|408:64|408:64|388:144,1,110,2|8,0:0|0:0,0:0:0:0:
352,180,36150,1,0,0:0:0:0:
376,232,36300,2,0,P|416:216|484:232,1,110,2|8,0:0|0:0,0:0:0:0:
436,332,36900,2,0,P|396:348|328:332,1,110,2|8,0:0|0:0,0:0:0:0:
240,272,37500,6,0,L|252:160,1,110,2|8,0:0|0:0,0:0:0:0:
264,52,38100,2,0,P|224:72|156:68,1,110,2|8,0:0|0:0,0:0:0:0:
112,44,38550,1,0,0:0:0:0:
64,72,38700,6,0,P|40:116|64:172,1,110,2|0,0:0|0:0,0:0:0:0:
124,260,39300,2,0,L|120:320,2,55,8|8|8,0:0|0:0|0:0,0:0:0:0:
152,212,39750,1,8,0:0:0:0:
208,216,39900,6,0,P|236:232|312:224,1,110,2|8,0:0|0:0,0:0:0:0:
384,144,40500,2,0,B|376:88|376:88|408:40,1,110,2|8,0:0|0:0,0:0:0:0:
460,52,40950,1,0,0:0:0:0:
512,60,41100,2,0,B|520:116|520:116|488:164,1,110,2|8,0:0|0:0,0:0:0:0:
420,244,41700,2,0,P|372:236|312:268,1,110,2|8,0:0|0:0,0:0:0:0:
236,332,42300,6,0,P|180:332|140:296,1,110,2|8,0:0|0:0,0:0:0:0:
52,236,42900,2,0,P|84:208|92:144,1,110,2|8,0:0|0:0,0:0:0:0:
56,100,43350,1,0,0:0:0:0:
88,56,43500,2,0,P|128:76|196:72,1,110,2|8,0:0|0:0,0:0:0:0:
300,64,44100,2,0,L|312:4,2,55,2|0|8,0:0|0:0|0:0,0:0:0:0:
312,172,44700,6,0,P|272:176|232:236,1,110,2|8,0:0|0:0,0:0:0:0:
228,284,45150,1,0,0:0:0:0:
276,308,45300,2,0,P|316:304|356:244,1,110,2|8,0:0|0:0,0:0:0:0:
452,196,45900,2,0,P|464:232|532:272,2,110,2|8|2,0:0|0:0|0:0,0:0:0:0:
488,92,46800,1,8,0:0:0:0:
380,76,47100,6,0,L|308:68,1,55,2|0,0:0|0:0,0:0:0:0:
272,64,47400,1,8,0:0:0:0:
164,40,47700,2,0,L|176:100,1,55,2|0,0:0|0:0,0:0:0:0:
188,148,48000,1,8,0:0:0:0:
292,180,48300,6,0,L|352:184,2,55,2|0|8,0:0|0:0|0:0,0:0:0:0:
260,224,48750,1,0,0:0:0:0:
216,256,48900,2,0,P|172:260|112:212,1,110,2|8,0:0|0:0,0:0:0:0:
19,185,49500,6,0,P|42:136|92:116,1,110,2|8,0:0|0:0,0:0:0:0:
196,80,50100,2,0,P|188:49|195:22,2,55,2|0|8,0:0|0:0|0:0,0:0:0:0:
224,128,50550,1,0,0:0:0:0:
280,132,50700,2,0,P|352:128|380:104,1,110,2|8,0:0|0:0,0:0:0:0:
484,144,51300,2,0,L|480:200,1,55,2|0,0:0|0:0,0:0:0:0:
476,252,51600,1,8,0:0:0:0:
392,324,51900,6,0,P|360:308|284:316,1,110,2|8,0:0|0:0,0:0:0:0:
236,336,52350,1,0,0:0:0:0:
184,352,52500,2,0,P|144:324|136:252,1,110,2|8,0:0|0:0,0:0:0:0:
148,156,53100,2,0,B|96:172|96:172|40:144,2,110,2|8|2,0:0|0:0|0:0,0:0:0:0:
236,88,54000,1,8,0:0:0:0:
328,148,54300,6,0,L|384:136,1,55
436,124,54600,1,0,0:0:0:0:
492,216,54900,2,0,L|484:276,1,55
480,324,55200,1,0,0:0:0:0:
384,272,55500,6,0,L|312:288,1,55
276,292,55800,1,0,0:0:0:0:
168,288,56100,2,0,L|180:356,2,55
160,232,56550,1,0,0:0:0:0:
148,180,56700,5,2,0:0:0:0:
256,192,56775,12,0,58500,0:0:0:0:
52,212,59100,6,0,P|84:180|152:180,1,110,2|0,0:0|0:0,0:0:0:0:
196,204,59550,1,2,0:0:0:0:
252,212,59700,2,0,L|368:196,1,110,2|2,0:0|0:0,0:0:0:0:
456,256,60300,2,0,P|468:288|464:312,2,55,2|0|0,0:0|0:0|0:0,0:0:0:0:
452,200,60750,1,2,0:0:0:0:
492,164,60900,2,0,B|504:116|504:116|468:60,1,110,2|8,0:0|0:0,0:0:0:0:
364,36,61500,6,0,P|336:56|252:64,1,110,2|0,0:0|0:0,0:0:0:0:
216,36,61950,1,2,0:0:0:0:
160,40,62100,2,0,B|120:64|120:64|56:48,2,110,2|8|0,0:0|0:0|0:0,0:0:0:0:
196,144,63000,1,2,0:1:0:0:
96,192,63300,2,0,L|36:184,2,55,2|2|10,0:1|0:1|0:1,0:0:0:0:
124,300,63900,6,0,P|160:280|228:296,1,110,2|0,0:0|0:0,0:0:0:0:
272,324,64350,1,2,0:0:0:0:
320,348,64500,2,0,P|360:312|360:244,1,110,2|8,0:0|0:0,0:0:0:0:
288,180,65100,2,0,L|280:120,2,55,2|0|0,0:0|0:0|0:0,0:0:0:0:
340,200,65550,1,2,0:0:0:0:
388,172,65700,2,0,P|424:136|488:132,1,110,2|8,0:0|0:0,0:0:0:0:
472,240,66300,5,2,0:0:0:0:
392,316,66600,2,0,L|312:304,1,55,0|2,0:0|0:0,0:0:0:0:
284,300,66900,1,2,0:0:0:0:
184,348,67200,2,0,L|168:288,1,55,8|2,0:0|0:0,0:0:0:0:
140,248,67500,6,0,P|104:260|72:252,2,55,2|2|2,0:0|0:0|0:1,0:0:0:0:
176,208,67950,1,2,0:1:0:0:
220,176,68100,2,0,P|264:172|320:212,2,110,2|8|2,0:0|0:0|0:0,0:0:0:0:
428,340,69900,6,0,P|456:304|444:232,1,110,8|8,0:0|0:0,0:0:0:0:
344,272,70500,2,0,L|228:256,1,110
124,244,71100,6,0,L|112:180,1,55,2|0,0:0|0:0,0:0:0:0:
108,136,71400,2,0,P|72:120|4:144,1,110,2|0,1:0|0:0,0:0:0:0:
24,248,72000,1,0,0:0:0:0:
116,308,72300,6,0,L|184:296,1,55,2|0,0:0|0:0,0:0:0:0:
224,292,72600,2,0,P|256:332|316:332,1,110,2|0,1:0|0:0,0:0:0:0:
420,328,73200,1,0,0:0:0:0:
480,236,73500,5,0,0:0:0:0:
404,160,73800,2,0,B|380:116|380:116|400:56,2,110,2|0|2,0:0|0:0|0:0,0:0:0:0:
364,264,74700,2,0,P|312:264|260:224,1,110,2|2,1:0|1:0,0:0:0:0:
208,136,75300,6,0,B|232:88|232:88|224:28,1,110,2|2,1:0|1:0,0:0:0:0:
172,24,75750,1,0,0:0:0:0:
128,56,75900,2,0,P|92:80|12:76,1,110,2|8,0:0|0:0,0:0:0:0:
88,172,76500,2,0,P|120:212|116:280,1,110,2|8,0:0|0:0,0:0:0:0:
104,320,76950,1,0,0:0:0:0:
140,364,77100,6,0,L|256:344,1,110,2|8,0:0|0:0,0:0:0:0:
365,356,77700,2,0,P|357:303|320:264,1,110,2|8,0:0|0:0,0:0:0:0:
272,240,78150,1,0,0:0:0:0:
224,212,78300,2,0,P|231:158|269:119,1,110,2|8,0:0|0:0,0:0:0:0:
364,60,78900,6,0,P|340:32|308:24,2,55,2|0|8,0:0|0:0|0:0,0:0:0:0:
376,112,79350,1,0,0:0:0:0:
416,148,79500,2,0,L|528:140,2,110,2|8|2,0:0|0:0|0:0,0:0:0:0:
392,256,80400,2,0,L|404:332,1,55,8|0,0:0|0:0,0:0:0:0:
408,364,80700,5,2,0:0:0:0:
304,324,81000,1,8,0:0:0:0:
336,220,81300,1,2,0:0:0:0:
268,132,81600,1,8,0:0:0:0:
156,148,81900,2,0,L|40:136,2,110,2|8|2,0:0|0:0|0:0,0:0:0:0:
260,116,82800,2,0,L|272:44,1,55,8|0,0:0|0:0,0:0:0:0:
312,28,83100,6,0,P|368:32|412:76,1,110,2|8,0:0|0:0,0:0:0:0:
480,148,83700,1,2,0:0:0:0:
392,212,84000,1,8,0:0:0:0:
368,320,84300,2,0,L|248:308,1,110,2|8,0:0|0:0,0:0:0:0:
208,324,84750,1,0,0:0:0:0:
152,320,84900,2,0,P|120:284|120:224,1,110,2|8,0:0|0:0,0:0:0:0:
224,188,85500,6,0,P|225:134|191:92,1,110,2|8,0:0|0:0,0:0:0:0:
284,32,86100,2,0,P|316:64|384:80,1,110,2|8,0:0|0:0,0:0:0:0:
484,108,86700,2,0,B|504:164|504:164|476:220,1,110,2|8,0:0|0:0,0:0:0:0:
376,236,87300,2,0,L|264:220,1,110,2|8,0:0|0:0,0:0:0:0:
212,212,87750,1,0,0:0:0:0:
160,200,87900,6,0,P|132:244|152:312,2,110
132,92,88800,1,0,0:0:0:0:
240,104,89100,2,0,P|272:52|312:148,1,220
280,248,90000,2,0,L|284:308,1,55
288,356,90300,6,0,P|328:328|400:336,1,110,2|2,0:0|0:0,0:0:0:0:
492,360,90900,1,2,0:0:0:0:
480,140,91500,6,0,P|448:168|376:168,1,110,2|2,0:0|0:0,0:0:0:0:
296,104,92100,1,2,0:0:0:0:
88,36,92700,6,0,P|56:80|64:136,1,110,2|2,0:0|0:0,0:0:0:0:
56,244,93300,2,0,L|64:300,2,55,2|0|2,0:0|0:0|0:0,0:0:0:0:
80,196,93750,1,2,0:0:0:0:
132,208,93900,2,0,P|184:212|244:188,1,110,2|2,0:0|0:0,0:0:0:0:
292,96,94500,1,2,0:0:0:0:
480,212,95100,6,0,P|500:172|480:104,1,110,2|2,0:0|0:0,0:0:0:0:
396,44,95700,2,0,L|316:36,2,55,2|0|0,0:0|0:0|0:0,0:0:0:0:
332,132,96300,6,0,B|300:180|300:180|320:232,1,110,2|2,0:0|0:0,0:0:0:0:
372,328,96900,1,2,0:0:0:0:
152,356,97500,6,0,P|188:336|260:344,1,110,2|2,0:0|0:0,0:0:0:0:
292,236,98100,2,0,L|304:176,2,55,2|0|2,0:0|0:0|0:0,0:0:0:0:
332,276,98550,1,2,0:0:0:0:
384,288,98700,2,0,P|428:292|488:256,1,110,2|2,0:0|0:0,0:0:0:0:
488,152,99300,2,0,P|504:104|396:120,1,220,2|0,0:0|0:0,0:0:0:0:
28,356,101100,6,0,P|80:352|132:304,1,110,6|0,0:0|0:0,0:0:0:0:
236,328,101700,2,0,B|232:268|232:268|192:232,1,110,2|0,0:0|0:0,0:0:0:0:
92,196,102300,2,0,L|104:76,1,110,2|0,0:0|0:0,0:0:0:0:
140,44,102750,1,0,0:0:0:0:
188,68,102900,2,0,P|240:96|304:88,1,110,2|0,0:0|0:0,0:0:0:0:
392,56,103500,6,0,L|456:64,1,55,2|0,0:0|0:0,0:0:0:0:
500,72,103800,1,2,0:0:0:0:
436,160,104100,1,2,0:0:0:0:
492,256,104400,1,2,0:0:0:0:
392,304,104700,6,0,L|384:372,1,55,2|0,0:0|0:0,0:0:0:0:
332,344,105000,2,0,P|300:320|220:320,1,110,2|2,0:0|0:0,0:0:0:0:
124,344,105600,1,2,0:0:0:0:
48,264,105900,6,0,P|32:216|64:156,1,110,2|0,0:0|0:0,0:0:0:0:
96,128,106350,1,0,0:0:0:0:
148,144,106500,2,0,P|184:168|260:172,1,110,2|0,0:0|0:0,0:0:0:0:
344,116,107100,2,0,B|368:64|368:64|344:16,2,110,2|0|2,0:0|0:0|0:0,0:0:0:0:
424,192,108000,2,0,L|416:252,1,55,2|0,0:0|0:0,0:0:0:0:
404,300,108300,6,0,P|360:272|296:280,1,110,2|0,0:0|0:0,0:0:0:0:
256,304,108750,1,0,0:0:0:0:
200,296,108900,2,0,P|184:256|212:192,1,110
296,132,109500,5,2,0:0:0:0:
240,164,110700,6,0,P|200:136|124:144,1,110,2|2,0:0|0:0,0:0:0:0:
88,156,111150,1,0,0:0:0:0:
36,140,111300,2,0,B|8:188|8:188|28:248,1,110,2|2,0:0|0:0,0:0:0:0:
124,288,111900,2,0,L|116:352,2,55,2|0|2,0:0|0:0|0:0,0:0:0:0:
152,240,112350,1,0,0:0:0:0:
204,256,112500,2,0,P|244:272|328:256,1,110,2|2,0:0|0:0,0:0:0:0:
416,240,113100,6,0,B|444:276|444:276|424:344,2,110,2|2|2,0:0|0:0|0:0,0:0:0:0:
352,152,114000,2,0,L|368:92,1,55,2|0,0:0|0:0,0:0:0:0:
384,48,114300,2,0,P|340:72|280:68,1,110,2|2,0:0|0:0,0:0:0:0:
232,44,114750,1,0,0:0:0:0:
180,32,114900,2,0,P|148:80|160:140,1,110,2|2,0:0|0:0,0:0:0:0:
244,196,115500,6,0,P|249:249|218:293,1,110,2|2,0:0|0:0,0:0:0:0:
192,344,115950,1,0,0:0:0:0:
236,376,116100,2,0,L|356:364,1,110,2|2,0:0|0:0,0:0:0:0:
428,296,116700,2,0,P|448:320|456:360,2,55,2|0|2,0:0|0:0|0:0,0:0:0:0:
380,268,117150,1,0,0:0:0:0:
368,216,117300,2,0,P|368:160|412:116,1,110,2|2,0:0|0:0,0:0:0:0:
476,40,117900,6,0,P|448:12|368:16,2,110,2|2|2,0:0|0:0|0:0,0:0:0:0:
492,148,118800,2,0,L|496:216,1,55,2|0,0:0|0:0,0:0:0:0:
504,256,119100,2,0,P|456:228|404:244,1,110,2|8,0:0|0:0,0:0:0:0:
368,280,119550,1,8,0:0:0:0:
312,272,119700,2,0,L|252:264,2,55,8|8|8,0:0|0:0|0:0,0:0:0:0:
280,168,120300,6,0,B|312:116|312:116|288:60,1,110,2|2,0:0|0:0,0:0:0:0:
244,44,120750,1,0,0:0:0:0:
196,72,120900,2,0,P|156:96|88:92,1,110,2|2,0:0|0:0,0:0:0:0:
60,200,121500,2,0,L|-4:192,2,55,2|0|2,0:0|0:0|0:0,0:0:0:0:
116,204,121950,1,0,0:0:0:0:
172,208,122100,2,0,P|196:236|188:320,1,110,2|2,0:0|0:0,0:0:0:0:
100,356,122700,6,0,L|-16:344,2,110,2|2|2,0:0|0:0|0:0,0:0:0:0:
64,252,123600,2,0,L|72:192,1,55,2|0,0:0|0:0,0:0:0:0:
80,144,123900,2,0,B|132:160|132:160|192:140,1,110,2|2,0:0|0:0,0:0:0:0:
232,116,124350,1,0,0:0:0:0:
276,84,124500,2,0,P|320:80|380:120,1,110,2|2,0:0|0:0,0:0:0:0:
404,220,125100,6,0,P|349:221|305:191,1,110,2|2,0:0|0:0,0:0:0:0:
252,184,125550,1,0,0:0:0:0:
200,196,125700,2,0,B|172:252|172:252|200:312,1,110,2|2,0:0|0:0,0:0:0:0:
84,312,126300,2,0,L|68:388,2,55,2|0|2,0:0|0:0|0:0,0:0:0:0:
72,260,126750,1,0,0:0:0:0:
36,216,126900,2,0,P|24:168|56:116,1,110,2|2,0:0|0:0,0:0:0:0:
144,56,127500,6,0,B|212:64|212:64|256:44,2,110,2|2|2,0:0|0:0|0:0,0:0:0:0:
144,164,128400,2,0,L|216:172,1,55,2|0,0:0|0:0,0:0:0:0:
252,172,128700,2,0,P|276:200|272:276,1,110,2|0,0:0|0:0,0:0:0:0:
244,316,129150,1,0,0:0:0:0:
272,364,129300,2,0,L|332:368,2,55,8|8|8,0:0|0:0|0:0,0:0:0:0:
160,360,129900,6,0,P|128:332|112:264,1,110,2|0,0:0|0:0,0:0:0:0:
124,216,130350,2,0,L|52:224,1,55,0|8,0:0|0:0,0:0:0:0:
20,124,130800,2,0,L|74:117,1,55
128,104,131100,2,0,P|144:72|220:56,2,110,2|0|8,0:0|0:0|0:0,0:0:0:0:
224,156,132000,2,0,L|296:148,1,55
332,140,132300,6,0,P|364:104|428:100,1,110,2|0,0:0|0:0,0:0:0:0:
476,104,132750,2,0,L|468:168,1,55,0|8,0:0|0:0,0:0:0:0:
384,228,133200,2,0,L|400:288,1,55
412,336,133500,2,0,P|448:312|516:328,2,110,2|0|8,0:0|0:0|0:0,0:0:0:0:
304,352,134400,2,0,L|240:324,1,55
208,300,134700,6,0,B|168:316|168:316|92:296,1,110,2|0,0:0|0:0,0:0:0:0:
48,304,135150,2,0,L|64:240,1,55,0|8,0:0|0:0,0:0:0:0:
156,192,135600,2,0,L|144:120,1,55
144,84,135900,2,0,P|100:112|36:104,2,110,2|0|8,0:0|0:0|0:0,0:0:0:0:
236,24,136800,1,0,0:0:0:0:
336,68,137100,6,0,L|396:56,1,55,2|0,0:0|0:0,0:0:0:0:
444,44,137400,1,0,0:0:0:0:
496,140,137700,2,0,L|484:200,1,55,8|0,0:0|0:0,0:0:0:0:
468,248,138000,1,0,0:0:0:0:
360,248,138300,6,0,L|380:192,2,55,2|0|0,0:0|0:0|0:0,0:0:0:0:
336,296,138750,1,0,0:0:0:0:
308,344,138900,2,0,P|260:312|196:324,1,110,8|0,0:0|0:0,0:0:0:0:
104,344,139500,6,0,B|88:288|88:288|112:236,1,110,2|8,0:0|0:0,0:0:0:0:
136,192,139950,1,0,0:0:0:0:
192,192,140100,2,0,P|240:208|316:192,1,110,2|8,0:0|0:0,0:0:0:0:
360,112,140700,2,0,P|312:96|236:112,1,110,2|8,0:0|0:0,0:0:0:0:
200,108,141150,1,0,0:0:0:0:
144,100,141300,2,0,P|136:68|144:40,2,55,2|0|8,0:0|0:0|0:0,0:0:0:0:
44,144,141900,6,0,B|64:184|64:184|44:252,1,110,2|8,0:0|0:0,0:0:0:0:
32,300,142350,1,0,0:0:0:0:
44,352,142500,2,0,P|76:328|152:336,1,110,2|8,0:0|0:0,0:0:0:0:
248,364,143100,2,0,P|272:332|272:264,1,110,2|8,0:0|0:0,0:0:0:0:
264,212,143550,1,0,0:0:0:0:
216,188,143700,2,0,L|148:196,2,55,2|8|8,0:0|0:0|0:0,0:0:0:0:
292,108,144300,6,0,L|312:44,1,55
328,4,144600,1,0,0:0:0:0:
408,80,144900,2,0,L|456:124,1,55
488,156,145200,1,0,0:0:0:0:
384,192,145500,6,0,L|324:220,1,55
284,236,145800,1,0,0:0:0:0:
180,272,146100,2,0,P|176:300|192:340,2,55
204,220,146550,1,0,0:0:0:0:
184,168,146700,5,2,0:0:0:0:
256,192,146775,12,0,148500,0:0:0:0:
336,232,149100,6,0,P|296:208|224:212,1,110,2|0,0:0|0:0,0:0:0:0:
180,224,149550,1,2,0:0:0:0:
128,236,149700,2,0,P|96:204|96:132,1,110,2|2,0:0|0:0,0:0:0:0:
172,64,150300,2,0,L|168:4,2,55,2|0|0,0:0|0:0|0:0,0:0:0:0:
208,108,150750,1,2,0:0:0:0:
264,104,150900,2,0,L|388:96,1,110,2|8,0:0|0:0,0:0:0:0:
468,156,151500,6,0,P|488:188|480:264,1,110,2|0,0:0|0:0,0:0:0:0:
460,308,151950,1,2,0:0:0:0:
412,336,152100,2,0,B|372:312|372:312|308:328,2,110,2|8|0,0:0|0:0|0:0,0:0:0:0:
392,228,153000,1,2,0:1:0:0:
284,216,153300,2,0,L|276:156,2,55,2|2|10,0:1|0:1|0:1,0:0:0:0:
176,200,153900,6,0,P|140:188|72:204,1,110,2|0,0:0|0:0,0:0:0:0:
44,252,154350,1,2,0:0:0:0:
76,296,154500,2,0,P|112:308|180:292,1,110,2|2,0:0|0:0,0:0:0:0:
292,284,155100,2,0,L|300:348,2,55,2|0|0,0:0|0:0|0:0,0:0:0:0:
288,228,155550,1,2,0:0:0:0:
336,200,155700,2,0,P|380:196|432:144,1,110,2|8,0:0|0:0,0:0:0:0:
456,48,156300,5,2,0:0:0:0:
348,76,156600,2,0,L|280:72,1,55,0|2,0:0|0:0,0:0:0:0:
240,68,156900,1,2,0:0:0:0:
132,64,157200,2,0,L|148:120,1,55,8|2,0:0|0:0,0:0:0:0:
152,172,157500,6,0,P|116:180|76:176,2,55,0|2|2,0:0|0:0|0:1,0:0:0:0:
208,180,157950,1,2,0:1:0:0:
260,200,158100,2,0,B|280:248|280:248|256:312,2,110,2|0|2,0:0|0:0|0:0,0:0:0:0:
80,132,159900,6,0,P|44:172|56:232,1,110,8|8,0:0|0:0,0:0:0:0:
140,288,160500,2,0,L|264:284,1,110
360,284,161100,6,0,P|388:264|408:228,1,55,2|0,0:0|0:0,0:0:0:0:
404,192,161400,2,0,P|440:208|520:200,1,110,2|0,1:0|0:0,0:0:0:0:
472,100,162000,1,0,0:0:0:0:
376,44,162300,6,0,P|344:36|312:44,1,55,2|0,0:0|0:0,0:0:0:0:
268,36,162600,2,0,P|288:80|268:144,1,110,2|0,1:0|0:0,0:0:0:0:
172,184,163200,1,0,0:0:0:0:
72,136,163500,5,0,0:0:0:0:
64,244,163800,2,0,L|52:360,2,110,2|0|2,0:0|0:0|0:0,0:0:0:0:
172,264,164700,2,0,P|216:248|280:260,1,110,2|2,0:0|0:0,0:0:0:0:
376,304,165300,2,0,P|428:304|484:264,1,110,2|2,0:0|0:0,0:0:0:0:
500,224,165750,1,0,0:0:0:0:
488,172,165900,6,0,P|476:136|504:64,1,110,2|8,0:0|0:0,0:0:0:0:
400,20,166500,2,0,P|376:56|308:84,1,110,2|8,0:0|0:0,0:0:0:0:
260,80,166950,1,0,0:0:0:0:
204,72,167100,6,0,L|76:60,1,110,2|8,0:0|0:0,0:0:0:0:
16,140,167700,2,0,L|125:150,1,110,2|8,0:0|0:0,0:0:0:0:
180,156,168150,1,0,0:0:0:0:
216,196,168300,6,0,B|236:248|236:248|208:296,1,110,2|8,0:0|0:0,0:0:0:0:
100,308,168900,2,0,L|92:376,2,55,2|0|8,0:0|0:0|0:0,0:0:0:0:
104,252,169350,1,0,0:0:0:0:
60,216,169500,6,0,P|40:184|48:104,2,110,2|8|2,0:0|0:0|0:0,0:0:0:0:
148,148,170400,2,0,L|216:144,1,55,8|0,0:0|0:0,0:0:0:0:
256,140,170700,5,2,0:0:0:0:
356,92,171000,1,8,0:0:0:0:
456,140,171300,1,2,0:0:0:0:
456,248,171600,1,8,0:0:0:0:
352,300,171900,6,0,P|296:296|252:252,2,110,2|8|2,0:0|0:0|0:0,0:0:0:0:
348,188,172800,1,8,0:0:0:0:
448,232,173100,2,0,P|464:188|440:120,1,110,2|8,0:0|0:0,0:0:0:0:
396,32,173700,2,0,P|360:52|272:52,1,110,2|8,0:0|0:0,0:0:0:0:
184,36,174300,6,0,P|168:72|184:148,1,110,2|8,0:0|0:0,0:0:0:0:
200,192,174750,1,0,0:0:0:0:
152,220,174900,2,0,P|100:208|28:236,1,110,2|8,0:0|0:0,0:0:0:0:
104,320,175500,6,0,P|156:332|228:304,1,110,2|8,0:0|0:0,0:0:0:0:
288,240,176100,2,0,P|296:200|360:156,1,110,2|8,0:0|0:0,0:0:0:0:
408,248,176700,2,0,L|520:244,1,110,2|8,0:0|0:0,0:0:0:0:
464,340,177300,2,0,L|352:344,1,110,2|8,0:0|0:0,0:0:0:0:
300,344,177750,1,0,0:0:0:0:
248,328,177900,6,0,P|220:288|224:220,2,110
324,248,178800,1,0,0:0:0:0:
296,140,179100,2,0,P|320:112|212:96,1,220
144,164,180000,2,0,L|80:156,2,55,0|2|2,0:0|0:0|0:0,0:0:0:0:
256,192,180600,12,0,184200,0:0:0:0:
96,52,185100,6,0,B|76:100|76:100|96:156,1,110,2|2,0:0|0:0,0:0:0:0:
80,208,185550,1,0,0:0:0:0:
104,256,185700,2,0,P|144:236|216:248,1,110,2|2,0:0|0:0,0:0:0:0:
304,292,186300,2,0,L|296:352,2,55,2|0|2,0:0|0:0|0:0,0:0:0:0:
308,236,186750,1,0,0:0:0:0:
348,200,186900,2,0,P|392:208|460:184,1,110,2|2,0:0|0:0,0:0:0:0:
496,88,187500,6,0,P|452:80|384:104,1,110,2|2,0:0|0:0,0:0:0:0:
340,72,187950,1,0,0:0:0:0:
288,60,188100,2,0,P|296:100|264:160,1,110,2|2,0:0|0:0,0:0:0:0:
156,160,188700,2,0,L|44:156,2,110,0|2|2,0:0|0:0|0:0,0:0:0:0:
116,260,189600,2,0,L|104:328,1,55,2|0,0:0|0:0,0:0:0:0:
96,368,189900,6,0,P|124:340|204:344,1,110,2|2,0:0|0:0,0:0:0:0:
244,348,190350,1,0,0:0:0:0:
300,352,190500,2,0,P|336:320|348:248,1,110,2|2,0:0|0:0,0:0:0:0:
376,156,191100,2,0,L|448:144,2,55,2|0|2,0:0|0:0|0:0,0:0:0:0:
324,136,191550,1,0,0:0:0:0:
276,160,191700,2,0,P|248:184|160:188,1,110,2|2,0:0|0:0,0:0:0:0:
80,248,192300,5,2,0:0:0:0:
16,160,192600,2,0,L|12:100,1,55,2|0,0:0|0:0,0:0:0:0:
8,48,192900,1,2,0:0:0:0:
116,24,193200,2,0,L|120:84,1,55,2|0,0:0|0:0,0:0:0:0:
124,136,193500,5,2,0:0:0:0:
220,84,193800,1,2,0:1:0:0:
320,128,194100,1,2,0:1:0:0:
344,236,194400,1,2,0:1:0:0:
268,316,194700,5,0,0:0:0:0:
256,192,194775,12,0,197100,0:0:0:0:
328,40,200700,6,0,P|348:72|324:136,1,110,8|8,0:0|0:0,0:0:0:0:
216,140,201300,2,0,L|92:128,1,110
32,208,201900,6,0,L|20:272,1,55,2|0,0:0|0:0,0:0:0:0:
20,316,202200,2,0,P|56:288|132:296,1,110,2|0,1:0|0:0,0:0:0:0:
216,340,202800,1,0,0:0:0:0:
324,332,203100,6,0,L|316:268,1,55,2|0,0:0|0:0,0:0:0:0:
312,224,203400,2,0,P|344:208|420:228,1,110,2|0,1:0|0:0,0:0:0:0:
496,148,204000,1,0,0:0:0:0:
436,56,204300,5,0,0:0:0:0:
328,44,204600,2,0,B|296:72|296:72|212:64,2,110,2|0|2,0:0|0:0|0:0,0:0:0:0:
372,144,205500,2,0,P|392:200|372:256,1,110,2|2,0:0|0:0,0:0:0:0:
300,324,206100,2,0,P|268:304|192:312,1,110,2|2,0:0|0:0,0:0:0:0:
148,332,206550,1,0,0:0:0:0:
92,344,206700,6,0,B|72:288|72:288|92:228,1,110,2|8,0:0|0:0,0:0:0:0:
32,148,207300,2,0,P|68:128|136:128,1,110,2|8,0:0|0:0,0:0:0:0:
184,156,207750,1,0,0:0:0:0:
236,176,207900,6,0,P|284:160|324:104,1,110,2|8,0:0|0:0,0:0:0:0:
408,48,208500,2,0,P|424:92|492:132,1,110,2|8,0:0|0:0,0:0:0:0:
492,180,208950,1,0,0:0:0:0:
460,224,209100,6,0,P|420:224|368:272,1,110,2|8,0:0|0:0,0:0:0:0:
264,304,209700,2,0,L|256:368,2,55,2|0|8,0:0|0:0|0:0,0:0:0:0:
272,248,210150,1,0,0:0:0:0:
216,252,210300,6,0,P|176:268|100:252,2,110,2|8|2,0:0|0:0|0:0,0:0:0:0:
160,156,211200,2,0,L|168:96,1,55,8|0,0:0|0:0,0:0:0:0:
176,48,211500,5,2,0:0:0:0:
68,76,211800,1,8,0:0:0:0:
16,172,212100,1,2,0:0:0:0:
28,280,212400,1,8,0:0:0:0:
112,352,212700,6,0,P|152:324|212:324,1,110,2|8,0:0|0:0,0:0:0:0:
316,356,213300,2,0,B|336:296|336:296|308:240,1,110,2|8,0:0|0:0,0:0:0:0:
300,200,213750,1,0,0:0:0:0:
356,200,213900,6,0,P|396:216|464:200,1,110,2|8,0:0|0:0,0:0:0:0:
512,104,214500,2,0,P|472:88|404:104,1,110,2|8,0:0|0:0,0:0:0:0:
320,40,215100,2,0,P|288:68|280:136,1,110,2|8,0:0|0:0,0:0:0:0:
296,184,215550,1,0,0:0:0:0:
304,240,215700,2,0,B|264:224|264:224|184:248,1,110,2|8,0:0|0:0,0:0:0:0:
144,340,216300,6,0,B|184:356|184:356|264:332,1,110,2|8,0:0|0:0,0:0:0:0:
356,360,216900,2,0,P|344:324|376:256,1,110,2|8,0:0|0:0,0:0:0:0:
444,176,217500,2,0,P|420:144|344:136,1,110,2|8,0:0|0:0,0:0:0:0:
264,196,218100,2,0,L|148:184,1,110,2|8,0:0|0:0,0:0:0:0:
100,180,218550,1,0,0:0:0:0:
44,172,218700,6,0,P|20:128|40:64,2,110
72,280,219600,1,0,0:0:0:0:
180,280,219900,2,0,P|184:324|288:272,1,220
236,184,220800,2,0,L|224:116,1,55
220,76,221100,6,0,P|272:72|320:24,1,110,2|2,0:0|0:0,0:0:0:0:
424,52,221700,1,2,0:0:0:0:
496,260,222300,6,0,L|380:248,1,110,2|2,0:0|0:0,0:0:0:0:
276,232,222900,1,2,0:0:0:0:
88,344,223500,6,0,B|112:308|112:308|96:232,1,110,2|2,0:0|0:0,0:0:0:0:
72,136,224100,2,0,L|8:148,2,55,2|0|2,0:0|0:0|0:0,0:0:0:0:
116,100,224550,1,2,0:0:0:0:
172,96,224700,2,0,P|196:124|192:200,1,110,2|2,0:0|0:0,0:0:0:0:
216,304,225300,1,2,0:0:0:0:
436,284,225900,6,0,L|316:292,1,110,2|2,0:0|0:0,0:0:0:0:
216,304,226500,1,2,0:0:0:0:
32,184,227100,6,0,P|64:148|148:136,1,110,2|2,0:0|0:0,0:0:0:0:
228,156,227700,1,2,0:0:0:0:
412,36,228300,6,0,B|436:64|436:64|424:136,1,110,2|2,0:0|0:0,0:0:0:0:
456,240,228900,2,0,L|520:248,2,55,2|0|2,0:0|0:0|0:0,0:0:0:0:
400,236,229350,1,2,0:0:0:0:
344,232,229500,6,0,P|320:260|324:332,1,110,2|2,0:0|0:0,0:0:0:0:
212,336,230100,2,0,P|168:348|164:248,1,165,2|0,0:0|0:0,0:0:0:0:
192,224,230700,6,0,L|200:164,1,55,2|2,0:0|0:0,0:0:0:0:
208,116,231000,1,6,0:0:0:0:
256,192,231075,12,0,236700,0:0:0:0:
