osu file format v14

[General]
AudioFilename: audio.mp3
AudioLeadIn: 0
PreviewTime: 70500
Countdown: 0
SampleSet: Soft
StackLeniency: 0.7
Mode: 0
LetterboxInBreaks: 0
WidescreenStoryboard: 0

[Editor]
DistanceSpacing: 0.8
BeatDivisor: 4
GridSize: 32
TimelineZoom: 1

[Metadata]
Title:Mazare Party
TitleUnicode:Mazare Party
Artist:MAZARE
ArtistUnicode:MAZARE
Creator:IntellectualBoy
Version:Expert
Source:
Tags:toybot walaowey Neoskylove [ L u k a s ] oriental trap jcore utaite Nanahira Kradness Yukacco ななひら Camellia MIND HACK EXIT TUNES
BeatmapID:1413077
BeatmapSetID:667868

[Difficulty]
HPDrainRate:6
CircleSize:4
OverallDifficulty:8.5
ApproachRate:9.5
SliderMultiplier:1.8
SliderTickRate:1

[Events]
//Background and Video events
0,0,"Mazare.jpg",0,0
//Break Periods
2,197300,200175
//Storyboard Layer 0 (Background)
//Storyboard Layer 1 (Fail)
//Storyboard Layer 2 (Pass)
//Storyboard Layer 3 (Foreground)
//Storyboard Sound Samples

[TimingPoints]
300,300,4,2,4,50,1,0
5100,-71.4285714285714,4,2,12,50,0,0
5325,-71.4285714285714,4,2,12,5,0,0
5400,-71.4285714285714,4,2,12,50,0,0
5625,-71.4285714285714,4,2,12,5,0,0
5700,-71.4285714285714,4,1,1,50,0,0
6300,-200,4,2,4,50,0,0
6900,-100,4,2,1,50,0,0
7500,-200,4,2,4,50,0,0
8925,-200,4,2,4,5,0,0
9000,-71.4285714285714,4,2,4,50,0,0
9225,-71.4285714285714,4,2,4,5,0,0
9300,-200,4,2,4,50,0,0
9525,-200,4,2,4,5,0,0
9600,-71.4285714285714,4,2,4,50,0,0
9825,-71.4285714285714,4,2,4,5,0,0
9900,-71.4285714285714,4,2,4,50,0,0
11100,-100,4,2,12,50,0,0
12300,-133.333333333333,4,2,1,30,0,0
12600,-133.333333333333,4,2,1,40,0,0
12900,-133.333333333333,4,2,1,50,0,0
13200,-133.333333333333,4,2,1,60,0,0
13500,-133.333333333333,4,2,9,50,0,0
14475,-100,4,2,9,50,0,0
15900,-71.4285714285714,4,2,4,60,0,0
16125,-71.4285714285714,4,2,4,5,0,0
16200,-71.4285714285714,4,2,4,60,0,0
16425,-71.4285714285714,4,2,4,5,0,0
16500,-71.4285714285714,4,2,4,60,0,0
17325,-71.4285714285714,4,2,4,5,0,0
17400,-71.4285714285714,4,2,4,60,0,0
17625,-71.4285714285714,4,2,4,5,0,0
17700,-71.4285714285714,4,2,4,60,0,0
18525,-71.4285714285714,4,2,4,5,0,0
18600,-71.4285714285714,4,2,4,60,0,0
18825,-71.4285714285714,4,2,4,5,0,0
18900,-71.4285714285714,4,2,4,60,0,0
19725,-71.4285714285714,4,2,4,5,0,0
19800,-71.4285714285714,4,2,4,60,0,0
20025,-71.4285714285714,4,2,4,5,0,0
20100,-71.4285714285714,4,2,4,60,0,0
20925,-71.4285714285714,4,2,4,5,0,0
21000,-71.4285714285714,4,2,4,60,0,0
22125,-71.4285714285714,4,2,4,5,0,0
22200,-71.4285714285714,4,2,4,60,0,0
22425,-71.4285714285714,4,2,4,5,0,0
22500,-71.4285714285714,4,2,4,60,0,0
23325,-71.4285714285714,4,2,4,5,0,0
23400,-71.4285714285714,4,2,4,60,0,0
23625,-71.4285714285714,4,2,4,5,0,0
23700,-71.4285714285714,4,2,4,60,0,0
25200,-100,4,2,9,30,0,0
26700,-100,4,1,1,30,0,0
27000,-100,4,1,1,35,0,0
27300,-100,4,1,1,40,0,0
27600,-100,4,1,1,45,0,0
27900,-100,4,1,1,50,0,0
29100,-100,4,2,1,50,0,0
30300,-83.3333333333333,4,2,15,70,0,0
38850,-83.3333333333333,4,3,1,70,0,0
39300,-133.333333333333,4,3,14,50,0,0
39900,-83.3333333333333,4,2,15,65,0,0
40125,-83.3333333333333,4,2,15,5,0,0
40200,-83.3333333333333,4,2,15,65,0,0
42225,-83.3333333333333,4,2,15,5,0,0
42300,-83.3333333333333,4,2,15,65,0,0
43725,-83.3333333333333,4,2,15,5,0,0
43800,-83.3333333333333,4,2,15,65,0,0
44025,-83.3333333333333,4,2,15,5,0,0
44100,-83.3333333333333,4,2,15,65,0,0
46125,-83.3333333333333,4,2,15,5,0,0
46200,-83.3333333333333,4,2,15,65,0,0
46425,-83.3333333333333,4,2,15,5,0,0
46500,-83.3333333333333,4,2,15,65,0,0
46725,-83.3333333333333,4,2,15,5,0,0
46800,-83.3333333333333,4,2,15,65,0,0
47100,-83.3333333333333,4,2,15,65,0,0
48300,-83.3333333333333,4,2,15,65,0,0
48825,-83.3333333333333,4,2,15,5,0,0
48900,-83.3333333333333,4,2,15,65,0,0
49500,-83.3333333333333,4,2,9,65,0,0
49725,-83.3333333333333,4,2,15,5,0,0
49800,-83.3333333333333,4,2,15,65,0,0
50925,-83.3333333333333,4,2,15,5,0,0
51000,-83.3333333333333,4,2,15,65,0,0
51225,-83.3333333333333,4,2,15,5,0,0
51300,-83.3333333333333,4,2,15,65,0,0
52125,-83.3333333333333,4,2,15,5,0,0
52200,-83.3333333333333,4,2,15,65,0,0
53325,-83.3333333333333,4,2,15,5,0,0
53400,-83.3333333333333,4,2,15,65,0,0
53625,-83.3333333333333,4,2,15,5,0,0
53700,-83.3333333333333,4,2,15,65,0,0
54300,-83.3333333333333,4,3,1,65,0,0
56700,-133.333333333333,4,1,1,50,0,0
57900,-133.333333333333,4,1,1,50,0,0
59100,-133.333333333333,4,2,9,50,0,0
59400,-133.333333333333,4,2,15,50,0,0
60000,-83.3333333333333,4,2,77,65,0,0
60225,-83.3333333333333,4,2,77,5,0,0
60300,-83.3333333333333,4,2,15,50,0,0
61200,-133.333333333333,4,2,33,50,0,0
61725,-133.333333333333,4,2,33,5,0,0
61800,-133.333333333333,4,2,33,50,0,0
62625,-133.333333333333,4,2,33,5,0,0
62700,-133.333333333333,4,2,33,50,0,0
63000,-133.333333333333,4,2,1,65,0,0
63900,-133.333333333333,4,2,33,50,0,0
64725,-133.333333333333,4,2,33,5,0,0
64800,-71.4285714285714,4,2,33,50,0,0
65025,-71.4285714285714,4,2,33,5,0,0
65100,-133.333333333333,4,2,33,50,0,0
66525,-133.333333333333,4,2,33,5,0,0
66600,-133.333333333333,4,2,33,50,0,0
67125,-133.333333333333,4,2,33,5,0,0
67200,-133.333333333333,4,2,33,50,0,0
67500,-100,4,2,33,50,0,0
67800,-100,4,2,1,40,0,0
68700,-100,4,2,33,50,0,0
69600,-100,4,2,33,5,0,0
69900,-71.4285714285714,4,2,12,60,0,0
70125,-71.4285714285714,4,2,12,5,0,0
70200,-71.4285714285714,4,2,12,60,0,0
70425,-71.4285714285714,4,2,12,5,0,0
70500,-71.4285714285714,4,1,1,60,0,0
71100,-200,4,2,4,60,0,0
71400,-71.4285714285714,4,1,0,60,0,0
71550,-71.4285714285714,4,2,4,60,0,0
71700,-100,4,2,4,60,0,0
72300,-200,4,2,4,60,0,0
72600,-71.4285714285714,4,1,0,60,0,0
72750,-71.4285714285714,4,2,4,60,0,0
73500,-200,4,2,4,60,0,0
73725,-200,4,2,4,5,0,0
73800,-71.4285714285714,4,2,4,60,0,0
74025,-71.4285714285714,4,2,4,5,0,0
74100,-200,4,2,4,60,0,0
74325,-200,4,2,4,5,0,0
74400,-71.4285714285714,4,2,4,60,0,0
74625,-71.4285714285714,4,2,4,5,0,0
74700,-83.3333333333333,4,1,0,60,0,0
75900,-83.3333333333333,4,1,15,70,0,1
76725,-83.3333333333333,4,2,15,5,0,1
76800,-83.3333333333333,4,1,15,70,0,1
80025,-83.3333333333333,4,2,15,5,0,1
80100,-83.3333333333333,4,1,15,70,0,1
80925,-83.3333333333333,4,2,15,5,0,1
81000,-83.3333333333333,4,1,15,70,0,1
81225,-83.3333333333333,4,2,15,5,0,1
81300,-83.3333333333333,4,1,15,70,0,1
81825,-83.3333333333333,4,2,15,5,0,1
81900,-83.3333333333333,4,1,15,70,0,1
82125,-83.3333333333333,4,2,15,5,0,1
82200,-83.3333333333333,4,1,15,70,0,1
83925,-83.3333333333333,4,2,15,5,0,1
84000,-83.3333333333333,4,1,15,70,0,1
84225,-83.3333333333333,4,2,15,5,0,1
84300,-83.3333333333333,4,1,15,70,0,1
87900,-83.3333333333333,4,1,1,50,0,0
88200,-83.3333333333333,4,2,15,50,0,0
89100,-133.333333333333,4,2,15,50,0,0
90225,-133.333333333333,4,2,15,5,0,0
90300,-71.4285714285714,4,2,4,60,0,0
90525,-71.4285714285714,4,2,4,5,0,0
90600,-71.4285714285714,4,2,4,60,0,0
90825,-71.4285714285714,4,2,4,5,0,0
90900,-71.4285714285714,4,2,4,60,0,0
91725,-71.4285714285714,4,2,4,5,0,0
91800,-71.4285714285714,4,2,4,60,0,0
92025,-71.4285714285714,4,2,4,5,0,0
92100,-71.4285714285714,4,2,4,60,0,0
92925,-71.4285714285714,4,2,4,5,0,0
93000,-71.4285714285714,4,2,4,60,0,0
93225,-71.4285714285714,4,2,4,5,0,0
93300,-71.4285714285714,4,2,4,60,0,0
94125,-71.4285714285714,4,2,4,5,0,0
94200,-71.4285714285714,4,2,4,60,0,0
94425,-71.4285714285714,4,2,4,5,0,0
94500,-71.4285714285714,4,2,4,60,0,0
95325,-71.4285714285714,4,2,4,5,0,0
95400,-71.4285714285714,4,2,4,60,0,0
95625,-71.4285714285714,4,2,4,5,0,0
95700,-71.4285714285714,4,2,4,60,0,0
96525,-71.4285714285714,4,2,4,5,0,0
96600,-71.4285714285714,4,2,4,60,0,0
96825,-71.4285714285714,4,2,4,5,0,0
96900,-71.4285714285714,4,2,4,60,0,0
97725,-71.4285714285714,4,2,4,5,0,0
97800,-71.4285714285714,4,2,4,60,0,0
98025,-71.4285714285714,4,2,4,5,0,0
98100,-71.4285714285714,4,2,4,60,0,0
100800,-100,4,2,15,30,0,0
101100,-100,4,2,9,30,0,0
101400,-100,4,2,15,30,0,0
103500,-100,4,2,15,40,0,0
104100,-100,4,2,15,50,0,0
104700,-100,4,2,15,60,0,0
105900,-83.3333333333333,4,1,15,65,0,0
109650,-83.3333333333333,4,2,15,50,0,0
110700,-83.3333333333333,4,1,15,70,0,1
119100,-83.3333333333333,4,3,1,70,0,0
120300,-83.3333333333333,4,1,15,70,0,1
120525,-83.3333333333333,4,2,15,5,0,1
120600,-83.3333333333333,4,1,15,70,0,1
124125,-83.3333333333333,4,1,15,5,0,1
124200,-83.3333333333333,4,1,15,70,0,1
128850,-83.3333333333333,4,3,1,70,0,1
129300,-83.3333333333333,4,3,14,70,0,1
129900,-83.3333333333333,4,2,17,50,0,0
130125,-83.3333333333333,4,2,17,5,0,0
130200,-200,4,2,17,50,0,0
130425,-200,4,2,17,5,0,0
130500,-71.4285714285714,4,2,17,50,0,0
130875,-71.4285714285714,4,2,17,5,0,0
130950,-71.4285714285714,4,2,17,50,0,0
131100,-83.3333333333333,4,2,17,50,0,0
131325,-83.3333333333333,4,2,17,5,0,0
131400,-83.3333333333333,4,2,17,50,0,0
131700,-71.4285714285714,4,2,17,50,0,0
132075,-71.4285714285714,4,2,17,5,0,0
132150,-71.4285714285714,4,2,17,50,0,0
132300,-83.3333333333333,4,2,17,50,0,0
132525,-83.3333333333333,4,2,17,5,0,0
132600,-200,4,2,17,50,0,0
132825,-200,4,2,17,5,0,0
132900,-71.4285714285714,4,2,17,50,0,0
133275,-71.4285714285714,4,2,17,5,0,0
133350,-71.4285714285714,4,2,17,50,0,0
133500,-83.3333333333333,4,2,17,50,0,0
133725,-83.3333333333333,4,2,17,5,0,0
133800,-83.3333333333333,4,2,17,50,0,0
134925,-83.3333333333333,4,2,17,5,0,0
135000,-200,4,2,17,50,0,0
135225,-200,4,2,17,5,0,0
135300,-71.4285714285714,4,2,17,50,0,0
135675,-71.4285714285714,4,2,17,5,0,0
135750,-71.4285714285714,4,2,17,50,0,0
135900,-83.3333333333333,4,2,17,50,0,0
136125,-83.3333333333333,4,2,17,5,0,0
136200,-83.3333333333333,4,2,17,50,0,0
136500,-71.4285714285714,4,2,17,50,0,0
136875,-71.4285714285714,4,2,17,5,0,0
136950,-83.3333333333333,4,2,17,50,0,0
137250,-83.3333333333333,4,3,14,65,0,0
137700,-83.3333333333333,4,2,17,65,0,0
137850,-83.3333333333333,4,3,14,65,0,0
138300,-83.3333333333333,4,2,17,50,0,0
138825,-83.3333333333333,4,2,17,5,0,0
138900,-83.3333333333333,4,2,17,50,0,0
139500,-83.3333333333333,4,2,15,65,0,0
139725,-83.3333333333333,4,2,15,5,0,0
139800,-83.3333333333333,4,2,15,65,0,0
140925,-83.3333333333333,4,2,15,5,0,0
141000,-83.3333333333333,4,2,15,65,0,0
141225,-83.3333333333333,4,2,15,5,0,0
141300,-83.3333333333333,4,2,15,65,0,0
141600,-83.3333333333333,4,2,33,65,0,0
141900,-83.3333333333333,4,2,15,65,0,0
143325,-83.3333333333333,4,2,15,5,0,0
143400,-83.3333333333333,4,2,15,65,0,0
143625,-83.3333333333333,4,2,15,5,0,0
143700,-83.3333333333333,4,2,15,65,0,0
143850,-83.3333333333333,4,2,33,65,0,0
144300,-83.3333333333333,4,2,15,65,0,0
146700,-133.333333333333,4,1,1,50,0,0
149100,-133.333333333333,4,2,9,50,0,0
149400,-133.333333333333,4,2,15,50,0,0
149925,-133.333333333333,4,2,15,5,0,0
150000,-71.4285714285714,4,2,77,50,0,0
150225,-71.4285714285714,4,2,77,5,0,0
150300,-133.333333333333,4,2,33,50,0,0
151725,-133.333333333333,4,2,33,5,0,0
151800,-133.333333333333,4,2,33,50,0,0
153000,-133.333333333333,4,2,1,65,0,0
153600,-133.333333333333,4,2,33,50,0,0
154725,-133.333333333333,4,2,33,5,0,0
154800,-71.4285714285714,4,2,33,50,0,0
155025,-71.4285714285714,4,2,33,5,0,0
155100,-133.333333333333,4,2,33,50,0,0
156525,-133.333333333333,4,2,33,5,0,0
156600,-133.333333333333,4,2,33,50,0,0
157125,-133.333333333333,4,2,33,5,0,0
157200,-133.333333333333,4,2,33,50,0,0
157800,-133.333333333333,4,2,1,40,0,0
158700,-133.333333333333,4,2,33,65,0,0
159900,-71.4285714285714,4,2,12,50,0,0
160125,-71.4285714285714,4,2,12,5,0,0
160200,-71.4285714285714,4,2,12,50,0,0
160425,-71.4285714285714,4,2,12,5,0,0
160500,-71.4285714285714,4,1,1,50,0,0
161100,-200,4,2,4,50,0,0
161400,-71.4285714285714,4,1,0,50,0,0
161550,-71.4285714285714,4,2,4,50,0,0
161700,-200,4,2,4,50,0,0
162600,-71.4285714285714,4,1,0,50,0,0
162750,-71.4285714285714,4,2,4,50,0,0
163500,-200,4,2,4,50,0,0
163725,-200,4,2,4,5,0,0
163800,-71.4285714285714,4,2,4,50,0,0
164025,-71.4285714285714,4,2,4,5,0,0
164100,-200,4,2,4,50,0,0
164325,-200,4,2,4,5,0,0
164400,-71.4285714285714,4,2,4,50,0,0
164625,-71.4285714285714,4,2,4,5,0,0
164700,-83.3333333333333,4,1,0,50,0,0
165900,-83.3333333333333,4,1,15,70,0,1
166725,-83.3333333333333,4,2,15,5,0,1
166800,-83.3333333333333,4,1,15,70,0,1
170025,-83.3333333333333,4,2,15,5,0,1
170100,-83.3333333333333,4,1,15,70,0,1
170925,-83.3333333333333,4,2,15,5,0,1
171000,-83.3333333333333,4,1,15,70,0,1
171225,-83.3333333333333,4,2,15,5,0,1
171300,-83.3333333333333,4,1,15,70,0,1
171825,-83.3333333333333,4,1,15,5,0,1
171900,-83.3333333333333,4,1,15,70,0,1
172125,-83.3333333333333,4,2,15,5,0,1
172200,-83.3333333333333,4,1,15,70,0,1
173925,-83.3333333333333,4,2,15,5,0,1
174000,-83.3333333333333,4,1,15,70,0,1
174225,-83.3333333333333,4,2,15,5,0,1
174300,-83.3333333333333,4,1,15,70,0,1
177900,-83.3333333333333,4,1,0,50,0,0
178200,-83.3333333333333,4,2,15,50,0,0
179100,-133.333333333333,4,2,15,50,0,0
184500,-133.333333333333,4,2,0,5,0,0
184800,-200,4,2,66,50,0,0
185925,-200,4,2,66,5,0,0
186000,-100,4,2,66,50,0,0
186300,-200,4,2,66,50,0,0
188925,-200,4,2,66,5,0,0
189000,-200,4,2,1,50,0,0
189900,-200,4,2,66,50,0,0
190800,-100,4,2,66,50,0,0
191025,-100,4,2,66,5,0,0
191100,-200,4,2,66,50,0,0
193800,-200,4,2,1,30,0,0
194700,-200,4,2,66,30,0,0
197100,-200,4,2,66,5,0,0
200700,-71.4285714285714,4,2,12,60,0,0
200925,-71.4285714285714,4,2,12,5,0,0
201000,-71.4285714285714,4,2,12,60,0,0
201225,-71.4285714285714,4,2,12,5,0,0
201300,-71.4285714285714,4,1,1,60,0,0
201900,-200,4,2,4,60,0,0
202200,-71.4285714285714,4,1,0,60,0,0
202350,-71.4285714285714,4,2,4,60,0,0
202500,-200,4,2,4,60,0,0
203400,-71.4285714285714,4,1,0,60,0,0
203550,-71.4285714285714,4,2,4,60,0,0
203700,-200,4,2,4,60,0,0
204525,-200,4,2,4,5,0,0
204600,-71.4285714285714,4,2,4,60,0,0
204825,-71.4285714285714,4,2,4,5,0,0
204900,-200,4,2,4,60,0,0
205125,-200,4,2,4,5,0,0
205200,-71.4285714285714,4,2,4,60,0,0
205425,-71.4285714285714,4,2,4,5,0,0
205500,-83.3333333333333,4,1,2,60,0,0
206700,-83.3333333333333,4,1,15,70,0,1
207525,-83.3333333333333,4,2,15,5,0,1
207600,-83.3333333333333,4,1,15,70,0,1
210825,-83.3333333333333,4,2,15,5,0,1
210900,-83.3333333333333,4,1,15,70,0,1
211725,-83.3333333333333,4,2,15,5,0,1
211800,-83.3333333333333,4,1,15,70,0,1
212325,-83.3333333333333,4,2,15,5,0,1
212400,-83.3333333333333,4,1,15,70,0,1
214125,-83.3333333333333,4,2,15,5,0,1
214200,-83.3333333333333,4,1,15,70,0,1
218700,-83.3333333333333,4,1,15,60,0,0
219000,-83.3333333333333,4,2,17,60,0,0
219900,-133.333333333333,4,2,15,60,0,0
221025,-133.333333333333,4,2,17,5,0,0
221100,-71.4285714285714,4,2,4,60,0,0
221325,-71.4285714285714,4,2,4,5,0,0
221400,-71.4285714285714,4,2,4,60,0,0
221625,-71.4285714285714,4,2,4,5,0,0
221700,-71.4285714285714,4,2,4,60,0,0
222525,-71.4285714285714,4,2,4,5,0,0
222600,-71.4285714285714,4,2,4,60,0,0
222825,-71.4285714285714,4,2,4,5,0,0
222900,-71.4285714285714,4,2,4,60,0,0
223725,-71.4285714285714,4,2,4,5,0,0
223800,-71.4285714285714,4,2,4,60,0,0
224025,-71.4285714285714,4,2,4,5,0,0
224100,-71.4285714285714,4,2,4,60,0,0
224925,-71.4285714285714,4,2,4,5,0,0
225000,-71.4285714285714,4,2,4,60,0,0
225225,-71.4285714285714,4,2,4,5,0,0
225300,-71.4285714285714,4,2,4,60,0,0
226125,-71.4285714285714,4,2,4,5,0,0
226200,-71.4285714285714,4,2,4,60,0,0
226425,-71.4285714285714,4,2,4,5,0,0
226500,-71.4285714285714,4,2,4,60,0,0
227325,-71.4285714285714,4,2,4,5,0,0
227400,-71.4285714285714,4,2,4,60,0,0
227625,-71.4285714285714,4,2,4,5,0,0
227700,-71.4285714285714,4,2,4,60,0,0
228525,-71.4285714285714,4,2,4,5,0,0
228600,-71.4285714285714,4,2,4,60,0,0
228825,-71.4285714285714,4,2,4,5,0,0
228900,-71.4285714285714,4,2,4,60,0,0
230700,-71.4285714285714,4,2,9,60,0,0
235500,-71.4285714285714,4,2,9,5,0,0

[Colours]
Combo1 : 221,130,255
Combo2 : 250,48,83
Combo3 : 255,119,176
Combo4 : 102,231,253
Combo5 : 254,210,129
Combo6 : 156,255,132

[HitObjects]
256,188,1350,5,2,0:0:0:0:
256,188,1500,1,2,0:0:0:0:
256,192,1575,12,0,4800,0:0:0:0:
484,56,5100,6,0,B|440:48|440:48|420:72|420:72|388:64|388:64|364:112|312:100,1,188.999994232178,8|0,0:0|0:0,0:0:0:0:
194,108,5400,2,0,P|273:89|271:171,1,188.999994232178,8|0,0:0|0:0,0:0:0:0:
200,244,5700,5,0,0:0:0:0:
188,252,5775,1,0,0:0:0:0:
176,260,5850,2,0,L|188:176,1,62.9999980773926
84,84,6000,1,0,0:0:0:0:
96,76,6075,1,0,0:0:0:0:
108,68,6150,2,0,L|96:152,1,62.9999980773926
76,236,6300,6,0,B|48:220|48:220|-8:236,1,90,6|0,0:0|0:0,0:0:0:0:
292,36,6900,5,0,0:0:0:0:
252,284,7200,1,0,0:0:0:0:
480,176,7500,6,0,L|380:168,1,90,2|0,0:0|0:0,0:0:0:0:
252,284,8100,5,0,0:0:0:0:
292,36,8400,1,0,0:0:0:0:
252,284,8700,2,0,L|264:212,1,67.5
268,188,9000,6,0,B|136:208|136:208|184:152,1,188.999994232178,2|0,0:0|0:0,0:0:0:0:
240,32,9300,6,0,L|232:100,1,67.5
348,313,9600,6,0,B|364:192|364:192|396:260,1,188.999994232178,2|0,0:0|0:0,0:0:0:0:
505,267,9900,6,0,B|448:288|448:288|392:252,1,125.999996154785,2|0,0:0|0:0,0:0:0:0:
393,252,10125,1,0,0:0:0:0:
393,252,10200,1,2,0:0:0:0:
204,184,10350,1,0,0:0:0:0:
396,120,10500,5,2,0:0:0:0:
280,284,10650,1,0,0:0:0:0:
276,84,10800,1,2,0:0:0:0:
393,252,10950,1,0,0:0:0:0:
204,184,11100,6,0,B|156:212|156:212|72:196,1,135,6|0,0:0|0:0,0:0:0:0:
77,197,11400,1,0,0:0:0:0:
276,84,11700,1,8,0:0:0:0:
280,284,12000,1,8,0:0:0:0:
144,8,12300,6,0,L|136:76,1,67.5000025749208,8|0,0:0|0:0,0:0:0:0:
16,220,12600,2,0,L|24:152,1,67.5000025749208,8|0,0:0|0:0,0:0:0:0:
240,144,12900,2,0,L|232:212,1,67.5000025749208,8|0,0:0|0:0,0:0:0:0:
100,384,13200,2,0,L|108:316,1,67.5000025749208,8|0,0:0|0:0,0:0:0:0:
116,208,13500,5,2,0:0:0:0:
204,272,13650,1,2,0:0:0:0:
308,248,13800,1,2,0:0:0:0:
348,148,13950,1,2,0:0:0:0:
300,52,14100,5,0,1:0:0:0:
283,53,14175,1,0,1:0:0:0:
266,55,14250,1,0,1:0:0:0:
249,56,14325,1,0,1:0:0:0:
232,58,14400,5,0,1:0:0:0:
216,100,14475,1,0,1:0:0:0:
180,128,14550,1,0,1:0:0:0:
136,124,14625,1,0,1:0:0:0:
100,96,14700,1,0,1:0:0:0:
100,96,15900,6,0,P|164:72|164:164,1,188.999994232178,6|0,0:0|0:0,0:0:0:0:
166,161,16200,2,0,P|178:240|99:227,1,188.999994232178,2|0,0:0|0:0,0:0:0:0:
40,160,16500,1,2,0:0:0:0:
40,160,17100,6,0,B|104:148|104:148|148:200|216:180,1,188.999994232178,2|0,0:0|0:0,0:0:0:0:
270,33,17400,2,0,P|195:3|192:84,1,188.999994232178,2|0,0:0|0:0,0:0:0:0:
284,124,17700,1,2,0:0:0:0:
284,124,18300,6,0,B|272:188|272:188|304:232|304:232|288:320,1,188.999994232178,2|0,0:0|0:0,0:0:0:0:
360,376,18600,2,0,P|316:308|256:380,1,188.999994232178,2|0,0:0|0:0,0:0:0:0:
253,365,18900,5,2,0:0:0:0:
284,124,19050,1,0,0:0:0:0:
368,244,19200,1,2,0:0:0:0:
168,220,19350,1,0,0:0:0:0:
368,244,19500,6,0,B|500:260|500:260|460:216,1,188.999994232178,2|0,0:0|0:0,0:0:0:0:
437,61,19800,2,0,P|356:74|392:148,1,188.999994232178,2|0,0:0|0:0,0:0:0:0:
492,128,20100,1,0,0:0:0:0:
152,348,20700,6,0,B|168:220|168:220|120:272,1,188.999994232178,2|0,0:0|0:0,0:0:0:0:
8,268,21000,2,0,B|48:276|48:276|80:256|80:256|127:264,1,125.999996154785,2|0,0:0|0:0,0:0:0:0:
252,348,21300,2,0,L|260:280,1,62.9999980773926,2|0,0:0|0:0,0:0:0:0:
276,184,21450,2,0,L|284:116,1,62.9999980773926
296,20,21600,1,0,0:0:0:0:
64,120,21900,6,0,P|100:96|92:184,1,188.999994232178,2|0,0:0|0:0,0:0:0:0:
26,345,22200,2,0,B|-12:288|20:232|20:232|32:260|68:280,1,188.999994232178,2|0,0:0|0:0,0:0:0:0:
168,272,22500,1,2,0:0:0:0:
168,272,22950,2,0,L|160:352,1,62.9999980773926
264,224,23100,6,0,B|296:172|276:96|276:96|236:164,1,188.999994232178,2|0,0:0|0:0,0:0:0:0:
260,244,23400,2,0,B|320:216|360:292|440:280,1,188.999994232178,2|0,0:0|0:0,0:0:0:0:
439,280,23700,1,2,0:0:0:0:
232,152,23850,1,0,0:0:0:0:
296,324,24000,1,2,0:0:0:0:
432,176,24150,1,0,0:0:0:0:
348,48,24300,6,0,L|340:104,6,31.4999990386963,2|0|0|0|0|0|0,0:0|0:0|0:0|0:0|0:0|0:0|0:0,0:0:0:0:
297,181,24600,2,0,L|328:172,6,31.4999990386963,2|0|0|0|0|0|0,0:0|0:0|0:0|0:0|0:0|0:0|0:0,0:0:0:0:
438,162,24900,2,0,L|416:140,6,31.4999990386963,2|0|0|0|0|0|0,0:0|0:0|0:0|0:0|0:0|0:0|0:0,0:0:0:0:
428,196,25200,2,0,L|536:180,1,90
360,272,25500,5,2,0:0:0:0:
272,116,25800,2,0,L|164:100,1,90
352,40,26100,1,2,0:0:0:0:
208,200,26400,1,2,0:0:0:0:
80,24,26700,6,0,L|72:84,3,45,0|0|0|0,1:0|0:0|0:0|0:0,0:0:0:0:
18,173,27000,2,0,L|60:156,3,45
180,154,27300,2,0,L|144:128,3,45
84,248,27600,2,0,L|80:304,3,45
152,348,27900,5,0,0:0:0:0:
180,312,27975,1,0,0:0:0:0:
220,296,28050,1,0,0:0:0:0:
264,296,28125,1,0,0:0:0:0:
304,316,28200,1,0,0:0:0:0:
332,352,28275,1,0,0:0:0:0:
372,376,28350,1,0,0:0:0:0:
416,372,28425,1,0,0:0:0:0:
460,356,28500,2,0,L|516:328,3,45
436,272,28800,5,0,0:0:0:0:
413,267,28875,1,0,0:0:0:0:
391,263,28950,1,0,0:0:0:0:
369,258,29025,1,0,0:0:0:0:
347,254,29100,5,0,0:0:0:0:
172,216,29250,1,0,0:0:0:0:
288,352,29400,1,0,0:0:0:0:
288,128,29550,1,0,0:0:0:0:
88,232,29700,6,0,L|-20:220,1,90
152,316,29925,1,0,0:0:0:0:
152,316,30000,2,0,P|188:276|192:232,1,90
324,128,30300,6,0,L|444:140,1,107.999996704102,2|0,0:0|0:0,0:0:0:0:
496,200,30525,1,0,0:0:0:0:
496,200,30600,2,0,B|528:156|528:156|508:88,1,107.999996704102,8|0,0:0|0:0,0:0:0:0:
244,244,30900,2,0,L|232:360,1,107.999996704102,2|0,0:0|0:0,0:0:0:0:
320,336,31125,1,0,0:0:0:0:
320,336,31200,2,0,P|332:308|320:272,1,53.9999983520508,8|0,0:0|0:0,0:0:0:0:
168,193,31350,2,0,P|156:217|160:244,1,53.9999983520508
140,328,31500,6,0,B|96:308|96:308|28:336,1,107.999996704102,2|0,0:0|0:0,0:0:0:0:
284,148,31800,1,8,0:0:0:0:
328,152,31875,1,0,0:0:0:0:
368,136,31950,1,0,0:0:0:0:
388,96,32025,1,0,0:0:0:0:
384,52,32100,2,0,B|424:76|424:76|488:60,1,107.999996704102,2|0,0:0|0:0,0:0:0:0:
508,144,32325,1,0,0:0:0:0:
508,144,32400,2,0,L|492:260,1,107.999996704102,8|0,0:0|0:0,0:0:0:0:
168,136,32700,6,0,P|152:92|188:28,1,107.999996704102,2|0,0:0|0:0,0:0:0:0:
347,99,32925,1,0,0:0:0:0:
347,99,33000,2,0,L|240:92,1,107.999996704102,8|0,0:0|0:0,0:0:0:0:
24,232,33300,2,0,B|52:212|52:212|144:228,1,107.999996704102,2|0,0:0|0:0,0:0:0:0:
168,212,33525,1,0,0:0:0:0:
168,212,33600,2,0,L|160:272,1,53.9999983520508,8|0,0:0|0:0,0:0:0:0:
320,369,33750,2,0,L|328:316,1,53.9999983520508
260,204,33900,6,0,L|240:332,1,107.999996704102,2|0,0:0|0:0,0:0:0:0:
200,100,34200,1,8,0:0:0:0:
232,72,34275,1,0,0:0:0:0:
276,68,34350,1,0,0:0:0:0:
316,80,34425,1,0,0:0:0:0:
340,116,34500,6,0,L|408:108,1,53.9999983520508,2|0,0:0|0:0,0:0:0:0:
480,100,34650,1,0,0:0:0:0:
296,212,34800,2,0,L|364:204,1,53.9999983520508,10|0,0:0|0:0,0:0:0:0:
436,196,34950,1,0,0:0:0:0:
436,196,35025,1,0,0:0:0:0:
436,196,35100,6,0,L|416:320,1,107.999996704102,2|0,0:0|0:0,0:0:0:0:
452,384,35325,1,0,0:0:0:0:
452,384,35400,2,0,P|408:348|348:364,1,107.999996704102,8|0,0:0|0:0,0:0:0:0:
110,259,35700,2,0,B|144:280|144:280|212:268,1,107.999996704102,2|0,0:0|0:0,0:0:0:0:
252,248,35925,1,0,0:0:0:0:
252,248,36000,2,0,L|240:312,1,53.9999983520508,8|0,0:0|0:0,0:0:0:0:
92,144,36150,2,0,L|101:90,1,53.9999983520508
238,33,36300,6,0,P|248:84|223:132,1,107.999996704102,2|0,0:0|0:0,0:0:0:0:
64,336,36600,1,8,0:0:0:0:
32,308,36675,1,0,0:0:0:0:
28,264,36750,1,0,0:0:0:0:
44,224,36825,1,0,0:0:0:0:
84,204,36900,2,0,L|200:220,1,107.999996704102,2|0,0:0|0:0,0:0:0:0:
372,184,37125,1,0,0:0:0:0:
372,184,37200,2,0,P|320:172|276:200,1,107.999996704102,8|0,0:0|0:0,0:0:0:0:
425,366,37500,6,0,L|440:260,1,107.999996704102,2|0,0:0|0:0,0:0:0:0:
404,113,37725,1,0,0:0:0:0:
404,113,37800,2,0,P|360:135|372:184,1,107.999996704102,8|0,0:0|0:0,0:0:0:0:
224,340,38100,2,0,B|244:308|244:308|220:232,1,107.999996704102,2|0,0:0|0:0,0:0:0:0:
212,200,38325,1,0,0:0:0:0:
212,200,38400,2,0,L|276:212,1,53.9999983520508,8|0,0:0|0:0,0:0:0:0:
116,296,38550,2,0,L|62:286,1,53.9999983520508
12,168,38700,5,2,0:0:0:0:
135,0,38850,1,0,0:0:0:0:
133,12,38925,1,0,0:0:0:0:
130,28,39000,1,0,0:0:0:0:
128,44,39075,1,0,0:0:0:0:
126,60,39150,1,0,0:0:0:0:
123,76,39225,1,0,0:0:0:0:
121,92,39300,2,0,L|200:84,3,67.5000025749208,8|8|8|8,0:0|0:0|0:0|0:0,0:0:0:0:
276,76,39900,6,0,B|316:40|316:40|296:168,1,161.999995056153,2|0,0:0|0:0,0:0:0:0:
260,224,40200,2,0,P|308:200|368:216,1,107.999996704102,8|0,0:0|0:0,0:0:0:0:
392,240,40425,1,0,0:0:0:0:
392,240,40500,2,0,L|400:184,1,53.9999983520508,2|0,0:0|0:0,0:0:0:0:
412,100,40650,1,0,0:0:0:0:
494,286,40800,2,0,L|388:272,1,107.999996704102,8|0,0:0|0:0,0:0:0:0:
183,374,41100,6,0,P|196:322|171:275,1,107.999996704102,2|0,0:0|0:0,0:0:0:0:
148,240,41325,1,0,0:0:0:0:
148,240,41400,2,0,L|208:248,1,53.9999983520508,8|0,0:0|0:0,0:0:0:0:
288,256,41550,1,0,0:0:0:0:
84,332,41700,2,0,P|24:324|-12:272,1,107.999996704102,2|0,0:0|0:0,0:0:0:0:
80,31,42000,2,0,B|120:-4|120:-4|104:104,1,161.999995056153,8|0,0:0|0:0,0:0:0:0:
64,180,42300,6,0,P|120:156|180:184,1,107.999996704102,2|0,0:0|0:0,0:0:0:0:
197,209,42525,1,0,0:0:0:0:
197,209,42600,2,0,L|204:156,1,53.9999983520508,8|0,0:0|0:0,0:0:0:0:
346,14,42750,2,0,L|340:68,1,53.9999983520508
312,172,42900,2,0,L|440:184,1,107.999996704102,2|0,0:0|0:0,0:0:0:0:
476,332,43200,2,0,P|444:312|412:320,1,53.9999983520508,8|0,0:0|0:0,0:0:0:0:
216,356,43350,1,0,0:0:0:0:
324,356,43500,6,0,B|308:312|328:264|328:264|304:292|264:296,1,161.999995056153,2|0,0:0|0:0,0:0:0:0:
100,200,43800,2,0,B|148:176|192:236|260:208,1,161.999995056153,8|0,0:0|0:0,0:0:0:0:
336,176,44100,2,0,L|332:120,3,53.9999983520508,2|0|0|0,0:0|0:0|0:0|0:0,0:0:0:0:
376,116,44400,1,8,0:0:0:0:
404,84,44475,1,0,0:0:0:0:
404,40,44550,1,0,0:0:0:0:
368,16,44625,1,0,0:0:0:0:
324,24,44700,6,0,P|276:48|200:28,1,107.999996704102,2|0,0:0|0:0,0:0:0:0:
184,20,44925,1,0,0:0:0:0:
184,20,45000,2,0,L|192:80,1,53.9999983520508,8|0,0:0|0:0,0:0:0:0:
296,152,45150,2,0,L|288:205,1,53.9999983520508
160,192,45300,2,0,L|36:180,1,107.999996704102,2|0,0:0|0:0,0:0:0:0:
296,344,45600,2,0,B|320:284|320:284|304:244,1,107.999996704102,8|0,0:0|0:0,0:0:0:0:
264,264,45825,1,0,0:0:0:0:
264,264,45900,6,0,B|312:256|360:316|420:296,1,161.999995056153,2|0,0:0|0:0,0:0:0:0:
480,196,46200,2,0,P|424:152|392:216,1,161.999995056153,8|0,0:0|0:0,0:0:0:0:
392,216,46500,2,0,B|408:176|408:176|395:135|395:135|424:108|416:52,1,161.999995056153,2|0,0:0|0:0,0:0:0:0:
444,32,46800,2,0,L|376:24,1,53.9999983520508,8|0,0:0|0:0,0:0:0:0:
304,88,46950,2,0,L|236:80,1,53.9999983520508
144,72,47100,5,2,0:0:0:0:
260,188,47250,1,0,0:0:0:0:
52,240,47400,1,8,0:0:0:0:
192,381,47550,2,0,L|200:328,1,53.9999983520508
132,76,47700,5,2,0:0:0:0:
252,200,47850,1,0,0:0:0:0:
40,248,48000,1,2,0:0:0:0:
244,212,48150,2,0,L|316:196,1,53.9999983520508
475,140,48300,6,0,P|432:109|380:116,1,107.999996704102,2|0,0:0|0:0,0:0:0:0:
252,292,48600,2,0,B|304:280|304:280|356:300|356:300|440:284,1,161.999995056153,8|0,0:0|0:0,0:0:0:0:
420,332,48900,2,0,L|440:208,1,107.999996704102,2|0,0:0|0:0,0:0:0:0:
244,128,49200,2,0,L|264:4,1,107.999996704102,8|0,0:0|0:0,0:0:0:0:
512,93,49500,6,0,P|441:62|368:92,1,161.999995056153,6|0,0:0|0:0,0:0:0:0:
324,88,49800,2,0,P|368:136|356:184,1,107.999996704102,8|0,0:0|0:0,0:0:0:0:
348,216,50025,1,0,0:0:0:0:
348,216,50100,2,0,L|416:204,1,53.9999983520508,2|0,0:0|0:0,0:0:0:0:
488,192,50250,1,0,0:0:0:0:
300,296,50400,1,8,0:0:0:0:
368,91,50550,1,0,0:0:0:0:
449,321,50700,6,0,B|420:320|420:320|388:296|388:296|348:320|300:296,1,161.999995056153,2|0,0:0|0:0,0:0:0:0:
216,324,51000,2,0,P|283:296|251:231,1,161.999995056153,8|0,0:0|0:0,0:0:0:0:
162,198,51300,2,0,L|148:256,1,53.9999983520508,2|0,0:0|0:0,0:0:0:0:
340,180,51450,2,0,L|328:128,1,53.9999983520508
212,72,51600,2,0,L|92:56,1,107.999996704102,8|0,0:0|0:0,0:0:0:0:
24,256,51900,6,0,B|56:256|96:228|96:228|120:272|172:280,1,161.999995056153,2|0,0:0|0:0,0:0:0:0:
224,336,52200,2,0,B|256:288|256:288|232:216,1,107.999996704102,8|0,0:0|0:0,0:0:0:0:
228,196,52425,1,0,0:0:0:0:
228,196,52500,2,0,L|288:204,1,53.9999983520508,2|0,0:0|0:0,0:0:0:0:
496,224,52650,1,0,0:0:0:0:
412,44,52800,2,0,B|380:92|380:92|396:140,1,107.999996704102,8|0,0:0|0:0,0:0:0:0:
400,356,53100,6,0,B|424:248|424:248|376:272,1,161.999995056153,2|0,0:0|0:0,0:0:0:0:
136,323,53400,2,0,B|196:296|224:356|292:344,1,161.999995056153,8|0,0:0|0:0,0:0:0:0:
292,328,53700,1,2,0:0:0:0:
295,311,53775,1,0,0:0:0:0:
297,295,53850,1,0,0:0:0:0:
299,279,53925,1,0,0:0:0:0:
301,264,54000,5,8,0:0:0:0:
270,220,54075,1,0,0:0:0:0:
278,168,54150,1,0,0:0:0:0:
326,144,54225,1,0,0:0:0:0:
378,160,54300,5,2,0:0:0:0:
228,104,54450,1,0,0:0:0:0:
231,77,54525,1,0,0:0:0:0:
234,50,54600,2,0,L|164:72,1,53.9999983520508
24,124,54750,2,0,L|76:140,1,53.9999983520508
192,196,54900,5,2,0:0:0:0:
48,356,55050,1,0,0:0:0:0:
20,320,55125,1,0,0:0:0:0:
32,280,55200,2,0,L|88:296,1,53.9999983520508
247,349,55350,2,0,L|196:364,1,53.9999983520508
192,196,55500,6,0,B|244:184|244:184|308:216,1,107.999996704102,2|0,0:0|0:0,0:0:0:0:
336,192,55725,1,0,0:0:0:0:
336,192,55800,2,0,L|324:252,1,53.9999983520508
488,304,55950,2,0,L|476:364,1,53.9999983520508
392,344,56100,2,0,L|420:224,1,107.999996704102,2|0,0:0|0:0,0:0:0:0:
500,220,56325,1,0,0:0:0:0:
500,220,56400,2,0,L|480:152,1,53.9999983520508
403,28,56550,2,0,L|388:80,1,53.9999983520508
352,212,56700,6,0,P|312:192|256:200,1,101.250003862381
257,199,57000,1,0,0:0:0:0:
149,381,57150,2,0,B|172:332|172:332|156:288,1,101.250003862381
156,288,57450,1,0,0:0:0:0:
124,156,57600,1,0,0:0:0:0:
124,156,57900,6,0,L|24:138,1,101.250003862381
24,138,58200,1,0,0:0:0:0:
204,80,58350,2,0,L|308:56,1,101.250003862381
302,57,58650,1,0,0:0:0:0:
280,164,58800,1,0,0:0:0:0:
256,268,58950,1,0,0:0:0:0:
360,236,59100,6,0,B|456:252|456:252|424:216,1,135.000005149842,6|0,0:0|0:0,0:0:0:0:
280,164,59550,1,0,0:0:0:0:
257,364,59700,2,0,B|272:304|272:304|256:268,1,101.250003862381
256,268,60000,6,0,P|196:288|208:208,1,161.999995056153,2|0,0:0|0:0,0:0:0:0:
195,213,60300,5,2,0:0:0:0:
288,156,60450,1,0,0:0:0:0:
280,132,60600,1,0,0:0:0:0:
364,64,60750,1,2,0:0:0:0:
356,40,60900,1,2,0:0:0:0:
200,92,61200,6,0,L|192:168,1,67.5000025749208,8|0,0:0|0:0,0:0:0:0:
172,260,61500,2,0,B|132:240|132:240|72:260,1,101.250003862381,2|0,0:0|0:0,0:0:0:0:
78,257,61800,1,0,0:0:0:0:
272,320,61950,1,2,0:0:0:0:
275,153,62100,2,0,L|264:220,1,67.5000025749208,2|0,0:0|0:0,0:0:0:0:
384,56,62400,2,0,L|412:160,1,101.250003862381,8|0,0:0|0:0,0:0:0:0:
488,220,62700,6,0,L|516:172,2,45.0000017166138
380,248,63000,2,0,L|328:216,2,45.0000017166138,2|2|2,0:1|0:1|0:1,0:0:0:0:
460,328,63300,5,2,0:1:0:0:
428,360,63400,1,2,0:1:0:0:
384,368,63500,1,2,0:1:0:0:
340,356,63600,1,10,0:1:0:0:
308,324,63700,1,2,0:1:0:0:
264,316,63800,1,2,0:1:0:0:
228,340,63900,6,0,B|244:244|244:244|204:280,1,135.000005149842,2|0,0:0|0:0,0:0:0:0:
96,152,64350,1,2,0:0:0:0:
16,300,64500,2,0,P|44:272|112:272,1,101.250003862381,2|0,0:0|0:0,0:0:0:0:
103,267,64800,6,0,P|88:176|160:196,1,188.999994232178,8|0,0:0|0:0,0:0:0:0:
152,185,65100,5,2,0:0:0:0:
224,112,65250,1,0,0:0:0:0:
228,84,65400,1,0,0:0:0:0:
324,136,65550,1,2,0:0:0:0:
320,164,65700,1,2,0:0:0:0:
324,136,66000,2,0,L|392:144,1,67.5000025749208,8|0,0:0|0:0,0:0:0:0:
472,204,66300,6,0,P|492:168|480:96,1,101.250003862381,2|0,0:0|0:0,0:0:0:0:
404,52,66600,2,0,L|352:48,1,33.7500012874604
128,36,66750,2,0,L|161:42,1,33.7500012874604
268,44,66900,2,0,L|252:148,1,101.250003862381,2|0,0:0|0:0,0:0:0:0:
256,244,67200,2,0,L|200:236,1,33.7500012874604,8|0,0:0|0:0,0:0:0:0:
144,128,67350,2,0,L|88:120,1,33.7500012874604,2|0,0:0|0:0,0:0:0:0:
20,224,67500,6,0,L|112:240,1,90,0|2,0:0|0:0,0:0:0:0:
188,284,67800,2,0,L|176:352,2,60,2|2|2,0:1|0:1|0:1,0:0:0:0:
280,228,68100,2,0,L|290:168,2,60,2|2|2,0:1|0:1|0:1,0:0:0:0:
360,296,68400,2,0,L|349:355,2,60,2|2|2,0:1|0:1|0:1,0:0:0:0:
444,232,68700,5,2,0:0:0:0:
256,192,68775,12,0,69600,0:0:0:0:
268,120,69900,6,0,P|284:64|200:88,1,188.999994232178,8|0,0:0|0:0,0:0:0:0:
30,192,70200,2,0,B|87:199|127:147|127:147|147:175|191:187,1,188.999994232178,8|0,0:0|0:0,0:0:0:0:
288,220,70500,5,0,0:0:0:0:
285,232,70575,1,0,0:0:0:0:
283,244,70650,1,0,0:0:0:0:
281,257,70725,1,0,0:0:0:0:
279,269,70800,5,0,0:0:0:0:
328,264,70875,1,0,0:0:0:0:
372,284,70950,1,0,0:0:0:0:
388,332,71025,1,0,0:0:0:0:
368,380,71100,6,0,L|324:368,1,45,2|0,0:0|0:0,0:0:0:0:
424,136,71400,6,0,P|452:104|464:160,1,125.999996154785,2|0,0:0|0:0,0:0:0:0:
372,256,71700,1,0,0:0:0:0:
168,156,72000,1,0,0:0:0:0:
344,16,72300,6,0,L|340:64,1,45,2|0,0:0|0:0,0:0:0:0:
168,156,72600,6,0,P|108:136|140:104,1,125.999996154785,2|0,0:0|0:0,0:0:0:0:
372,256,72900,1,0,0:0:0:0:
128,320,73200,1,0,0:0:0:0:
262,309,73500,6,0,L|252:376,1,67.5
128,320,73800,6,0,B|136:272|104:228|104:228|152:208|159:161,1,188.999994232178,2|0,0:0|0:0,0:0:0:0:
43,119,74100,6,0,P|74:113|79:144,1,67.5
318,89,74400,6,0,B|280:72|232:100|232:100|204:56|148:60,1,188.999994232178,2|0,0:0|0:0,0:0:0:0:
148,59,74700,5,2,0:0:0:0:
273,221,74850,2,0,L|280:168,1,53.9999983520508
320,92,75000,2,0,B|352:108|352:108|421:89,1,107.999996704102,2|0,0:0|0:0,0:0:0:0:
488,144,75225,1,0,0:0:0:0:
488,144,75300,6,0,L|472:260,1,107.999996704102,2|0,0:0|0:0,0:0:0:0:
300,260,75600,1,2,0:0:0:0:
276,224,75675,1,0,0:0:0:0:
236,212,75750,1,0,0:0:0:0:
192,220,75825,1,0,0:0:0:0:
164,252,75900,6,0,L|52:236,1,107.999996704102,2|0,0:0|0:0,0:0:0:0:
20,256,76125,1,0,0:0:0:0:
20,256,76200,2,0,L|32:184,1,53.9999983520508,8|0,0:0|0:0,0:0:0:0:
212,92,76350,1,0,0:0:0:0:
60,40,76500,2,0,B|112:20|112:20|96:136,1,161.999995056153,2|0,0:0|0:0,0:0:0:0:
168,176,76800,2,0,P|228:188|284:152,1,107.999996704102,8|0,0:0|0:0,0:0:0:0:
308,148,77025,1,0,0:0:0:0:
308,148,77100,6,0,L|300:212,1,53.9999983520508,2|0,0:0|0:0,0:0:0:0:
284,332,77250,1,0,0:0:0:0:
491,315,77400,2,0,P|452:278|400:276,1,107.999996704102,8|0,0:0|0:0,0:0:0:0:
396,188,77625,1,0,0:0:0:0:
396,188,77700,2,0,L|412:64,1,107.999996704102,2|0,0:0|0:0,0:0:0:0:
392,40,77925,2,0,L|456:48,1,53.9999983520508,0|8,0:0|0:0,0:0:0:0:
504,160,78150,1,0,0:0:0:0:
296,216,78300,5,2,0:0:0:0:
292,34,78450,2,0,L|284:88,1,53.9999983520508
287,269,78600,2,0,L|295:215,1,53.9999983520508,8|0,0:0|0:0,0:0:0:0:
180,156,78750,1,0,0:0:0:0:
180,156,78825,1,0,0:0:0:0:
180,156,78900,2,0,B|144:176|144:176|56:156,1,107.999996704102,2|0,0:0|0:0,0:0:0:0:
296,308,79200,2,0,P|340:284|408:300,1,107.999996704102,8|0,0:0|0:0,0:0:0:0:
432,320,79425,1,0,0:0:0:0:
432,320,79500,6,0,L|440:260,1,53.9999983520508,2|0,0:0|0:0,0:0:0:0:
456,96,79650,1,0,0:0:0:0:
512,209,79800,2,0,B|448:168|448:168|372:196,1,161.999995056153,8|0,0:0|0:0,0:0:0:0:
336,216,80100,2,0,L|344:156,1,53.9999983520508,2|0,0:0|0:0,0:0:0:0:
243,38,80250,2,0,L|236:92,1,53.9999983520508
204,304,80400,1,8,0:0:0:0:
204,260,80475,1,0,0:0:0:0:
176,228,80550,1,0,0:0:0:0:
132,220,80625,1,0,0:0:0:0:
92,240,80700,6,0,B|108:128|108:128|56:176,1,161.999995056153,2|0,0:0|0:0,0:0:0:0:
52,332,81000,2,0,B|108:344|148:312|148:312|216:344,1,161.999995056153,8|0,0:0|0:0,0:0:0:0:
240,360,81300,2,0,L|248:296,1,53.9999983520508,2|0,0:0|0:0,0:0:0:0:
228,136,81450,1,0,0:0:0:0:
466,241,81600,2,0,P|410:187|336:208,1,161.999995056153,8|0,0:0|0:0,0:0:0:0:
296,228,81900,6,0,B|332:168|332:168|308:64,1,161.999995056153,2|0,0:0|0:0,0:0:0:0:
292,40,82200,2,0,L|356:52,1,53.9999983520508,8|0,0:0|0:0,0:0:0:0:
432,64,82350,1,0,0:0:0:0:
176,20,82500,2,0,B|144:64|144:64|156:120,1,107.999996704102,2|0,0:0|0:0,0:0:0:0:
171,380,82800,2,0,B|203:336|203:336|192:284,1,107.999996704102,8|0,0:0|0:0,0:0:0:0:
156,204,83025,1,0,0:0:0:0:
156,204,83100,6,0,L|40:228,1,107.999996704102,2|0,0:0|0:0,0:0:0:0:
388,148,83400,2,0,L|282:126,1,107.999996704102,8|0,0:0|0:0,0:0:0:0:
140,32,83700,2,0,B|192:4|192:4|176:124,1,161.999995056153,2|0,0:0|0:0,0:0:0:0:
48,176,84000,2,0,B|76:192|128:168|128:168|156:196|200:188,1,161.999995056153,8|0,0:0|0:0,0:0:0:0:
200,187,84300,5,2,0:0:0:0:
64,22,84450,2,0,L|72:76,1,53.9999983520508
120,288,84600,1,8,0:0:0:0:
296,160,84750,1,0,0:0:0:0:
292,188,84825,1,0,0:0:0:0:
288,216,84900,1,2,0:0:0:0:
376,196,85050,1,0,0:0:0:0:
232,100,85200,1,8,0:0:0:0:
216,264,85350,1,0,0:0:0:0:
348,92,85500,6,0,B|384:76|384:76|456:100,1,107.999996704102,2|0,0:0|0:0,0:0:0:0:
492,88,85725,1,0,0:0:0:0:
492,88,85800,2,0,L|480:152,1,53.9999983520508,8|0,0:0|0:0,0:0:0:0:
452,312,85950,1,0,0:0:0:0:
257,197,86100,2,0,L|364:216,1,107.999996704102,2|0,0:0|0:0,0:0:0:0:
389,244,86325,1,0,0:0:0:0:
389,244,86400,2,0,L|400:192,1,53.9999983520508,8|0,0:0|0:0,0:0:0:0:
208,92,86550,1,0,0:0:0:0:
316,20,86700,6,0,B|340:64|340:64|320:132,1,107.999996704102,2|0,0:0|0:0,0:0:0:0:
340,160,86925,1,0,0:0:0:0:
340,160,87000,2,0,L|276:148,1,53.9999983520508,8|0,0:0|0:0,0:0:0:0:
116,124,87150,1,0,0:0:0:0:
188,232,87300,2,0,L|204:124,1,107.999996704102,2|0,0:0|0:0,0:0:0:0:
47,9,87600,2,0,L|32:116,1,107.999996704102,8|0,0:0|0:0,0:0:0:0:
64,196,87825,1,0,0:0:0:0:
60,224,87900,5,0,0:0:0:0:
128,280,88200,1,0,0:0:0:0:
212,256,88500,1,0,0:0:0:0:
236,172,88800,1,0,0:0:0:0:
288,100,89100,6,0,B|320:56|392:60|412:116|380:164|380:164|460:144|496:184|484:256|444:296|444:296|424:272|396:260|360:268|340:296,1,506.250019311906
288,360,90300,6,0,P|248:308|308:200,1,188.999994232178,2|0,0:0|0:0,0:0:0:0:
162,149,90600,2,0,P|207:225|293:205,1,188.999994232178,2|0,0:0|0:0,0:0:0:0:
293,204,90900,1,2,0:0:0:0:
184,52,91500,6,0,B|240:44|240:44|272:76|272:76|312:52|360:88,1,188.999994232178,2|0,0:0|0:0,0:0:0:0:
473,138,91800,2,0,P|397:120|452:64,1,188.999994232178,2|0,0:0|0:0,0:0:0:0:
452,64,92100,1,2,0:0:0:0:
316,216,92700,6,0,P|264:176|252:276,1,188.999994232178,2|0,0:0|0:0,0:0:0:0:
144,309,93000,2,0,P|196:349|208:249,1,188.999994232178,2|0,0:0|0:0,0:0:0:0:
229,262,93300,5,2,0:0:0:0:
140,80,93450,1,0,0:0:0:0:
312,184,93600,1,2,0:0:0:0:
112,176,93750,1,0,0:0:0:0:
232,16,93900,6,0,B|224:80|224:80|240:124|240:124|224:204,1,188.999994232178,2|0,0:0|0:0,0:0:0:0:
276,288,94200,2,0,P|236:216|168:272,1,188.999994232178,2|0,0:0|0:0,0:0:0:0:
204,360,94500,1,2,0:0:0:0:
32,208,95100,6,0,B|72:216|112:168|112:168|136:216|192:232,1,188.999994232178,2|0,0:0|0:0,0:0:0:0:
281,105,95400,2,0,P|222:55|212:132,1,188.999994232178,2|0,0:0|0:0,0:0:0:0:
280,208,95700,2,0,L|344:196,1,62.9999980773926,2|0,0:0|0:0,0:0:0:0:
387,107,95850,2,0,L|449:119,1,62.9999980773926
460,240,96000,1,0,0:0:0:0:
460,240,96300,6,0,P|504:288|408:304,1,188.999994232178,2|0,0:0|0:0,0:0:0:0:
180,224,96600,2,0,B|244:192|296:276|360:240,1,188.999994232178,2|0,0:0|0:0,0:0:0:0:
412,152,96900,1,2,0:0:0:0:
212,378,97350,2,0,L|220:316,1,62.9999980773926
232,216,97500,6,0,B|172:216|140:264|140:264|104:232|52:256,1,188.999994232178,2|0,0:0|0:0,0:0:0:0:
0,315,97800,2,0,P|59:273|84:352,1,188.999994232178,2|0,0:0|0:0,0:0:0:0:
79,358,98100,1,2,0:0:0:0:
232,216,98250,1,0,0:0:0:0:
40,148,98400,1,2,0:0:0:0:
168,304,98550,1,0,0:0:0:0:
156,104,98700,6,0,L|164:52,6,31.4999990386963,2|0|0|0|0|0|0,0:0|0:0|0:0|0:0|0:0|0:0|0:0,0:0:0:0:
248,60,99000,2,0,L|256:8,6,31.4999990386963,2|0|0|0|0|0|0,0:0|0:0|0:0|0:0|0:0|0:0|0:0,0:0:0:0:
328,124,99300,2,0,L|336:72,6,31.4999990386963,2|0|0|0|0|0|0,0:0|0:0|0:0|0:0|0:0|0:0|0:0,0:0:0:0:
236,164,99600,2,0,L|231:195,6,31.4999990386963
216,288,99900,5,0,0:0:0:0:
216,288,100800,5,0,0:0:0:0:
216,288,100875,1,0,0:0:0:0:
216,288,100950,1,0,0:0:0:0:
216,288,101025,1,0,0:0:0:0:
216,288,101100,6,0,L|208:344,3,45,6|0|0|0,0:0|0:0|0:0|0:0,0:0:0:0:
296,228,101400,2,0,L|316:280,3,45,2|0|0|0,0:0|0:0|0:0|0:0,0:0:0:0:
200,192,101700,2,0,L|148:212,3,45,2|0|0|0,0:0|0:0|0:0|0:0,0:0:0:0:
236,96,102000,2,0,L|219:53,3,45,2|0|0|0,0:0|0:0|0:0|0:0,0:0:0:0:
324,140,102300,5,2,0:0:0:0:
337,141,102375,1,0,0:0:0:0:
350,142,102450,1,0,0:0:0:0:
364,143,102525,1,0,0:0:0:0:
377,144,102600,5,2,0:0:0:0:
404,120,102675,1,0,0:0:0:0:
440,120,102750,1,0,0:0:0:0:
468,140,102825,1,0,0:0:0:0:
480,176,102900,1,2,0:0:0:0:
464,208,102975,1,0,0:0:0:0:
432,228,103050,1,0,0:0:0:0:
396,220,103125,1,0,0:0:0:0:
372,192,103200,1,2,0:0:0:0:
364,156,103275,1,0,0:0:0:0:
340,128,103350,1,0,0:0:0:0:
308,116,103425,1,0,0:0:0:0:
272,120,103500,5,2,0:0:0:0:
248,148,103575,1,0,0:0:0:0:
216,160,103650,1,0,0:0:0:0:
180,156,103725,1,0,0:0:0:0:
152,132,103800,1,2,0:0:0:0:
144,96,103875,1,0,0:0:0:0:
160,64,103950,1,0,0:0:0:0:
188,44,104025,1,0,0:0:0:0:
232,44,104100,5,2,0:0:0:0:
268,72,104175,1,0,0:0:0:0:
268,116,104250,1,0,0:0:0:0:
248,156,104325,1,0,0:0:0:0:
216,188,104400,1,2,0:0:0:0:
196,228,104475,1,0,0:0:0:0:
192,276,104550,1,0,0:0:0:0:
216,316,104625,1,0,0:0:0:0:
252,340,104700,6,0,L|324:332,3,45,2|0|0|0,0:0|0:0|0:0|0:0,0:0:0:0:
414,345,105000,2,0,L|384:312,3,45,2|0|0|0,0:0|0:0|0:0|0:0,0:0:0:0:
345,202,105300,2,0,L|328:244,3,45,2|0|0|0,0:0|0:0|0:0|0:0,0:0:0:0:
240,248,105600,1,2,0:0:0:0:
216,244,105675,1,0,0:0:0:0:
192,240,105750,1,0,0:0:0:0:
424,128,105900,5,6,0:0:0:0:
448,132,105975,1,0,0:0:0:0:
472,136,106050,1,0,0:0:0:0:
272,52,106200,2,0,L|280:-8,2,53.9999983520508,2|0|0,0:0|0:0|0:0,0:0:0:0:
364,248,106500,2,0,L|356:301,2,53.9999983520508,2|0|0,0:0|0:0|0:0,0:0:0:0:
252,184,106800,1,2,0:0:0:0:
220,152,106875,1,0,0:0:0:0:
176,148,106950,1,0,0:0:0:0:
136,164,107025,1,0,0:0:0:0:
116,204,107100,6,0,L|56:196,2,53.9999983520508,2|0|0,0:0|0:0|0:0,0:0:0:0:
324,148,107400,2,0,L|377:155,2,53.9999983520508,2|0|0,0:0|0:0|0:0,0:0:0:0:
256,352,107700,1,2,0:0:0:0:
284,320,107775,1,0,0:0:0:0:
280,276,107850,1,0,0:0:0:0:
68,240,108000,1,2,0:0:0:0:
40,272,108075,1,0,0:0:0:0:
44,316,108150,1,0,0:0:0:0:
184,212,108300,5,2,0:0:0:0:
224,168,108375,1,0,0:0:0:0:
284,164,108450,1,0,0:0:0:0:
324,208,108525,1,0,0:0:0:0:
332,268,108600,1,0,0:0:0:0:
336,328,108675,1,0,0:0:0:0:
376,372,108750,1,0,0:0:0:0:
436,376,108825,1,0,0:0:0:0:
492,356,108900,1,0,0:0:0:0:
512,300,108975,1,0,0:0:0:0:
500,240,109050,1,0,0:0:0:0:
452,204,109125,1,0,0:0:0:0:
428,148,109200,2,0,L|440:104,6,26.9999991760254
372,172,109500,5,0,0:0:0:0:
200,68,109650,2,0,L|308:80,2,107.999996704102
416,40,110100,2,0,P|428:108|396:152,1,107.999996704102
88,112,110400,2,0,P|76:44|108:0,1,107.999996704102
262,210,110700,5,2,0:0:0:0:
64,296,110850,1,0,0:0:0:0:
172,368,111000,2,0,B|188:324|188:324|160:248,1,107.999996704102,2|0,0:0|0:0,0:0:0:0:
260,24,111300,2,0,L|252:92,1,53.9999983520508,2|0,0:0|0:0,0:0:0:0:
166,266,111450,1,0,0:0:0:0:
284,208,111600,2,0,B|320:192|320:192|408:212,1,107.999996704102,2|0,0:0|0:0,0:0:0:0:
424,232,111825,1,0,0:0:0:0:
424,232,111900,6,0,L|436:168,1,53.9999983520508,2|0,0:0|0:0,0:0:0:0:
253,77,112050,1,0,0:0:0:0:
349,39,112200,2,0,B|376:24|376:24|360:100,1,107.999996704102,2|0,0:0|0:0,0:0:0:0:
340,184,112425,1,0,0:0:0:0:
340,184,112500,2,0,L|272:176,1,53.9999983520508,2|0,0:0|0:0,0:0:0:0:
72,152,112650,1,0,0:0:0:0:
201,46,112800,2,0,L|192:100,1,53.9999983520508,2|0,0:0|0:0,0:0:0:0:
196,228,112950,2,0,L|186:281,1,53.9999983520508
100,268,113100,6,0,B|72:316|72:316|88:372,1,107.999996704102,2|0,0:0|0:0,0:0:0:0:
266,370,113325,1,0,0:0:0:0:
266,370,113400,2,0,B|294:322|294:322|280:272,1,107.999996704102,2|0,0:0|0:0,0:0:0:0:
401,53,113700,2,0,P|384:103|404:152,1,107.999996704102,2|0,0:0|0:0,0:0:0:0:
388,192,113925,1,0,0:0:0:0:
388,192,114000,2,0,L|460:172,1,53.9999983520508,2|0,0:0|0:0,0:0:0:0:
492,12,114150,1,0,0:0:0:0:
268,124,114300,6,0,L|156:104,1,107.999996704102,2|0,0:0|0:0,0:0:0:0:
96,52,114525,1,0,0:0:0:0:
96,52,114600,2,0,P|76:96|84:116,1,53.9999983520508,2|0,0:0|0:0,0:0:0:0:
184,263,114750,2,0,P|201:242|204:216,1,53.9999983520508
112,212,114900,6,0,P|59:204|12:232,1,107.999996704102,2|0,0:0|0:0,0:0:0:0:
84,345,115125,1,0,0:0:0:0:
84,345,115200,2,0,L|76:292,1,53.9999983520508,2|0,0:0|0:0,0:0:0:0:
208,118,115350,2,0,L|200:172,1,53.9999983520508
208,300,115500,6,0,B|272:312|272:312|320:280,1,107.999996704102,2|0,0:0|0:0,0:0:0:0:
488,168,115800,2,0,L|372:152,1,107.999996704102,2|0,0:0|0:0,0:0:0:0:
340,172,116025,1,0,0:0:0:0:
340,172,116100,2,0,L|348:108,1,53.9999983520508,2|0,0:0|0:0,0:0:0:0:
508,80,116250,1,0,0:0:0:0:
512,256,116400,2,0,L|412:244,1,107.999996704102,2|0,0:0|0:0,0:0:0:0:
127,151,116700,6,0,P|174:127|228:132,1,107.999996704102,2|0,0:0|0:0,0:0:0:0:
268,116,116925,1,0,0:0:0:0:
268,116,117000,2,0,L|260:176,1,53.9999983520508,2|0,0:0|0:0,0:0:0:0:
364,248,117150,2,0,L|356:308,1,53.9999983520508
128,336,117300,2,0,B|116:280|116:280|148:240,1,107.999996704102,2|0,0:0|0:0,0:0:0:0:
261,308,117525,1,0,0:0:0:0:
261,308,117600,2,0,L|208:300,1,53.9999983520508,2|0,0:0|0:0,0:0:0:0:
40,340,117750,1,0,0:0:0:0:
86,78,117900,6,0,P|108:125|92:176,1,107.999996704102,2|0,0:0|0:0,0:0:0:0:
68,212,118125,1,0,0:0:0:0:
68,212,118200,2,0,L|144:200,1,53.9999983520508,2|0,0:0|0:0,0:0:0:0:
328,140,118350,1,0,0:0:0:0:
258,337,118500,2,0,B|232:304|232:304|244:240,1,107.999996704102,2|0,0:0|0:0,0:0:0:0:
228,200,118725,1,0,0:0:0:0:
228,200,118800,2,0,L|292:188,1,53.9999983520508,2|0,0:0|0:0,0:0:0:0:
396,60,118950,1,0,0:0:0:0:
460,220,119100,5,8,1:0:0:0:
288,88,119250,1,8,0:0:0:0:
285,61,119325,1,8,0:0:0:0:
282,34,119400,1,8,0:0:0:0:
480,120,119550,1,8,0:0:0:0:
288,220,119700,5,8,0:0:0:0:
284,248,119850,1,8,0:0:0:0:
144,116,120000,1,8,0:0:0:0:
148,144,120150,1,0,0:0:0:0:
32,272,120300,6,0,L|168:260,1,107.999996704102,2|0,0:0|0:0,0:0:0:0:
272,248,120600,1,2,0:0:0:0:
68,176,120750,1,0,0:0:0:0:
195,32,120900,2,0,B|216:84|216:84|196:136,1,107.999996704102,2|0,0:0|0:0,0:0:0:0:
124,88,121200,1,2,0:0:0:0:
288,32,121350,1,0,0:0:0:0:
293,220,121500,6,0,B|273:169|273:169|292:120,1,107.999996704102,2|0,0:0|0:0,0:0:0:0:
292,76,121725,1,0,0:0:0:0:
292,76,121800,2,0,L|360:92,1,53.9999983520508,2|0,0:0|0:0,0:0:0:0:
477,222,121950,2,0,L|424:232,1,53.9999983520508
228,324,122100,1,2,0:0:0:0:
248,108,122250,1,0,0:0:0:0:
424,232,122400,2,0,L|416:296,1,53.9999983520508,2|0,0:0|0:0,0:0:0:0:
221,377,122550,2,0,L|227:323,1,53.9999983520508
300,180,122700,6,0,B|248:156|248:156|192:168,1,107.999996704102,2|0,0:0|0:0,0:0:0:0:
6,58,123000,2,0,B|58:82|58:82|108:72,1,107.999996704102,2|0,0:0|0:0,0:0:0:0:
140,44,123225,1,0,0:0:0:0:
140,44,123300,2,0,L|128:112,1,53.9999983520508,2|0,0:0|0:0,0:0:0:0:
120,184,123450,2,0,L|108:252,1,53.9999983520508
100,324,123600,1,2,0:0:0:0:
228,148,123750,1,0,0:0:0:0:
16,184,123900,6,0,P|-4:240|16:296,1,107.999996704102,2|0,0:0|0:0,0:0:0:0:
200,340,124125,1,0,0:0:0:0:
200,340,124200,2,0,P|216:304|216:276,1,53.9999983520508,2|0,0:0|0:0,0:0:0:0:
308,96,124350,2,0,P|308:132|324:164,1,53.9999983520508
400,288,124500,5,2,0:0:0:0:
212,180,124650,1,0,0:0:0:0:
416,108,124800,1,2,0:0:0:0:
368,320,124950,1,0,0:0:0:0:
300,116,125100,6,0,B|288:72|288:72|312:0,1,107.999996704102,2|0,0:0|0:0,0:0:0:0:
416,108,125400,1,2,0:0:0:0:
212,180,125550,1,0,0:0:0:0:
368,320,125700,2,0,L|384:200,1,107.999996704102,2|0,0:0|0:0,0:0:0:0:
404,176,125925,1,0,0:0:0:0:
404,176,126000,2,0,L|336:192,1,53.9999983520508,2|0,0:0|0:0,0:0:0:0:
163,312,126150,2,0,L|216:300,1,53.9999983520508
228,172,126300,6,0,P|248:120|224:52,1,107.999996704102,2|0,0:0|0:0,0:0:0:0:
252,28,126525,1,0,0:0:0:0:
252,28,126600,2,0,L|196:44,1,53.9999983520508,2|0,0:0|0:0,0:0:0:0:
36,100,126750,2,0,L|87:114,1,53.9999983520508
228,172,126900,1,2,0:0:0:0:
432,100,127050,1,0,0:0:0:0:
376,308,127200,1,2,0:0:0:0:
300,60,127350,1,0,0:0:0:0:
364,180,127500,6,0,P|416:204|480:184,1,107.999996704102,2|0,0:0|0:0,0:0:0:0:
508,160,127725,1,0,0:0:0:0:
508,160,127800,2,0,L|492:280,1,107.999996704102,2|0,0:0|0:0,0:0:0:0:
262,363,128100,2,0,B|248:324|248:324|268:260,1,107.999996704102,2|0,0:0|0:0,0:0:0:0:
292,212,128325,1,0,0:0:0:0:
292,212,128400,2,0,L|232:220,1,53.9999983520508,2|0,0:0|0:0,0:0:0:0:
14,251,128550,2,0,L|68:244,1,53.9999983520508
152,232,128700,5,2,0:0:0:0:
284,120,128850,1,0,0:0:0:0:
285,109,128925,1,0,0:0:0:0:
287,98,129000,1,0,0:0:0:0:
289,88,129075,1,0,0:0:0:0:
291,77,129150,1,0,0:0:0:0:
293,66,129225,1,0,0:0:0:0:
296,56,129300,5,8,0:0:0:0:
352,172,129450,1,8,0:0:0:0:
208,76,129600,1,8,0:0:0:0:
368,8,129750,1,8,0:0:0:0:
352,172,129900,6,0,B|400:140|480:152|480:152|444:188,1,161.999995056153,6|0,0:0|0:0,0:0:0:0:
288,236,130200,6,0,P|264:200|264:176,1,67.5
292,96,130500,6,0,L|204:88,1,62.9999980773926,8|0,0:0|0:0,0:0:0:0:
15,159,130650,2,0,B|76:172|120:116|120:116|128:152|164:168,1,188.999994232178
212,172,130950,2,0,L|196:236,1,62.9999980773926
328,308,131100,6,0,B|352:256|340:196|340:196|300:248,1,161.999995056153,2|0,0:0|0:0,0:0:0:0:
288,360,131400,2,0,P|340:336|400:364,1,107.999996704102
424,372,131625,1,0,0:0:0:0:
424,372,131700,6,0,L|440:304,1,62.9999980773926,8|0,0:0|0:0,0:0:0:0:
486,125,131850,2,0,P|409:149|460:212,1,188.999994232178
460,211,132150,2,0,L|392:200,1,62.9999980773926
320,124,132300,6,0,B|256:132|256:132|232:160|232:160|172:168,1,161.999995056153,2|0,0:0|0:0,0:0:0:0:
96,212,132600,6,0,P|80:180|84:144,1,67.5
194,13,132900,6,0,L|184:76,1,62.9999980773926,8|0,0:0|0:0,0:0:0:0:
335,222,133050,2,0,B|360:88|360:88|320:124,1,188.999994232178
186,164,133350,2,0,L|248:180,1,62.9999980773926
444,276,133500,6,0,P|384:260|364:348,1,161.999995056153,2|0,0:0|0:0,0:0:0:0:
357,339,133800,2,0,P|305:327|258:351,1,107.999996704102
220,368,134025,1,0,0:0:0:0:
220,368,134100,6,0,L|208:288,1,53.9999983520508,8|0,0:0|0:0,0:0:0:0:
304,110,134250,2,0,L|296:164,1,53.9999983520508
196,204,134400,1,0,0:0:0:0:
176,188,134475,1,0,0:0:0:0:
152,180,134550,1,0,0:0:0:0:
124,180,134625,1,0,0:0:0:0:
100,192,134700,6,0,P|28:160|88:112,1,161.999995056153,2|0,0:0|0:0,0:0:0:0:
167,43,135000,6,0,B|176:72|176:72|159:106,1,67.5
200,200,135300,6,0,L|272:188,1,62.9999980773926,8|0,0:0|0:0,0:0:0:0:
471,138,135450,2,0,B|336:96|336:96|352:140,1,188.999994232178
398,281,135750,2,0,L|412:220,1,62.9999980773926
262,189,135900,2,0,P|204:208|256:276,1,161.999995056153,2|0,0:0|0:0,0:0:0:0:
241,277,136200,2,0,P|180:280|152:328,1,107.999996704102
160,356,136425,1,0,0:0:0:0:
160,356,136500,2,0,L|84:344,1,62.9999980773926,8|0,0:0|0:0,0:0:0:0:
4,208,136650,6,0,B|40:212|52:192|52:192|96:204|96:204|128:176|180:172,1,188.999994232178
220,188,136950,2,0,L|232:120,1,53.9999983520508
240,48,137100,5,2,0:0:0:0:
432,148,137250,1,8,0:0:0:0:
308,152,137400,1,0,0:0:0:0:
368,36,137550,1,0,0:0:0:0:
368,268,137700,5,8,0:0:0:0:
240,48,137850,1,8,0:0:0:0:
432,148,138000,1,0,0:0:0:0:
308,152,138150,1,0,0:0:0:0:
212,240,138300,6,0,B|184:256|184:256|80:240,1,107.999996704102,2|0,0:0|0:0,0:0:0:0:
36,40,138600,2,0,B|88:12|88:12|68:128,1,161.999995056153
44,148,138900,2,0,L|112:156,1,53.9999983520508,8|0,0:0|0:0,0:0:0:0:
308,152,139050,1,0,0:0:0:0:
252,30,139200,2,0,B|220:44|220:44|208:116,1,107.999996704102
200,332,139500,6,0,B|232:280|224:216|224:216|184:264,1,161.999995056153,2|0,0:0|0:0,0:0:0:0:
164,348,139800,2,0,L|284:336,1,107.999996704102,8|0,0:0|0:0,0:0:0:0:
308,360,140025,1,0,0:0:0:0:
308,360,140100,2,0,L|324:292,1,53.9999983520508,2|0,0:0|0:0,0:0:0:0:
352,136,140250,1,0,0:0:0:0:
509,288,140400,2,0,P|472:250|420:244,1,107.999996704102,8|0,0:0|0:0,0:0:0:0:
197,169,140700,6,0,B|252:184|292:128|352:136,1,161.999995056153,2|0,0:0|0:0,0:0:0:0:
440,136,141000,2,0,P|384:94|440:54,1,161.999995056153,8|0,0:0|0:0,0:0:0:0:
496,120,141300,2,0,L|484:192,1,53.9999983520508
388,220,141450,2,0,L|396:273,1,53.9999983520508
460,360,141600,2,0,P|400:332|352:356,1,107.999996704102,8|0,0:0|0:0,0:0:0:0:
80,265,141900,6,0,P|134:263|180:236,1,107.999996704102,2|0,0:0|0:0,0:0:0:0:
224,244,142125,1,0,0:0:0:0:
224,244,142200,2,0,L|216:172,1,53.9999983520508,8|0,0:0|0:0,0:0:0:0:
208,104,142350,1,0,0:0:0:0:
316,240,142500,1,2,0:0:0:0:
112,172,142650,1,0,0:0:0:0:
276,32,142800,2,0,P|312:88|300:140,1,107.999996704102,8|0,0:0|0:0,0:0:0:0:
316,344,143100,6,0,B|340:228|340:228|360:268,1,161.999995056153,2|0,0:0|0:0,0:0:0:0:
400,344,143400,2,0,B|356:360|356:360|312:344|312:344|284:368|232:344,1,161.999995056153,8|0,0:0|0:0,0:0:0:0:
204,356,143700,2,0,L|216:288,1,53.9999983520508,2|0,0:0|0:0,0:0:0:0:
86,122,143850,2,0,L|96:176,1,53.9999983520508,8|0,0:0|0:0,0:0:0:0:
107,283,144000,2,0,L|-20:272,1,107.999996704102,8|0,0:0|0:0,0:0:0:0:
196,204,144300,5,2,0:0:0:0:
316,252,144450,1,0,0:0:0:0:
344,256,144525,1,0,0:0:0:0:
372,260,144600,2,0,L|400:212,1,53.9999983520508
372,33,144750,2,0,L|400:80,1,53.9999983520508
484,148,144900,5,2,0:0:0:0:
296,144,145050,1,0,0:0:0:0:
268,140,145125,1,0,0:0:0:0:
240,136,145200,2,0,L|188:172,1,53.9999983520508
171,338,145350,2,0,L|152:288,1,53.9999983520508
91,82,145500,6,0,L|68:188,1,107.999996704102,2|0,0:0|0:0,0:0:0:0:
40,224,145725,1,0,0:0:0:0:
40,224,145800,2,0,L|112:212,1,53.9999983520508
313,255,145950,2,0,L|260:264,1,53.9999983520508
29,316,146100,6,0,L|136:296,1,107.999996704102,2|0,0:0|0:0,0:0:0:0:
165,325,146325,1,0,0:0:0:0:
165,325,146400,2,0,L|172:272,1,53.9999983520508
198,90,146550,2,0,L|192:144,1,53.9999983520508
300,224,146700,6,0,P|328:188|320:128,1,101.250003862381
323,134,147000,1,0,0:0:0:0:
455,26,147150,2,0,P|426:66|432:116,1,101.250003862381
432,116,147450,1,0,0:0:0:0:
484,208,147600,1,0,0:0:0:0:
484,208,147900,6,0,L|472:316,1,101.250003862381
472,308,148200,1,0,0:0:0:0:
323,134,148350,2,0,L|311:242,1,101.250003862381
311,234,148650,1,0,0:0:0:0:
296,340,148800,1,0,0:0:0:0:
212,272,148950,1,0,0:0:0:0:
124,336,149100,6,0,P|60:316|12:356,1,135.000005149842,6|0,0:0|0:0,0:0:0:0:
212,272,149550,1,0,0:0:0:0:
212,272,149700,2,0,B|236:224|236:224|220:168,1,101.250003862381,2|0,0:0|0:0,0:0:0:0:
128,216,150000,6,0,B|-8:200|-8:200|76:164,1,188.999994232178,2|0,0:0|0:0,0:0:0:0:
39,179,150300,5,2,0:0:0:0:
84,56,150450,1,0,0:0:0:0:
92,84,150600,1,0,0:0:0:0:
208,68,150750,1,0,0:0:0:0:
200,40,150900,1,0,0:0:0:0:
200,40,151200,2,0,L|280:32,1,67.5000025749208,8|0,0:0|0:0,0:0:0:0:
449,116,151500,6,0,P|409:86|360:88,1,101.250003862381,2|0,0:0|0:0,0:0:0:0:
359,88,151800,1,0,0:0:0:0:
264,140,151950,1,2,0:0:0:0:
356,196,152100,2,0,L|376:268,1,67.5000025749208,2|0,0:0|0:0,0:0:0:0:
261,362,152400,2,0,L|272:296,1,67.5000025749208,8|2,0:0|0:0,0:0:0:0:
212,176,152700,2,0,L|176:240,1,67.5000025749208,2|0,0:0|0:0,0:0:0:0:
87,254,153000,6,0,L|44:244,2,45.0000017166138,2|2|2,0:1|0:1|0:1,0:0:0:0:
152,320,153300,2,0,L|168:368,2,45.0000017166138,2|2|2,0:1|0:1|0:1,0:0:0:0:
178,234,153600,1,8,0:0:0:0:
178,234,153900,6,0,P|216:200|300:212,1,135.000005149842,2|0,0:0|0:0,0:0:0:0:
294,208,154350,1,2,0:0:0:0:
460,265,154500,2,0,P|412:255|368:280,1,101.250003862381,2|0,0:0|0:0,0:0:0:0:
368,279,154800,6,0,B|396:248|396:248|392:196|392:196|424:164|424:164|412:112,1,188.999994232178,8|0,0:0|0:0,0:0:0:0:
412,115,155100,5,2,0:0:0:0:
344,36,155250,1,0,0:0:0:0:
328,60,155400,1,0,0:0:0:0:
268,180,155550,1,2,0:0:0:0:
256,156,155700,1,2,0:0:0:0:
132,56,156000,2,0,L|140:128,1,67.5000025749208,8|0,0:0|0:0,0:0:0:0:
180,224,156300,6,0,P|144:200|80:208,1,101.250003862381,2|0,0:0|0:0,0:0:0:0:
20,280,156600,2,0,L|32:336,1,33.7500012874604
139,365,156750,2,0,L|132:332,1,33.7500012874604,2|0,0:0|0:0,0:0:0:0:
236,304,156900,2,0,P|280:288|320:232,1,101.250003862381,2|0,0:0|0:0,0:0:0:0:
404,200,157200,2,0,L|464:208,1,33.7500012874604
328,128,157350,2,0,L|294:123,1,33.7500012874604,2|0,0:0|0:0,0:0:0:0:
428,108,157500,6,0,P|448:72|440:36,1,67.5000025749208,0|2,0:0|0:0,0:0:0:0:
228,28,157800,2,0,P|212:52|212:88,2,45.0000017166138,2|2|2,0:1|0:1|0:1,0:0:0:0:
189,147,158100,2,0,P|211:152|232:144,2,45.0000017166138,2|2|2,0:1|0:1|0:1,0:0:0:0:
318,124,158400,2,0,P|312:102|300:84,2,45.0000017166138,2|2|2,0:1|0:1|0:1,0:0:0:0:
288,208,158700,5,2,0:0:0:0:
256,192,158775,12,0,159600,0:0:0:0:
80,88,159900,6,0,P|144:48|144:128,1,188.999994232178,8|0,0:0|0:0,0:0:0:0:
144,127,160200,2,0,P|203:151|123:195,1,188.999994232178,8|0,0:0|0:0,0:0:0:0:
36,224,160500,5,0,0:0:0:0:
37,236,160575,1,0,0:0:0:0:
38,249,160650,1,0,0:0:0:0:
40,261,160725,1,0,0:0:0:0:
41,274,160800,5,0,0:0:0:0:
84,248,160875,1,0,0:0:0:0:
136,252,160950,1,0,0:0:0:0:
172,288,161025,1,0,0:0:0:0:
176,340,161100,6,0,L|236:332,1,45,2|0,0:0|0:0,0:0:0:0:
484,188,161400,6,0,P|444:160|456:212,1,125.999996154785,2|0,0:0|0:0,0:0:0:0:
364,328,161700,1,0,0:0:0:0:
160,180,162000,1,0,0:0:0:0:
360,24,162300,6,0,L|352:72,1,45,2|0,0:0|0:0,0:0:0:0:
364,328,162600,6,0,P|328:364|340:304,1,125.999996154785,2|0,0:0|0:0,0:0:0:0:
160,180,162900,1,0,0:0:0:0:
352,68,163200,1,0,0:0:0:0:
348,284,163500,6,0,L|360:208,1,67.5
501,82,163800,6,0,B|448:92|432:144|432:144|400:108|348:116,1,188.999994232178,2|0,0:0|0:0,0:0:0:0:
245,35,164100,6,0,P|275:41|272:72,1,67.5
306,246,164400,6,0,B|276:296|276:296|240:232|276:172,1,188.999994232178,2|0,0:0|0:0,0:0:0:0:
276,172,164700,5,2,0:0:0:0:
116,28,164850,2,0,P|124:56|112:96,1,53.9999983520508
0,198,165000,2,0,P|35:161|88:160,1,107.999996704102,2|0,0:0|0:0,0:0:0:0:
176,152,165225,1,0,0:0:0:0:
176,152,165300,2,0,L|164:272,1,107.999996704102,2|0,0:0|0:0,0:0:0:0:
336,228,165600,5,2,0:0:0:0:
372,208,165675,1,0,0:0:0:0:
416,212,165750,1,0,0:0:0:0:
448,240,165825,1,0,0:0:0:0:
460,280,165900,6,0,L|480:144,1,107.999996704102,2|0,0:0|0:0,0:0:0:0:
496,136,166125,1,0,0:0:0:0:
496,136,166200,2,0,L|436:144,1,53.9999983520508,8|0,0:0|0:0,0:0:0:0:
308,36,166350,1,0,0:0:0:0:
196,168,166500,2,0,P|248:136|332:184,1,161.999995056153,2|0,0:0|0:0,0:0:0:0:
364,204,166800,2,0,B|332:248|332:248|352:300,1,107.999996704102,8|0,0:0|0:0,0:0:0:0:
364,340,167025,1,0,0:0:0:0:
364,340,167100,6,0,L|292:332,1,53.9999983520508,2|0,0:0|0:0,0:0:0:0:
96,312,167250,1,0,0:0:0:0:
188,372,167400,2,0,P|212:316|188:248,1,107.999996704102,8|0,0:0|0:0,0:0:0:0:
172,192,167700,2,0,L|60:208,1,107.999996704102,2|0,0:0|0:0,0:0:0:0:
24,196,167925,1,0,0:0:0:0:
24,196,168000,2,0,P|40:224|36:260,1,53.9999983520508,8|0,0:0|0:0,0:0:0:0:
116,284,168150,1,0,0:0:0:0:
212,92,168300,5,2,0:0:0:0:
294,289,168450,2,0,L|304:236,1,53.9999983520508
337,54,168600,2,0,L|328:108,1,53.9999983520508,8|0,0:0|0:0,0:0:0:0:
428,192,168750,1,0,0:0:0:0:
428,192,168825,1,0,0:0:0:0:
428,192,168900,6,0,P|488:200|524:244,1,107.999996704102,2|0,0:0|0:0,0:0:0:0:
216,248,169200,2,0,L|96:268,1,107.999996704102,8|0,0:0|0:0,0:0:0:0:
68,284,169425,1,0,0:0:0:0:
68,284,169500,6,0,L|76:220,1,53.9999983520508,2|0,0:0|0:0,0:0:0:0:
92,60,169650,1,0,0:0:0:0:
12,164,169800,2,0,P|68:140|156:204,1,161.999995056153,8|0,0:0|0:0,0:0:0:0:
180,216,170100,2,0,L|192:152,1,53.9999983520508,2|0,0:0|0:0,0:0:0:0:
296,24,170250,2,0,L|316:92,1,53.9999983520508
312,204,170400,5,8,0:0:0:0:
344,176,170475,1,0,0:0:0:0:
388,172,170550,1,0,0:0:0:0:
428,192,170625,1,0,0:0:0:0:
448,232,170700,6,0,P|424:284|496:252,1,161.999995056153,2|0,0:0|0:0,0:0:0:0:
484,152,171000,2,0,B|428:124|388:188|328:172,1,161.999995056153,8|0,0:0|0:0,0:0:0:0:
288,192,171300,2,0,L|292:136,1,53.9999983520508,2|0,0:0|0:0,0:0:0:0:
300,52,171450,1,0,0:0:0:0:
32,206,171600,6,0,P|85:149|164:156,1,161.999995056153,8|0,0:0|0:0,0:0:0:0:
200,128,171900,2,0,B|180:168|180:168|200:196|200:196|168:232|184:280,1,161.999995056153,2|0,0:0|0:0,0:0:0:0:
196,312,172200,2,0,L|124:304,1,53.9999983520508,8|0,0:0|0:0,0:0:0:0:
56,300,172350,1,0,0:0:0:0:
264,244,172500,2,0,P|292:304|276:360,1,107.999996704102,2|0,0:0|0:0,0:0:0:0:
40,164,172800,2,0,P|35:111|61:64,1,107.999996704102,8|0,0:0|0:0,0:0:0:0:
144,36,173025,1,0,0:0:0:0:
144,36,173100,6,0,L|264:52,1,107.999996704102,2|0,0:0|0:0,0:0:0:0:
504,100,173400,2,0,P|444:112|408:160,1,107.999996704102,8|0,0:0|0:0,0:0:0:0:
280,252,173700,2,0,B|308:204|296:144|296:144|252:204,1,161.999995056153,2|0,0:0|0:0,0:0:0:0:
220,308,174000,2,0,B|276:280|332:348|392:324,1,161.999995056153,8|0,0:0|0:0,0:0:0:0:
376,328,174300,5,2,0:0:0:0:
379,146,174450,2,0,L|372:200,1,53.9999983520508
460,264,174600,1,8,0:0:0:0:
276,152,174750,1,0,0:0:0:0:
248,156,174825,1,0,0:0:0:0:
220,160,174900,5,2,0:0:0:0:
312,68,175050,1,0,0:0:0:0:
280,240,175200,1,8,0:0:0:0:
144,136,175350,1,0,0:0:0:0:
147,361,175500,6,0,P|173:315|164:264,1,107.999996704102,2|0,0:0|0:0,0:0:0:0:
176,224,175725,1,0,0:0:0:0:
176,224,175800,2,0,L|108:240,1,53.9999983520508,8|0,0:0|0:0,0:0:0:0:
40,256,175950,1,0,0:0:0:0:
204,116,176100,2,0,L|328:144,1,107.999996704102,2|0,0:0|0:0,0:0:0:0:
348,160,176325,1,0,0:0:0:0:
348,160,176400,2,0,L|340:92,1,53.9999983520508,8|0,0:0|0:0,0:0:0:0:
280,44,176550,1,0,0:0:0:0:
256,216,176700,6,0,B|232:264|232:264|256:320,1,107.999996704102,2|0,0:0|0:0,0:0:0:0:
244,356,176925,1,0,0:0:0:0:
244,356,177000,2,0,L|312:340,1,53.9999983520508,8|0,0:0|0:0,0:0:0:0:
356,144,177150,1,0,0:0:0:0:
506,282,177300,2,0,L|400:264,1,107.999996704102,2|0,0:0|0:0,0:0:0:0:
249,125,177600,2,0,L|356:144,1,107.999996704102,8|0,0:0|0:0,0:0:0:0:
440,156,177825,1,0,0:0:0:0:
440,156,177900,5,0,0:0:0:0:
212,28,178200,1,0,0:0:0:0:
264,192,178500,1,0,0:0:0:0:
268,220,178800,1,0,0:0:0:0:
272,248,179100,6,0,B|216:224|216:224|188:288|124:300|84:268|60:232|72:212|72:212|100:176|100:176|76:148|76:100|108:60|180:88,1,472.500018024445
166,83,180300,5,2,0:0:0:0:
256,192,180600,12,0,184500,0:0:0:0:
160,44,184800,6,0,L|164:100,1,45,2|0,0:0|0:0,0:0:0:0:
176,180,185100,6,0,P|204:168|272:176,1,90,2|0,0:0|0:0,0:0:0:0:
348,200,185550,1,0,0:0:0:0:
436,220,185700,2,0,L|424:304,1,67.5,2|0,0:0|0:0,0:0:0:0:
460,296,186000,6,0,L|472:204,1,90,4|0,0:0|0:0,0:0:0:0:
471,206,186300,5,2,0:0:0:0:
384,92,186450,1,0,0:0:0:0:
380,112,186600,1,2,0:0:0:0:
252,124,186750,1,2,0:0:0:0:
256,104,186900,1,2,0:0:0:0:
256,104,187200,2,0,L|264:48,1,45,2|0,0:0|0:0,0:0:0:0:
176,152,187500,6,0,B|148:136|148:136|80:148,1,90,2|2,0:0|0:0,0:0:0:0:
91,146,187950,1,0,0:0:0:0:
16,240,188100,2,0,L|60:232,1,45,2|0,0:0|0:0,0:0:0:0:
284,248,188400,2,0,L|240:256,1,45,2|0,0:0|0:0,0:0:0:0:
148,358,188700,6,0,B|156:324|156:324|140:296,1,67.5,2|0,0:0|0:0,0:0:0:0:
164,208,189000,1,2,0:1:0:0:
188,180,189100,1,2,0:1:0:0:
224,168,189200,1,2,0:1:0:0:
260,176,189300,1,2,0:1:0:0:
288,200,189400,1,2,0:1:0:0:
308,232,189500,1,2,0:1:0:0:
340,248,189600,1,2,0:1:0:0:
376,248,189700,1,2,0:1:0:0:
404,228,189800,1,2,0:1:0:0:
420,196,189900,5,2,0:0:0:0:
420,16,190200,2,0,L|476:12,1,45,2|0,0:0|0:0,0:0:0:0:
484,112,190500,2,0,P|460:100|416:108,1,67.5,2|0,0:0|0:0,0:0:0:0:
420,105,190800,6,0,P|384:64|308:96,1,135,6|0,0:0|0:0,0:0:0:0:
314,84,191100,5,2,0:0:0:0:
228,148,191250,1,0,0:0:0:0:
224,172,191400,1,2,0:0:0:0:
156,252,191550,1,2,0:0:0:0:
152,276,191700,1,2,0:0:0:0:
156,252,192000,2,0,L|96:244,1,45,2|0,0:0|0:0,0:0:0:0:
240,184,192300,5,2,0:0:0:0:
152,272,192600,2,0,L|92:264,1,45,2|0,0:0|0:0,0:0:0:0:
236,204,192900,5,2,0:0:0:0:
148,296,193200,2,0,L|88:288,1,45,2|0,0:0|0:0,0:0:0:0:
232,228,193500,6,0,P|264:216|304:220,1,67.5,2|0,0:0|0:0,0:0:0:0:
364,280,193800,2,0,L|372:320,2,30,2|2|2,0:1|0:1|0:1,0:0:0:0:
465,230,194100,2,0,L|460:260,2,30,2|2|2,0:1|0:1|0:1,0:0:0:0:
376,172,194400,1,2,0:1:0:0:
361,169,194500,1,2,0:1:0:0:
346,166,194600,1,2,0:1:0:0:
331,163,194700,5,2,0:0:0:0:
256,192,194775,12,0,197100,0:0:0:0:
296,140,200700,6,0,B|248:96|248:96|272:244,1,188.999994232178,8|0,0:0|0:0,0:0:0:0:
204,296,201000,2,0,B|256:292|276:244|276:244|316:276|376:272,1,188.999994232178,8|0,0:0|0:0,0:0:0:0:
460,308,201300,1,0,0:0:0:0:
458,295,201375,1,0,0:0:0:0:
457,282,201450,1,0,0:0:0:0:
456,270,201525,1,0,0:0:0:0:
480,228,201600,5,0,0:0:0:0:
428,232,201675,1,0,0:0:0:0:
388,200,201750,1,0,0:0:0:0:
384,148,201825,1,0,0:0:0:0:
420,116,201900,6,0,L|476:124,1,45,2|0,0:0|0:0,0:0:0:0:
280,40,202200,6,0,P|232:64|224:8,1,125.999996154785,2|0,0:0|0:0,0:0:0:0:
292,176,202500,1,0,0:0:0:0:
100,136,202800,1,0,0:0:0:0:
284,204,203100,6,0,L|276:264,1,45,2|0,0:0|0:0,0:0:0:0:
100,136,203400,6,0,P|64:140|84:76,1,125.999996154785,2|0,0:0|0:0,0:0:0:0:
220,100,203700,1,0,0:0:0:0:
144,300,204000,1,0,0:0:0:0:
376,340,204300,6,0,P|392:312|384:272,1,67.5
456,204,204600,6,0,B|408:176|356:192|356:192|328:152|276:164,1,188.999994232178,2|0,0:0|0:0,0:0:0:0:
129,207,204900,6,0,L|196:196,1,67.5
281,162,205200,6,0,B|304:36|304:36|256:80,1,188.999994232178,2|0,0:0|0:0,0:0:0:0:
259,76,205500,5,2,0:0:0:0:
126,121,205650,2,0,L|180:112,1,53.9999983520508
388,178,205800,2,0,L|281:162,1,107.999996704102,2|0,0:0|0:0,0:0:0:0:
188,220,206025,1,0,0:0:0:0:
188,220,206100,2,0,B|164:264|164:264|188:336,1,107.999996704102,2|0,0:0|0:0,0:0:0:0:
480,268,206400,5,2,0:0:0:0:
460,228,206475,1,0,0:0:0:0:
424,208,206550,1,0,0:0:0:0:
380,208,206625,1,0,0:0:0:0:
348,240,206700,6,0,L|360:124,1,107.999996704102,2|0,0:0|0:0,0:0:0:0:
340,92,206925,1,0,0:0:0:0:
340,92,207000,2,0,L|412:104,1,53.9999983520508,8|0,0:0|0:0,0:0:0:0:
480,116,207150,1,0,0:0:0:0:
228,60,207300,2,0,B|184:28|184:28|204:140,1,161.999995056153,2|0,0:0|0:0,0:0:0:0:
252,204,207600,2,0,P|200:184|144:220,1,107.999996704102,8|0,0:0|0:0,0:0:0:0:
120,232,207825,1,0,0:0:0:0:
120,232,207900,6,0,L|108:172,1,53.9999983520508,2|0,0:0|0:0,0:0:0:0:
20,116,208050,1,0,0:0:0:0:
40,332,208200,2,0,L|164:316,1,107.999996704102,8|0,0:0|0:0,0:0:0:0:
224,360,208425,1,0,0:0:0:0:
224,360,208500,2,0,B|240:304|240:304|208:260,1,107.999996704102,2|0,0:0|0:0,0:0:0:0:
196,224,208725,1,0,0:0:0:0:
196,224,208800,2,0,L|272:236,1,53.9999983520508,8|0,0:0|0:0,0:0:0:0:
464,260,208950,1,0,0:0:0:0:
364,176,209100,5,2,0:0:0:0:
340,357,209250,2,0,L|348:304,1,53.9999983520508
371,122,209400,2,0,L|364:176,1,53.9999983520508,8|0,0:0|0:0,0:0:0:0:
464,260,209550,1,0,0:0:0:0:
464,260,209625,1,0,0:0:0:0:
464,260,209700,2,0,P|492:208|480:160,1,107.999996704102,2|0,0:0|0:0,0:0:0:0:
253,154,210000,2,0,P|226:199|236:252,1,107.999996704102,8|0,0:0|0:0,0:0:0:0:
256,292,210225,1,0,0:0:0:0:
256,292,210300,6,0,L|196:280,1,53.9999983520508,2|0,0:0|0:0,0:0:0:0:
4,200,210450,1,0,0:0:0:0:
84,352,210600,2,0,B|104:248|104:248|64:288,1,161.999995056153,8|0,0:0|0:0,0:0:0:0:
10,281,210900,2,0,L|64:287,1,53.9999983520508,2|0,0:0|0:0,0:0:0:0:
245,178,211050,2,0,L|192:172,1,53.9999983520508
4,64,211200,5,8,0:0:0:0:
32,32,211275,1,0,0:0:0:0:
76,24,211350,1,0,0:0:0:0:
116,40,211425,1,0,0:0:0:0:
140,76,211500,6,0,B|196:68|196:68|240:88|240:88|312:80,1,161.999995056153,2|0,0:0|0:0,0:0:0:0:
340,116,211800,2,0,L|352:48,1,53.9999983520508,8|0,0:0|0:0,0:0:0:0:
452,24,211950,1,0,0:0:0:0:
496,236,212100,6,0,P|440:196|348:216,1,161.999995056153,2|0,0:0|0:0,0:0:0:0:
300,200,212400,2,0,L|292:260,1,53.9999983520508,8|0,0:0|0:0,0:0:0:0:
276,360,212550,1,0,0:0:0:0:
20,303,212700,6,0,L|128:292,1,107.999996704102,2|0,0:0|0:0,0:0:0:0:
176,316,212925,1,0,0:0:0:0:
176,316,213000,2,0,P|176:280|156:248,1,53.9999983520508,8|0,0:0|0:0,0:0:0:0:
12,116,213150,1,0,0:0:0:0:
151,36,213300,2,0,P|128:83|138:135,1,107.999996704102,2|0,0:0|0:0,0:0:0:0:
124,188,213525,1,0,0:0:0:0:
124,188,213600,2,0,L|196:172,1,53.9999983520508,8|0,0:0|0:0,0:0:0:0:
280,96,213750,2,0,L|348:112,1,53.9999983520508
448,168,213900,6,0,B|424:212|388:224|388:224|412:264|380:320,1,161.999995056153,2|0,0:0|0:0,0:0:0:0:
376,340,214200,2,0,P|416:316|472:340,1,107.999996704102,8|0,0:0|0:0,0:0:0:0:
504,364,214425,1,0,0:0:0:0:
504,364,214500,2,0,L|500:300,1,53.9999983520508,2|0,0:0|0:0,0:0:0:0:
288,260,214650,1,0,0:0:0:0:
410,124,214800,2,0,B|432:176|432:176|412:224,1,107.999996704102,8|0,0:0|0:0,0:0:0:0:
168,316,215100,6,0,B|146:264|146:264|166:216,1,107.999996704102,2|0,0:0|0:0,0:0:0:0:
284,160,215400,1,8,0:0:0:0:
184,28,215550,1,0,0:0:0:0:
180,56,215625,1,0,0:0:0:0:
176,84,215700,5,2,0:0:0:0:
264,244,215850,1,0,0:0:0:0:
276,40,216000,1,8,0:0:0:0:
80,132,216150,1,0,0:0:0:0:
240,144,216300,6,0,L|352:136,1,107.999996704102,2|0,0:0|0:0,0:0:0:0:
384,116,216525,1,0,0:0:0:0:
384,116,216600,2,0,L|376:188,1,53.9999983520508,8|0,0:0|0:0,0:0:0:0:
468,264,216750,1,0,0:0:0:0:
285,372,216900,6,0,B|272:320|272:320|296:272,1,107.999996704102,2|0,0:0|0:0,0:0:0:0:
316,232,217125,1,0,0:0:0:0:
316,232,217200,2,0,L|248:240,1,53.9999983520508,8|0,0:0|0:0,0:0:0:0:
48,264,217350,1,0,0:0:0:0:
152,296,217500,6,0,P|160:232|124:192,1,107.999996704102,2|0,0:0|0:0,0:0:0:0:
144,156,217725,1,0,0:0:0:0:
144,156,217800,2,0,L|76:168,1,53.9999983520508,8|0,0:0|0:0,0:0:0:0:
4,180,217950,1,0,0:0:0:0:
212,28,218100,2,0,B|244:72|244:72|228:140,1,107.999996704102,2|0,0:0|0:0,0:0:0:0:
291,344,218400,2,0,B|259:300|259:300|272:248,1,107.999996704102,8|0,0:0|0:0,0:0:0:0:
308,168,218625,1,0,0:0:0:0:
308,168,218700,5,2,0:0:0:0:
416,236,219000,1,0,0:0:0:0:
424,108,219300,1,0,0:0:0:0:
316,40,219600,1,0,0:0:0:0:
192,84,219900,6,0,B|168:36|108:44|60:80|80:136|124:156|124:156|76:212|116:284|192:276|216:240|216:172|216:172|232:204|284:200,1,506.250019311906
284,296,221100,6,0,B|336:264|344:204|344:204|364:244|416:248,1,188.999994232178,2|0,0:0|0:0,0:0:0:0:
476,60,221400,2,0,B|424:92|416:152|416:152|396:112|357:109,1,188.999994232178,2|0,0:0|0:0,0:0:0:0:
264,148,221700,1,2,0:0:0:0:
20,80,222300,6,0,B|64:72|64:72|100:40|100:40|144:60|144:60|212:48,1,188.999994232178,2|0,0:0|0:0,0:0:0:0:
208,152,222600,2,0,B|164:160|164:160|128:192|128:192|84:172|84:172|36:180,1,188.999994232178,2|0,0:0|0:0,0:0:0:0:
36,180,222900,1,2,0:0:0:0:
272,84,223500,6,0,P|336:96|304:200,1,188.999994232178,2|0,0:0|0:0,0:0:0:0:
270,343,223800,2,0,P|191:310|224:232,1,188.999994232178,2|0,0:0|0:0,0:0:0:0:
318,195,224100,1,2,0:0:0:0:
124,144,224250,1,0,0:0:0:0:
196,276,224400,1,2,0:0:0:0:
248,80,224550,1,0,0:0:0:0:
324,212,224700,6,0,B|448:244|448:244|416:192,1,188.999994232178,2|0,0:0|0:0,0:0:0:0:
388,59,225000,2,0,B|360:0|360:0|320:64|348:116,1,188.999994232178,2|0,0:0|0:0,0:0:0:0:
324,212,225300,1,2,0:0:0:0:
324,216,225900,6,0,B|256:184|224:260|140:240,1,188.999994232178,2|0,0:0|0:0,0:0:0:0:
52,288,226200,2,0,P|96:240|8:224,1,188.999994232178,2|0,0:0|0:0,0:0:0:0:
11,218,226500,2,0,L|4:152,1,62.9999980773926,2|0,0:0|0:0,0:0:0:0:
133,29,226650,2,0,L|140:92,1,62.9999980773926
152,192,226800,1,0,0:0:0:0:
152,192,227100,6,0,B|220:196|268:156|268:156|236:232,1,188.999994232178,2|0,0:0|0:0,0:0:0:0:
286,323,227400,2,0,P|208:292|242:215,1,188.999994232178,2|0,0:0|0:0,0:0:0:0:
340,236,227700,1,2,0:0:0:0:
340,236,228150,2,0,L|416:240,1,62.9999980773926
480,172,228300,6,0,B|492:40|492:40|448:88,1,188.999994232178,2|0,0:0|0:0,0:0:0:0:
368,136,228600,2,0,B|296:112|260:180|184:160,1,188.999994232178,2|0,0:0|0:0,0:0:0:0:
185,160,228900,1,2,0:0:0:0:
220,64,229050,1,0,0:0:0:0:
336,228,229200,1,2,0:0:0:0:
136,256,229350,1,0,0:0:0:0:
220,64,229500,6,0,L|176:52,6,31.4999990386963,2|0|0|0|0|0|0,0:0|0:0|0:0|0:0|0:0|0:0|0:0,0:0:0:0:
100,28,229800,2,0,L|112:84,6,31.4999990386963,2|0|0|0|0|0|0,0:0|0:0|0:0|0:0|0:0|0:0|0:0,0:0:0:0:
116,152,230100,2,0,L|144:137,14,31.4999990386963,2|0|0|0|0|0|0|0|0|0|0|0|0|0|0,0:0|0:0|0:0|0:0|0:0|0:0|0:0|0:0|0:0|0:0|0:0|0:0|0:0|0:0|0:0,0:0:0:0:
240,152,230700,5,2,0:0:0:0:
188,332,230850,1,2,0:0:0:0:
372,280,231000,1,6,0:0:0:0:
256,192,231075,12,0,235500,0:0:0:0:
