osu file format v14

[General]
AudioFilename: audio.mp3
AudioLeadIn: 0
PreviewTime: 29226
Countdown: 0
SampleSet: Soft
StackLeniency: 0.7
Mode: 3
LetterboxInBreaks: 0
SpecialStyle: 0
WidescreenStoryboard: 1

[Editor]
Bookmarks: 59076,101076,109476,112776,129876,158676,201276,206676,221076
DistanceSpacing: 3.5
BeatDivisor: 4
GridSize: 4
TimelineZoom: 3

[Metadata]
Title:Mazare Party
TitleUnicode:Mazare Party
Artist:MAZARE
ArtistUnicode:MAZARE
Creator:Insp1r3
Version:booty's 6K Insane
Source:
Tags:Oriental EDM MAZARE Camellia かめりあ Nanahira kradness yukacco Chilly Cokiiplay booty Asherz007 jakads dudehacker MIND HACK
BeatmapID:1700338
BeatmapSetID:650415

[Difficulty]
HPDrainRate:8.2
CircleSize:6
OverallDifficulty:8
ApproachRate:5
SliderMultiplier:1.4
SliderTickRate:1

[Events]
//Background and Video events
0,0,"bg.jpg",0,0
//Break Periods
//Storyboard Layer 0 (Background)
//Storyboard Layer 1 (Fail)
//Storyboard Layer 2 (Pass)
//Storyboard Layer 3 (Foreground)
//Storyboard Sound Samples

[TimingPoints]
276,300,4,2,1,100,1,0
30276,-100,4,2,1,100,0,1
38676,-100,4,2,1,100,0,0
75876,-100,4,2,1,100,0,1
87876,-100,4,2,1,100,0,0
110676,-100,4,2,1,100,0,1
119076,-100,4,2,1,100,0,0
120276,-100,4,2,1,100,0,1
128676,-100,4,2,1,100,0,0
165876,-100,4,2,1,100,0,1
177876,-100,4,2,1,100,0,0
206676,-100,4,2,1,100,0,1
218676,-100,4,2,1,100,0,0
230976,342.857142857143,4,2,1,100,1,0
230976,-87.719298245614,4,2,1,100,0,0
231318,222.222222222222,4,2,1,100,1,0
231318,-135.135135135135,4,2,1,100,0,0
231484,285.714285714286,4,2,1,100,1,0
231484,-105.263157894737,4,2,1,100,0,0
231555,375,4,2,1,100,1,0
231555,-80,4,2,1,100,0,0
231742,363.636363636364,4,2,1,100,1,0
231742,-82.6446280991736,4,2,1,100,0,0
231832,600,4,2,1,100,1,0
231832,-50,4,2,1,100,0,0
231982,272.727272727273,4,2,1,100,1,0
231982,-109.89010989011,4,2,1,100,0,0
232050,444.444444444444,4,2,1,100,1,0
232050,-67.5675675675676,4,2,1,100,0,0
232161,400,4,2,1,100,1,0
232161,-75.187969924812,4,2,1,100,0,0
232261,444.444444444444,4,2,1,100,1,0
232261,-67.5675675675676,4,2,1,100,0,0
232372,375,4,2,1,100,1,0
232372,-80,4,2,1,100,0,0
232465,461.538461538462,4,2,1,100,1,0
232465,-64.9350649350649,4,2,1,100,0,0
232580,352.941176470588,4,2,1,100,1,0
232580,-84.7457627118644,4,2,1,100,0,0

[HitObjects]
298,192,1326,5,0,0:0:0:70:LR_Drum Rpd x2.wav
384,192,1326,1,0,0:0:0:0:
448,192,1326,1,0,0:0:0:0:
64,192,1476,128,0,2676:0:0:0:70:LR_Drum Low Long.wav
128,192,1476,128,0,2676:0:0:0:0:
192,192,1476,1,0,0:0:0:0:
213,192,2076,128,0,2676:0:0:0:0:
320,192,2676,1,0,0:0:0:0:
384,192,2676,128,0,3876:0:0:0:0:
192,192,3876,1,0,0:0:0:0:
298,192,3876,1,0,0:0:0:0:
469,192,3876,128,0,5076:0:0:0:0:
192,192,5076,1,4,0:0:0:0:
320,192,5076,1,0,0:0:0:0:
384,192,5076,1,0,0:0:0:0:
128,192,5376,1,4,0:0:0:0:
192,192,5376,1,0,0:0:0:0:
320,192,5376,1,0,0:0:0:0:
64,192,5676,1,4,0:0:0:0:
128,192,5676,1,0,0:0:0:0:
213,192,5676,1,0,0:0:0:0:
298,192,5751,1,4,0:0:0:0:
384,192,5826,1,4,0:0:0:0:
469,192,5901,1,4,0:0:0:0:
42,192,5976,1,4,0:0:0:0:
213,192,5976,1,0,0:0:0:0:
298,192,5976,1,0,0:0:0:0:
128,192,6051,1,4,0:0:0:0:
42,192,6126,1,2,0:0:0:0:
213,192,6126,1,0,0:0:0:0:
298,192,6276,1,8,0:0:0:0:
384,192,6276,1,0,0:0:0:0:
448,192,6276,1,0,0:0:0:0:
42,192,6426,1,0,0:0:0:0:
128,192,6576,1,0,0:0:0:0:
213,192,6726,1,0,0:0:0:0:
42,192,6876,1,0,0:0:0:0:
298,192,6876,1,0,0:0:0:0:
128,192,7176,1,0,0:0:0:0:
213,192,7476,1,8,0:0:0:0:
384,192,7476,1,0,0:0:0:0:
469,192,7476,1,0,0:0:0:0:
42,192,7626,1,0,0:0:0:0:
128,192,7776,1,0,0:0:0:0:
213,192,7926,1,0,0:0:0:0:
42,192,8076,1,0,0:0:0:0:
298,192,8076,1,0,0:0:0:0:
469,192,8376,1,0,0:0:0:0:
384,192,8676,1,0,0:0:0:0:
298,192,8826,1,0,0:0:0:0:
42,192,8976,1,8,0:0:0:0:
128,192,8976,128,0,9276:0:0:0:0:
213,192,8976,1,0,0:0:0:0:
448,192,9276,128,0,9576:0:0:0:0:
213,192,9576,1,8,0:0:0:0:
298,192,9576,1,0,0:0:0:0:
384,192,9576,128,0,9876:0:0:0:0:
213,192,9876,1,8,0:0:0:0:
298,192,9876,1,0,0:0:0:0:
448,192,9876,1,0,0:0:0:0:
42,192,10026,1,4,0:0:0:0:
128,192,10026,1,0,0:0:0:0:
213,192,10101,1,4,0:0:0:0:
298,192,10101,1,0,0:0:0:0:
128,192,10176,1,8,0:0:0:0:
384,192,10176,1,0,0:0:0:0:
469,192,10176,1,0,0:0:0:0:
213,192,10326,1,4,0:0:0:0:
42,192,10476,1,8,0:0:0:0:
128,192,10476,1,0,0:0:0:0:
320,192,10476,1,0,0:0:0:0:
384,192,10626,1,4,0:0:0:0:
128,192,10776,1,8,0:0:0:0:
192,192,10776,1,0,0:0:0:0:
469,192,10776,1,0,0:0:0:0:
298,192,10926,1,0,0:0:0:0:
42,192,11076,1,8,0:0:0:0:
128,192,11076,1,0,0:0:0:0:
384,192,11076,1,0,0:0:0:0:
42,192,11376,1,2,0:0:0:0:
128,192,11376,1,0,0:0:0:0:
298,192,11676,1,2,0:0:0:0:
384,192,11676,1,0,0:0:0:0:
320,192,11976,1,2,0:0:0:0:
448,192,11976,1,0,0:0:0:0:
64,192,12276,1,2,0:0:0:0:
128,192,12276,1,0,0:0:0:0:
213,192,12576,1,2,0:0:0:0:
320,192,12576,1,0,0:0:0:0:
320,192,12876,1,2,0:0:0:0:
448,192,12876,1,0,0:0:0:0:
128,192,13176,1,2,0:0:0:0:
213,192,13176,1,0,0:0:0:0:
298,192,13476,1,2,0:0:0:0:
213,192,13626,1,2,0:0:0:0:
298,192,13776,1,2,0:0:0:0:
213,192,13926,1,2,0:0:0:0:
298,192,14076,1,2,0:0:0:0:
384,192,14076,1,0,0:0:0:0:
128,192,14151,1,2,0:0:0:0:
213,192,14151,1,0,0:0:0:0:
384,192,14226,1,2,0:0:0:0:
469,192,14226,1,0,0:0:0:0:
42,192,14301,1,2,0:0:0:0:
213,192,14301,1,0,0:0:0:0:
298,192,14376,1,2,0:0:0:0:
469,192,14376,1,0,0:0:0:0:
42,192,14451,1,4,0:0:0:0:
128,192,14451,1,0,0:0:0:0:
298,192,14526,1,4,0:0:0:0:
384,192,14526,1,0,0:0:0:0:
128,192,14601,1,4,0:0:0:0:
213,192,14601,1,0,0:0:0:0:
384,192,14676,1,4,0:0:0:0:
469,192,14676,1,0,0:0:0:0:
42,192,14976,1,0,0:0:0:0:
128,192,15051,1,0,0:0:0:0:
213,192,15126,1,0,0:0:0:0:
298,192,15201,1,0,0:0:0:0:
384,192,15276,1,0,0:0:0:0:
469,192,15576,1,0,0:0:0:0:
384,192,15651,1,0,0:0:0:0:
298,192,15726,1,0,0:0:0:0:
213,192,15801,1,0,0:0:0:0:
128,192,15876,1,8,0:0:0:0:
384,192,15876,1,0,0:0:0:0:
469,192,15876,128,0,16176:0:0:0:0:
42,192,16176,128,8,16476:0:0:0:0:
128,192,16176,1,0,0:0:0:0:
213,192,16176,1,0,0:0:0:0:
213,192,16476,1,8,0:0:0:0:
384,192,16476,1,0,0:0:0:0:
469,192,16476,128,0,16776:0:0:0:0:
128,192,17076,1,8,0:0:0:0:
192,192,17076,1,0,0:0:0:0:
320,192,17076,128,0,17376:0:0:0:0:
213,192,17376,1,8,0:0:0:0:
384,192,17376,1,0,0:0:0:0:
448,192,17376,128,0,17676:0:0:0:0:
213,192,17676,128,8,17976:0:0:0:0:
298,192,17676,1,0,0:0:0:0:
384,192,17676,1,0,0:0:0:0:
128,192,18276,1,8,0:0:0:0:
384,192,18276,1,0,0:0:0:0:
448,192,18276,128,0,18576:0:0:0:0:
42,192,18576,128,8,18876:0:0:0:0:
128,192,18576,1,0,0:0:0:0:
213,192,18576,1,0,0:0:0:0:
213,192,18876,128,8,19026:0:0:0:0:
298,192,18876,1,0,0:0:0:0:
448,192,18876,128,0,19176:0:0:0:0:
298,192,19026,128,0,19176:0:0:0:0:
64,192,19176,128,8,19476:0:0:0:0:
128,192,19176,1,0,0:0:0:0:
213,192,19176,128,0,19326:0:0:0:0:
384,192,19326,128,0,19476:0:0:0:0:
320,192,19476,128,8,19776:0:0:0:0:
448,192,19476,1,0,0:0:0:0:
42,192,19776,1,8,0:0:0:0:
128,192,19776,1,0,0:0:0:0:
192,192,19776,128,0,20076:0:0:0:0:
298,192,20076,1,8,0:0:0:0:
384,192,20076,1,0,0:0:0:0:
448,192,20076,128,0,20376:0:0:0:0:
384,192,20376,1,0,0:0:0:0:
298,192,20451,1,0,0:0:0:0:
213,192,20526,1,0,0:0:0:0:
128,192,20601,1,0,0:0:0:0:
42,192,20676,128,8,20976:0:0:0:0:
298,192,20676,1,0,0:0:0:0:
384,192,20676,1,0,0:0:0:0:
213,192,20826,1,4,0:0:0:0:
298,192,20976,1,8,0:0:0:0:
384,192,20976,1,0,0:0:0:0:
469,192,20976,128,0,21276:0:0:0:0:
213,192,21126,1,4,0:0:0:0:
42,192,21276,128,8,21576:0:0:0:0:
128,192,21276,1,0,0:0:0:0:
213,192,21351,1,0,0:0:0:0:
128,192,21426,1,4,0:0:0:0:
213,192,21501,1,0,0:0:0:0:
298,192,21576,1,0,0:0:0:70:LR_J Hit Whistle.wav
298,192,21876,1,8,0:0:0:0:
384,192,21876,128,0,22176:0:0:0:0:
469,192,21876,1,0,0:0:0:0:
213,192,22026,1,4,0:0:0:0:
42,192,22176,128,8,22476:0:0:0:0:
128,192,22176,1,0,0:0:0:0:
298,192,22176,1,0,0:0:0:0:
213,192,22326,1,4,0:0:0:0:
384,192,22476,1,8,0:0:0:0:
469,192,22476,128,0,22776:0:0:0:0:
298,192,22551,1,0,0:0:0:0:
384,192,22626,1,4,0:0:0:0:
298,192,22701,1,0,0:0:0:0:
213,192,22776,1,0,0:0:0:0:
42,192,22926,1,0,0:0:0:0:
128,192,23001,1,0,0:0:0:0:
64,192,23076,1,8,0:0:0:0:
213,192,23076,1,0,0:0:0:0:
298,192,23076,1,0,0:0:0:0:
384,192,23151,1,0,0:0:0:0:
469,192,23226,1,0,0:0:0:0:
213,192,23301,1,0,0:0:0:0:
128,192,23376,1,8,0:0:0:0:
298,192,23376,1,0,0:0:0:0:
384,192,23376,1,0,0:0:0:0:
42,192,23451,1,0,0:0:0:0:
213,192,23526,1,0,0:0:0:0:
298,192,23601,1,0,0:0:0:0:
128,192,23676,1,8,0:0:0:0:
384,192,23676,1,0,0:0:0:0:
469,192,23676,1,0,0:0:0:0:
213,192,23751,1,0,0:0:0:0:
42,192,23826,1,0,0:0:0:0:
298,192,23901,1,0,0:0:0:0:
213,192,23976,1,8,0:0:0:0:
384,192,23976,1,0,0:0:0:0:
469,192,23976,1,0,0:0:0:0:
128,192,24051,1,0,0:0:0:0:
42,192,24126,1,0,0:0:0:0:
298,192,24201,1,0,0:0:0:0:
128,192,24276,1,8,0:0:0:0:
213,192,24276,1,0,0:0:0:0:
384,192,24276,1,0,0:0:0:0:
469,192,24351,1,0,0:0:0:0:
384,192,24426,1,0,0:0:0:0:
298,192,24501,1,0,0:0:0:0:
42,192,24576,1,8,0:0:0:0:
128,192,24576,1,0,0:0:0:0:
213,192,24576,1,0,0:0:0:0:
469,192,24651,1,0,0:0:0:0:
384,192,24726,1,0,0:0:0:0:
298,192,24801,1,0,0:0:0:0:
128,192,24876,1,8,0:0:0:0:
213,192,24876,1,0,0:0:0:0:
469,192,24876,1,0,0:0:0:0:
42,192,24951,1,0,0:0:0:0:
298,192,25026,1,0,0:0:0:0:
213,192,25101,1,0,0:0:0:0:
128,192,25176,1,0,0:0:0:0:
469,192,25176,128,0,25476:0:0:0:0:
384,192,25251,1,0,0:0:0:0:
320,192,25326,1,0,0:0:0:0:
192,192,25401,1,0,0:0:0:0:
128,192,25476,1,2,0:0:0:0:
320,192,25476,1,0,0:0:0:0:
298,192,25776,1,4,0:0:0:0:
384,192,25776,1,8,0:0:0:0:
42,192,26076,1,4,0:0:0:0:
128,192,26076,1,8,0:0:0:0:
213,192,26376,1,4,0:0:0:0:
384,192,26376,1,8,0:0:0:0:
384,192,26676,1,4,0:0:0:0:
469,192,26676,1,8,0:0:0:0:
213,192,26751,1,0,0:0:0:70:LR_Drum Rpd x2.wav
298,192,26751,1,0,0:0:0:0:
128,192,26976,1,4,0:0:0:0:
298,192,26976,1,8,0:0:0:0:
42,192,27276,1,4,0:0:0:0:
213,192,27276,1,8,0:0:0:0:
298,192,27351,1,0,0:0:0:70:LR_Drum Rpd x2.wav
384,192,27351,1,0,0:0:0:0:
384,192,27576,1,4,0:0:0:0:
469,192,27576,1,8,0:0:0:0:
128,192,27651,1,0,0:0:0:70:LR_Drum Rpd x2.wav
298,192,27651,1,0,0:0:0:0:
469,192,27726,1,0,0:0:0:70:LR_Drum Rpd x2.wav
384,192,27801,1,0,0:0:0:70:LR_Drum Rpd x2.wav
42,192,27876,1,4,0:0:0:0:
128,192,27876,1,8,0:0:0:0:
298,192,27876,1,0,0:0:0:0:
213,192,27951,1,0,0:0:0:70:LR_Drum Rpd x2.wav
469,192,27951,1,0,0:0:0:0:
128,192,28176,1,4,0:0:0:0:
213,192,28176,1,8,0:0:0:0:
298,192,28251,1,0,0:0:0:80:LR_Drum Rpd x2.wav
384,192,28251,1,0,0:0:0:0:
298,192,28476,1,4,0:0:0:0:
384,192,28476,1,8,0:0:0:0:
42,192,28551,1,0,0:0:0:100:LR_Drum Rpd x2.wav
128,192,28551,1,0,0:0:0:0:
298,192,28776,1,4,0:0:0:0:
384,192,28776,1,8,0:0:0:0:
42,192,28851,1,4,0:0:0:0:
128,192,28851,1,0,0:0:0:0:
213,192,28926,1,4,0:0:0:0:
298,192,28926,1,0,0:0:0:0:
384,192,29001,1,4,0:0:0:0:
469,192,29001,1,0,0:0:0:0:
64,192,29076,1,4,0:0:0:0:
128,192,29076,1,0,0:0:0:0:
213,192,29076,1,0,0:0:0:0:
213,192,29226,1,0,0:0:0:0:
213,192,29376,1,0,0:0:0:0:
213,192,29526,1,0,0:0:0:0:
42,192,29676,1,0,0:0:0:0:
128,192,29676,1,0,0:0:0:0:
42,192,29826,1,0,0:0:0:0:
128,192,29826,1,0,0:0:0:0:
298,192,29976,1,0,0:0:0:0:
384,192,29976,1,0,0:0:0:0:
298,192,30126,1,0,0:0:0:0:
384,192,30126,1,0,0:0:0:0:
64,192,30276,1,2,0:0:0:0:
128,192,30276,1,0,0:0:0:70:LR_CymbalQST.wav
448,192,30276,1,0,0:0:0:0:
298,192,30426,1,0,0:0:0:0:
469,192,30426,1,0,0:0:0:0:
384,192,30501,1,0,0:0:0:0:
64,192,30576,1,8,0:0:0:0:
192,192,30576,1,0,0:0:0:0:
298,192,30576,1,0,0:0:0:0:
128,192,30726,1,0,0:0:0:0:
213,192,30726,1,0,0:0:0:0:
64,192,30801,1,0,0:0:0:0:
128,192,30876,1,2,0:0:0:0:
213,192,30876,1,0,0:0:0:0:
469,192,30876,1,0,0:0:0:0:
384,192,31026,1,0,0:0:0:0:
213,192,31101,1,0,0:0:0:0:
298,192,31101,1,0,0:0:0:0:
42,192,31176,1,8,0:0:0:0:
128,192,31176,1,0,0:0:0:0:
213,192,31326,1,0,0:0:0:0:
298,192,31326,1,0,0:0:0:0:
42,192,31476,1,2,0:0:0:0:
128,192,31476,1,0,0:0:0:0:
384,192,31476,1,0,0:0:0:0:
298,192,31626,1,0,0:0:0:0:
469,192,31626,1,0,0:0:0:0:
64,192,31776,1,8,0:0:0:0:
192,192,31776,1,0,0:0:0:0:
384,192,31776,1,0,0:0:0:0:
320,192,31851,1,0,0:0:0:0:
128,192,31926,1,0,0:0:0:0:
448,192,31926,1,0,0:0:0:0:
213,192,32001,1,0,0:0:0:0:
298,192,32076,1,2,0:0:0:0:
384,192,32076,1,0,0:0:0:0:
192,192,32226,1,0,0:0:0:0:
448,192,32226,1,0,0:0:0:0:
42,192,32301,1,0,0:0:0:0:
128,192,32301,1,0,0:0:0:0:
192,192,32376,1,8,0:0:0:0:
320,192,32376,1,0,0:0:0:0:
384,192,32376,1,0,0:0:0:0:
128,192,32526,1,0,0:0:0:0:
213,192,32526,1,0,0:0:0:0:
64,192,32676,1,2,0:0:0:0:
448,192,32676,1,0,0:0:0:0:
298,192,32826,1,0,0:0:0:0:
384,192,32826,1,0,0:0:0:0:
128,192,32901,1,0,0:0:0:0:
213,192,32901,1,0,0:0:0:0:
42,192,32976,1,8,0:0:0:0:
298,192,32976,1,0,0:0:0:0:
384,192,32976,1,0,0:0:0:0:
128,192,33126,1,0,0:0:0:0:
213,192,33126,1,0,0:0:0:0:
298,192,33201,1,0,0:0:0:0:
469,192,33201,1,0,0:0:0:0:
42,192,33276,1,2,0:0:0:0:
128,192,33276,1,0,0:0:0:0:
384,192,33276,1,0,0:0:0:0:
213,192,33426,1,0,0:0:0:0:
469,192,33426,1,0,0:0:0:0:
42,192,33501,1,0,0:0:0:0:
128,192,33501,1,0,0:0:0:0:
298,192,33576,1,8,0:0:0:0:
384,192,33576,1,0,0:0:0:0:
64,192,33726,1,0,0:0:0:0:
192,192,33726,1,0,0:0:0:0:
128,192,33876,1,2,0:0:0:0:
213,192,33876,1,0,0:0:0:0:
448,192,33876,1,0,0:0:0:0:
42,192,34026,1,0,0:0:0:0:
384,192,34026,1,0,0:0:0:0:
128,192,34101,1,0,0:0:0:0:
192,192,34176,1,8,0:0:0:0:
384,192,34176,1,0,0:0:0:0:
448,192,34176,1,0,0:0:0:0:
298,192,34251,1,0,0:0:0:0:
64,192,34326,1,0,0:0:0:0:
128,192,34326,1,0,0:0:0:0:
213,192,34401,1,0,0:0:0:0:
128,192,34476,1,2,0:0:0:0:
298,192,34476,1,0,0:0:0:0:
448,192,34476,1,0,0:0:0:0:
64,192,34551,1,0,0:0:0:0:
384,192,34551,1,0,0:0:0:0:
192,192,34626,1,0,0:0:0:0:
298,192,34626,1,0,0:0:0:0:
64,192,34776,1,8,0:0:0:0:
128,192,34776,1,0,0:0:0:0:
384,192,34926,1,0,0:0:0:0:
469,192,34926,1,0,0:0:0:0:
192,192,35076,1,2,0:0:0:0:
320,192,35076,1,0,0:0:0:70:LR_CymbalQST.wav
448,192,35076,1,0,0:0:0:0:
42,192,35226,1,0,0:0:0:0:
128,192,35226,1,0,0:0:0:0:
213,192,35301,1,0,0:0:0:0:
298,192,35301,1,0,0:0:0:0:
42,192,35376,1,8,0:0:0:0:
128,192,35376,1,0,0:0:0:0:
384,192,35376,1,0,0:0:0:0:
384,192,35526,1,0,0:0:0:0:
469,192,35526,1,0,0:0:0:0:
213,192,35601,1,0,0:0:0:0:
298,192,35601,1,0,0:0:0:0:
128,192,35676,1,2,0:0:0:0:
384,192,35676,1,0,0:0:0:0:
469,192,35676,1,0,0:0:0:0:
64,192,35826,1,0,0:0:0:0:
128,192,35901,1,0,0:0:0:0:
213,192,35901,1,0,0:0:0:0:
298,192,35976,1,8,0:0:0:0:
384,192,35976,1,0,0:0:0:0:
448,192,35976,1,0,0:0:0:0:
64,192,36126,1,0,0:0:0:0:
213,192,36126,1,0,0:0:0:0:
128,192,36276,1,2,0:0:0:0:
320,192,36276,1,0,0:0:0:0:
448,192,36276,1,0,0:0:0:0:
192,192,36426,1,0,0:0:0:0:
320,192,36426,1,0,0:0:0:0:
64,192,36576,1,8,0:0:0:0:
320,192,36576,1,0,0:0:0:0:
469,192,36576,1,0,0:0:0:0:
128,192,36651,1,0,0:0:0:0:
213,192,36726,1,0,0:0:0:0:
384,192,36726,1,0,0:0:0:0:
298,192,36801,1,0,0:0:0:0:
128,192,36876,1,2,0:0:0:0:
384,192,36876,1,0,0:0:0:0:
469,192,36876,1,0,0:0:0:0:
192,192,37026,1,0,0:0:0:0:
42,192,37101,1,0,0:0:0:0:
128,192,37101,1,0,0:0:0:0:
298,192,37176,1,8,0:0:0:0:
384,192,37176,1,0,0:0:0:0:
448,192,37176,1,0,0:0:0:0:
64,192,37326,1,0,0:0:0:0:
213,192,37326,1,0,0:0:0:0:
128,192,37476,1,2,0:0:0:0:
213,192,37476,1,0,0:0:0:0:
320,192,37626,1,0,0:0:0:0:
448,192,37626,1,0,0:0:0:0:
128,192,37701,1,0,0:0:0:0:
192,192,37701,1,0,0:0:0:0:
42,192,37776,1,8,0:0:0:0:
320,192,37776,1,0,0:0:0:0:
448,192,37776,1,0,0:0:0:0:
64,192,37926,1,0,0:0:0:0:
192,192,37926,1,0,0:0:0:0:
320,192,38001,1,0,0:0:0:0:
384,192,38001,1,0,0:0:0:0:
64,192,38076,1,2,0:0:0:0:
192,192,38076,1,0,0:0:0:0:
469,192,38076,1,0,0:0:0:0:
384,192,38226,1,0,0:0:0:0:
42,192,38301,1,0,0:0:0:0:
128,192,38301,1,0,0:0:0:0:
192,192,38376,1,8,0:0:0:0:
320,192,38376,1,0,0:0:0:0:
469,192,38376,1,0,0:0:0:0:
384,192,38526,1,0,0:0:0:0:
42,192,38676,1,2,0:0:0:0:
128,192,38676,1,0,0:0:0:0:
469,192,38676,1,0,0:0:0:0:
213,192,38826,1,0,0:0:0:0:
298,192,38901,1,0,0:0:0:0:
192,192,38976,1,0,0:0:0:0:
298,192,39051,1,0,0:0:0:0:
192,192,39126,1,0,0:0:0:0:
298,192,39201,1,0,0:0:0:0:
213,192,39276,1,0,0:0:0:0:
128,192,39313,1,0,0:0:0:0:
298,192,39426,1,0,0:0:0:0:
384,192,39463,1,0,0:0:0:0:
213,192,39576,1,0,0:0:0:0:
128,192,39613,1,0,0:0:0:0:
298,192,39726,1,0,0:0:0:0:
384,192,39763,1,0,0:0:0:0:
469,192,39763,1,0,0:0:0:0:
64,192,39876,1,2,0:0:0:0:
128,192,39876,1,0,0:0:0:70:LR_CymbalQST.wav
213,192,39876,1,0,0:0:0:0:
320,192,40026,1,0,0:0:0:70:LR_Hat Synth.wav
64,192,40176,1,8,0:0:0:0:
192,192,40176,1,0,0:0:0:0:
448,192,40176,1,0,0:0:0:0:
320,192,40326,1,0,0:0:0:70:LR_Hat Synth.wav
42,192,40476,1,2,0:0:0:0:
128,192,40476,1,0,0:0:0:0:
384,192,40626,1,0,0:0:0:70:LR_Hat Synth.wav
64,192,40776,1,8,0:0:0:0:
192,192,40776,1,0,0:0:0:0:
469,192,40776,1,0,0:0:0:0:
298,192,40926,1,0,0:0:0:70:LR_Hat Synth.wav
128,192,41076,1,2,0:0:0:0:
384,192,41076,1,0,0:0:0:0:
469,192,41226,1,0,0:0:0:70:LR_Hat Synth.wav
192,192,41376,1,8,0:0:0:0:
298,192,41376,1,0,0:0:0:0:
384,192,41376,1,0,0:0:0:0:
64,192,41526,1,0,0:0:0:70:LR_Hat Synth.wav
192,192,41676,1,2,0:0:0:0:
298,192,41676,1,0,0:0:0:0:
128,192,41826,1,0,0:0:0:70:LR_Hat Synth.wav
42,192,41976,1,8,0:0:0:0:
298,192,41976,1,0,0:0:0:0:
448,192,41976,1,0,0:0:0:0:
213,192,42126,1,0,0:0:0:70:LR_Hat Synth.wav
42,192,42276,1,2,0:0:0:0:
128,192,42276,1,0,0:0:0:0:
298,192,42276,1,0,0:0:0:0:
384,192,42426,1,0,0:0:0:70:LR_Hat Synth.wav
213,192,42576,1,8,0:0:0:0:
298,192,42576,1,0,0:0:0:0:
448,192,42576,1,0,0:0:0:0:
128,192,42726,1,0,0:0:0:70:LR_Hat Synth.wav
42,192,42876,1,2,0:0:0:0:
298,192,42876,1,0,0:0:0:0:
213,192,43026,1,0,0:0:0:70:LR_Hat Synth.wav
320,192,43176,1,8,0:0:0:0:
384,192,43176,1,0,0:0:0:0:
448,192,43176,1,0,0:0:0:0:
64,192,43326,1,0,0:0:0:70:LR_Hat Synth.wav
213,192,43476,1,2,0:0:0:0:
384,192,43476,1,0,0:0:0:0:
128,192,43626,1,0,0:0:0:70:LR_Hat Synth.wav
64,192,43776,1,8,0:0:0:0:
213,192,43776,1,0,0:0:0:0:
320,192,43776,1,0,0:0:0:0:
448,192,43926,1,0,0:0:0:70:LR_Hat Synth.wav
128,192,44076,1,2,0:0:0:0:
298,192,44076,1,0,0:0:0:0:
384,192,44151,1,0,0:0:0:0:
469,192,44226,1,0,0:0:0:70:LR_Hat Synth.wav
384,192,44301,1,0,0:0:0:0:
42,192,44376,1,8,0:0:0:0:
128,192,44376,1,0,0:0:0:0:
298,192,44376,1,0,0:0:0:0:
213,192,44451,1,0,0:0:0:0:
469,192,44526,1,0,0:0:0:70:LR_Hat Synth.wav
384,192,44601,1,0,0:0:0:0:
64,192,44676,1,2,0:0:0:0:
128,192,44676,1,0,0:0:0:0:
192,192,44826,1,0,0:0:0:70:LR_Hat Synth.wav
64,192,44976,1,8,0:0:0:0:
320,192,44976,1,0,0:0:0:0:
448,192,44976,1,0,0:0:0:0:
128,192,45126,1,0,0:0:0:70:LR_Hat Synth.wav
213,192,45276,1,2,0:0:0:0:
298,192,45276,1,0,0:0:0:0:
384,192,45426,1,0,0:0:0:70:LR_Hat Synth.wav
128,192,45576,1,8,0:0:0:0:
213,192,45576,1,0,0:0:0:0:
448,192,45576,1,0,0:0:0:0:
298,192,45726,1,0,0:0:0:70:LR_Hat Synth.wav
42,192,45876,1,2,0:0:0:0:
192,192,45876,1,0,0:0:0:0:
128,192,46026,1,0,0:0:0:70:LR_Hat Synth.wav
192,192,46176,1,8,0:0:0:0:
320,192,46176,1,0,0:0:0:0:
448,192,46176,1,0,0:0:0:0:
384,192,46326,1,0,0:0:0:70:LR_Hat Synth.wav
128,192,46476,1,2,0:0:0:0:
298,192,46476,1,0,0:0:0:0:
213,192,46626,1,0,0:0:0:70:LR_Hat Synth.wav
64,192,46776,1,8,0:0:0:0:
384,192,46776,1,0,0:0:0:0:
448,192,46776,1,0,0:0:0:0:
320,192,46926,1,0,0:0:0:70:LR_Hat Synth.wav
64,192,47076,1,2,0:0:0:0:
128,192,47076,1,0,0:0:0:0:
384,192,47226,1,0,0:0:0:70:LR_Hat Synth.wav
448,192,47226,128,0,47526:0:0:0:0:
128,192,47376,1,8,0:0:0:0:
213,192,47376,1,0,0:0:0:0:
298,192,47376,1,0,0:0:0:0:
384,192,47526,1,0,0:0:0:70:LR_Hat Synth.wav
64,192,47676,1,2,0:0:0:0:
298,192,47676,1,0,0:0:0:0:
128,192,47826,128,0,48126:0:0:0:70:LR_Hat Synth.wav
213,192,47826,1,0,0:0:0:0:
298,192,47976,1,8,0:0:0:0:
384,192,47976,1,0,0:0:0:0:
448,192,47976,1,0,0:0:0:0:
213,192,48126,1,0,0:0:0:70:LR_Hat Synth.wav
64,192,48276,1,2,0:0:0:0:
448,192,48276,1,0,0:0:0:0:
384,192,48351,1,0,0:0:0:0:
213,192,48426,1,0,0:0:0:70:LR_Hat Synth.wav
320,192,48426,1,0,0:0:0:0:
128,192,48501,1,0,0:0:0:0:
64,192,48576,1,8,0:0:0:0:
192,192,48576,1,0,0:0:0:0:
320,192,48576,1,0,0:0:0:0:
384,192,48651,1,0,0:0:0:0:
128,192,48726,1,0,0:0:0:70:LR_Hat Synth.wav
448,192,48726,1,0,0:0:0:0:
42,192,48801,1,0,0:0:0:0:
192,192,48876,1,2,0:0:0:0:
384,192,48876,1,0,0:0:0:0:
469,192,48951,1,0,0:0:0:0:
128,192,49026,1,0,0:0:0:70:LR_Hat Synth.wav
298,192,49026,1,0,0:0:0:0:
42,192,49101,1,0,0:0:0:0:
213,192,49176,1,8,0:0:0:0:
384,192,49176,1,0,0:0:0:0:
448,192,49176,1,0,0:0:0:0:
298,192,49251,1,0,0:0:0:0:
128,192,49326,1,0,0:0:0:70:LR_Hat Synth.wav
384,192,49326,1,0,0:0:0:0:
42,192,49401,1,0,0:0:0:0:
213,192,49476,1,2,0:0:0:0:
320,192,49476,1,0,0:0:0:0:
448,192,49476,1,0,0:0:0:0:
128,192,49626,1,0,0:0:0:70:LR_Hat Synth.wav
64,192,49776,1,8,0:0:0:0:
192,192,49776,1,0,0:0:0:0:
298,192,49776,1,0,0:0:0:0:
384,192,49926,1,0,0:0:0:70:LR_Hat Synth.wav
213,192,50076,1,2,0:0:0:0:
469,192,50076,1,0,0:0:0:0:
128,192,50226,1,0,0:0:0:70:LR_Hat Synth.wav
42,192,50376,1,8,0:0:0:0:
213,192,50376,1,0,0:0:0:0:
298,192,50376,1,0,0:0:0:0:
384,192,50526,1,0,0:0:0:70:LR_Hat Synth.wav
128,192,50676,1,2,0:0:0:0:
448,192,50676,1,0,0:0:0:0:
384,192,50826,1,0,0:0:0:70:LR_Hat Synth.wav
64,192,50976,1,8,0:0:0:0:
192,192,50976,1,0,0:0:0:0:
320,192,50976,1,0,0:0:0:0:
128,192,51126,1,0,0:0:0:70:LR_Hat Synth.wav
192,192,51276,1,2,0:0:0:0:
384,192,51276,1,0,0:0:0:0:
469,192,51426,1,0,0:0:0:70:LR_Hat Synth.wav
64,192,51576,1,8,0:0:0:0:
128,192,51576,1,0,0:0:0:0:
213,192,51576,1,0,0:0:0:0:
384,192,51651,1,0,0:0:0:0:
42,192,51726,1,0,0:0:0:70:LR_Hat Synth.wav
128,192,51726,1,0,0:0:0:0:
384,192,51801,1,0,0:0:0:0:
213,192,51876,1,2,0:0:0:0:
320,192,51876,1,0,0:0:0:0:
448,192,51876,1,0,0:0:0:0:
128,192,52026,1,0,0:0:0:70:LR_Hat Synth.wav
64,192,52176,1,8,0:0:0:0:
192,192,52176,1,0,0:0:0:0:
448,192,52176,1,0,0:0:0:0:
320,192,52326,1,0,0:0:0:70:LR_Hat Synth.wav
384,192,52476,1,2,0:0:0:0:
448,192,52476,1,0,0:0:0:0:
298,192,52626,1,0,0:0:0:70:LR_Hat Synth.wav
64,192,52776,1,8,0:0:0:0:
128,192,52776,1,0,0:0:0:0:
192,192,52776,1,0,0:0:0:0:
448,192,52926,1,0,0:0:0:70:LR_Hat Synth.wav
298,192,53076,1,2,0:0:0:0:
384,192,53076,1,0,0:0:0:0:
213,192,53226,1,0,0:0:0:70:LR_Hat Synth.wav
128,192,53376,1,8,0:0:0:0:
298,192,53376,1,0,0:0:0:0:
384,192,53376,1,0,0:0:0:0:
42,192,53526,1,0,0:0:0:70:LR_Hat Synth.wav
213,192,53676,1,2,0:0:0:0:
298,192,53676,1,0,0:0:0:0:
298,192,53826,1,0,0:0:0:70:LR_Hat Synth.wav
42,192,53976,1,8,0:0:0:0:
384,192,53976,1,0,0:0:0:0:
469,192,53976,1,0,0:0:0:0:
128,192,54051,1,0,0:0:0:0:
213,192,54126,1,0,0:0:0:70:LR_Hat Synth.wav
298,192,54201,1,0,0:0:0:0:
42,192,54276,1,8,0:0:0:0:
128,192,54276,1,0,0:0:0:70:LR_Drum Rpd x2.wav
384,192,54276,1,0,0:0:0:0:
469,192,54276,1,0,0:0:0:0:
213,192,54426,1,0,0:0:0:70:LR_Drum Rpd x2.wav
298,192,54426,1,0,0:0:0:0:
128,192,54501,1,0,0:0:0:0:
384,192,54501,1,0,0:0:0:0:
213,192,54576,1,0,0:0:0:70:LR_Drum Rpd x2.wav
298,192,54576,1,0,0:0:0:0:
128,192,54726,1,0,0:0:0:70:LR_Drum Rpd x2.wav
384,192,54726,1,0,0:0:0:0:
64,192,54876,1,8,0:0:0:0:
298,192,54876,1,0,0:0:0:70:LR_Drum Rpd x2.wav
384,192,54876,1,0,0:0:0:0:
448,192,54876,1,0,0:0:0:0:
128,192,55026,1,0,0:0:0:70:LR_Drum Rpd x2.wav
192,192,55026,1,0,0:0:0:0:
298,192,55101,1,0,0:0:0:0:
384,192,55101,1,0,0:0:0:0:
128,192,55176,1,0,0:0:0:70:LR_Drum Rpd x2.wav
192,192,55176,1,0,0:0:0:0:
298,192,55326,1,0,0:0:0:70:LR_Drum Rpd x2.wav
384,192,55326,1,0,0:0:0:0:
42,192,55476,1,8,0:0:0:0:
192,192,55476,1,0,0:0:0:70:LR_Drum Rpd x2.wav
320,192,55476,1,0,0:0:0:0:
469,192,55476,1,0,0:0:0:0:
213,192,55626,1,0,0:0:0:70:LR_Drum Rpd x2.wav
384,192,55626,1,0,0:0:0:0:
128,192,55701,1,0,0:0:0:0:
298,192,55701,1,0,0:0:0:0:
213,192,55776,1,0,0:0:0:70:LR_Drum Rpd x2.wav
384,192,55776,1,0,0:0:0:0:
128,192,55926,1,0,0:0:0:70:LR_Drum Rpd x2.wav
320,192,55926,1,0,0:0:0:0:
42,192,56076,1,8,0:0:0:0:
128,192,56076,1,0,0:0:0:70:LR_Drum Rpd x2.wav
384,192,56076,1,0,0:0:0:0:
448,192,56076,1,0,0:0:0:0:
213,192,56226,1,0,0:0:0:70:LR_Drum Rpd x2.wav
298,192,56226,1,0,0:0:0:0:
128,192,56301,1,0,0:0:0:0:
384,192,56301,1,0,0:0:0:0:
213,192,56376,1,0,0:0:0:70:LR_Drum Rpd x2.wav
298,192,56376,1,0,0:0:0:0:
128,192,56526,1,0,0:0:0:70:LR_Drum Rpd x2.wav
384,192,56526,1,0,0:0:0:0:
128,192,56676,1,0,0:0:0:70:LR_Drum Low Long.wav
192,192,56676,1,0,0:0:0:0:
320,192,56676,128,0,59076:0:0:0:0:
42,192,56976,1,0,0:0:0:70:LR_Drum Low Long.wav
128,192,56976,1,0,0:0:0:0:
213,192,57126,1,0,0:0:0:70:LR_Drum Low Long.wav
384,192,57126,1,0,0:0:0:0:
384,192,57426,1,0,0:0:0:70:LR_Drum Low Long.wav
469,192,57426,1,0,0:0:0:0:
128,192,57576,1,0,0:0:0:70:LR_Drum Low Long.wav
213,192,57576,1,0,0:0:0:0:
384,192,57876,1,0,0:0:0:70:LR_Drum Low Long.wav
448,192,57876,1,0,0:0:0:0:
64,192,58176,1,0,0:0:0:70:LR_Drum Low Long.wav
213,192,58176,1,0,0:0:0:0:
384,192,58326,1,0,0:0:0:70:LR_Drum Low Long.wav
469,192,58326,1,0,0:0:0:0:
213,192,58626,1,0,0:0:0:70:LR_Drum Low Long.wav
448,192,58626,1,0,0:0:0:0:
64,192,58776,128,0,59076:0:0:0:70:LR_Drum Low Long.wav
128,192,58776,1,0,0:0:0:0:
213,192,58926,128,0,59076:0:0:0:0:
384,192,59076,1,2,0:0:0:0:
469,192,59076,128,0,59676:0:0:0:70:LR_CymbalQST.wav
384,192,59376,1,0,0:0:0:0:
213,192,59526,1,2,0:0:0:0:
320,192,59526,1,0,0:0:0:0:
42,192,59676,128,2,59976:0:0:0:0:
128,192,59676,1,0,0:0:0:0:
213,192,59676,1,0,0:0:0:0:
298,192,59826,1,0,0:0:0:0:
128,192,59976,128,0,60126:0:0:0:70:LR_Ride Long Low.wav
384,192,59976,1,0,0:0:0:0:
469,192,59976,1,0,0:0:0:0:
192,192,60126,128,0,60276:0:0:0:0:
64,192,60276,1,2,0:0:0:0:
320,192,60276,128,0,60426:0:0:0:0:
384,192,60276,128,0,60876:0:0:0:0:
64,192,60426,128,0,60576:0:0:0:0:
213,192,60576,128,0,60726:0:0:0:0:
42,192,60726,1,2,0:0:0:0:
128,192,60726,128,0,60876:0:0:0:0:
298,192,60876,1,2,0:0:0:0:
448,192,60876,128,0,61176:0:0:0:0:
298,192,61026,1,0,0:0:0:0:
213,192,61101,1,0,0:0:0:0:
64,192,61176,128,0,61326:0:0:0:70:LR_Ride Long Low.wav
128,192,61176,1,0,0:0:0:0:
320,192,61326,128,0,61476:0:0:0:0:
64,192,61476,1,2,0:0:0:0:
192,192,61476,128,0,61776:0:0:0:0:
42,192,61776,128,0,61926:0:0:0:0:
128,192,61926,128,2,62076:0:0:0:0:
320,192,61926,1,0,0:0:0:0:
384,192,62076,1,2,0:0:0:0:
448,192,62076,128,0,62376:0:0:0:0:
64,192,62376,128,0,62676:0:0:0:70:LR_Ride Long Low.wav
128,192,62376,1,0,0:0:0:0:
213,192,62376,1,0,0:0:0:0:
298,192,62526,1,2,0:0:0:0:
384,192,62676,1,0,0:0:0:0:
448,192,62676,128,0,63876:0:0:0:0:
213,192,62826,1,2,0:0:0:0:
298,192,62826,1,0,0:0:0:0:
128,192,62976,1,0,0:0:0:0:
192,192,63076,1,0,0:0:0:0:
42,192,63126,1,2,0:0:0:0:
128,192,63126,1,0,0:0:0:0:
384,192,63176,1,0,0:0:0:0:
42,192,63276,1,2,0:0:0:0:
128,192,63276,1,0,0:0:0:0:
298,192,63276,1,0,0:0:0:0:
213,192,63376,1,0,0:0:0:0:
384,192,63476,1,0,0:0:0:0:
42,192,63576,1,0,0:0:0:70:LR_Ride Long Low.wav
128,192,63576,1,0,0:0:0:0:
298,192,63576,128,0,63726:0:0:0:0:
64,192,63726,128,0,63876:0:0:0:0:
192,192,63876,1,2,0:0:0:0:
384,192,63876,128,0,64176:0:0:0:0:
42,192,64176,128,0,64326:0:0:0:0:
298,192,64176,1,0,0:0:0:0:
128,192,64326,1,2,0:0:0:0:
213,192,64326,128,0,64476:0:0:0:0:
384,192,64476,1,2,0:0:0:0:
469,192,64476,128,0,64776:0:0:0:0:
128,192,64776,128,0,64926:0:0:0:70:LR_Ride Long Low.wav
213,192,64776,1,0,0:0:0:0:
298,192,64776,1,0,0:0:0:0:
64,192,64926,128,0,65076:0:0:0:0:
298,192,65076,1,2,0:0:0:0:
384,192,65076,128,0,65226:0:0:0:0:
469,192,65076,1,0,0:0:0:0:
213,192,65226,128,0,65376:0:0:0:0:
448,192,65376,128,0,65526:0:0:0:0:
64,192,65526,1,2,0:0:0:0:
128,192,65526,128,0,65676:0:0:0:0:
64,192,65676,128,2,65976:0:0:0:0:
213,192,65676,1,0,0:0:0:0:
192,192,65826,1,0,0:0:0:0:
298,192,65901,1,0,0:0:0:0:
128,192,65976,1,0,0:0:0:70:LR_Ride Long Low.wav
384,192,65976,1,0,0:0:0:0:
448,192,65976,128,0,66126:0:0:0:0:
320,192,66126,128,0,66276:0:0:0:0:
64,192,66276,1,2,0:0:0:0:
213,192,66276,128,0,66576:0:0:0:0:
64,192,66576,128,0,66726:0:0:0:0:
128,192,66726,1,2,0:0:0:0:
298,192,66726,128,0,66876:0:0:0:0:
384,192,66876,128,2,67176:0:0:0:0:
448,192,66876,1,0,0:0:0:0:
42,192,67176,128,0,67326:0:0:0:70:LR_Ride Long Low.wav
128,192,67176,1,0,0:0:0:0:
213,192,67176,1,0,0:0:0:0:
298,192,67326,128,2,67476:0:0:0:0:
384,192,67326,1,0,0:0:0:0:
448,192,67476,128,0,68676:0:0:0:0:
128,192,67626,1,2,0:0:0:0:
213,192,67626,1,0,0:0:0:0:
192,192,67926,1,2,0:0:0:0:
320,192,67926,1,0,0:0:0:0:
64,192,68076,1,2,0:0:0:0:
128,192,68076,1,0,0:0:0:0:
213,192,68376,1,0,0:0:0:70:LR_Ride Long Low.wav
298,192,68376,1,0,0:0:0:0:
384,192,68376,1,0,0:0:0:0:
64,192,68676,128,2,69276:0:0:0:0:
192,192,68676,1,0,0:0:0:0:
320,192,68676,1,0,0:0:0:0:
384,192,69351,128,0,69426:0:0:0:0:
298,192,69426,128,0,69501:0:0:0:0:
213,192,69501,128,0,69576:0:0:0:0:
128,192,69576,128,0,69651:0:0:0:0:
42,192,69651,128,0,69726:0:0:0:0:
469,192,69726,128,0,69801:0:0:0:0:
384,192,69801,128,0,69876:0:0:0:0:
213,192,69876,1,4,0:0:0:0:
298,192,69876,1,0,0:0:0:0:
192,192,70176,1,4,0:0:0:0:
320,192,70176,1,0,0:0:0:0:
64,192,70476,1,4,0:0:0:0:
448,192,70476,1,0,0:0:0:0:
128,192,70551,1,4,0:0:0:0:
192,192,70551,1,0,0:0:0:0:
320,192,70626,1,4,0:0:0:0:
384,192,70626,1,0,0:0:0:0:
213,192,70701,1,4,0:0:0:0:
448,192,70701,1,0,0:0:0:0:
64,192,70776,1,4,0:0:0:0:
128,192,70776,1,0,0:0:0:0:
320,192,70851,1,4,0:0:0:0:
384,192,70851,1,0,0:0:0:0:
128,192,70926,1,2,0:0:0:0:
192,192,70926,1,0,0:0:0:0:
64,192,71076,1,8,0:0:0:0:
298,192,71076,1,0,0:0:0:0:
384,192,71076,1,0,0:0:0:0:
448,192,71076,1,0,0:0:0:0:
213,192,71376,1,0,0:0:0:0:
298,192,71526,1,0,0:0:0:0:
192,192,71676,128,0,72276:0:0:0:0:
384,192,71676,1,0,0:0:0:0:
448,192,71976,128,0,72276:0:0:0:0:
64,192,72276,1,8,0:0:0:0:
128,192,72276,1,0,0:0:0:0:
320,192,72276,1,0,0:0:0:0:
64,192,72576,128,0,72726:0:0:0:0:
298,192,72576,1,0,0:0:0:0:
128,192,72726,1,0,0:0:0:0:
213,192,72876,1,0,0:0:0:0:
298,192,72876,128,0,73176:0:0:0:0:
448,192,73176,128,0,73476:0:0:0:0:
384,192,73326,1,0,0:0:0:0:
64,192,73476,128,0,73776:0:0:0:0:
128,192,73776,1,8,0:0:0:0:
192,192,73776,1,0,0:0:0:0:
320,192,73776,128,0,74076:0:0:0:0:
384,192,73776,1,0,0:0:0:0:
448,192,74076,128,0,74376:0:0:0:0:
64,192,74376,1,8,0:0:0:0:
192,192,74376,1,0,0:0:0:0:
320,192,74376,128,0,74676:0:0:0:0:
384,192,74376,1,0,0:0:0:0:
192,192,74676,1,8,0:0:0:0:
448,192,74676,1,0,0:0:0:0:
42,192,74826,1,4,0:0:0:0:
128,192,74826,1,0,0:0:0:0:
213,192,74901,1,4,0:0:0:0:
320,192,74976,1,8,0:0:0:0:
384,192,74976,1,0,0:0:0:0:
448,192,74976,1,0,0:0:0:0:
298,192,75126,1,4,0:0:0:0:
384,192,75126,1,0,0:0:0:0:
42,192,75276,1,8,0:0:0:0:
128,192,75276,1,0,0:0:0:0:
192,192,75276,1,0,0:0:0:0:
298,192,75426,1,4,0:0:0:0:
469,192,75426,1,0,0:0:0:0:
42,192,75576,1,8,0:0:0:0:
128,192,75576,1,0,0:0:0:0:
384,192,75576,1,0,0:0:0:0:
192,192,75726,1,0,0:0:0:0:
320,192,75726,1,0,0:0:0:0:
42,192,75876,1,2,0:0:0:0:
128,192,75876,1,0,0:0:0:70:LR_CymbalQST.wav
384,192,75876,1,0,0:0:0:0:
469,192,75876,1,0,0:0:0:0:
298,192,75951,1,0,0:0:0:0:
213,192,76026,1,0,0:0:0:70:LR_Hat Synth.wav
128,192,76101,1,0,0:0:0:0:
213,192,76176,1,8,0:0:0:0:
384,192,76176,1,0,0:0:0:0:
469,192,76176,1,0,0:0:0:0:
42,192,76251,1,0,0:0:0:0:
128,192,76326,1,0,0:0:0:70:LR_Hat Synth.wav
298,192,76401,1,0,0:0:0:0:
42,192,76476,1,2,0:0:0:0:
384,192,76476,1,0,0:0:0:0:
213,192,76551,1,0,0:0:0:0:
128,192,76626,1,0,0:0:0:70:LR_Hat Synth.wav
469,192,76701,1,0,0:0:0:0:
42,192,76776,1,8,0:0:0:0:
298,192,76776,1,0,0:0:0:0:
384,192,76776,1,0,0:0:0:0:
213,192,76851,1,0,0:0:0:0:
128,192,76926,1,0,0:0:0:70:LR_Hat Synth.wav
42,192,77001,1,0,0:0:0:0:
128,192,77076,1,2,0:0:0:0:
298,192,77076,1,0,0:0:0:0:
469,192,77151,1,0,0:0:0:0:
384,192,77226,1,0,0:0:0:70:LR_Hat Synth.wav
298,192,77301,1,0,0:0:0:0:
42,192,77376,1,8,0:0:0:0:
128,192,77376,1,0,0:0:0:0:
213,192,77376,1,0,0:0:0:0:
469,192,77451,1,0,0:0:0:0:
298,192,77526,1,0,0:0:0:70:LR_Hat Synth.wav
42,192,77601,1,0,0:0:0:0:
128,192,77676,1,2,0:0:0:0:
384,192,77676,1,0,0:0:0:0:
213,192,77751,1,0,0:0:0:0:
298,192,77826,1,0,0:0:0:70:LR_Hat Synth.wav
469,192,77901,1,0,0:0:0:0:
42,192,77976,1,8,0:0:0:0:
128,192,77976,1,0,0:0:0:0:
384,192,77976,1,0,0:0:0:0:
213,192,78051,1,0,0:0:0:0:
298,192,78126,1,0,0:0:0:70:LR_Hat Synth.wav
469,192,78201,1,0,0:0:0:0:
42,192,78276,1,2,0:0:0:0:
128,192,78276,1,0,0:0:0:0:
213,192,78351,1,0,0:0:0:0:
298,192,78426,1,0,0:0:0:70:LR_Hat Synth.wav
384,192,78426,1,0,0:0:0:0:
469,192,78501,1,0,0:0:0:0:
128,192,78576,1,8,0:0:0:0:
213,192,78576,1,0,0:0:0:0:
384,192,78576,1,0,0:0:0:0:
42,192,78651,1,0,0:0:0:0:
128,192,78726,1,0,0:0:0:70:LR_Hat Synth.wav
298,192,78726,1,0,0:0:0:0:
384,192,78801,1,0,0:0:0:0:
213,192,78876,1,2,0:0:0:0:
469,192,78876,1,0,0:0:0:0:
42,192,78951,1,0,0:0:0:0:
128,192,79026,1,0,0:0:0:70:LR_Hat Synth.wav
298,192,79026,1,0,0:0:0:0:
213,192,79101,1,0,0:0:0:0:
298,192,79176,1,8,0:0:0:0:
384,192,79176,1,0,0:0:0:0:
469,192,79176,1,0,0:0:0:0:
42,192,79251,1,0,0:0:0:0:
128,192,79326,1,0,0:0:0:70:LR_Hat Synth.wav
213,192,79326,1,0,0:0:0:0:
384,192,79401,1,0,0:0:0:0:
298,192,79476,1,2,0:0:0:0:
469,192,79476,1,0,0:0:0:0:
128,192,79551,1,0,0:0:0:0:
42,192,79626,1,0,0:0:0:70:LR_Hat Synth.wav
213,192,79701,1,0,0:0:0:0:
298,192,79776,1,8,0:0:0:0:
384,192,79776,1,0,0:0:0:0:
469,192,79776,1,0,0:0:0:0:
213,192,79851,1,0,0:0:0:0:
42,192,79926,1,0,0:0:0:70:LR_Hat Synth.wav
128,192,79926,1,0,0:0:0:0:
213,192,80001,1,0,0:0:0:0:
384,192,80001,1,0,0:0:0:0:
298,192,80076,1,2,0:0:0:0:
469,192,80076,1,0,0:0:0:0:
128,192,80226,1,0,0:0:0:70:LR_Hat Synth.wav
213,192,80226,1,0,0:0:0:0:
42,192,80301,1,0,0:0:0:0:
298,192,80301,1,0,0:0:0:0:
384,192,80376,1,8,0:0:0:0:
469,192,80376,1,0,0:0:0:0:
213,192,80451,1,0,0:0:0:0:
298,192,80451,1,0,0:0:0:0:
42,192,80526,1,0,0:0:0:70:LR_Hat Synth.wav
128,192,80526,1,0,0:0:0:0:
384,192,80601,1,0,0:0:0:0:
469,192,80601,1,0,0:0:0:0:
42,192,80676,1,2,0:0:0:0:
128,192,80676,1,0,0:0:0:70:LR_CymbalQST.wav
213,192,80676,1,0,0:0:0:0:
298,192,80751,1,0,0:0:0:0:
384,192,80826,1,0,0:0:0:70:LR_Hat Synth.wav
469,192,80826,1,0,0:0:0:0:
42,192,80901,1,0,0:0:0:0:
128,192,80976,1,8,0:0:0:0:
298,192,80976,1,0,0:0:0:0:
384,192,80976,1,0,0:0:0:0:
469,192,81051,1,0,0:0:0:0:
213,192,81126,1,0,0:0:0:70:LR_Hat Synth.wav
128,192,81201,1,0,0:0:0:0:
42,192,81276,1,2,0:0:0:0:
298,192,81276,1,0,0:0:0:0:
384,192,81351,1,0,0:0:0:0:
469,192,81426,1,0,0:0:0:70:LR_Hat Synth.wav
213,192,81501,1,0,0:0:0:0:
42,192,81576,1,8,0:0:0:0:
298,192,81576,1,0,0:0:0:0:
384,192,81576,1,0,0:0:0:0:
128,192,81651,1,0,0:0:0:0:
469,192,81726,1,0,0:0:0:70:LR_Hat Synth.wav
384,192,81801,1,0,0:0:0:0:
128,192,81876,1,2,0:0:0:0:
298,192,81876,1,0,0:0:0:0:
213,192,81951,1,0,0:0:0:0:
42,192,82026,1,0,0:0:0:70:LR_Hat Synth.wav
128,192,82101,1,0,0:0:0:0:
213,192,82176,1,8,0:0:0:0:
384,192,82176,1,0,0:0:0:0:
469,192,82176,1,0,0:0:0:0:
298,192,82251,1,0,0:0:0:0:
42,192,82326,1,0,0:0:0:70:LR_Hat Synth.wav
213,192,82401,1,0,0:0:0:0:
128,192,82476,1,2,0:0:0:0:
469,192,82476,1,0,0:0:0:0:
384,192,82551,1,0,0:0:0:0:
298,192,82626,1,0,0:0:0:70:LR_Hat Synth.wav
469,192,82701,1,0,0:0:0:0:
42,192,82776,1,8,0:0:0:0:
128,192,82776,1,0,0:0:0:0:
213,192,82776,1,0,0:0:0:0:
298,192,82851,1,0,0:0:0:0:
384,192,82926,1,0,0:0:0:70:LR_Hat Synth.wav
128,192,83001,1,0,0:0:0:0:
213,192,83076,1,2,0:0:0:0:
298,192,83076,1,0,0:0:0:0:
469,192,83151,1,0,0:0:0:0:
128,192,83226,1,0,0:0:0:70:LR_Hat Synth.wav
213,192,83301,1,0,0:0:0:0:
42,192,83376,1,8,0:0:0:0:
298,192,83376,1,0,0:0:0:0:
384,192,83376,1,0,0:0:0:0:
469,192,83451,1,0,0:0:0:0:
128,192,83526,1,0,0:0:0:70:LR_Hat Synth.wav
42,192,83601,1,0,0:0:0:0:
213,192,83676,1,2,0:0:0:0:
298,192,83676,1,0,0:0:0:0:
384,192,83751,1,0,0:0:0:0:
298,192,83826,1,0,0:0:0:70:LR_Hat Synth.wav
128,192,83901,1,0,0:0:0:0:
42,192,83976,1,8,0:0:0:0:
384,192,83976,1,0,0:0:0:0:
469,192,83976,1,0,0:0:0:0:
128,192,84051,1,0,0:0:0:0:
213,192,84126,1,0,0:0:0:70:LR_Hat Synth.wav
298,192,84201,1,0,0:0:0:0:
384,192,84276,1,2,0:0:0:0:
469,192,84276,1,0,0:0:0:0:
42,192,84351,1,0,0:0:0:0:
128,192,84426,1,0,0:0:0:70:LR_Hat Synth.wav
298,192,84426,1,0,0:0:0:0:
384,192,84501,1,0,0:0:0:0:
213,192,84576,1,8,0:0:0:0:
298,192,84576,1,0,0:0:0:0:
469,192,84576,1,0,0:0:0:0:
128,192,84651,1,0,0:0:0:0:
42,192,84726,1,0,0:0:0:70:LR_Hat Synth.wav
213,192,84726,1,0,0:0:0:0:
298,192,84801,1,0,0:0:0:0:
384,192,84876,1,2,0:0:0:0:
469,192,84876,1,0,0:0:0:0:
128,192,84951,1,0,0:0:0:0:
213,192,85026,1,0,0:0:0:70:LR_Hat Synth.wav
298,192,85026,1,0,0:0:0:0:
384,192,85101,1,0,0:0:0:0:
42,192,85176,1,8,0:0:0:0:
128,192,85176,1,0,0:0:0:0:
469,192,85176,1,0,0:0:0:0:
213,192,85251,1,0,0:0:0:0:
298,192,85326,1,0,0:0:0:70:LR_Hat Synth.wav
384,192,85326,1,0,0:0:0:0:
469,192,85401,1,0,0:0:0:0:
42,192,85476,1,2,0:0:0:0:
128,192,85476,1,0,0:0:0:70:LR_CymbalQST.wav
213,192,85476,1,0,0:0:0:0:
298,192,85626,1,0,0:0:0:70:LR_Hat Synth.wav
384,192,85701,1,0,0:0:0:0:
128,192,85776,1,8,0:0:0:0:
213,192,85776,1,0,0:0:0:0:
469,192,85776,1,0,0:0:0:0:
128,192,85926,1,0,0:0:0:70:LR_Hat Synth.wav
213,192,86001,1,0,0:0:0:0:
42,192,86076,1,2,0:0:0:0:
298,192,86076,1,0,0:0:0:0:
384,192,86076,1,0,0:0:0:0:
469,192,86226,1,0,0:0:0:70:LR_Hat Synth.wav
384,192,86301,1,0,0:0:0:0:
128,192,86376,1,8,0:0:0:0:
213,192,86376,1,0,0:0:0:0:
298,192,86376,1,0,0:0:0:0:
213,192,86526,1,0,0:0:0:70:LR_Hat Synth.wav
128,192,86601,1,0,0:0:0:0:
42,192,86676,1,2,0:0:0:0:
298,192,86676,1,0,0:0:0:0:
384,192,86676,1,0,0:0:0:0:
469,192,86826,1,0,0:0:0:70:LR_Hat Synth.wav
384,192,86901,1,0,0:0:0:0:
128,192,86976,1,8,0:0:0:0:
213,192,86976,1,0,0:0:0:0:
298,192,86976,1,0,0:0:0:0:
42,192,87126,1,0,0:0:0:70:LR_Hat Synth.wav
128,192,87201,1,0,0:0:0:0:
213,192,87276,1,2,0:0:0:0:
384,192,87276,1,0,0:0:0:0:
469,192,87276,1,0,0:0:0:0:
298,192,87351,1,0,0:0:0:0:
384,192,87426,1,0,0:0:0:70:LR_Hat Synth.wav
469,192,87501,1,0,0:0:0:0:
128,192,87576,1,8,0:0:0:0:
213,192,87576,1,0,0:0:0:0:
298,192,87576,1,0,0:0:0:0:
42,192,87651,1,0,0:0:0:0:
128,192,87726,1,0,0:0:0:70:LR_Hat Synth.wav
213,192,87801,1,0,0:0:0:0:
64,192,87876,128,2,88176:0:0:0:0:
298,192,87876,1,0,0:0:0:0:
384,192,87876,1,0,0:0:0:0:
128,192,88176,128,0,88476:0:0:0:0:
64,192,88476,128,0,88776:0:0:0:0:
469,192,88476,1,0,0:0:0:0:
384,192,88551,1,0,0:0:0:0:
298,192,88626,1,0,0:0:0:0:
213,192,88701,1,0,0:0:0:0:
384,192,88776,1,0,0:0:0:0:
448,192,88776,128,0,89076:0:0:0:0:
128,192,89076,128,0,89526:0:0:0:0:
192,192,89076,1,0,0:0:0:0:
469,192,89376,1,0,0:0:0:0:
384,192,89451,1,0,0:0:0:0:
64,192,89526,128,0,89676:0:0:0:0:
213,192,89526,1,0,0:0:0:0:
298,192,89601,1,0,0:0:0:0:
384,192,89676,1,0,0:0:0:0:
448,192,89676,128,0,89976:0:0:0:0:
213,192,89826,1,0,0:0:0:0:
42,192,89901,1,0,0:0:0:0:
128,192,89976,128,0,90276:0:0:0:0:
384,192,89976,1,0,0:0:0:0:
298,192,90051,1,0,0:0:0:0:
213,192,90126,1,0,0:0:0:0:
298,192,90201,1,0,0:0:0:0:
384,192,90276,1,8,0:0:0:0:
469,192,90276,128,0,90576:0:0:0:0:
42,192,90576,128,8,90876:0:0:0:0:
128,192,90576,1,0,0:0:0:0:
213,192,90576,1,0,0:0:0:0:
128,192,90876,1,8,0:0:0:0:
384,192,90876,1,0,0:0:0:0:
469,192,90876,128,0,91176:0:0:0:0:
128,192,91476,1,8,0:0:0:0:
213,192,91476,128,0,91776:0:0:0:0:
298,192,91476,1,0,0:0:0:0:
298,192,91776,1,8,0:0:0:0:
384,192,91776,1,0,0:0:0:0:
448,192,91776,128,0,92076:0:0:0:0:
42,192,92076,1,8,0:0:0:0:
128,192,92076,128,0,92376:0:0:0:0:
384,192,92076,1,0,0:0:0:0:
213,192,92676,1,8,0:0:0:0:
298,192,92676,1,0,0:0:0:0:
384,192,92676,128,0,92976:0:0:0:0:
42,192,92976,128,8,93276:0:0:0:0:
128,192,92976,1,0,0:0:0:0:
469,192,92976,1,0,0:0:0:0:
128,192,93276,1,8,0:0:0:0:
384,192,93276,128,0,93426:0:0:0:0:
448,192,93276,128,0,93576:0:0:0:0:
213,192,93426,128,0,93576:0:0:0:0:
64,192,93576,128,8,93876:0:0:0:0:
128,192,93576,128,0,93726:0:0:0:0:
298,192,93576,1,0,0:0:0:0:
213,192,93726,128,0,93876:0:0:0:0:
384,192,93876,1,8,0:0:0:0:
469,192,93876,128,0,94176:0:0:0:0:
213,192,94176,1,8,0:0:0:0:
298,192,94176,128,0,94476:0:0:0:0:
384,192,94176,1,0,0:0:0:0:
42,192,94476,128,8,94776:0:0:0:0:
128,192,94476,1,0,0:0:0:0:
213,192,94476,1,0,0:0:0:0:
469,192,94776,128,0,95076:0:0:0:0:
42,192,95076,128,8,95376:0:0:0:0:
128,192,95076,1,0,0:0:0:0:
384,192,95076,1,0,0:0:0:0:
213,192,95226,1,4,0:0:0:0:
298,192,95376,1,8,0:0:0:0:
384,192,95376,1,0,0:0:0:0:
469,192,95376,128,0,95676:0:0:0:0:
213,192,95526,1,4,0:0:0:0:
42,192,95676,128,8,95976:0:0:0:0:
128,192,95676,1,0,0:0:0:0:
213,192,95751,1,0,0:0:0:0:
128,192,95826,1,4,0:0:0:0:
213,192,95901,1,0,0:0:0:0:
298,192,95976,1,0,0:0:0:70:LR_J Hit Whistle.wav
298,192,96276,1,8,0:0:0:0:
384,192,96276,128,0,96576:0:0:0:0:
469,192,96276,1,0,0:0:0:0:
213,192,96426,1,4,0:0:0:0:
42,192,96576,128,8,96876:0:0:0:0:
128,192,96576,1,0,0:0:0:0:
298,192,96576,1,0,0:0:0:0:
213,192,96726,1,4,0:0:0:0:
384,192,96876,1,8,0:0:0:0:
469,192,96876,128,0,97176:0:0:0:0:
298,192,96951,1,0,0:0:0:0:
384,192,97026,1,4,0:0:0:0:
298,192,97101,1,0,0:0:0:0:
213,192,97176,1,0,0:0:0:0:
42,192,97326,1,0,0:0:0:0:
128,192,97401,1,0,0:0:0:0:
64,192,97476,1,8,0:0:0:0:
213,192,97476,1,0,0:0:0:0:
298,192,97476,1,0,0:0:0:0:
384,192,97551,1,0,0:0:0:0:
469,192,97626,1,0,0:0:0:0:
213,192,97701,1,0,0:0:0:0:
42,192,97776,1,8,0:0:0:0:
128,192,97776,1,0,0:0:0:0:
298,192,97776,1,0,0:0:0:0:
384,192,97851,1,0,0:0:0:0:
213,192,97926,1,0,0:0:0:0:
128,192,98001,1,0,0:0:0:0:
42,192,98076,1,8,0:0:0:0:
384,192,98076,1,0,0:0:0:0:
469,192,98076,1,0,0:0:0:0:
298,192,98151,1,0,0:0:0:0:
213,192,98226,1,0,0:0:0:0:
128,192,98301,1,0,0:0:0:0:
298,192,98376,1,8,0:0:0:0:
384,192,98376,1,0,0:0:0:0:
469,192,98376,1,0,0:0:0:0:
42,192,98451,1,0,0:0:0:0:
213,192,98526,1,0,0:0:0:0:
298,192,98601,1,0,0:0:0:0:
42,192,98676,1,8,0:0:0:0:
128,192,98676,1,0,0:0:0:0:
384,192,98676,1,0,0:0:0:0:
469,192,98751,1,0,0:0:0:0:
213,192,98826,1,0,0:0:0:0:
128,192,98901,1,0,0:0:0:0:
42,192,98976,1,8,0:0:0:0:
298,192,98976,1,0,0:0:0:0:
384,192,98976,1,0,0:0:0:0:
469,192,99051,1,0,0:0:0:0:
213,192,99126,1,0,0:0:0:0:
298,192,99201,1,0,0:0:0:0:
213,192,99276,1,8,0:0:0:0:
384,192,99276,1,0,0:0:0:0:
469,192,99276,1,0,0:0:0:0:
128,192,99351,1,0,0:0:0:0:
42,192,99426,1,0,0:0:0:0:
128,192,99501,1,0,0:0:0:0:
192,192,99576,1,0,0:0:0:0:
298,192,99651,1,0,0:0:0:0:
384,192,99726,1,0,0:0:0:0:
469,192,99801,1,0,0:0:0:0:
128,192,99876,1,2,0:0:0:0:
213,192,99876,1,0,0:0:0:0:
42,192,100776,1,0,0:0:0:0:
128,192,100826,1,0,0:0:0:0:
213,192,100876,1,0,0:0:0:0:
298,192,100926,1,0,0:0:0:0:
384,192,100976,1,0,0:0:0:0:
469,192,101026,1,0,0:0:0:0:
42,192,101076,1,2,0:0:0:0:
128,192,101076,1,0,0:0:0:0:
213,192,101076,1,0,0:0:0:0:
298,192,101151,1,0,0:0:0:0:
384,192,101226,1,0,0:0:0:0:
469,192,101301,1,0,0:0:0:0:
42,192,101376,1,4,0:0:0:0:
213,192,101376,1,8,0:0:0:0:
298,192,101451,1,0,0:0:0:70:LR_Drum Rpd x2.wav
469,192,101526,1,0,0:0:0:70:LR_Drum Rpd x2.wav
384,192,101601,1,0,0:0:0:70:LR_Drum Rpd x2.wav
128,192,101676,1,4,0:0:0:0:
298,192,101676,1,8,0:0:0:0:
42,192,101751,1,0,0:0:0:70:LR_Drum Rpd x2.wav
213,192,101826,1,0,0:0:0:70:LR_Drum Rpd x2.wav
298,192,101901,1,0,0:0:0:70:LR_Drum Rpd x2.wav
128,192,101976,1,4,0:0:0:0:
384,192,101976,1,8,0:0:0:0:
469,192,102051,1,0,0:0:0:70:LR_Drum Rpd x2.wav
42,192,102126,1,0,0:0:0:70:LR_Drum Rpd x2.wav
128,192,102201,1,0,0:0:0:70:LR_Drum Rpd x2.wav
213,192,102276,1,4,0:0:0:0:
469,192,102276,1,8,0:0:0:0:
384,192,102351,1,0,0:0:0:70:LR_Drum Rpd x2.wav
298,192,102426,1,0,0:0:0:70:LR_Drum Rpd x2.wav
213,192,102501,1,0,0:0:0:70:LR_Drum Rpd x2.wav
128,192,102576,1,4,0:0:0:0:
469,192,102576,1,8,0:0:0:0:
42,192,102651,1,0,0:0:0:70:LR_Drum Rpd x2.wav
298,192,102726,1,0,0:0:0:70:LR_Drum Rpd x2.wav
384,192,102801,1,0,0:0:0:70:LR_Drum Rpd x2.wav
213,192,102876,1,4,0:0:0:0:
469,192,102876,1,8,0:0:0:0:
298,192,102951,1,0,0:0:0:70:LR_Drum Rpd x2.wav
42,192,103026,1,0,0:0:0:70:LR_Drum Rpd x2.wav
128,192,103101,1,0,0:0:0:70:LR_Drum Rpd x2.wav
42,192,103176,1,4,0:0:0:0:
213,192,103176,1,8,0:0:0:0:
298,192,103251,1,0,0:0:0:70:LR_Drum Rpd x2.wav
469,192,103326,1,0,0:0:0:70:LR_Drum Rpd x2.wav
384,192,103401,1,0,0:0:0:70:LR_Drum Rpd x2.wav
128,192,103476,1,4,0:0:0:0:
298,192,103476,1,8,0:0:0:0:
42,192,103551,1,0,0:0:0:70:LR_Drum Rpd x2.wav
213,192,103551,1,0,0:0:0:0:
384,192,103626,1,0,0:0:0:70:LR_Drum Rpd x2.wav
469,192,103701,1,0,0:0:0:70:LR_Drum Rpd x2.wav
298,192,103776,1,4,0:0:0:0:
384,192,103776,1,8,0:0:0:0:
128,192,103851,1,0,0:0:0:80:LR_Drum Rpd x2.wav
213,192,103851,1,0,0:0:0:0:
42,192,103926,1,0,0:0:0:80:LR_Drum Rpd x2.wav
128,192,104001,1,0,0:0:0:80:LR_Drum Rpd x2.wav
213,192,104076,1,4,0:0:0:0:
298,192,104076,1,8,0:0:0:0:
384,192,104151,1,0,0:0:0:100:LR_Drum Rpd x2.wav
469,192,104151,1,0,0:0:0:0:
298,192,104226,1,0,0:0:0:100:LR_Drum Rpd x2.wav
213,192,104301,1,0,0:0:0:100:LR_Drum Rpd x2.wav
42,192,104376,1,4,0:0:0:0:
128,192,104376,1,8,0:0:0:0:
213,192,104451,1,4,0:0:0:0:
298,192,104451,1,0,0:0:0:0:
384,192,104526,1,4,0:0:0:0:
469,192,104601,1,4,0:0:0:0:
213,192,104676,1,4,0:0:0:0:
384,192,104676,1,8,0:0:0:0:
128,192,104751,1,4,0:0:0:0:
298,192,104751,1,0,0:0:0:0:
42,192,104826,1,4,0:0:0:0:
384,192,104901,1,4,0:0:0:0:
298,192,104976,1,8,0:0:0:0:
469,192,104976,1,4,0:0:0:0:
42,192,105051,1,4,0:0:0:0:
213,192,105051,1,0,0:0:0:0:
128,192,105126,1,4,0:0:0:0:
213,192,105201,1,4,0:0:0:0:
298,192,105276,1,4,0:0:0:0:
384,192,105276,1,8,0:0:0:0:
213,192,105351,1,4,0:0:0:0:
469,192,105351,1,0,0:0:0:0:
42,192,105426,1,4,0:0:0:0:
128,192,105501,1,4,0:0:0:0:
213,192,105576,1,8,0:0:0:0:
298,192,105576,1,4,0:0:0:0:
128,192,105651,1,4,0:0:0:0:
384,192,105651,1,0,0:0:0:0:
42,192,105726,1,4,0:0:0:0:
469,192,105801,1,4,0:0:0:0:
298,192,105876,1,4,0:0:0:0:
384,192,105876,1,8,0:0:0:0:
128,192,105951,1,4,0:0:0:0:
213,192,105951,1,0,0:0:0:0:
42,192,106026,1,4,0:0:0:0:
298,192,106101,1,4,0:0:0:0:
384,192,106176,1,8,0:0:0:0:
469,192,106176,1,4,0:0:0:0:
213,192,106251,1,4,0:0:0:0:
298,192,106251,1,0,0:0:0:0:
42,192,106326,1,4,0:0:0:0:
128,192,106401,1,4,0:0:0:0:
42,192,106476,1,4,0:0:0:0:
213,192,106476,1,8,0:0:0:0:
298,192,106551,1,4,0:0:0:0:
469,192,106551,1,0,0:0:0:0:
384,192,106626,1,4,0:0:0:0:
128,192,106701,1,4,0:0:0:0:
213,192,106776,1,8,0:0:0:0:
469,192,106776,1,4,0:0:0:0:
298,192,106851,1,4,0:0:0:0:
384,192,106851,1,0,0:0:0:0:
128,192,106926,1,4,0:0:0:0:
42,192,107001,1,4,0:0:0:0:
128,192,107076,1,8,0:0:0:0:
298,192,107076,1,4,0:0:0:0:
213,192,107151,1,4,0:0:0:0:
384,192,107151,1,0,0:0:0:0:
469,192,107226,1,4,0:0:0:0:
298,192,107301,1,4,0:0:0:0:
128,192,107376,1,4,0:0:0:0:
213,192,107376,1,8,0:0:0:0:
42,192,107451,1,4,0:0:0:0:
298,192,107451,1,0,0:0:0:0:
384,192,107526,1,4,0:0:0:0:
469,192,107601,1,4,0:0:0:0:
213,192,107676,1,8,0:0:0:0:
298,192,107676,1,4,0:0:0:0:
42,192,107751,1,4,0:0:0:0:
128,192,107751,1,0,0:0:0:0:
213,192,107826,1,4,0:0:0:0:
298,192,107901,1,4,0:0:0:0:
384,192,107976,1,4,0:0:0:0:
469,192,107976,1,8,0:0:0:0:
213,192,108051,1,4,0:0:0:0:
298,192,108051,1,0,0:0:0:0:
128,192,108126,1,4,0:0:0:0:
42,192,108201,1,4,0:0:0:0:
384,192,108276,1,12,0:0:0:0:
298,192,108351,1,4,0:0:0:0:
213,192,108426,1,4,0:0:0:0:
128,192,108501,1,4,0:0:0:0:
384,192,108576,1,12,0:0:0:0:
298,192,108651,1,4,0:0:0:0:
213,192,108726,1,4,0:0:0:0:
128,192,108801,1,4,0:0:0:0:
384,192,108876,1,12,0:0:0:0:
298,192,108951,1,4,0:0:0:0:
213,192,109026,1,4,0:0:0:0:
128,192,109101,1,4,0:0:0:0:
469,192,109176,1,12,0:0:0:0:
384,192,109213,1,4,0:0:0:0:
298,192,109251,1,4,0:0:0:0:
213,192,109288,1,4,0:0:0:0:
128,192,109326,1,4,0:0:0:0:
42,192,109363,1,4,0:0:0:0:
469,192,109401,1,4,0:0:0:0:
384,192,109438,1,4,0:0:0:0:
213,192,109476,1,4,0:0:0:0:
298,192,109476,1,0,0:0:0:0:
42,192,109626,128,0,109701:0:0:0:0:
213,192,109776,128,0,109851:0:0:0:0:
128,192,109926,128,0,110001:0:0:0:0:
320,192,110076,128,0,110376:0:0:0:0:
384,192,110376,128,0,110676:0:0:0:0:
128,192,110676,1,4,0:0:0:0:
213,192,110676,1,0,0:0:0:70:LR_Kick-long med bass.wav
320,192,110676,1,0,0:0:0:70:LR_CymbalQST.wav
384,192,110826,1,0,0:0:0:70:LR_Hat Synth.wav
448,192,110826,1,0,0:0:0:0:
298,192,110901,1,0,0:0:0:0:
64,192,110976,1,4,0:0:0:0:
128,192,110976,1,0,0:0:0:70:LR_Kick-long med bass.wav
213,192,110976,1,0,0:0:0:0:
320,192,111126,1,0,0:0:0:70:LR_Hat Synth.wav
384,192,111126,1,0,0:0:0:0:
128,192,111201,1,0,0:0:0:0:
42,192,111276,1,4,0:0:0:0:
384,192,111276,1,0,0:0:0:70:LR_Kick-long med bass.wav
469,192,111276,1,0,0:0:0:0:
213,192,111426,1,0,0:0:0:70:LR_Hat Synth.wav
320,192,111426,1,0,0:0:0:0:
42,192,111501,1,0,0:0:0:0:
128,192,111576,1,4,0:0:0:0:
298,192,111576,1,0,0:0:0:70:LR_Kick-long med bass.wav
384,192,111576,1,0,0:0:0:0:
192,192,111726,1,0,0:0:0:70:LR_Hat Synth.wav
448,192,111726,1,0,0:0:0:0:
384,192,111801,1,0,0:0:0:0:
42,192,111876,1,4,0:0:0:0:
128,192,111876,1,0,0:0:0:70:LR_Kick-long med bass.wav
298,192,111876,1,0,0:0:0:0:
384,192,112026,1,0,0:0:0:70:LR_Hat Synth.wav
448,192,112026,1,0,0:0:0:0:
213,192,112101,1,0,0:0:0:0:
128,192,112176,1,4,0:0:0:0:
298,192,112176,1,0,0:0:0:70:LR_Kick-long med bass.wav
469,192,112176,1,0,0:0:0:0:
64,192,112326,1,0,0:0:0:70:LR_Hat Synth.wav
192,192,112326,1,0,0:0:0:0:
384,192,112401,1,0,0:0:0:0:
128,192,112476,1,4,0:0:0:0:
192,192,112476,1,0,0:0:0:70:LR_Kick-long med bass.wav
320,192,112476,1,0,0:0:0:0:
384,192,112626,1,0,0:0:0:70:LR_Hat Synth.wav
448,192,112626,1,0,0:0:0:0:
128,192,112701,1,0,0:0:0:0:
42,192,112776,1,4,0:0:0:0:
213,192,112776,1,0,0:0:0:70:LR_Kick-long med bass.wav
298,192,112776,1,0,0:0:0:0:
384,192,112926,1,0,0:0:0:70:LR_Hat Synth.wav
469,192,112926,1,0,0:0:0:0:
298,192,113001,1,0,0:0:0:0:
42,192,113076,1,4,0:0:0:0:
128,192,113076,1,0,0:0:0:70:LR_Kick-long med bass.wav
213,192,113076,1,0,0:0:0:0:
128,192,113226,1,0,0:0:0:70:LR_Hat Synth.wav
298,192,113226,1,0,0:0:0:0:
213,192,113301,1,0,0:0:0:0:
320,192,113376,1,4,0:0:0:0:
384,192,113376,1,0,0:0:0:70:LR_Kick-long med bass.wav
469,192,113376,1,0,0:0:0:0:
42,192,113526,1,0,0:0:0:70:LR_Hat Synth.wav
128,192,113526,1,0,0:0:0:0:
213,192,113601,1,0,0:0:0:0:
298,192,113676,1,4,0:0:0:0:
384,192,113676,1,0,0:0:0:70:LR_Kick-long med bass.wav
469,192,113676,1,0,0:0:0:0:
213,192,113826,1,0,0:0:0:70:LR_Hat Synth.wav
384,192,113826,1,0,0:0:0:0:
298,192,113901,1,0,0:0:0:0:
42,192,113976,1,4,0:0:0:0:
128,192,113976,1,0,0:0:0:70:LR_Kick-long med bass.wav
213,192,113976,1,0,0:0:0:0:
298,192,114126,1,0,0:0:0:70:LR_Hat Synth.wav
448,192,114126,1,0,0:0:0:0:
213,192,114201,1,0,0:0:0:0:
42,192,114276,1,4,0:0:0:0:
128,192,114276,1,0,0:0:0:70:LR_Kick-long med bass.wav
384,192,114276,1,0,0:0:0:0:
298,192,114351,1,0,0:0:0:0:
128,192,114426,1,0,0:0:0:70:LR_Hat Synth.wav
192,192,114426,1,0,0:0:0:0:
42,192,114501,1,0,0:0:0:0:
192,192,114576,1,4,0:0:0:0:
384,192,114576,1,0,0:0:0:70:LR_Kick-long med bass.wav
469,192,114576,1,0,0:0:0:0:
298,192,114651,1,0,0:0:0:0:
42,192,114726,1,0,0:0:0:70:LR_Hat Synth.wav
384,192,114726,1,0,0:0:0:0:
128,192,114801,1,0,0:0:0:0:
42,192,114876,1,4,0:0:0:0:
192,192,114876,1,0,0:0:0:70:LR_Kick-long med bass.wav
298,192,114876,1,0,0:0:0:0:
384,192,114951,1,0,0:0:0:0:
320,192,115026,1,0,0:0:0:70:LR_Hat Synth.wav
448,192,115026,1,0,0:0:0:0:
192,192,115101,1,0,0:0:0:0:
64,192,115176,1,4,0:0:0:0:
128,192,115176,1,0,0:0:0:70:LR_Kick-long med bass.wav
384,192,115176,1,0,0:0:0:0:
469,192,115251,1,0,0:0:0:0:
213,192,115326,1,0,0:0:0:70:LR_Hat Synth.wav
298,192,115326,1,0,0:0:0:0:
128,192,115401,1,0,0:0:0:0:
64,192,115476,1,4,0:0:0:0:
384,192,115476,1,0,0:0:0:70:LR_Kick-long med bass.wav
448,192,115476,1,0,0:0:0:70:LR_CymbalQST.wav
213,192,115626,1,0,0:0:0:70:LR_Hat Synth.wav
320,192,115626,1,0,0:0:0:0:
384,192,115701,1,0,0:0:0:0:
64,192,115776,1,4,0:0:0:0:
128,192,115776,1,0,0:0:0:70:LR_Kick-long med bass.wav
469,192,115776,1,0,0:0:0:0:
213,192,115926,1,0,0:0:0:70:LR_Hat Synth.wav
384,192,115926,1,0,0:0:0:0:
298,192,116001,1,0,0:0:0:0:
42,192,116076,1,4,0:0:0:0:
128,192,116076,1,0,0:0:0:70:LR_Kick-long med bass.wav
213,192,116076,1,0,0:0:0:0:
298,192,116226,1,0,0:0:0:70:LR_Hat Synth.wav
469,192,116226,1,0,0:0:0:0:
213,192,116301,1,0,0:0:0:0:
128,192,116376,1,4,0:0:0:0:
384,192,116376,1,0,0:0:0:70:LR_Kick-long med bass.wav
448,192,116376,1,0,0:0:0:0:
213,192,116526,1,0,0:0:0:70:LR_Hat Synth.wav
298,192,116526,1,0,0:0:0:0:
128,192,116601,1,0,0:0:0:0:
42,192,116676,1,4,0:0:0:0:
384,192,116676,1,0,0:0:0:70:LR_Kick-long med bass.wav
448,192,116676,1,0,0:0:0:0:
128,192,116826,1,0,0:0:0:70:LR_Hat Synth.wav
320,192,116826,1,0,0:0:0:0:
213,192,116901,1,0,0:0:0:0:
320,192,116976,1,4,0:0:0:0:
384,192,116976,1,0,0:0:0:70:LR_Kick-long med bass.wav
448,192,116976,1,0,0:0:0:0:
128,192,117126,1,0,0:0:0:70:LR_Hat Synth.wav
213,192,117126,1,0,0:0:0:0:
298,192,117201,1,0,0:0:0:0:
42,192,117276,1,4,0:0:0:0:
384,192,117276,1,0,0:0:0:70:LR_Kick-long med bass.wav
469,192,117276,1,0,0:0:0:0:
192,192,117426,1,0,0:0:0:70:LR_Hat Synth.wav
320,192,117426,1,0,0:0:0:0:
128,192,117501,1,0,0:0:0:0:
42,192,117576,1,4,0:0:0:0:
384,192,117576,1,0,0:0:0:70:LR_Kick-long med bass.wav
469,192,117576,1,0,0:0:0:0:
192,192,117726,1,0,0:0:0:70:LR_Hat Synth.wav
320,192,117726,1,0,0:0:0:0:
384,192,117801,1,0,0:0:0:0:
128,192,117876,128,4,118026:0:0:0:0:
192,192,117876,1,0,0:0:0:70:LR_Kick-long med bass.wav
448,192,117876,1,0,0:0:0:0:
42,192,118026,1,0,0:0:0:70:LR_Hat Synth.wav
320,192,118026,1,0,0:0:0:0:
384,192,118026,128,0,118176:0:0:0:0:
213,192,118176,128,4,118326:0:0:0:0:
448,192,118176,1,0,0:0:0:70:LR_Kick-long med bass.wav
128,192,118326,128,0,118476:0:0:0:70:LR_Hat Synth.wav
448,192,118326,1,0,0:0:0:0:
42,192,118476,128,4,118626:0:0:0:0:
192,192,118476,1,0,0:0:0:70:LR_Kick-long med bass.wav
298,192,118476,1,0,0:0:0:0:
298,192,118626,1,0,0:0:0:70:LR_Hat Synth.wav
384,192,118626,128,0,118776:0:0:0:0:
64,192,118776,1,4,0:0:0:0:
128,192,118776,1,0,0:0:0:70:LR_Kick-long med bass.wav
213,192,118776,128,0,118926:0:0:0:0:
384,192,118926,1,0,0:0:0:70:LR_Hat Synth.wav
448,192,118926,128,0,119076:0:0:0:0:
192,192,119076,1,4,0:0:0:0:
320,192,119076,1,0,0:0:0:70:LR_Kick-long med bass.wav
64,192,119226,1,0,0:0:0:70:LR_Drum Rpd x2.wav
128,192,119226,1,0,0:0:0:0:
192,192,119301,1,0,0:0:0:70:LR_Drum Rpd x2.wav
320,192,119301,1,0,0:0:0:0:
384,192,119376,1,0,0:0:0:70:LR_Drum Rpd x2.wav
448,192,119376,1,0,0:0:0:0:
384,192,119526,1,0,0:0:0:70:LR_Drum Rpd x2.wav
469,192,119526,1,0,0:0:0:0:
298,192,119676,1,0,0:0:0:70:LR_Drum Rpd x2.wav
384,192,119676,1,0,0:0:0:0:
298,192,119826,1,0,0:0:0:70:LR_Drum Rpd x2.wav
384,192,119826,1,0,0:0:0:0:
128,192,119976,1,0,0:0:0:70:LR_Drum Rpd x2.wav
213,192,119976,1,0,0:0:0:0:
298,192,119976,1,0,0:0:0:0:
42,192,120126,128,0,120276:0:0:0:70:LR_Drum Rpd x2.wav
128,192,120126,1,0,0:0:0:0:
320,192,120276,1,4,0:0:0:0:
384,192,120276,1,0,0:0:0:70:LR_Kick-long med bass.wav
448,192,120276,1,0,0:0:0:70:LR_CymbalQST.wav
213,192,120351,1,0,0:0:0:0:
42,192,120426,1,0,0:0:0:70:LR_Hat Synth.wav
128,192,120426,1,0,0:0:0:0:
298,192,120501,1,0,0:0:0:0:
213,192,120576,1,4,0:0:0:0:
384,192,120576,1,0,0:0:0:70:LR_Kick-long med bass.wav
469,192,120651,1,0,0:0:0:0:
128,192,120726,1,0,0:0:0:70:LR_Hat Synth.wav
384,192,120726,1,0,0:0:0:0:
213,192,120801,1,0,0:0:0:0:
42,192,120876,1,4,0:0:0:0:
128,192,120876,1,0,0:0:0:70:LR_Kick-long med bass.wav
469,192,120876,1,0,0:0:0:0:
298,192,120951,1,0,0:0:0:0:
384,192,121026,1,0,0:0:0:70:LR_Hat Synth.wav
469,192,121026,1,0,0:0:0:0:
213,192,121101,1,0,0:0:0:0:
42,192,121176,1,4,0:0:0:0:
128,192,121176,1,0,0:0:0:70:LR_Kick-long med bass.wav
384,192,121251,1,0,0:0:0:0:
213,192,121326,1,0,0:0:0:70:LR_Hat Synth.wav
298,192,121326,1,0,0:0:0:0:
128,192,121401,1,0,0:0:0:0:
42,192,121476,1,4,0:0:0:0:
384,192,121476,1,0,0:0:0:70:LR_Kick-long med bass.wav
469,192,121476,1,0,0:0:0:0:
298,192,121551,1,0,0:0:0:0:
128,192,121626,1,0,0:0:0:70:LR_Hat Synth.wav
213,192,121626,1,0,0:0:0:0:
42,192,121701,1,0,0:0:0:0:
128,192,121776,1,4,0:0:0:0:
469,192,121776,1,0,0:0:0:70:LR_Kick-long med bass.wav
384,192,121851,1,0,0:0:0:0:
213,192,121926,1,0,0:0:0:70:LR_Hat Synth.wav
298,192,121926,1,0,0:0:0:0:
469,192,122001,1,0,0:0:0:0:
42,192,122076,1,4,0:0:0:0:
128,192,122076,1,0,0:0:0:70:LR_Kick-long med bass.wav
384,192,122076,1,0,0:0:0:0:
213,192,122151,1,0,0:0:0:0:
298,192,122226,1,0,0:0:0:70:LR_Hat Synth.wav
469,192,122226,1,0,0:0:0:0:
384,192,122301,1,0,0:0:0:0:
128,192,122376,1,4,0:0:0:0:
298,192,122376,1,0,0:0:0:70:LR_Kick-long med bass.wav
42,192,122451,1,0,0:0:0:0:
128,192,122526,1,0,0:0:0:70:LR_Hat Synth.wav
213,192,122526,1,0,0:0:0:0:
298,192,122601,1,0,0:0:0:0:
213,192,122676,1,4,0:0:0:0:
384,192,122676,1,0,0:0:0:70:LR_Kick-long med bass.wav
469,192,122676,1,0,0:0:0:0:
42,192,122751,1,0,0:0:0:0:
128,192,122826,1,0,0:0:0:70:LR_Hat Synth.wav
298,192,122826,1,0,0:0:0:0:
384,192,122901,1,0,0:0:0:0:
213,192,122976,1,4,0:0:0:0:
469,192,122976,1,0,0:0:0:70:LR_Kick-long med bass.wav
128,192,123051,1,0,0:0:0:0:
42,192,123126,1,0,0:0:0:70:LR_Hat Synth.wav
384,192,123126,1,0,0:0:0:0:
469,192,123201,1,0,0:0:0:0:
128,192,123276,1,4,0:0:0:0:
213,192,123276,1,0,0:0:0:70:LR_Kick-long med bass.wav
298,192,123276,1,0,0:0:0:0:
42,192,123351,1,0,0:0:0:0:
213,192,123426,1,0,0:0:0:70:LR_Hat Synth.wav
384,192,123426,1,0,0:0:0:0:
469,192,123501,1,0,0:0:0:0:
298,192,123576,1,4,0:0:0:0:
384,192,123576,1,0,0:0:0:70:LR_Kick-long med bass.wav
213,192,123651,1,0,0:0:0:0:
42,192,123726,1,0,0:0:0:70:LR_Hat Synth.wav
128,192,123726,1,0,0:0:0:0:
213,192,123801,1,0,0:0:0:0:
298,192,123876,1,4,0:0:0:0:
384,192,123876,1,0,0:0:0:70:LR_Kick-long med bass.wav
469,192,123876,1,0,0:0:0:0:
42,192,123951,1,0,0:0:0:0:
128,192,124026,1,0,0:0:0:70:LR_Hat Synth.wav
213,192,124026,1,0,0:0:0:0:
298,192,124101,1,0,0:0:0:0:
384,192,124176,1,4,0:0:0:0:
469,192,124176,1,0,0:0:0:70:LR_Kick-long med bass.wav
42,192,124251,1,0,0:0:0:0:
128,192,124326,1,0,0:0:0:70:LR_Hat Synth.wav
298,192,124326,1,0,0:0:0:0:
213,192,124401,1,0,0:0:0:0:
298,192,124476,1,4,0:0:0:0:
384,192,124476,1,0,0:0:0:70:LR_Kick-long med bass.wav
469,192,124476,1,0,0:0:0:0:
128,192,124551,1,0,0:0:0:0:
42,192,124626,1,0,0:0:0:70:LR_Hat Synth.wav
213,192,124626,1,0,0:0:0:0:
384,192,124701,1,0,0:0:0:0:
298,192,124776,1,4,0:0:0:0:
469,192,124776,1,0,0:0:0:70:LR_Kick-long med bass.wav
213,192,124851,1,0,0:0:0:0:
42,192,124926,1,0,0:0:0:70:LR_Hat Synth.wav
128,192,124926,1,0,0:0:0:0:
213,192,125001,1,0,0:0:0:0:
298,192,125076,1,4,0:0:0:0:
384,192,125076,1,0,0:0:0:70:LR_Kick-long med bass.wav
469,192,125076,1,0,0:0:0:70:LR_CymbalQST.wav
128,192,125151,1,0,0:0:0:0:
42,192,125226,1,0,0:0:0:70:LR_Hat Synth.wav
213,192,125226,1,0,0:0:0:0:
298,192,125301,1,0,0:0:0:0:
384,192,125376,1,4,0:0:0:0:
469,192,125376,1,0,0:0:0:70:LR_Kick-long med bass.wav
128,192,125451,1,0,0:0:0:0:
42,192,125526,1,0,0:0:0:70:LR_Hat Synth.wav
213,192,125526,1,0,0:0:0:0:
298,192,125601,1,0,0:0:0:0:
128,192,125676,1,4,0:0:0:0:
213,192,125676,1,0,0:0:0:70:LR_Kick-long med bass.wav
384,192,125676,1,0,0:0:0:0:
469,192,125751,1,0,0:0:0:0:
298,192,125826,1,0,0:0:0:70:LR_Hat Synth.wav
384,192,125826,1,0,0:0:0:0:
213,192,125901,1,0,0:0:0:0:
42,192,125976,1,4,0:0:0:0:
128,192,125976,1,0,0:0:0:70:LR_Kick-long med bass.wav
298,192,126051,1,0,0:0:0:0:
213,192,126126,1,0,0:0:0:70:LR_Hat Synth.wav
384,192,126126,1,0,0:0:0:0:
128,192,126201,1,0,0:0:0:0:
42,192,126276,1,4,0:0:0:0:
384,192,126276,1,0,0:0:0:70:LR_Kick-long med bass.wav
469,192,126276,1,0,0:0:0:0:
298,192,126351,1,0,0:0:0:0:
128,192,126426,1,0,0:0:0:70:LR_Hat Synth.wav
213,192,126426,1,0,0:0:0:0:
42,192,126501,1,0,0:0:0:0:
128,192,126576,1,4,0:0:0:0:
298,192,126576,1,0,0:0:0:70:LR_Kick-long med bass.wav
384,192,126651,1,0,0:0:0:0:
213,192,126726,1,0,0:0:0:70:LR_Hat Synth.wav
469,192,126726,1,0,0:0:0:0:
128,192,126801,1,0,0:0:0:0:
42,192,126876,1,4,0:0:0:0:
298,192,126876,1,0,0:0:0:70:LR_Kick-long med bass.wav
384,192,126876,1,0,0:0:0:0:
469,192,126951,1,0,0:0:0:0:
213,192,127026,1,0,0:0:0:70:LR_Hat Synth.wav
298,192,127026,1,0,0:0:0:0:
128,192,127101,1,0,0:0:0:0:
42,192,127176,1,4,0:0:0:0:
384,192,127176,1,0,0:0:0:70:LR_Kick-long med bass.wav
469,192,127251,1,0,0:0:0:0:
128,192,127326,1,0,0:0:0:70:LR_Hat Synth.wav
213,192,127326,1,0,0:0:0:0:
298,192,127401,1,0,0:0:0:0:
384,192,127476,1,4,0:0:0:0:
469,192,127476,1,0,0:0:0:70:LR_Kick-long med bass.wav
42,192,127551,1,0,0:0:0:70:LR_Drum Rpd x2.wav
213,192,127551,1,0,0:0:0:0:
298,192,127626,1,0,0:0:0:70:LR_Drum Rpd x2.wav
384,192,127626,1,0,0:0:0:0:
213,192,127701,1,0,0:0:0:70:LR_Drum Rpd x2.wav
469,192,127701,1,0,0:0:0:0:
42,192,127776,1,4,0:0:0:0:
128,192,127776,1,0,0:0:0:70:LR_Kick-long med bass.wav
384,192,127851,1,0,0:0:0:70:LR_Drum Rpd x2.wav
469,192,127851,1,0,0:0:0:0:
42,192,127926,1,0,0:0:0:70:LR_Drum Rpd x2.wav
298,192,127926,1,0,0:0:0:0:
128,192,128001,1,0,0:0:0:70:LR_Drum Rpd x2.wav
213,192,128001,1,0,0:0:0:0:
298,192,128076,1,4,0:0:0:0:
384,192,128076,1,0,0:0:0:70:LR_Kick-long med bass.wav
42,192,128151,1,0,0:0:0:70:LR_Drum Rpd x2.wav
128,192,128151,1,0,0:0:0:0:
213,192,128226,1,0,0:0:0:70:LR_Drum Rpd x2.wav
298,192,128226,1,0,0:0:0:0:
384,192,128301,1,0,0:0:0:70:LR_Drum Rpd x2.wav
469,192,128301,1,0,0:0:0:0:
128,192,128376,1,4,0:0:0:0:
213,192,128376,1,0,0:0:0:70:LR_Kick-long med bass.wav
42,192,128451,1,0,0:0:0:70:LR_Drum Rpd x2.wav
298,192,128451,1,0,0:0:0:0:
213,192,128526,1,0,0:0:0:70:LR_Drum Rpd x2.wav
469,192,128526,1,0,0:0:0:0:
298,192,128601,1,0,0:0:0:70:LR_Drum Rpd x2.wav
384,192,128601,1,0,0:0:0:0:
42,192,128676,1,4,0:0:0:0:
128,192,128676,1,0,0:0:0:70:LR_Kick-long med bass.wav
469,192,128676,1,0,0:0:0:0:
213,192,128826,1,0,0:0:0:0:
298,192,128901,1,0,0:0:0:0:
192,192,128976,1,0,0:0:0:0:
298,192,129051,1,0,0:0:0:0:
192,192,129126,1,0,0:0:0:0:
298,192,129201,1,0,0:0:0:0:
213,192,129276,1,0,0:0:0:0:
128,192,129313,1,0,0:0:0:0:
298,192,129426,1,0,0:0:0:0:
384,192,129463,1,0,0:0:0:0:
213,192,129576,1,0,0:0:0:0:
128,192,129613,1,0,0:0:0:0:
298,192,129726,1,0,0:0:0:0:
384,192,129763,1,0,0:0:0:0:
469,192,129763,1,0,0:0:0:0:
42,192,129876,1,2,0:0:0:0:
128,192,129876,1,0,0:0:0:0:
298,192,129876,1,0,0:0:0:0:
384,192,130026,1,0,0:0:0:0:
298,192,130176,1,0,0:0:0:0:
213,192,130326,1,0,0:0:0:0:
64,192,130476,1,8,0:0:0:0:
128,192,130476,1,0,0:0:0:0:
384,192,130476,1,0,0:0:0:0:
320,192,130626,1,0,0:0:0:0:
213,192,130776,1,0,0:0:0:0:
384,192,130926,1,0,0:0:0:0:
298,192,131076,1,2,0:0:0:0:
469,192,131076,1,0,0:0:0:0:
64,192,131226,1,0,0:0:0:0:
128,192,131376,1,0,0:0:0:0:
213,192,131526,1,0,0:0:0:0:
298,192,131676,1,8,0:0:0:0:
384,192,131676,1,0,0:0:0:0:
448,192,131676,1,0,0:0:0:0:
128,192,131826,1,0,0:0:0:0:
298,192,131976,1,0,0:0:0:0:
384,192,132126,1,0,0:0:0:0:
192,192,132276,1,2,0:0:0:0:
469,192,132276,1,0,0:0:0:0:
128,192,132426,1,0,0:0:0:0:
64,192,132576,1,0,0:0:0:0:
384,192,132726,1,0,0:0:0:0:
128,192,132876,1,8,0:0:0:0:
192,192,132876,1,0,0:0:0:0:
320,192,132876,1,0,0:0:0:0:
42,192,133026,1,0,0:0:0:0:
213,192,133176,1,0,0:0:0:0:
469,192,133326,1,0,0:0:0:0:
298,192,133476,1,2,0:0:0:0:
384,192,133476,1,0,0:0:0:0:
128,192,133626,1,0,0:0:0:0:
213,192,133776,1,0,0:0:0:0:
64,192,133926,1,0,0:0:0:0:
298,192,134076,1,8,0:0:0:0:
384,192,134076,1,0,0:0:0:0:
448,192,134076,1,0,0:0:0:0:
213,192,134151,1,0,0:0:0:0:
128,192,134226,1,0,0:0:0:0:
42,192,134301,1,0,0:0:0:0:
192,192,134376,1,0,0:0:0:0:
298,192,134451,1,0,0:0:0:0:
384,192,134526,1,0,0:0:0:0:
469,192,134601,1,0,0:0:0:0:
128,192,134676,1,2,0:0:0:0:
192,192,134676,1,0,0:0:0:0:
298,192,134676,1,0,0:0:0:0:
42,192,134826,1,0,0:0:0:0:
128,192,134976,1,0,0:0:0:0:
192,192,135126,1,0,0:0:0:0:
64,192,135276,1,8,0:0:0:0:
320,192,135276,1,0,0:0:0:0:
448,192,135276,1,0,0:0:0:0:
384,192,135426,1,0,0:0:0:0:
213,192,135576,1,0,0:0:0:0:
64,192,135726,1,0,0:0:0:0:
128,192,135876,1,2,0:0:0:0:
213,192,135876,1,0,0:0:0:0:
384,192,136026,1,0,0:0:0:0:
469,192,136176,1,0,0:0:0:0:
192,192,136326,1,0,0:0:0:0:
64,192,136476,1,8,0:0:0:0:
320,192,136476,1,0,0:0:0:0:
384,192,136476,1,0,0:0:0:0:
128,192,136626,1,0,0:0:0:0:
213,192,136776,1,0,0:0:0:0:
448,192,136926,1,0,0:0:0:0:
320,192,137076,1,2,0:0:0:0:
384,192,137076,1,0,0:0:0:0:
128,192,137226,1,0,0:0:0:0:
469,192,137226,128,0,137526:0:0:0:0:
213,192,137376,1,0,0:0:0:0:
384,192,137526,1,0,0:0:0:0:
128,192,137676,1,8,0:0:0:0:
213,192,137676,1,0,0:0:0:0:
320,192,137676,1,0,0:0:0:0:
64,192,137826,128,0,138126:0:0:0:0:
192,192,137826,1,0,0:0:0:0:
384,192,137976,1,0,0:0:0:0:
128,192,138126,1,0,0:0:0:0:
384,192,138276,1,2,0:0:0:0:
448,192,138276,1,0,0:0:0:0:
298,192,138351,1,0,0:0:0:0:
128,192,138426,1,0,0:0:0:0:
213,192,138501,1,0,0:0:0:0:
320,192,138576,1,0,0:0:0:0:
384,192,138651,1,0,0:0:0:0:
192,192,138726,1,0,0:0:0:0:
128,192,138801,1,0,0:0:0:0:
64,192,138876,1,8,0:0:0:0:
192,192,138876,1,0,0:0:0:0:
448,192,138876,1,0,0:0:0:0:
298,192,138951,1,0,0:0:0:0:
384,192,139026,1,0,0:0:0:0:
469,192,139101,1,0,0:0:0:0:
298,192,139176,1,0,0:0:0:0:
213,192,139251,1,0,0:0:0:0:
128,192,139326,1,0,0:0:0:0:
42,192,139401,1,0,0:0:0:0:
213,192,139476,1,4,0:0:0:0:
320,192,139476,1,0,0:0:0:0:
384,192,139476,1,0,0:0:0:0:
384,192,139626,1,0,0:0:0:70:LR_Hat Synth.wav
469,192,139626,1,0,0:0:0:0:
128,192,139776,1,4,0:0:0:0:
192,192,139776,1,0,0:0:0:0:
320,192,139776,1,0,0:0:0:0:
42,192,139926,1,0,0:0:0:70:LR_Hat Synth.wav
213,192,139926,1,0,0:0:0:0:
298,192,140076,1,4,0:0:0:0:
384,192,140076,1,0,0:0:0:0:
469,192,140076,1,0,0:0:0:0:
128,192,140226,1,0,0:0:0:70:LR_Hat Synth.wav
192,192,140226,1,0,0:0:0:0:
64,192,140376,1,4,0:0:0:0:
320,192,140376,1,0,0:0:0:0:
448,192,140376,1,0,0:0:0:0:
192,192,140526,1,0,0:0:0:70:LR_Hat Synth.wav
320,192,140526,1,0,0:0:0:0:
64,192,140676,1,4,0:0:0:0:
128,192,140676,1,0,0:0:0:0:
384,192,140676,1,0,0:0:0:0:
192,192,140826,1,0,0:0:0:70:LR_Hat Synth.wav
469,192,140826,1,0,0:0:0:0:
64,192,140976,1,4,0:0:0:0:
320,192,140976,1,0,0:0:0:0:
384,192,140976,1,0,0:0:0:0:
128,192,141126,1,0,0:0:0:70:LR_Hat Synth.wav
213,192,141126,1,0,0:0:0:0:
298,192,141276,1,4,0:0:0:0:
384,192,141276,1,0,0:0:0:0:
448,192,141276,1,0,0:0:0:0:
42,192,141426,1,0,0:0:0:70:LR_Hat Synth.wav
192,192,141426,1,0,0:0:0:0:
128,192,141576,1,4,0:0:0:0:
384,192,141576,1,0,0:0:0:70:LR_Clap kick.wav
448,192,141576,1,0,0:0:0:0:
42,192,141726,1,0,0:0:0:70:LR_Hat Synth.wav
320,192,141726,1,0,0:0:0:0:
128,192,141876,1,4,0:0:0:0:
192,192,141876,1,0,0:0:0:0:
384,192,141876,1,0,0:0:0:0:
384,192,142026,1,0,0:0:0:70:LR_Hat Synth.wav
469,192,142026,1,0,0:0:0:0:
128,192,142176,1,4,0:0:0:0:
192,192,142176,1,0,0:0:0:0:
298,192,142176,1,0,0:0:0:0:
64,192,142326,1,0,0:0:0:70:LR_Hat Synth.wav
128,192,142326,1,0,0:0:0:0:
213,192,142476,1,4,0:0:0:0:
320,192,142476,1,0,0:0:0:0:
384,192,142476,1,0,0:0:0:0:
384,192,142626,1,0,0:0:0:70:LR_Hat Synth.wav
448,192,142626,1,0,0:0:0:0:
64,192,142776,1,4,0:0:0:0:
192,192,142776,1,0,0:0:0:0:
320,192,142776,1,0,0:0:0:0:
128,192,142926,1,0,0:0:0:70:LR_Hat Synth.wav
213,192,142926,1,0,0:0:0:0:
320,192,143076,1,4,0:0:0:0:
384,192,143076,1,0,0:0:0:0:
448,192,143076,1,0,0:0:0:0:
64,192,143226,1,0,0:0:0:70:LR_Hat Synth.wav
213,192,143226,1,0,0:0:0:0:
192,192,143376,1,4,0:0:0:0:
320,192,143376,1,0,0:0:0:0:
384,192,143376,1,0,0:0:0:0:
320,192,143526,1,0,0:0:0:70:LR_Hat Synth.wav
448,192,143526,1,0,0:0:0:0:
64,192,143676,1,4,0:0:0:0:
384,192,143676,1,0,0:0:0:0:
192,192,143826,1,0,0:0:0:70:LR_Hat Synth.wav
320,192,143826,1,0,0:0:0:70:LR_Clap kick.wav
448,192,143826,1,0,0:0:0:0:
192,192,143976,1,4,0:0:0:0:
320,192,143976,1,0,0:0:0:70:LR_Clap kick.wav
448,192,143976,1,0,0:0:0:0:
42,192,144051,1,0,0:0:0:0:
128,192,144126,1,0,0:0:0:70:LR_Hat Synth.wav
213,192,144201,1,0,0:0:0:0:
64,192,144276,1,2,0:0:0:0:
320,192,144276,1,0,0:0:0:0:
384,192,144276,1,0,0:0:0:0:
384,192,144426,1,0,0:0:0:0:
448,192,144426,1,0,0:0:0:0:
192,192,144501,1,0,0:0:0:0:
320,192,144501,1,0,0:0:0:0:
64,192,144576,1,0,0:0:0:0:
128,192,144576,1,0,0:0:0:0:
192,192,144726,1,0,0:0:0:0:
384,192,144726,1,0,0:0:0:0:
298,192,144876,1,2,0:0:0:0:
384,192,144876,1,0,0:0:0:0:
469,192,144876,1,0,0:0:0:0:
42,192,145026,1,0,0:0:0:0:
128,192,145026,1,0,0:0:0:0:
213,192,145101,1,0,0:0:0:0:
298,192,145101,1,0,0:0:0:0:
384,192,145176,1,0,0:0:0:0:
469,192,145176,1,0,0:0:0:0:
298,192,145326,1,0,0:0:0:0:
448,192,145326,1,0,0:0:0:0:
64,192,145476,1,2,0:0:0:0:
128,192,145476,1,0,0:0:0:0:
384,192,145476,1,0,0:0:0:0:
213,192,145626,1,0,0:0:0:0:
298,192,145626,1,0,0:0:0:0:
42,192,145701,1,0,0:0:0:0:
128,192,145701,1,0,0:0:0:0:
384,192,145776,1,0,0:0:0:70:LR_Drum Rpd x2.wav
448,192,145776,1,0,0:0:0:0:
42,192,145926,1,0,0:0:0:70:LR_Drum Rpd x2.wav
213,192,145926,1,0,0:0:0:0:
298,192,146076,1,8,0:0:0:0:
384,192,146076,1,0,0:0:0:70:LR_Drum Rpd x2.wav
448,192,146076,1,0,0:0:0:0:
384,192,146226,1,0,0:0:0:70:LR_Drum Rpd x2.wav
469,192,146226,1,0,0:0:0:0:
213,192,146301,1,0,0:0:0:0:
298,192,146301,1,0,0:0:0:0:
42,192,146376,1,0,0:0:0:70:LR_Drum Rpd x2.wav
128,192,146376,1,0,0:0:0:0:
192,192,146526,1,0,0:0:0:70:LR_Drum Rpd x2.wav
384,192,146526,1,0,0:0:0:0:
64,192,146676,1,2,0:0:0:0:
320,192,146676,128,0,149076:0:0:0:0:
448,192,146676,1,0,0:0:0:0:
384,192,146976,1,0,0:0:0:70:LR_Drum Low Long.wav
448,192,146976,1,0,0:0:0:0:
64,192,147126,1,0,0:0:0:70:LR_Drum Low Long.wav
192,192,147126,1,0,0:0:0:0:
128,192,147426,1,0,0:0:0:70:LR_Drum Low Long.wav
213,192,147426,1,0,0:0:0:0:
384,192,147576,1,0,0:0:0:70:LR_Drum Low Long.wav
469,192,147576,1,0,0:0:0:0:
42,192,147876,1,0,0:0:0:70:LR_Drum Low Long.wav
128,192,147876,1,0,0:0:0:0:
192,192,148176,1,0,0:0:0:70:LR_Drum Low Long.wav
448,192,148176,1,0,0:0:0:0:
64,192,148326,1,0,0:0:0:70:LR_Drum Low Long.wav
128,192,148326,1,0,0:0:0:0:
384,192,148626,1,0,0:0:0:70:LR_Drum Low Long.wav
448,192,148626,1,0,0:0:0:0:
42,192,148776,128,0,149076:0:0:0:70:LR_Drum Low Long.wav
213,192,148776,1,0,0:0:0:0:
128,192,148926,128,0,149076:0:0:0:0:
384,192,149076,1,2,0:0:0:0:
448,192,149076,128,0,149376:0:0:0:70:LR_CymbalQST.wav
213,192,149376,128,0,149526:0:0:0:0:
42,192,149526,128,2,149676:0:0:0:0:
128,192,149526,1,0,0:0:0:0:
213,192,149676,1,2,0:0:0:0:
298,192,149676,128,0,149976:0:0:0:0:
384,192,149826,1,0,0:0:0:0:
213,192,149976,1,0,0:0:0:70:LR_Ride Long Low.wav
384,192,149976,1,0,0:0:0:0:
448,192,149976,128,0,150126:0:0:0:0:
192,192,150126,128,0,150276:0:0:0:0:
128,192,150276,1,2,0:0:0:0:
320,192,150276,128,0,150426:0:0:0:0:
469,192,150426,128,0,150576:0:0:0:0:
384,192,150576,128,0,150726:0:0:0:0:
213,192,150726,1,2,0:0:0:0:
298,192,150726,128,0,150876:0:0:0:0:
42,192,150876,128,2,151176:0:0:0:0:
128,192,150876,1,0,0:0:0:0:
384,192,151026,1,0,0:0:0:0:
320,192,151101,1,0,0:0:0:0:
128,192,151176,128,0,151326:0:0:0:70:LR_Ride Long Low.wav
192,192,151176,1,0,0:0:0:0:
469,192,151176,1,0,0:0:0:0:
213,192,151326,128,0,151476:0:0:0:0:
298,192,151476,128,2,151776:0:0:0:0:
384,192,151476,1,0,0:0:0:0:
469,192,151476,1,0,0:0:0:0:
213,192,151776,128,0,151926:0:0:0:0:
128,192,151926,128,2,152076:0:0:0:0:
320,192,151926,1,0,0:0:0:0:
298,192,152076,1,2,0:0:0:0:
384,192,152076,128,0,152376:0:0:0:0:
213,192,152376,1,0,0:0:0:70:LR_Ride Long Low.wav
320,192,152376,1,0,0:0:0:0:
469,192,152376,128,0,152676:0:0:0:0:
42,192,152526,1,2,0:0:0:0:
128,192,152526,1,0,0:0:0:0:
384,192,152676,128,0,153576:0:0:0:0:
213,192,152826,1,2,0:0:0:0:
298,192,152826,1,0,0:0:0:0:
64,192,152976,1,0,0:0:0:0:
192,192,153076,1,0,0:0:0:0:
298,192,153126,1,2,0:0:0:0:
469,192,153126,1,0,0:0:0:0:
128,192,153176,1,0,0:0:0:0:
42,192,153276,1,2,0:0:0:0:
298,192,153276,1,0,0:0:0:0:
213,192,153376,1,0,0:0:0:0:
128,192,153426,1,0,0:0:0:0:
42,192,153476,1,0,0:0:0:0:
213,192,153576,1,0,0:0:0:70:LR_Ride Long Low.wav
298,192,153576,128,0,153726:0:0:0:0:
469,192,153576,1,0,0:0:0:0:
213,192,153726,128,0,153876:0:0:0:0:
42,192,153876,1,2,0:0:0:0:
128,192,153876,128,0,154176:0:0:0:0:
298,192,153876,1,0,0:0:0:0:
64,192,154176,128,0,154326:0:0:0:0:
320,192,154326,1,2,0:0:0:0:
384,192,154326,128,0,154476:0:0:0:0:
213,192,154476,1,2,0:0:0:0:
469,192,154476,128,0,154776:0:0:0:0:
298,192,154626,1,0,0:0:0:0:
213,192,154776,128,0,154926:0:0:0:70:LR_Ride Long Low.wav
298,192,154776,1,0,0:0:0:0:
384,192,154776,1,0,0:0:0:0:
64,192,154926,128,0,155076:0:0:0:0:
298,192,155076,1,2,0:0:0:0:
384,192,155076,128,0,155226:0:0:0:0:
128,192,155226,128,0,155376:0:0:0:0:
298,192,155376,128,0,155526:0:0:0:0:
192,192,155526,128,2,155676:0:0:0:0:
384,192,155526,1,0,0:0:0:0:
64,192,155676,128,2,155976:0:0:0:0:
128,192,155676,1,0,0:0:0:0:
213,192,155826,1,0,0:0:0:0:
298,192,155901,1,0,0:0:0:0:
128,192,155976,1,0,0:0:0:70:LR_Ride Long Low.wav
384,192,155976,1,0,0:0:0:0:
448,192,155976,128,0,156126:0:0:0:0:
320,192,156126,128,0,156276:0:0:0:0:
64,192,156276,1,2,0:0:0:0:
128,192,156276,1,0,0:0:0:0:
213,192,156276,128,0,156576:0:0:0:0:
64,192,156576,128,0,156726:0:0:0:0:
128,192,156726,1,2,0:0:0:0:
213,192,156726,128,0,156876:0:0:0:0:
298,192,156876,128,2,157176:0:0:0:0:
384,192,156876,1,0,0:0:0:0:
469,192,156876,1,0,0:0:0:0:
128,192,157026,1,0,0:0:0:0:
213,192,157176,1,0,0:0:0:70:LR_Ride Long Low.wav
384,192,157176,1,0,0:0:0:0:
448,192,157176,128,0,157326:0:0:0:0:
42,192,157326,128,2,157476:0:0:0:0:
128,192,157326,1,0,0:0:0:0:
448,192,157476,128,0,158676:0:0:0:0:
213,192,157626,1,2,0:0:0:0:
320,192,157626,1,0,0:0:0:0:
384,192,157626,1,0,0:0:0:0:
128,192,157776,1,0,0:0:0:0:
42,192,157926,1,2,0:0:0:0:
192,192,157926,1,0,0:0:0:0:
320,192,157926,1,0,0:0:0:0:
384,192,158001,1,0,0:0:0:0:
64,192,158076,1,2,0:0:0:0:
192,192,158076,1,0,0:0:0:0:
298,192,158076,1,0,0:0:0:0:
128,192,158226,1,0,0:0:0:0:
213,192,158276,1,0,0:0:0:0:
298,192,158326,1,0,0:0:0:0:
42,192,158376,1,0,0:0:0:70:LR_Ride Long Low.wav
128,192,158376,1,0,0:0:0:0:
384,192,158526,1,0,0:0:0:0:
298,192,158601,1,0,0:0:0:0:
64,192,158676,128,2,159276:0:0:0:0:
128,192,158676,1,0,0:0:0:0:
213,192,158676,1,0,0:0:0:0:
128,192,159351,128,0,159426:0:0:0:0:
213,192,159426,128,0,159501:0:0:0:0:
298,192,159501,128,0,159576:0:0:0:0:
384,192,159576,128,0,159651:0:0:0:0:
469,192,159651,128,0,159726:0:0:0:0:
42,192,159726,128,0,159801:0:0:0:0:
128,192,159801,128,0,159876:0:0:0:0:
213,192,159876,1,4,0:0:0:0:
298,192,159876,1,0,0:0:0:0:
384,192,160176,1,4,0:0:0:0:
469,192,160176,1,0,0:0:0:0:
128,192,160476,1,4,0:0:0:0:
213,192,160476,1,0,0:0:0:0:
298,192,160551,1,4,0:0:0:0:
384,192,160626,1,4,0:0:0:0:
469,192,160626,1,0,0:0:0:0:
213,192,160701,1,4,0:0:0:0:
42,192,160776,1,4,0:0:0:0:
128,192,160776,1,0,0:0:0:0:
298,192,160776,1,0,0:0:0:0:
384,192,160851,1,4,0:0:0:0:
213,192,160926,1,2,0:0:0:0:
469,192,160926,1,0,0:0:0:0:
42,192,161076,1,8,0:0:0:0:
128,192,161076,1,0,0:0:0:0:
298,192,161076,1,0,0:0:0:0:
213,192,161226,1,0,0:0:0:0:
298,192,161376,1,0,0:0:0:0:
384,192,161526,1,0,0:0:0:0:
213,192,161676,1,0,0:0:0:0:
469,192,161676,1,0,0:0:0:0:
128,192,161976,1,0,0:0:0:0:
42,192,162276,1,8,0:0:0:0:
213,192,162276,1,0,0:0:0:0:
298,192,162276,1,0,0:0:0:0:
128,192,162426,1,0,0:0:0:0:
213,192,162576,1,0,0:0:0:0:
298,192,162726,1,0,0:0:0:0:
128,192,162876,1,0,0:0:0:0:
384,192,162876,1,0,0:0:0:0:
469,192,163176,1,0,0:0:0:0:
42,192,163476,1,0,0:0:0:0:
128,192,163626,1,0,0:0:0:0:
213,192,163776,1,8,0:0:0:0:
320,192,163776,128,0,164076:0:0:0:0:
448,192,164076,128,0,164376:0:0:0:0:
298,192,164376,1,8,0:0:0:0:
384,192,164376,128,0,164676:0:0:0:0:
213,192,164676,1,8,0:0:0:0:
298,192,164676,1,0,0:0:0:0:
448,192,164676,1,0,0:0:0:0:
42,192,164826,1,4,0:0:0:0:
128,192,164826,1,0,0:0:0:0:
213,192,164901,1,4,0:0:0:0:
298,192,164901,1,0,0:0:0:0:
128,192,164976,1,8,0:0:0:0:
384,192,164976,1,0,0:0:0:0:
469,192,164976,1,0,0:0:0:0:
213,192,165126,1,4,0:0:0:0:
42,192,165276,1,8,0:0:0:0:
128,192,165276,1,0,0:0:0:0:
320,192,165276,1,0,0:0:0:0:
384,192,165426,1,4,0:0:0:0:
128,192,165576,1,8,0:0:0:0:
192,192,165576,1,0,0:0:0:0:
469,192,165576,1,0,0:0:0:0:
298,192,165726,1,0,0:0:0:0:
42,192,165876,1,2,0:0:0:0:
128,192,165876,1,0,0:0:0:70:LR_CymbalQST.wav
384,192,165876,1,0,0:0:0:0:
192,192,165951,1,0,0:0:0:0:
320,192,166026,1,0,0:0:0:70:LR_Hat Synth.wav
448,192,166026,1,0,0:0:0:0:
384,192,166101,1,0,0:0:0:0:
128,192,166176,1,8,0:0:0:0:
192,192,166176,1,0,0:0:0:0:
42,192,166251,1,0,0:0:0:0:
128,192,166326,1,0,0:0:0:70:LR_Hat Synth.wav
298,192,166326,1,0,0:0:0:0:
384,192,166401,1,0,0:0:0:0:
213,192,166476,1,2,0:0:0:0:
298,192,166476,1,0,0:0:0:0:
469,192,166476,1,0,0:0:0:0:
128,192,166551,1,0,0:0:0:0:
42,192,166626,1,0,0:0:0:70:LR_Hat Synth.wav
213,192,166626,1,0,0:0:0:0:
298,192,166701,1,0,0:0:0:0:
384,192,166776,1,8,0:0:0:0:
469,192,166776,1,0,0:0:0:0:
128,192,166851,1,0,0:0:0:0:
213,192,166926,1,0,0:0:0:70:LR_Hat Synth.wav
320,192,166926,1,0,0:0:0:0:
384,192,167001,1,0,0:0:0:0:
42,192,167076,1,2,0:0:0:0:
128,192,167076,1,0,0:0:0:0:
213,192,167076,1,0,0:0:0:0:
298,192,167151,1,0,0:0:0:0:
384,192,167226,1,0,0:0:0:70:LR_Hat Synth.wav
469,192,167226,1,0,0:0:0:0:
213,192,167301,1,0,0:0:0:0:
64,192,167376,1,8,0:0:0:0:
128,192,167376,1,0,0:0:0:0:
384,192,167451,1,0,0:0:0:0:
298,192,167526,1,0,0:0:0:70:LR_Hat Synth.wav
448,192,167526,1,0,0:0:0:0:
128,192,167601,1,0,0:0:0:0:
64,192,167676,1,2,0:0:0:0:
192,192,167676,1,0,0:0:0:0:
298,192,167676,1,0,0:0:0:0:
384,192,167751,1,0,0:0:0:0:
128,192,167826,1,0,0:0:0:70:LR_Hat Synth.wav
469,192,167826,1,0,0:0:0:0:
42,192,167901,1,0,0:0:0:0:
128,192,167976,1,8,0:0:0:0:
192,192,167976,1,0,0:0:0:0:
320,192,168051,1,0,0:0:0:0:
384,192,168126,1,0,0:0:0:70:LR_Hat Synth.wav
448,192,168126,1,0,0:0:0:0:
128,192,168201,1,0,0:0:0:0:
64,192,168276,1,2,0:0:0:0:
192,192,168276,1,0,0:0:0:0:
298,192,168276,1,0,0:0:0:0:
384,192,168351,1,0,0:0:0:0:
128,192,168426,1,0,0:0:0:70:LR_Hat Synth.wav
448,192,168426,1,0,0:0:0:0:
213,192,168501,1,0,0:0:0:0:
298,192,168576,1,8,0:0:0:0:
448,192,168576,1,0,0:0:0:0:
384,192,168651,1,0,0:0:0:0:
64,192,168726,1,0,0:0:0:70:LR_Hat Synth.wav
192,192,168726,1,0,0:0:0:0:
128,192,168801,1,0,0:0:0:0:
192,192,168876,1,2,0:0:0:0:
320,192,168876,1,0,0:0:0:0:
384,192,168876,1,0,0:0:0:0:
469,192,168951,1,0,0:0:0:0:
298,192,169026,1,0,0:0:0:70:LR_Hat Synth.wav
384,192,169026,1,0,0:0:0:0:
128,192,169101,1,0,0:0:0:0:
64,192,169176,1,8,0:0:0:0:
192,192,169176,1,0,0:0:0:0:
298,192,169251,1,0,0:0:0:0:
384,192,169326,1,0,0:0:0:70:LR_Hat Synth.wav
469,192,169326,1,0,0:0:0:0:
298,192,169401,1,0,0:0:0:0:
42,192,169476,1,2,0:0:0:0:
128,192,169476,1,0,0:0:0:0:
213,192,169476,1,0,0:0:0:0:
384,192,169551,1,0,0:0:0:0:
298,192,169626,1,0,0:0:0:70:LR_Hat Synth.wav
448,192,169626,1,0,0:0:0:0:
213,192,169701,1,0,0:0:0:0:
64,192,169776,1,8,0:0:0:0:
128,192,169776,1,0,0:0:0:0:
213,192,169851,1,0,0:0:0:0:
320,192,169926,1,0,0:0:0:70:LR_Hat Synth.wav
384,192,169926,1,0,0:0:0:0:
42,192,170001,1,0,0:0:0:0:
128,192,170001,1,0,0:0:0:0:
213,192,170076,1,2,0:0:0:0:
448,192,170076,1,0,0:0:0:0:
128,192,170151,1,0,0:0:0:0:
42,192,170226,1,0,0:0:0:70:LR_Hat Synth.wav
298,192,170226,1,0,0:0:0:0:
384,192,170301,1,0,0:0:0:0:
448,192,170301,1,0,0:0:0:0:
128,192,170376,1,8,0:0:0:0:
213,192,170376,1,0,0:0:0:0:
42,192,170451,1,0,0:0:0:0:
298,192,170451,1,0,0:0:0:0:
192,192,170526,1,0,0:0:0:70:LR_Hat Synth.wav
384,192,170526,1,0,0:0:0:0:
128,192,170601,1,0,0:0:0:0:
469,192,170601,1,0,0:0:0:0:
42,192,170676,1,2,0:0:0:0:
298,192,170676,1,0,0:0:0:70:LR_CymbalQST.wav
384,192,170676,1,0,0:0:0:0:
213,192,170751,1,0,0:0:0:0:
42,192,170826,1,0,0:0:0:70:LR_Hat Synth.wav
128,192,170826,1,0,0:0:0:0:
213,192,170901,1,0,0:0:0:0:
298,192,170901,1,0,0:0:0:0:
384,192,170976,1,8,0:0:0:0:
448,192,170976,1,0,0:0:0:0:
298,192,171051,1,0,0:0:0:0:
128,192,171126,1,0,0:0:0:70:LR_Hat Synth.wav
213,192,171126,1,0,0:0:0:0:
42,192,171201,1,0,0:0:0:0:
128,192,171276,1,2,0:0:0:0:
213,192,171276,1,0,0:0:0:0:
320,192,171276,1,0,0:0:0:0:
384,192,171351,1,0,0:0:0:0:
298,192,171426,1,0,0:0:0:70:LR_Hat Synth.wav
448,192,171426,1,0,0:0:0:0:
213,192,171501,1,0,0:0:0:0:
128,192,171576,1,8,0:0:0:0:
320,192,171576,1,0,0:0:0:0:
384,192,171651,1,0,0:0:0:0:
213,192,171726,1,0,0:0:0:70:LR_Hat Synth.wav
469,192,171726,1,0,0:0:0:0:
128,192,171801,1,0,0:0:0:0:
42,192,171876,1,2,0:0:0:0:
320,192,171876,1,0,0:0:0:0:
384,192,171876,1,0,0:0:0:0:
448,192,171951,1,0,0:0:0:0:
192,192,172026,1,0,0:0:0:70:LR_Hat Synth.wav
320,192,172026,1,0,0:0:0:0:
128,192,172101,1,0,0:0:0:0:
42,192,172176,1,8,0:0:0:0:
213,192,172176,1,0,0:0:0:0:
384,192,172251,1,0,0:0:0:0:
298,192,172326,1,0,0:0:0:70:LR_Hat Synth.wav
469,192,172326,1,0,0:0:0:0:
213,192,172401,1,0,0:0:0:0:
42,192,172476,1,2,0:0:0:0:
128,192,172476,1,0,0:0:0:0:
384,192,172476,1,0,0:0:0:0:
469,192,172551,1,0,0:0:0:0:
192,192,172626,1,0,0:0:0:70:LR_Hat Synth.wav
320,192,172626,1,0,0:0:0:0:
128,192,172701,1,0,0:0:0:0:
64,192,172776,1,8,0:0:0:0:
213,192,172776,1,0,0:0:0:0:
384,192,172851,1,0,0:0:0:0:
320,192,172926,1,0,0:0:0:70:LR_Hat Synth.wav
448,192,172926,1,0,0:0:0:0:
64,192,173001,1,0,0:0:0:0:
128,192,173076,1,2,0:0:0:0:
192,192,173076,1,0,0:0:0:0:
320,192,173076,1,0,0:0:0:0:
384,192,173151,1,0,0:0:0:0:
213,192,173226,1,0,0:0:0:70:LR_Hat Synth.wav
469,192,173226,1,0,0:0:0:0:
128,192,173301,1,0,0:0:0:0:
64,192,173376,1,8,0:0:0:0:
320,192,173376,1,0,0:0:0:0:
192,192,173451,1,0,0:0:0:0:
320,192,173526,1,0,0:0:0:70:LR_Hat Synth.wav
448,192,173526,1,0,0:0:0:0:
384,192,173601,1,0,0:0:0:0:
42,192,173676,1,2,0:0:0:0:
128,192,173676,1,0,0:0:0:0:
213,192,173676,1,0,0:0:0:0:
298,192,173751,1,0,0:0:0:0:
384,192,173826,1,0,0:0:0:70:LR_Hat Synth.wav
469,192,173826,1,0,0:0:0:0:
213,192,173901,1,0,0:0:0:0:
128,192,173976,1,8,0:0:0:0:
298,192,173976,1,0,0:0:0:0:
64,192,174051,1,0,0:0:0:0:
192,192,174126,1,0,0:0:0:70:LR_Hat Synth.wav
448,192,174126,1,0,0:0:0:0:
384,192,174201,1,0,0:0:0:0:
64,192,174276,1,2,0:0:0:0:
128,192,174276,1,0,0:0:0:0:
298,192,174276,1,0,0:0:0:0:
448,192,174351,1,0,0:0:0:0:
213,192,174426,1,0,0:0:0:70:LR_Hat Synth.wav
384,192,174426,1,0,0:0:0:0:
128,192,174501,1,0,0:0:0:0:
42,192,174576,1,8,0:0:0:0:
298,192,174576,1,0,0:0:0:0:
384,192,174651,1,0,0:0:0:0:
192,192,174726,1,0,0:0:0:70:LR_Hat Synth.wav
448,192,174726,1,0,0:0:0:0:
128,192,174801,1,0,0:0:0:0:
64,192,174876,1,2,0:0:0:0:
192,192,174876,1,0,0:0:0:0:
298,192,174876,1,0,0:0:0:0:
384,192,174951,1,0,0:0:0:0:
298,192,175026,1,0,0:0:0:70:LR_Hat Synth.wav
469,192,175026,1,0,0:0:0:0:
213,192,175101,1,0,0:0:0:0:
42,192,175176,1,8,0:0:0:0:
128,192,175176,1,0,0:0:0:0:
384,192,175176,1,0,0:0:0:0:
320,192,175251,1,0,0:0:0:0:
213,192,175326,1,0,0:0:0:70:LR_Hat Synth.wav
469,192,175326,1,0,0:0:0:0:
128,192,175401,1,0,0:0:0:0:
42,192,175476,1,2,0:0:0:0:
384,192,175476,1,0,0:0:0:70:LR_CymbalQST.wav
469,192,175551,1,0,0:0:0:0:
213,192,175626,1,0,0:0:0:70:LR_Hat Synth.wav
298,192,175626,1,0,0:0:0:0:
128,192,175701,1,0,0:0:0:0:
64,192,175776,1,8,0:0:0:0:
192,192,175776,1,0,0:0:0:0:
298,192,175776,1,0,0:0:0:0:
384,192,175851,1,0,0:0:0:0:
128,192,175926,1,0,0:0:0:70:LR_Hat Synth.wav
469,192,175926,1,0,0:0:0:0:
42,192,176001,1,0,0:0:0:0:
128,192,176076,1,2,0:0:0:0:
192,192,176076,1,0,0:0:0:0:
320,192,176151,1,0,0:0:0:0:
384,192,176226,1,0,0:0:0:70:LR_Hat Synth.wav
448,192,176226,1,0,0:0:0:0:
213,192,176301,1,0,0:0:0:0:
42,192,176376,1,8,0:0:0:0:
128,192,176376,1,0,0:0:0:0:
298,192,176376,1,0,0:0:0:0:
384,192,176451,1,0,0:0:0:0:
298,192,176526,1,0,0:0:0:70:LR_Hat Synth.wav
448,192,176526,1,0,0:0:0:0:
213,192,176601,1,0,0:0:0:0:
128,192,176676,1,2,0:0:0:0:
384,192,176676,1,0,0:0:0:0:
64,192,176751,1,0,0:0:0:0:
213,192,176826,1,0,0:0:0:70:LR_Hat Synth.wav
298,192,176826,1,0,0:0:0:0:
384,192,176901,1,0,0:0:0:0:
42,192,176976,1,8,0:0:0:0:
128,192,176976,1,0,0:0:0:0:
448,192,176976,1,0,0:0:0:0:
213,192,177051,1,0,0:0:0:0:
320,192,177126,1,0,0:0:0:70:LR_Hat Synth.wav
384,192,177126,1,0,0:0:0:0:
469,192,177201,1,0,0:0:0:0:
213,192,177276,1,2,0:0:0:0:
384,192,177276,1,0,0:0:0:0:
128,192,177351,1,0,0:0:0:0:
64,192,177426,1,0,0:0:0:70:LR_Hat Synth.wav
320,192,177426,1,0,0:0:0:0:
469,192,177501,1,0,0:0:0:0:
64,192,177576,1,8,0:0:0:0:
192,192,177576,1,0,0:0:0:0:
384,192,177576,1,0,0:0:0:0:
128,192,177651,1,0,0:0:0:0:
192,192,177726,1,0,0:0:0:70:LR_Hat Synth.wav
298,192,177726,1,0,0:0:0:0:
384,192,177801,1,0,0:0:0:0:
42,192,177876,1,2,0:0:0:0:
128,192,177876,1,0,0:0:0:0:
448,192,177876,1,0,0:0:0:0:
128,192,178401,1,0,0:0:0:0:
469,192,178476,1,0,0:0:0:0:
384,192,178551,1,0,0:0:0:0:
298,192,178626,1,0,0:0:0:0:
213,192,178701,1,0,0:0:0:0:
128,192,178776,1,0,0:0:0:0:
42,192,178851,1,0,0:0:0:0:
469,192,178926,1,0,0:0:0:0:
384,192,179001,1,0,0:0:0:0:
298,192,179076,1,0,0:0:0:0:
213,192,179376,1,0,0:0:0:0:
298,192,179451,1,0,0:0:0:0:
384,192,179526,1,0,0:0:0:0:
469,192,179601,1,0,0:0:0:0:
298,192,179676,1,0,0:0:0:0:
213,192,179751,1,0,0:0:0:0:
128,192,179826,1,0,0:0:0:0:
42,192,179901,1,0,0:0:0:0:
128,192,179976,1,0,0:0:0:0:
213,192,180051,1,0,0:0:0:0:
320,192,180126,1,0,0:0:0:70:LR_Drum Rpd x2.wav
384,192,180126,1,0,0:0:0:0:
128,192,180201,1,0,0:0:0:0:
42,192,180276,1,2,0:0:0:0:
192,192,180276,1,0,0:0:0:0:
448,192,180276,128,0,183426:0:0:0:0:
128,192,184776,128,0,184926:0:0:0:0:
213,192,184926,128,0,185076:0:0:0:0:
320,192,185076,1,0,0:0:0:0:
384,192,185076,128,0,185376:0:0:0:0:
64,192,185376,128,0,185526:0:0:0:0:
298,192,185526,128,0,185676:0:0:0:0:
128,192,185676,1,0,0:0:0:0:
192,192,185676,128,0,185976:0:0:0:0:
384,192,185976,128,0,186126:0:0:0:70:LR_Sleigh Bell.wav
298,192,186126,128,0,186276:0:0:0:0:
384,192,186276,1,0,0:0:0:0:
469,192,186276,128,0,186426:0:0:0:0:
64,192,186426,128,0,186576:0:0:0:0:
213,192,186576,128,0,186726:0:0:0:0:
128,192,186726,128,0,186876:0:0:0:0:
384,192,186876,1,0,0:0:0:0:
448,192,186876,128,0,187176:0:0:0:0:
320,192,187026,1,0,0:0:0:0:
213,192,187101,1,0,0:0:0:0:
64,192,187176,128,0,187326:0:0:0:0:
128,192,187176,1,0,0:0:0:0:
298,192,187251,1,0,0:0:0:0:
384,192,187326,128,0,187476:0:0:0:0:
213,192,187476,1,0,0:0:0:0:
298,192,187476,128,0,187776:0:0:0:0:
128,192,187776,128,0,187926:0:0:0:0:
192,192,187926,128,0,188076:0:0:0:0:
384,192,188076,1,0,0:0:0:0:
448,192,188076,128,0,188376:0:0:0:0:
64,192,188376,128,0,188676:0:0:0:70:LR_Sleigh Bell.wav
128,192,188376,1,0,0:0:0:0:
298,192,188676,1,0,0:0:0:0:
384,192,188676,1,0,0:0:0:0:
448,192,188676,128,0,189576:0:0:0:0:
384,192,188976,1,0,0:0:0:0:
298,192,189076,1,0,0:0:0:0:
213,192,189176,1,0,0:0:0:0:
128,192,189276,1,0,0:0:0:0:
42,192,189376,1,0,0:0:0:0:
213,192,189476,1,0,0:0:0:0:
298,192,189576,1,0,0:0:0:0:
384,192,189576,128,0,189726:0:0:0:0:
64,192,189726,128,0,189876:0:0:0:0:
128,192,189726,1,0,0:0:0:0:
213,192,189876,1,0,0:0:0:0:
320,192,189876,128,0,190176:0:0:0:0:
384,192,190176,128,0,190326:0:0:0:0:
128,192,190326,128,0,190476:0:0:0:0:
64,192,190476,1,0,0:0:0:0:
192,192,190476,128,0,190776:0:0:0:0:
298,192,190776,1,0,0:0:0:70:LR_Sleigh Bell.wav
384,192,190776,128,0,190926:0:0:0:0:
469,192,190926,128,0,191076:0:0:0:0:
128,192,191076,128,0,191226:0:0:0:0:
298,192,191076,1,0,0:0:0:0:
64,192,191226,128,0,191376:0:0:0:0:
448,192,191376,128,0,191526:0:0:0:0:
128,192,191526,128,0,191676:0:0:0:0:
64,192,191676,128,0,191976:0:0:0:0:
213,192,191676,1,0,0:0:0:0:
213,192,191826,1,0,0:0:0:0:
298,192,191901,1,0,0:0:0:0:
384,192,191976,1,0,0:0:0:0:
448,192,191976,128,0,192126:0:0:0:0:
128,192,192051,1,0,0:0:0:0:
213,192,192126,1,0,0:0:0:0:
320,192,192126,128,0,192276:0:0:0:0:
64,192,192276,1,0,0:0:0:0:
384,192,192276,128,0,192576:0:0:0:0:
64,192,192576,128,0,192726:0:0:0:0:
192,192,192726,128,0,192876:0:0:0:0:
64,192,192876,128,0,193176:0:0:0:0:
448,192,192876,1,0,0:0:0:0:
384,192,193176,1,0,0:0:0:70:LR_Sleigh Bell.wav
448,192,193176,128,0,193326:0:0:0:0:
320,192,193326,128,0,193476:0:0:0:0:
64,192,193476,1,0,0:0:0:0:
448,192,193476,128,0,194676:0:0:0:0:
213,192,193776,1,0,0:0:0:0:
128,192,193876,1,0,0:0:0:0:
42,192,193976,1,0,0:0:0:0:
128,192,194076,1,0,0:0:0:0:
213,192,194176,1,0,0:0:0:0:
298,192,194276,1,0,0:0:0:0:
384,192,194376,1,0,0:0:0:0:
128,192,194476,1,0,0:0:0:0:
213,192,194576,1,0,0:0:0:0:
42,192,194676,1,0,0:0:0:0:
64,192,195876,1,0,0:0:0:0:
128,192,195951,1,0,0:0:0:0:
213,192,196026,1,0,0:0:0:0:
298,192,196101,1,0,0:0:0:0:
384,192,196176,1,0,0:0:0:0:
469,192,196251,1,0,0:0:0:0:
213,192,196326,1,0,0:0:0:0:
128,192,196401,1,0,0:0:0:0:
42,192,196476,1,0,0:0:0:0:
298,192,196551,1,0,0:0:0:0:
384,192,196626,1,0,0:0:0:0:
469,192,196701,1,0,0:0:0:0:
42,192,196776,1,0,0:0:0:0:
128,192,196851,1,0,0:0:0:0:
213,192,196926,1,0,0:0:0:0:
298,192,197001,1,0,0:0:0:0:
384,192,197076,1,0,0:0:0:70:LR_Kick-long med bass.wav
448,192,197076,1,0,0:0:0:0:
128,192,197676,1,0,0:0:0:0:
213,192,197976,1,0,0:0:0:0:
64,192,198276,1,0,0:0:0:0:
320,192,198276,1,0,0:0:0:0:
384,192,198876,1,0,0:0:0:0:
192,192,199176,1,0,0:0:0:0:
128,192,199476,1,0,0:0:0:0:
320,192,199476,1,0,0:0:0:0:
64,192,199776,1,0,0:0:0:0:
384,192,200076,1,0,0:0:0:0:
469,192,200376,1,0,0:0:0:0:
192,192,200676,1,4,0:0:0:0:
320,192,200676,1,0,0:0:0:0:
192,192,200976,1,4,0:0:0:0:
320,192,200976,1,0,0:0:0:0:
64,192,201276,1,4,0:0:0:0:
128,192,201276,1,0,0:0:0:0:
213,192,201276,1,0,0:0:0:0:
298,192,201351,1,4,0:0:0:0:
213,192,201426,1,4,0:0:0:0:
384,192,201426,1,0,0:0:0:0:
128,192,201501,1,4,0:0:0:0:
42,192,201576,1,4,0:0:0:0:
384,192,201576,1,0,0:0:0:0:
469,192,201576,1,0,0:0:0:0:
298,192,201651,1,4,0:0:0:0:
128,192,201726,1,2,0:0:0:0:
213,192,201726,1,0,0:0:0:0:
42,192,201876,1,8,0:0:0:0:
384,192,201876,1,0,0:0:0:0:
448,192,201876,1,0,0:0:0:0:
320,192,202176,128,0,202326:0:0:0:0:
128,192,202476,128,0,202776:0:0:0:0:
213,192,202776,128,0,203076:0:0:0:0:
298,192,203076,1,8,0:0:0:0:
384,192,203076,1,0,0:0:0:0:
42,192,203376,128,0,203526:0:0:0:0:
128,192,203676,128,0,203976:0:0:0:0:
298,192,203976,128,0,204276:0:0:0:0:
128,192,204276,128,0,204576:0:0:0:0:
192,192,204576,1,8,0:0:0:0:
298,192,204576,1,0,0:0:0:0:
384,192,204576,128,0,204876:0:0:0:0:
448,192,204876,128,0,205176:0:0:0:0:
128,192,205176,128,8,205476:0:0:0:0:
192,192,205176,1,0,0:0:0:0:
298,192,205176,1,0,0:0:0:0:
64,192,205476,1,8,0:0:0:0:
192,192,205476,1,0,0:0:0:0:
469,192,205476,1,0,0:0:0:0:
320,192,205626,1,4,0:0:0:0:
384,192,205626,1,0,0:0:0:0:
192,192,205701,1,4,0:0:0:0:
64,192,205776,1,8,0:0:0:0:
128,192,205776,1,0,0:0:0:0:
384,192,205776,1,0,0:0:0:0:
192,192,205926,1,4,0:0:0:0:
298,192,205926,1,0,0:0:0:0:
192,192,206076,1,8,0:0:0:0:
320,192,206076,1,0,0:0:0:0:
448,192,206076,1,0,0:0:0:0:
64,192,206226,1,4,0:0:0:0:
128,192,206226,1,0,0:0:0:0:
64,192,206376,1,8,0:0:0:0:
320,192,206376,1,0,0:0:0:0:
384,192,206376,1,0,0:0:0:0:
469,192,206526,1,0,0:0:0:0:
213,192,206676,1,2,0:0:0:0:
320,192,206676,1,0,0:0:0:0:
384,192,206676,1,0,0:0:0:0:
128,192,206751,1,0,0:0:0:0:
42,192,206826,1,0,0:0:0:70:LR_Hat Synth.wav
213,192,206826,1,0,0:0:0:0:
298,192,206901,1,0,0:0:0:0:
213,192,206976,1,8,0:0:0:0:
384,192,206976,1,0,0:0:0:0:
469,192,207051,1,0,0:0:0:0:
298,192,207126,1,0,0:0:0:70:LR_Hat Synth.wav
384,192,207126,1,0,0:0:0:0:
213,192,207201,1,0,0:0:0:0:
42,192,207276,1,2,0:0:0:0:
128,192,207276,1,0,0:0:0:0:
298,192,207276,1,0,0:0:0:0:
384,192,207351,1,0,0:0:0:0:
213,192,207426,1,0,0:0:0:70:LR_Hat Synth.wav
469,192,207426,1,0,0:0:0:0:
128,192,207501,1,0,0:0:0:0:
42,192,207576,1,8,0:0:0:0:
298,192,207576,1,0,0:0:0:0:
384,192,207651,1,0,0:0:0:0:
213,192,207726,1,0,0:0:0:70:LR_Hat Synth.wav
469,192,207726,1,0,0:0:0:0:
128,192,207801,1,0,0:0:0:0:
42,192,207876,1,2,0:0:0:0:
298,192,207876,1,0,0:0:0:0:
384,192,207876,1,0,0:0:0:0:
213,192,207951,1,0,0:0:0:0:
128,192,208026,1,0,0:0:0:70:LR_Hat Synth.wav
469,192,208026,1,0,0:0:0:0:
384,192,208101,1,0,0:0:0:0:
42,192,208176,1,8,0:0:0:0:
213,192,208176,1,0,0:0:0:0:
128,192,208251,1,0,0:0:0:0:
213,192,208326,1,0,0:0:0:70:LR_Hat Synth.wav
384,192,208326,1,0,0:0:0:0:
298,192,208401,1,0,0:0:0:0:
42,192,208476,1,2,0:0:0:0:
384,192,208476,1,0,0:0:0:0:
469,192,208476,1,0,0:0:0:0:
128,192,208551,1,0,0:0:0:0:
213,192,208626,1,0,0:0:0:70:LR_Hat Synth.wav
298,192,208626,1,0,0:0:0:0:
384,192,208701,1,0,0:0:0:0:
128,192,208776,1,8,0:0:0:0:
469,192,208776,1,0,0:0:0:0:
42,192,208851,1,0,0:0:0:0:
128,192,208926,1,0,0:0:0:70:LR_Hat Synth.wav
213,192,208926,1,0,0:0:0:0:
298,192,209001,1,0,0:0:0:0:
213,192,209076,1,2,0:0:0:0:
384,192,209076,1,0,0:0:0:0:
469,192,209076,1,0,0:0:0:0:
42,192,209151,1,0,0:0:0:0:
128,192,209226,1,0,0:0:0:70:LR_Hat Synth.wav
298,192,209226,1,0,0:0:0:0:
384,192,209301,1,0,0:0:0:0:
213,192,209376,1,8,0:0:0:0:
469,192,209376,1,0,0:0:0:0:
128,192,209451,1,0,0:0:0:0:
42,192,209526,1,0,0:0:0:70:LR_Hat Synth.wav
298,192,209526,1,0,0:0:0:0:
384,192,209601,1,0,0:0:0:0:
128,192,209676,1,2,0:0:0:0:
213,192,209676,1,0,0:0:0:0:
469,192,209676,1,0,0:0:0:0:
42,192,209751,1,0,0:0:0:0:
128,192,209826,1,0,0:0:0:70:LR_Hat Synth.wav
298,192,209826,1,0,0:0:0:0:
384,192,209901,1,0,0:0:0:0:
298,192,209976,1,8,0:0:0:0:
469,192,209976,1,0,0:0:0:0:
213,192,210051,1,0,0:0:0:0:
42,192,210126,1,0,0:0:0:70:LR_Hat Synth.wav
128,192,210126,1,0,0:0:0:0:
213,192,210201,1,0,0:0:0:0:
298,192,210276,1,2,0:0:0:0:
384,192,210276,1,0,0:0:0:0:
469,192,210276,1,0,0:0:0:0:
42,192,210351,1,0,0:0:0:0:
128,192,210426,1,0,0:0:0:70:LR_Hat Synth.wav
213,192,210426,1,0,0:0:0:0:
298,192,210501,1,0,0:0:0:0:
384,192,210501,1,0,0:0:0:0:
213,192,210576,1,8,0:0:0:0:
469,192,210576,1,0,0:0:0:0:
42,192,210651,1,0,0:0:0:0:
128,192,210651,1,0,0:0:0:0:
213,192,210726,1,0,0:0:0:70:LR_Hat Synth.wav
298,192,210726,1,0,0:0:0:0:
384,192,210801,1,0,0:0:0:0:
469,192,210801,1,0,0:0:0:0:
42,192,210876,1,2,0:0:0:0:
128,192,210876,1,0,0:0:0:0:
298,192,210951,1,0,0:0:0:0:
384,192,211026,1,0,0:0:0:70:LR_Hat Synth.wav
469,192,211026,1,0,0:0:0:0:
128,192,211101,1,0,0:0:0:0:
213,192,211101,1,0,0:0:0:0:
42,192,211176,1,8,0:0:0:0:
384,192,211176,1,0,0:0:0:0:
213,192,211251,1,0,0:0:0:0:
298,192,211251,1,0,0:0:0:0:
42,192,211326,1,0,0:0:0:70:LR_Hat Synth.wav
128,192,211326,1,0,0:0:0:0:
384,192,211401,1,0,0:0:0:0:
469,192,211401,1,0,0:0:0:0:
128,192,211476,1,2,0:0:0:0:
213,192,211476,1,0,0:0:0:0:
298,192,211476,1,0,0:0:0:0:
42,192,211551,1,0,0:0:0:0:
298,192,211626,1,0,0:0:0:70:LR_Hat Synth.wav
469,192,211626,1,0,0:0:0:0:
384,192,211701,1,0,0:0:0:0:
128,192,211776,1,8,0:0:0:0:
213,192,211776,1,0,0:0:0:0:
42,192,211851,1,0,0:0:0:0:
213,192,211926,1,0,0:0:0:70:LR_Hat Synth.wav
298,192,211926,1,0,0:0:0:0:
384,192,212001,1,0,0:0:0:0:
213,192,212076,1,2,0:0:0:0:
298,192,212076,1,0,0:0:0:0:
469,192,212076,1,0,0:0:0:0:
128,192,212151,1,0,0:0:0:0:
42,192,212226,1,0,0:0:0:70:LR_Hat Synth.wav
384,192,212226,1,0,0:0:0:0:
298,192,212301,1,0,0:0:0:0:
128,192,212376,1,8,0:0:0:0:
213,192,212376,1,0,0:0:0:0:
42,192,212451,1,0,0:0:0:0:
298,192,212526,1,0,0:0:0:70:LR_Hat Synth.wav
469,192,212526,1,0,0:0:0:0:
213,192,212601,1,0,0:0:0:0:
42,192,212676,1,2,0:0:0:0:
128,192,212676,1,0,0:0:0:0:
298,192,212676,1,0,0:0:0:0:
384,192,212751,1,0,0:0:0:0:
213,192,212826,1,0,0:0:0:70:LR_Hat Synth.wav
469,192,212826,1,0,0:0:0:0:
128,192,212901,1,0,0:0:0:0:
42,192,212976,1,8,0:0:0:0:
298,192,212976,1,0,0:0:0:0:
384,192,213051,1,0,0:0:0:0:
213,192,213126,1,0,0:0:0:70:LR_Hat Synth.wav
469,192,213126,1,0,0:0:0:0:
128,192,213201,1,0,0:0:0:0:
42,192,213276,1,2,0:0:0:0:
298,192,213276,1,0,0:0:0:0:
384,192,213276,1,0,0:0:0:0:
469,192,213351,1,0,0:0:0:0:
128,192,213426,1,0,0:0:0:70:LR_Hat Synth.wav
213,192,213426,1,0,0:0:0:0:
42,192,213501,1,0,0:0:0:0:
128,192,213576,1,8,0:0:0:0:
298,192,213576,1,0,0:0:0:0:
384,192,213651,1,0,0:0:0:0:
298,192,213726,1,0,0:0:0:70:LR_Hat Synth.wav
469,192,213726,1,0,0:0:0:0:
213,192,213801,1,0,0:0:0:0:
42,192,213876,1,2,0:0:0:0:
128,192,213876,1,0,0:0:0:0:
384,192,213876,1,0,0:0:0:0:
298,192,213951,1,0,0:0:0:0:
128,192,214026,1,0,0:0:0:70:LR_Hat Synth.wav
384,192,214026,1,0,0:0:0:0:
213,192,214101,1,0,0:0:0:0:
42,192,214176,1,8,0:0:0:0:
298,192,214176,1,0,0:0:0:0:
469,192,214251,1,0,0:0:0:0:
213,192,214326,1,0,0:0:0:70:LR_Hat Synth.wav
384,192,214326,1,0,0:0:0:0:
298,192,214401,1,0,0:0:0:0:
42,192,214476,1,2,0:0:0:0:
128,192,214476,1,0,0:0:0:0:
213,192,214476,1,0,0:0:0:0:
384,192,214551,1,0,0:0:0:0:
298,192,214626,1,0,0:0:0:70:LR_Hat Synth.wav
469,192,214626,1,0,0:0:0:0:
213,192,214701,1,0,0:0:0:0:
42,192,214776,1,8,0:0:0:0:
128,192,214776,1,0,0:0:0:0:
298,192,214851,1,0,0:0:0:0:
384,192,214926,1,0,0:0:0:70:LR_Hat Synth.wav
469,192,214926,1,0,0:0:0:0:
298,192,215001,1,0,0:0:0:0:
42,192,215076,1,2,0:0:0:0:
128,192,215076,1,0,0:0:0:0:
213,192,215076,1,0,0:0:0:0:
384,192,215151,1,0,0:0:0:0:
298,192,215226,1,0,0:0:0:70:LR_Hat Synth.wav
469,192,215226,1,0,0:0:0:0:
213,192,215301,1,0,0:0:0:0:
42,192,215376,1,8,0:0:0:0:
128,192,215376,1,0,0:0:0:0:
384,192,215451,1,0,0:0:0:0:
298,192,215526,1,0,0:0:0:70:LR_Hat Synth.wav
469,192,215526,1,0,0:0:0:0:
213,192,215601,1,0,0:0:0:0:
128,192,215676,1,2,0:0:0:0:
298,192,215676,1,0,0:0:0:0:
384,192,215676,1,0,0:0:0:0:
469,192,215751,1,0,0:0:0:0:
42,192,215826,1,0,0:0:0:70:LR_Hat Synth.wav
213,192,215826,1,0,0:0:0:0:
298,192,215901,1,0,0:0:0:0:
384,192,215976,1,8,0:0:0:0:
469,192,215976,1,0,0:0:0:0:
128,192,216051,1,0,0:0:0:0:
42,192,216126,1,0,0:0:0:70:LR_Hat Synth.wav
213,192,216126,1,0,0:0:0:0:
298,192,216201,1,0,0:0:0:0:
128,192,216276,1,2,0:0:0:0:
213,192,216276,1,0,0:0:0:70:LR_CymbalQST.wav
469,192,216276,1,0,0:0:0:0:
384,192,216351,1,0,0:0:0:0:
42,192,216426,1,0,0:0:0:70:LR_Hat Synth.wav
298,192,216426,1,0,0:0:0:0:
128,192,216501,1,0,0:0:0:0:
213,192,216576,1,4,0:0:0:0:
469,192,216576,1,0,0:0:0:0:
298,192,216651,1,0,0:0:0:0:
128,192,216726,1,0,0:0:0:70:LR_Hat Synth.wav
384,192,216726,1,0,0:0:0:0:
213,192,216801,1,0,0:0:0:0:
42,192,216876,1,2,0:0:0:0:
128,192,216876,1,0,0:0:0:0:
469,192,216876,1,0,0:0:0:0:
384,192,216951,1,0,0:0:0:0:
213,192,217026,1,0,0:0:0:70:LR_Hat Synth.wav
298,192,217026,1,0,0:0:0:0:
128,192,217101,1,0,0:0:0:0:
42,192,217176,1,4,0:0:0:0:
384,192,217176,1,0,0:0:0:0:
469,192,217251,1,0,0:0:0:0:
298,192,217326,1,0,0:0:0:70:LR_Hat Synth.wav
384,192,217326,1,0,0:0:0:0:
213,192,217401,1,0,0:0:0:0:
42,192,217476,1,2,0:0:0:0:
128,192,217476,1,0,0:0:0:0:
298,192,217476,1,0,0:0:0:0:
384,192,217551,1,0,0:0:0:0:
213,192,217626,1,0,0:0:0:70:LR_Hat Synth.wav
469,192,217626,1,0,0:0:0:0:
298,192,217701,1,0,0:0:0:0:
128,192,217776,1,4,0:0:0:0:
469,192,217776,1,0,0:0:0:0:
384,192,217851,1,0,0:0:0:0:
213,192,217926,1,0,0:0:0:70:LR_Hat Synth.wav
298,192,217926,1,0,0:0:0:0:
128,192,218001,1,0,0:0:0:0:
42,192,218076,1,2,0:0:0:0:
384,192,218076,1,0,0:0:0:0:
469,192,218076,1,0,0:0:0:0:
298,192,218151,1,0,0:0:0:0:
128,192,218226,1,4,0:0:0:0:
213,192,218226,1,0,0:0:0:70:LR_Hat Synth.wav
42,192,218301,1,0,0:0:0:0:
128,192,218376,1,2,0:0:0:0:
298,192,218376,1,0,0:0:0:0:
213,192,218451,1,0,0:0:0:0:
298,192,218526,1,4,0:0:0:0:
384,192,218526,1,0,0:0:0:70:LR_Hat Synth.wav
469,192,218601,1,0,0:0:0:0:
64,192,218676,128,2,218976:0:0:0:0:
128,192,218676,1,0,0:0:0:0:
384,192,218676,1,0,0:0:0:0:
128,192,218976,128,0,219276:0:0:0:0:
298,192,219126,1,0,0:0:0:0:
384,192,219201,1,0,0:0:0:0:
213,192,219276,128,0,219576:0:0:0:0:
448,192,219276,1,0,0:0:0:0:
42,192,219576,128,0,219876:0:0:0:0:
128,192,219651,1,0,0:0:0:0:
213,192,219726,1,0,0:0:0:0:
298,192,219801,1,0,0:0:0:0:
384,192,219876,1,0,0:0:0:0:
448,192,219876,128,0,220326:0:0:0:0:
298,192,220176,1,0,0:0:0:0:
384,192,220251,1,0,0:0:0:0:
128,192,220326,128,0,220476:0:0:0:0:
213,192,220326,1,0,0:0:0:0:
298,192,220401,1,0,0:0:0:0:
64,192,220476,128,0,220776:0:0:0:0:
213,192,220476,1,0,0:0:0:0:
384,192,220476,1,0,0:0:0:0:
128,192,220776,128,0,221076:0:0:0:0:
384,192,220776,1,0,0:0:0:0:
298,192,220851,1,0,0:0:0:0:
213,192,220926,1,0,0:0:0:0:
298,192,221001,1,0,0:0:0:0:
64,192,221076,1,8,0:0:0:0:
384,192,221076,128,0,221376:0:0:0:0:
64,192,221376,128,8,221676:0:0:0:0:
128,192,221376,1,0,0:0:0:0:
298,192,221676,1,8,0:0:0:0:
469,192,221676,128,0,221976:0:0:0:0:
298,192,222276,1,8,0:0:0:0:
384,192,222276,128,0,222576:0:0:0:0:
64,192,222576,1,8,0:0:0:0:
128,192,222576,128,0,222876:0:0:0:0:
64,192,222876,128,8,223176:0:0:0:0:
298,192,222876,1,0,0:0:0:0:
298,192,223476,1,8,0:0:0:0:
384,192,223476,128,0,223776:0:0:0:0:
64,192,223776,1,8,0:0:0:0:
128,192,223776,128,0,224076:0:0:0:0:
213,192,224076,1,8,0:0:0:0:
298,192,224076,128,0,224226:0:0:0:0:
42,192,224226,128,0,224376:0:0:0:0:
128,192,224226,1,0,0:0:0:0:
298,192,224376,1,8,0:0:0:0:
384,192,224376,128,0,224526:0:0:0:0:
128,192,224526,128,0,224676:0:0:0:0:
213,192,224526,1,0,0:0:0:0:
384,192,224676,1,8,0:0:0:0:
469,192,224676,128,0,224976:0:0:0:0:
192,192,224976,128,8,225276:0:0:0:0:
320,192,224976,1,0,0:0:0:0:
42,192,225276,1,8,0:0:0:0:
128,192,225276,128,0,225576:0:0:0:0:
469,192,225576,128,0,225876:0:0:0:0:
42,192,225876,128,8,226176:0:0:0:0:
128,192,225876,1,0,0:0:0:0:
213,192,225876,1,0,0:0:0:0:
298,192,226176,1,8,0:0:0:0:
384,192,226176,1,0,0:0:0:0:
448,192,226176,128,0,226476:0:0:0:0:
213,192,226326,1,0,0:0:0:0:
42,192,226476,128,8,226776:0:0:0:0:
128,192,226476,1,0,0:0:0:0:
213,192,226551,1,0,0:0:0:0:
128,192,226626,1,0,0:0:0:0:
213,192,226701,1,0,0:0:0:0:
298,192,226776,1,0,0:0:0:70:LR_J Hit Whistle.wav
298,192,227076,1,8,0:0:0:0:
384,192,227076,1,0,0:0:0:0:
469,192,227076,128,0,227376:0:0:0:0:
213,192,227226,1,0,0:0:0:0:
42,192,227376,128,8,227676:0:0:0:0:
128,192,227376,1,0,0:0:0:0:
384,192,227376,1,0,0:0:0:0:
213,192,227526,1,0,0:0:0:0:
384,192,227676,1,8,0:0:0:0:
469,192,227676,128,0,227976:0:0:0:0:
298,192,227751,1,0,0:0:0:0:
384,192,227826,1,0,0:0:0:0:
298,192,227901,1,0,0:0:0:0:
213,192,227976,1,0,0:0:0:0:
42,192,228126,1,0,0:0:0:0:
128,192,228201,1,0,0:0:0:0:
213,192,228276,1,8,0:0:0:0:
298,192,228276,1,0,0:0:0:0:
384,192,228276,1,0,0:0:0:0:
469,192,228351,1,0,0:0:0:0:
298,192,228426,1,0,0:0:0:0:
213,192,228501,1,0,0:0:0:0:
128,192,228576,1,8,0:0:0:0:
298,192,228576,1,0,0:0:0:0:
384,192,228576,1,0,0:0:0:0:
42,192,228651,1,0,0:0:0:0:
213,192,228726,1,0,0:0:0:0:
298,192,228801,1,0,0:0:0:0:
128,192,228876,1,8,0:0:0:0:
384,192,228876,1,0,0:0:0:0:
469,192,228876,1,0,0:0:0:0:
42,192,228951,1,0,0:0:0:0:
213,192,229026,1,0,0:0:0:0:
298,192,229101,1,0,0:0:0:0:
213,192,229176,1,8,0:0:0:0:
384,192,229176,1,0,0:0:0:0:
469,192,229176,1,0,0:0:0:0:
42,192,229251,1,0,0:0:0:0:
128,192,229326,1,0,0:0:0:0:
213,192,229401,1,0,0:0:0:0:
128,192,229476,1,8,0:0:0:0:
298,192,229476,1,0,0:0:0:0:
384,192,229476,1,0,0:0:0:0:
469,192,229551,1,0,0:0:0:0:
384,192,229626,1,0,0:0:0:0:
298,192,229701,1,0,0:0:0:0:
42,192,229776,1,8,0:0:0:0:
128,192,229776,1,0,0:0:0:0:
213,192,229776,1,0,0:0:0:0:
469,192,229851,1,0,0:0:0:0:
384,192,229926,1,0,0:0:0:0:
298,192,230001,1,0,0:0:0:0:
128,192,230076,1,8,0:0:0:0:
213,192,230076,1,0,0:0:0:0:
469,192,230076,1,0,0:0:0:0:
42,192,230151,1,0,0:0:0:0:
298,192,230226,1,0,0:0:0:0:
384,192,230301,1,0,0:0:0:0:
42,192,230376,1,0,0:0:0:0:
128,192,230451,1,0,0:0:0:0:
213,192,230526,1,0,0:0:0:0:
298,192,230601,1,0,0:0:0:0:
64,192,230676,1,2,0:0:0:0:
384,192,230676,1,0,0:0:0:0:
448,192,230676,1,0,0:0:0:0:
192,192,230826,1,0,0:0:0:70:LR_Drum Rpd x2.wav
320,192,230826,1,0,0:0:0:0:
384,192,230901,1,0,0:0:0:70:LR_Drum Rpd x2.wav
469,192,230901,1,0,0:0:0:0:
64,192,230976,128,8,235403:0:0:0:0:
128,192,230976,1,0,0:0:0:0:
213,192,230976,1,0,0:0:0:0:
469,192,231318,1,0,0:0:0:0:
384,192,231373,1,0,0:0:0:0:
298,192,231429,1,0,0:0:0:0:
213,192,231484,1,0,0:0:0:0:
128,192,231555,1,0,0:0:0:0:
469,192,231648,1,0,0:0:0:0:
384,192,231742,1,0,0:0:0:0:
298,192,231832,1,0,0:0:0:0:
128,192,231944,1,0,0:0:0:0:
213,192,232050,1,0,0:0:0:0:
298,192,232161,1,0,0:0:0:0:
384,192,232261,1,0,0:0:0:0:
469,192,232372,1,0,0:0:0:0:
384,192,232465,1,0,0:0:0:0:
298,192,232580,1,0,0:0:0:0:
128,192,232932,1,0,0:0:0:0:
