osu file format v14

[General]
AudioFilename: audio.mp3
AudioLeadIn: 0
PreviewTime: 29226
Countdown: 0
SampleSet: Soft
StackLeniency: 0.7
Mode: 3
LetterboxInBreaks: 0
SpecialStyle: 0
WidescreenStoryboard: 1

[Editor]
Bookmarks: 59076,101076,109476,112776,129876,158676,201276,206676,221076
DistanceSpacing: 3.5
BeatDivisor: 16
GridSize: 4
TimelineZoom: 2.799999

[Metadata]
Title:Mazare Party
TitleUnicode:Mazare Party
Artist:MAZARE
ArtistUnicode:MAZARE
Creator:Insp1r3
Version:JAKARE's 6K Extra
Source:
Tags:Oriental EDM MAZARE Camellia かめりあ Nanahira kradness yukacco Chilly Cokiiplay booty Asherz007 jakads dudehacker MIND HACK
BeatmapID:1684161
BeatmapSetID:650415

[Difficulty]
HPDrainRate:8.8
CircleSize:6
OverallDifficulty:8.2
ApproachRate:5
SliderMultiplier:1.4
SliderTickRate:1

[Events]
//Background and Video events
0,0,"bg.jpg",0,0
//Break Periods
//Storyboard Layer 0 (Background)
//Storyboard Layer 1 (Fail)
//Storyboard Layer 2 (Pass)
//Storyboard Layer 3 (Foreground)
//Storyboard Sound Samples

[TimingPoints]
276,300,4,2,1,100,1,0
30276,-100,4,2,1,100,0,1
38676,-100,4,2,1,100,0,0
75876,-100,4,2,1,100,0,1
87876,-100,4,2,1,100,0,0
110676,-100,4,2,1,100,0,1
119076,-100,4,2,1,100,0,0
120276,-100,4,2,1,100,0,1
128676,-100,4,2,1,100,0,0
165876,-100,4,2,1,100,0,1
177876,-100,4,2,1,100,0,0
206676,-100,4,2,1,100,0,1
218676,-100,4,2,1,100,0,0
230976,342.857142857143,4,2,1,100,1,0
230976,-87.719298245614,4,2,1,100,0,0
231318,222.222222222222,4,2,1,100,1,0
231318,-135.135135135135,4,2,1,100,0,0
231484,285.714285714286,4,2,1,100,1,0
231484,-105.263157894737,4,2,1,100,0,0
231555,375,4,2,1,100,1,0
231555,-80,4,2,1,100,0,0
231742,363.636363636364,4,2,1,100,1,0
231742,-82.6446280991736,4,2,1,100,0,0
231832,600,4,2,1,100,1,0
231832,-50,4,2,1,100,0,0
231982,272.727272727273,4,2,1,100,1,0
231982,-109.89010989011,4,2,1,100,0,0
232050,444.444444444444,4,2,1,100,1,0
232050,-67.5675675675676,4,2,1,100,0,0
232161,400,4,2,1,100,1,0
232161,-75.187969924812,4,2,1,100,0,0
232261,444.444444444444,4,2,1,100,1,0
232261,-67.5675675675676,4,2,1,100,0,0
232372,375,4,2,1,100,1,0
232372,-80,4,2,1,100,0,0
232465,461.538461538462,4,2,1,100,1,0
232465,-64.9350649350649,4,2,1,100,0,0
232580,352.941176470588,4,2,1,100,1,0
232580,-84.7457627118644,4,2,1,100,0,0

[HitObjects]
469,192,1176,5,0,0:0:0:0:
384,192,1251,1,0,0:0:0:0:
42,192,1326,5,0,0:0:0:70:LR_Drum Rpd x2.wav
128,192,1326,1,0,0:0:0:0:
298,192,1326,1,0,0:0:0:0:
213,192,1401,1,0,0:0:0:0:
42,192,1476,128,0,5001:0:0:0:70:LR_Drum Low Long.wav
128,192,1476,1,0,0:0:0:0:
469,192,1476,1,0,0:0:0:0:
469,192,2076,128,0,5001:0:0:0:0:
213,192,2676,128,0,5001:0:0:0:0:
384,192,3857,1,0,0:0:0:0:
298,192,3876,128,0,5001:0:0:0:0:
42,192,5076,1,4,0:0:0:0:
213,192,5076,1,0,0:0:0:0:
298,192,5076,1,0,0:0:0:0:
469,192,5076,1,0,0:0:0:0:
42,192,5376,1,4,0:0:0:0:
213,192,5376,1,0,0:0:0:0:
298,192,5376,1,0,0:0:0:0:
469,192,5376,1,0,0:0:0:0:
298,192,5676,1,4,0:0:0:0:
469,192,5676,1,0,0:0:0:0:
213,192,5751,1,4,0:0:0:0:
384,192,5751,1,0,0:0:0:0:
128,192,5826,1,4,0:0:0:0:
298,192,5826,1,0,0:0:0:0:
42,192,5901,1,4,0:0:0:0:
213,192,5901,1,0,0:0:0:0:
384,192,5976,1,4,0:0:0:0:
469,192,5976,1,0,0:0:0:0:
213,192,6051,1,4,0:0:0:0:
298,192,6051,1,0,0:0:0:0:
42,192,6126,1,2,0:0:0:0:
128,192,6126,1,0,0:0:0:0:
42,192,6276,128,8,6576:0:0:0:0:
213,192,6276,128,0,6557:0:0:0:0:
298,192,6276,128,0,6538:0:0:0:0:
384,192,6276,128,0,6519:0:0:0:0:
469,192,6276,128,0,6501:0:0:0:0:
42,192,7476,128,8,7701:0:0:0:0:
128,192,7476,128,0,7719:0:0:0:0:
213,192,7476,128,0,7738:0:0:0:0:
298,192,7476,128,0,7757:0:0:0:0:
469,192,7476,128,0,7776:0:0:0:0:
42,192,8976,128,8,9276:0:0:0:0:
128,192,8976,128,0,9276:0:0:0:0:
298,192,8976,128,0,9257:0:0:0:0:
384,192,8976,128,0,9238:0:0:0:0:
469,192,8976,128,0,9219:0:0:0:0:
42,192,9576,128,8,9763:0:0:0:0:
128,192,9576,128,0,9782:0:0:0:0:
213,192,9576,128,0,9801:0:0:0:0:
384,192,9576,128,0,9876:0:0:0:0:
469,192,9576,128,0,9876:0:0:0:0:
42,192,9876,1,8,0:0:0:0:
128,192,9876,1,0,0:0:0:0:
213,192,9876,1,0,0:0:0:0:
298,192,9876,1,0,0:0:0:0:
384,192,10026,1,4,0:0:0:0:
469,192,10026,1,0,0:0:0:0:
213,192,10101,1,4,0:0:0:0:
298,192,10101,1,0,0:0:0:0:
42,192,10176,1,8,0:0:0:0:
128,192,10176,1,0,0:0:0:0:
384,192,10176,1,0,0:0:0:0:
469,192,10176,1,0,0:0:0:0:
213,192,10326,1,4,0:0:0:0:
298,192,10326,1,0,0:0:0:0:
213,192,10476,1,8,0:0:0:0:
298,192,10476,1,0,0:0:0:0:
384,192,10476,1,0,0:0:0:0:
469,192,10476,1,0,0:0:0:0:
42,192,10626,1,4,0:0:0:0:
128,192,10626,1,0,0:0:0:0:
42,192,10776,1,8,0:0:0:0:
213,192,10776,1,0,0:0:0:0:
298,192,10776,1,0,0:0:0:0:
469,192,10776,1,0,0:0:0:0:
128,192,10926,1,0,0:0:0:0:
384,192,10926,1,0,0:0:0:0:
42,192,11076,1,8,0:0:0:0:
128,192,11076,1,0,0:0:0:0:
384,192,11076,1,0,0:0:0:0:
469,192,11076,128,0,11676:0:0:0:0:
42,192,11376,1,2,0:0:0:0:
128,192,11376,1,0,0:0:0:0:
42,192,11676,1,2,0:0:0:0:
128,192,11676,1,0,0:0:0:0:
42,192,11976,1,2,0:0:0:0:
128,192,11976,1,0,0:0:0:0:
298,192,11976,128,0,12276:0:0:0:0:
213,192,12126,128,0,12276:0:0:0:0:
128,192,12276,128,2,12576:0:0:0:0:
384,192,12276,1,0,0:0:0:0:
469,192,12276,1,0,0:0:0:0:
42,192,12576,128,2,12876:0:0:0:0:
384,192,12576,1,0,0:0:0:0:
469,192,12576,1,0,0:0:0:0:
128,192,12876,128,2,13176:0:0:0:0:
384,192,12876,1,0,0:0:0:0:
469,192,12876,1,0,0:0:0:0:
213,192,13176,128,2,13476:0:0:0:0:
384,192,13176,1,0,0:0:0:0:
469,192,13176,1,0,0:0:0:0:
42,192,13476,1,2,0:0:0:0:
298,192,13476,1,0,0:0:0:0:
469,192,13476,1,0,0:0:0:0:
298,192,13626,1,2,0:0:0:0:
469,192,13626,1,0,0:0:0:0:
42,192,13776,1,2,0:0:0:0:
213,192,13776,1,0,0:0:0:0:
42,192,13926,1,2,0:0:0:0:
213,192,13926,1,0,0:0:0:0:
298,192,14076,1,2,0:0:0:0:
469,192,14076,1,0,0:0:0:0:
42,192,14151,1,2,0:0:0:0:
213,192,14151,1,0,0:0:0:0:
298,192,14226,1,2,0:0:0:0:
469,192,14226,1,0,0:0:0:0:
42,192,14301,1,2,0:0:0:0:
213,192,14301,1,0,0:0:0:0:
298,192,14376,1,2,0:0:0:0:
384,192,14376,1,0,0:0:0:0:
128,192,14451,1,4,0:0:0:0:
213,192,14451,1,0,0:0:0:0:
298,192,14526,1,4,0:0:0:0:
384,192,14526,1,0,0:0:0:0:
128,192,14601,1,4,0:0:0:0:
213,192,14601,1,0,0:0:0:0:
42,192,14676,1,4,0:0:0:0:
298,192,14676,1,0,0:0:0:0:
384,192,14676,1,0,0:0:0:0:
469,192,14676,128,0,15801:0:0:0:0:
298,192,14976,128,0,15801:0:0:0:0:
42,192,15276,128,0,15801:0:0:0:0:
213,192,15576,128,0,15801:0:0:0:0:
42,192,15876,128,8,16026:0:0:0:0:
128,192,15876,128,0,16044:0:0:0:0:
213,192,15876,128,0,16063:0:0:0:0:
298,192,15876,128,0,16082:0:0:0:0:
469,192,15876,128,0,16101:0:0:0:0:
42,192,16176,128,8,16401:0:0:0:0:
128,192,16176,128,0,16382:0:0:0:0:
213,192,16176,128,0,16363:0:0:0:0:
298,192,16176,128,0,16344:0:0:0:0:
469,192,16176,128,0,16326:0:0:0:0:
42,192,16476,128,8,16626:0:0:0:0:
128,192,16476,128,0,16644:0:0:0:0:
213,192,16476,128,0,16663:0:0:0:0:
298,192,16476,128,0,16682:0:0:0:0:
469,192,16476,128,0,16701:0:0:0:0:
384,192,16776,1,0,0:0:0:0:
42,192,17076,128,8,17301:0:0:0:0:
213,192,17076,128,0,17282:0:0:0:0:
298,192,17076,128,0,17263:0:0:0:0:
384,192,17076,128,0,17244:0:0:0:0:
469,192,17076,128,0,17226:0:0:0:0:
42,192,17376,128,8,17526:0:0:0:0:
213,192,17376,128,0,17544:0:0:0:0:
298,192,17376,128,0,17563:0:0:0:0:
384,192,17376,128,0,17582:0:0:0:0:
469,192,17376,128,0,17601:0:0:0:0:
42,192,17676,128,8,17901:0:0:0:0:
213,192,17676,128,0,17882:0:0:0:0:
298,192,17676,128,0,17863:0:0:0:0:
384,192,17676,128,0,17844:0:0:0:0:
469,192,17676,128,0,17826:0:0:0:0:
128,192,17976,1,0,0:0:0:0:
42,192,18276,128,8,18426:0:0:0:0:
128,192,18276,128,0,18444:0:0:0:0:
213,192,18276,128,0,18463:0:0:0:0:
298,192,18276,128,0,18482:0:0:0:0:
384,192,18276,128,0,18501:0:0:0:0:
42,192,18576,128,8,18726:0:0:0:0:
128,192,18576,128,0,18744:0:0:0:0:
213,192,18576,128,0,18763:0:0:0:0:
298,192,18576,128,0,18782:0:0:0:0:
384,192,18576,128,0,18801:0:0:0:0:
128,192,18876,128,8,19101:0:0:0:0:
213,192,18876,128,0,19082:0:0:0:0:
298,192,18876,128,0,19063:0:0:0:0:
384,192,18876,128,0,19044:0:0:0:0:
469,192,18876,128,0,19026:0:0:0:0:
42,192,19026,128,0,19119:0:0:0:0:
128,192,19176,128,8,19401:0:0:0:0:
213,192,19176,128,0,19382:0:0:0:0:
298,192,19176,128,0,19363:0:0:0:0:
384,192,19176,128,0,19344:0:0:0:0:
469,192,19176,128,0,19326:0:0:0:0:
42,192,19326,128,0,19419:0:0:0:0:
42,192,19476,128,8,19626:0:0:0:0:
128,192,19476,128,0,19644:0:0:0:0:
298,192,19476,128,0,19663:0:0:0:0:
384,192,19476,128,0,19682:0:0:0:0:
469,192,19476,128,0,19701:0:0:0:0:
42,192,19776,128,8,20001:0:0:0:0:
128,192,19776,128,0,19982:0:0:0:0:
298,192,19776,128,0,19963:0:0:0:0:
384,192,19776,128,0,19944:0:0:0:0:
469,192,19776,128,0,19926:0:0:0:0:
42,192,20076,128,8,20226:0:0:0:0:
128,192,20076,128,0,20244:0:0:0:0:
298,192,20076,128,0,20263:0:0:0:0:
384,192,20076,128,0,20282:0:0:0:0:
469,192,20076,128,0,20301:0:0:0:0:
213,192,20376,128,0,20601:0:0:0:0:
298,192,20451,128,0,20601:0:0:0:0:
384,192,20526,128,0,20676:0:0:0:0:
469,192,20601,128,0,20676:0:0:0:0:
42,192,20676,128,8,20882:0:0:0:0:
128,192,20676,128,0,20863:0:0:0:0:
213,192,20676,128,0,20844:0:0:0:0:
298,192,20676,128,0,20826:0:0:0:0:
384,192,20826,1,4,0:0:0:0:
469,192,20826,1,0,0:0:0:0:
42,192,20976,128,8,21182:0:0:0:0:
128,192,20976,128,0,21163:0:0:0:0:
213,192,20976,128,0,21144:0:0:0:0:
298,192,20976,128,0,21126:0:0:0:0:
384,192,21126,1,4,0:0:0:0:
469,192,21126,1,0,0:0:0:0:
42,192,21276,128,8,21482:0:0:0:0:
128,192,21276,128,0,21463:0:0:0:0:
213,192,21276,128,0,21444:0:0:0:0:
298,192,21276,128,0,21426:0:0:0:0:
469,192,21351,1,0,0:0:0:0:
384,192,21426,1,4,0:0:0:0:
298,192,21501,1,0,0:0:0:0:
469,192,21576,1,0,0:0:0:70:LR_J Hit Whistle.wav
213,192,21876,128,8,22026:0:0:0:0:
298,192,21876,128,0,22044:0:0:0:0:
384,192,21876,128,0,22063:0:0:0:0:
469,192,21876,128,0,22082:0:0:0:0:
42,192,22026,1,4,0:0:0:0:
128,192,22026,1,0,0:0:0:0:
213,192,22176,128,8,22326:0:0:0:0:
298,192,22176,128,0,22344:0:0:0:0:
384,192,22176,128,0,22363:0:0:0:0:
469,192,22176,128,0,22382:0:0:0:0:
42,192,22326,1,4,0:0:0:0:
128,192,22326,1,0,0:0:0:0:
213,192,22476,128,8,22626:0:0:0:0:
298,192,22476,128,0,22644:0:0:0:0:
384,192,22476,128,0,22663:0:0:0:0:
469,192,22476,128,0,22682:0:0:0:0:
42,192,22551,1,0,0:0:0:0:
128,192,22626,1,4,0:0:0:0:
213,192,22701,1,0,0:0:0:0:
42,192,22776,1,0,0:0:0:0:
213,192,22926,1,0,0:0:0:0:
298,192,23001,1,0,0:0:0:0:
42,192,23076,1,8,0:0:0:0:
128,192,23076,1,0,0:0:0:0:
384,192,23076,1,0,0:0:0:0:
469,192,23076,1,0,0:0:0:0:
213,192,23151,1,0,0:0:0:0:
298,192,23226,1,0,0:0:0:0:
384,192,23301,1,0,0:0:0:0:
42,192,23376,1,8,0:0:0:0:
128,192,23376,1,0,0:0:0:0:
213,192,23376,1,0,0:0:0:0:
469,192,23376,1,0,0:0:0:0:
384,192,23451,1,0,0:0:0:0:
298,192,23526,1,0,0:0:0:0:
213,192,23601,1,0,0:0:0:0:
42,192,23676,1,8,0:0:0:0:
128,192,23676,1,0,0:0:0:0:
384,192,23676,1,0,0:0:0:0:
469,192,23676,1,0,0:0:0:0:
298,192,23751,1,0,0:0:0:0:
213,192,23826,1,0,0:0:0:0:
469,192,23826,1,0,0:0:0:0:
128,192,23901,1,0,0:0:0:0:
42,192,23976,1,8,0:0:0:0:
298,192,23976,1,0,0:0:0:0:
384,192,23976,1,0,0:0:0:0:
469,192,23976,1,0,0:0:0:0:
128,192,24051,1,0,0:0:0:0:
213,192,24126,1,0,0:0:0:0:
384,192,24126,1,0,0:0:0:0:
298,192,24201,1,0,0:0:0:0:
42,192,24276,1,8,0:0:0:0:
384,192,24276,1,0,0:0:0:0:
469,192,24276,1,0,0:0:0:0:
128,192,24313,1,0,0:0:0:0:
213,192,24351,1,0,0:0:0:0:
298,192,24388,1,0,0:0:0:0:
384,192,24426,1,0,0:0:0:0:
469,192,24463,1,0,0:0:0:0:
42,192,24501,1,0,0:0:0:0:
128,192,24538,1,0,0:0:0:0:
213,192,24576,1,8,0:0:0:0:
469,192,24576,1,0,0:0:0:0:
384,192,24613,1,0,0:0:0:0:
298,192,24651,1,0,0:0:0:0:
213,192,24688,1,0,0:0:0:0:
128,192,24726,1,0,0:0:0:0:
42,192,24763,1,0,0:0:0:0:
469,192,24801,1,0,0:0:0:0:
384,192,24838,1,0,0:0:0:0:
42,192,24876,1,8,0:0:0:0:
298,192,24876,1,0,0:0:0:0:
128,192,24913,1,0,0:0:0:0:
213,192,24951,1,0,0:0:0:0:
298,192,24988,1,0,0:0:0:0:
384,192,25026,1,0,0:0:0:0:
469,192,25063,1,0,0:0:0:0:
128,192,25101,1,0,0:0:0:0:
213,192,25138,1,0,0:0:0:0:
298,192,25176,1,0,0:0:0:0:
384,192,25213,1,0,0:0:0:0:
42,192,25251,1,0,0:0:0:0:
128,192,25288,1,0,0:0:0:0:
213,192,25326,1,0,0:0:0:0:
298,192,25363,1,0,0:0:0:0:
384,192,25401,1,0,0:0:0:0:
469,192,25438,1,0,0:0:0:0:
42,192,25476,1,2,0:0:0:0:
128,192,25476,1,0,0:0:0:0:
213,192,25476,1,0,0:0:0:0:
298,192,25551,1,0,0:0:0:0:
128,192,25626,1,0,0:0:0:0:
384,192,25701,1,0,0:0:0:0:
213,192,25776,1,12,0:0:0:0:
298,192,25851,1,0,0:0:0:70:LR_Drum Rpd x2.wav
128,192,25926,1,0,0:0:0:70:LR_Drum Rpd x2.wav
384,192,26001,1,0,0:0:0:70:LR_Drum Rpd x2.wav
213,192,26076,1,12,0:0:0:0:
298,192,26151,1,0,0:0:0:70:LR_Drum Rpd x2.wav
128,192,26226,1,0,0:0:0:70:LR_Drum Rpd x2.wav
384,192,26301,1,0,0:0:0:70:LR_Drum Rpd x2.wav
213,192,26376,1,12,0:0:0:0:
298,192,26451,1,0,0:0:0:70:LR_Drum Rpd x2.wav
128,192,26526,1,0,0:0:0:70:LR_Drum Rpd x2.wav
384,192,26601,1,0,0:0:0:70:LR_Drum Rpd x2.wav
42,192,26676,1,4,0:0:0:0:
213,192,26676,1,8,0:0:0:0:
298,192,26751,1,0,0:0:0:70:LR_Drum Rpd x2.wav
469,192,26751,1,0,0:0:0:0:
128,192,26826,1,0,0:0:0:70:LR_Drum Rpd x2.wav
384,192,26901,1,0,0:0:0:70:LR_Drum Rpd x2.wav
42,192,26976,1,4,0:0:0:0:
213,192,26976,1,8,0:0:0:0:
298,192,27051,1,0,0:0:0:70:LR_Drum Rpd x2.wav
469,192,27051,1,0,0:0:0:0:
128,192,27126,1,0,0:0:0:70:LR_Drum Rpd x2.wav
384,192,27201,1,0,0:0:0:70:LR_Drum Rpd x2.wav
42,192,27276,1,4,0:0:0:0:
213,192,27276,1,8,0:0:0:0:
298,192,27351,1,0,0:0:0:70:LR_Drum Rpd x2.wav
469,192,27351,1,0,0:0:0:0:
128,192,27426,1,0,0:0:0:70:LR_Drum Rpd x2.wav
384,192,27501,1,0,0:0:0:70:LR_Drum Rpd x2.wav
42,192,27576,1,4,0:0:0:0:
213,192,27576,1,8,0:0:0:0:
298,192,27651,1,0,0:0:0:70:LR_Drum Rpd x2.wav
469,192,27651,1,0,0:0:0:0:
128,192,27726,1,0,0:0:0:70:LR_Drum Rpd x2.wav
384,192,27801,1,0,0:0:0:70:LR_Drum Rpd x2.wav
42,192,27876,1,4,0:0:0:0:
128,192,27876,1,8,0:0:0:0:
213,192,27876,1,0,0:0:0:0:
298,192,27951,1,0,0:0:0:70:LR_Drum Rpd x2.wav
384,192,27951,1,0,0:0:0:0:
469,192,27951,1,0,0:0:0:0:
128,192,28026,1,0,0:0:0:70:LR_Drum Rpd x2.wav
213,192,28026,1,0,0:0:0:0:
298,192,28101,1,0,0:0:0:70:LR_Drum Rpd x2.wav
384,192,28101,1,0,0:0:0:0:
42,192,28176,1,4,0:0:0:0:
128,192,28176,1,8,0:0:0:0:
213,192,28176,1,0,0:0:0:0:
298,192,28251,1,0,0:0:0:80:LR_Drum Rpd x2.wav
384,192,28251,1,0,0:0:0:0:
469,192,28251,1,0,0:0:0:0:
42,192,28326,1,0,0:0:0:80:LR_Drum Rpd x2.wav
213,192,28326,1,0,0:0:0:0:
298,192,28401,1,0,0:0:0:80:LR_Drum Rpd x2.wav
469,192,28401,1,0,0:0:0:0:
42,192,28476,1,4,0:0:0:0:
128,192,28476,1,8,0:0:0:0:
213,192,28476,1,0,0:0:0:0:
298,192,28551,1,0,0:0:0:100:LR_Drum Rpd x2.wav
384,192,28551,1,0,0:0:0:0:
469,192,28551,1,0,0:0:0:0:
42,192,28626,1,0,0:0:0:100:LR_Drum Rpd x2.wav
128,192,28626,1,0,0:0:0:0:
384,192,28701,1,0,0:0:0:100:LR_Drum Rpd x2.wav
469,192,28701,1,0,0:0:0:0:
42,192,28776,1,4,0:0:0:0:
128,192,28776,1,8,0:0:0:0:
213,192,28776,1,0,0:0:0:0:
298,192,28851,1,4,0:0:0:0:
384,192,28851,1,0,0:0:0:0:
469,192,28851,1,0,0:0:0:0:
42,192,28926,1,4,0:0:0:0:
128,192,28926,1,0,0:0:0:0:
213,192,28926,1,0,0:0:0:0:
298,192,29001,1,4,0:0:0:0:
384,192,29001,1,0,0:0:0:0:
469,192,29001,1,0,0:0:0:0:
42,192,29076,128,4,29676:0:0:0:0:
128,192,29076,1,0,0:0:0:0:
213,192,29076,1,0,0:0:0:0:
128,192,29226,128,0,29776:0:0:0:0:
213,192,29376,128,0,29876:0:0:0:0:
298,192,29526,128,0,29976:0:0:0:0:
384,192,29676,128,0,30076:0:0:0:0:
469,192,29976,128,0,30176:0:0:0:0:
42,192,30276,1,2,0:0:0:0:
128,192,30276,1,0,0:0:0:70:LR_CymbalQST.wav
213,192,30276,1,0,0:0:0:0:
298,192,30276,1,0,0:0:0:0:
469,192,30276,1,0,0:0:0:0:
42,192,30426,1,0,0:0:0:0:
298,192,30426,1,0,0:0:0:0:
128,192,30501,1,0,0:0:0:0:
213,192,30501,1,0,0:0:0:0:
42,192,30576,1,8,0:0:0:0:
298,192,30576,1,0,0:0:0:0:
384,192,30576,1,0,0:0:0:0:
469,192,30576,1,0,0:0:0:0:
42,192,30726,1,0,0:0:0:0:
298,192,30726,1,0,0:0:0:0:
128,192,30801,1,0,0:0:0:0:
213,192,30801,1,0,0:0:0:0:
42,192,30876,1,2,0:0:0:0:
298,192,30876,128,0,31101:0:0:0:0:
469,192,30876,1,0,0:0:0:0:
128,192,31026,1,0,0:0:0:0:
384,192,31101,1,0,0:0:0:0:
469,192,31101,1,0,0:0:0:0:
42,192,31176,1,8,0:0:0:0:
128,192,31176,1,0,0:0:0:0:
213,192,31176,1,0,0:0:0:0:
298,192,31176,1,0,0:0:0:0:
213,192,31326,1,0,0:0:0:0:
384,192,31326,1,0,0:0:0:0:
128,192,31476,1,2,0:0:0:0:
298,192,31476,1,0,0:0:0:0:
469,192,31476,1,0,0:0:0:0:
42,192,31626,1,0,0:0:0:0:
213,192,31626,1,0,0:0:0:0:
42,192,31776,1,8,0:0:0:0:
213,192,31776,1,0,0:0:0:0:
384,192,31776,1,0,0:0:0:0:
469,192,31776,1,0,0:0:0:0:
128,192,31851,1,0,0:0:0:0:
298,192,31851,1,0,0:0:0:0:
213,192,31926,1,0,0:0:0:0:
384,192,31926,1,0,0:0:0:0:
298,192,32001,1,0,0:0:0:0:
469,192,32001,1,0,0:0:0:0:
42,192,32076,1,2,0:0:0:0:
128,192,32076,128,0,32226:0:0:0:0:
384,192,32076,1,0,0:0:0:0:
213,192,32226,1,0,0:0:0:0:
128,192,32301,1,0,0:0:0:0:
298,192,32301,1,0,0:0:0:0:
42,192,32376,1,8,0:0:0:0:
213,192,32376,1,0,0:0:0:0:
384,192,32376,1,0,0:0:0:0:
469,192,32376,1,0,0:0:0:0:
128,192,32526,1,0,0:0:0:0:
298,192,32526,1,0,0:0:0:0:
42,192,32676,1,2,0:0:0:0:
213,192,32676,1,0,0:0:0:0:
469,192,32676,1,0,0:0:0:0:
213,192,32826,1,0,0:0:0:0:
469,192,32826,1,0,0:0:0:0:
298,192,32901,1,0,0:0:0:0:
384,192,32901,1,0,0:0:0:0:
42,192,32976,1,8,0:0:0:0:
128,192,32976,1,0,0:0:0:0:
213,192,32976,1,0,0:0:0:0:
469,192,32976,1,0,0:0:0:0:
213,192,33126,1,0,0:0:0:0:
469,192,33126,1,0,0:0:0:0:
298,192,33201,1,0,0:0:0:0:
384,192,33201,1,0,0:0:0:0:
42,192,33276,1,2,0:0:0:0:
213,192,33276,128,0,33501:0:0:0:0:
469,192,33276,1,0,0:0:0:0:
298,192,33426,1,0,0:0:0:0:
42,192,33501,1,0,0:0:0:0:
128,192,33501,1,0,0:0:0:0:
213,192,33576,1,8,0:0:0:0:
298,192,33576,1,0,0:0:0:0:
384,192,33576,1,0,0:0:0:0:
469,192,33576,1,0,0:0:0:0:
128,192,33726,1,0,0:0:0:0:
298,192,33726,1,0,0:0:0:0:
42,192,33876,1,2,0:0:0:0:
213,192,33876,1,0,0:0:0:0:
384,192,33876,1,0,0:0:0:0:
298,192,34026,1,0,0:0:0:0:
469,192,34026,1,0,0:0:0:0:
42,192,34176,1,8,0:0:0:0:
128,192,34176,1,0,0:0:0:0:
298,192,34176,1,0,0:0:0:0:
469,192,34176,1,0,0:0:0:0:
213,192,34251,1,0,0:0:0:0:
384,192,34251,1,0,0:0:0:0:
128,192,34326,1,0,0:0:0:0:
298,192,34326,1,0,0:0:0:0:
42,192,34401,1,0,0:0:0:0:
213,192,34401,1,0,0:0:0:0:
128,192,34476,1,2,0:0:0:0:
384,192,34476,1,0,0:0:0:0:
469,192,34476,1,0,0:0:0:0:
213,192,34626,1,0,0:0:0:0:
384,192,34626,1,0,0:0:0:0:
42,192,34776,1,8,0:0:0:0:
128,192,34776,1,0,0:0:0:0:
298,192,34776,1,0,0:0:0:0:
469,192,34776,1,0,0:0:0:0:
128,192,34926,1,0,0:0:0:0:
384,192,34926,1,0,0:0:0:0:
42,192,35076,1,2,0:0:0:0:
213,192,35076,1,0,0:0:0:70:LR_CymbalQST.wav
298,192,35076,1,0,0:0:0:0:
384,192,35076,1,0,0:0:0:0:
469,192,35076,1,0,0:0:0:0:
42,192,35226,1,0,0:0:0:0:
298,192,35226,1,0,0:0:0:0:
213,192,35301,1,0,0:0:0:0:
384,192,35301,1,0,0:0:0:0:
42,192,35376,1,8,0:0:0:0:
128,192,35376,1,0,0:0:0:0:
298,192,35376,1,0,0:0:0:0:
469,192,35376,1,0,0:0:0:0:
42,192,35526,1,0,0:0:0:0:
298,192,35526,1,0,0:0:0:0:
213,192,35601,1,0,0:0:0:0:
384,192,35601,1,0,0:0:0:0:
42,192,35676,128,2,35901:0:0:0:0:
298,192,35676,1,0,0:0:0:0:
469,192,35676,1,0,0:0:0:0:
384,192,35826,1,0,0:0:0:0:
128,192,35901,1,0,0:0:0:0:
42,192,35976,1,8,0:0:0:0:
213,192,35976,1,0,0:0:0:0:
384,192,35976,1,0,0:0:0:0:
469,192,35976,1,0,0:0:0:0:
128,192,36126,1,0,0:0:0:0:
298,192,36126,1,0,0:0:0:0:
128,192,36276,1,2,0:0:0:0:
384,192,36276,1,0,0:0:0:0:
469,192,36276,1,0,0:0:0:0:
42,192,36426,1,0,0:0:0:0:
213,192,36426,1,0,0:0:0:0:
42,192,36576,1,8,0:0:0:0:
213,192,36576,1,0,0:0:0:0:
384,192,36576,1,0,0:0:0:0:
469,192,36576,1,0,0:0:0:0:
128,192,36651,1,0,0:0:0:0:
298,192,36651,1,0,0:0:0:0:
213,192,36726,1,0,0:0:0:0:
384,192,36726,1,0,0:0:0:0:
298,192,36801,1,0,0:0:0:0:
469,192,36801,1,0,0:0:0:0:
42,192,36876,1,2,0:0:0:0:
128,192,36876,128,0,37026:0:0:0:0:
384,192,36876,1,0,0:0:0:0:
213,192,37026,1,0,0:0:0:0:
42,192,37101,1,0,0:0:0:0:
128,192,37101,1,0,0:0:0:0:
213,192,37176,1,8,0:0:0:0:
298,192,37176,1,0,0:0:0:0:
384,192,37176,1,0,0:0:0:0:
469,192,37176,1,0,0:0:0:0:
128,192,37326,1,0,0:0:0:0:
298,192,37326,1,0,0:0:0:0:
42,192,37476,1,2,0:0:0:0:
213,192,37476,1,0,0:0:0:0:
469,192,37476,1,0,0:0:0:0:
213,192,37626,1,0,0:0:0:0:
469,192,37626,1,0,0:0:0:0:
128,192,37701,1,0,0:0:0:0:
298,192,37701,1,0,0:0:0:0:
42,192,37776,1,8,0:0:0:0:
213,192,37776,1,0,0:0:0:0:
384,192,37776,1,0,0:0:0:0:
469,192,37776,1,0,0:0:0:0:
213,192,37926,1,0,0:0:0:0:
469,192,37926,1,0,0:0:0:0:
128,192,38001,1,0,0:0:0:0:
298,192,38001,1,0,0:0:0:0:
42,192,38076,1,2,0:0:0:0:
213,192,38076,1,0,0:0:0:0:
469,192,38076,128,0,38301:0:0:0:0:
128,192,38226,1,0,0:0:0:0:
384,192,38301,1,0,0:0:0:0:
42,192,38376,1,8,0:0:0:0:
213,192,38376,1,0,0:0:0:0:
298,192,38376,1,0,0:0:0:0:
469,192,38376,1,0,0:0:0:0:
128,192,38526,1,0,0:0:0:0:
384,192,38526,1,0,0:0:0:0:
42,192,38676,1,2,0:0:0:0:
213,192,38676,1,0,0:0:0:0:
298,192,38676,1,0,0:0:0:0:
469,192,38676,1,0,0:0:0:0:
298,192,38826,1,0,0:0:0:0:
384,192,38863,1,0,0:0:0:0:
298,192,38901,1,0,0:0:0:0:
213,192,38976,1,0,0:0:0:0:
213,192,39051,1,0,0:0:0:0:
298,192,39126,1,0,0:0:0:0:
298,192,39201,1,0,0:0:0:0:
213,192,39276,1,0,0:0:0:0:
128,192,39313,1,0,0:0:0:0:
298,192,39426,1,0,0:0:0:0:
384,192,39463,1,0,0:0:0:0:
213,192,39576,1,0,0:0:0:0:
128,192,39613,1,0,0:0:0:0:
298,192,39726,1,0,0:0:0:0:
384,192,39763,1,0,0:0:0:0:
42,192,39876,1,2,0:0:0:0:
128,192,39876,1,0,0:0:0:70:LR_CymbalQST.wav
213,192,39876,1,0,0:0:0:0:
298,192,39876,1,0,0:0:0:0:
469,192,39876,1,0,0:0:0:0:
213,192,40026,1,0,0:0:0:70:LR_Hat Synth.wav
384,192,40026,1,0,0:0:0:0:
128,192,40101,1,0,0:0:0:0:
298,192,40101,1,0,0:0:0:0:
42,192,40176,1,8,0:0:0:0:
213,192,40176,1,0,0:0:0:0:
469,192,40176,1,0,0:0:0:0:
213,192,40326,1,0,0:0:0:70:LR_Hat Synth.wav
384,192,40326,1,0,0:0:0:0:
42,192,40476,1,2,0:0:0:0:
298,192,40476,1,0,0:0:0:0:
469,192,40476,1,0,0:0:0:0:
128,192,40626,1,0,0:0:0:70:LR_Hat Synth.wav
298,192,40626,1,0,0:0:0:0:
213,192,40701,1,0,0:0:0:0:
384,192,40701,1,0,0:0:0:0:
42,192,40776,1,8,0:0:0:0:
298,192,40776,1,0,0:0:0:0:
469,192,40776,1,0,0:0:0:0:
128,192,40926,1,0,0:0:0:70:LR_Hat Synth.wav
298,192,40926,1,0,0:0:0:0:
42,192,41076,1,2,0:0:0:0:
384,192,41076,1,0,0:0:0:0:
469,192,41076,1,0,0:0:0:0:
128,192,41226,1,0,0:0:0:70:LR_Hat Synth.wav
298,192,41226,1,0,0:0:0:0:
42,192,41301,1,0,0:0:0:0:
213,192,41301,1,0,0:0:0:0:
128,192,41376,1,8,0:0:0:0:
384,192,41376,1,0,0:0:0:0:
469,192,41376,1,0,0:0:0:0:
213,192,41526,1,0,0:0:0:70:LR_Hat Synth.wav
298,192,41526,1,0,0:0:0:0:
42,192,41676,1,2,0:0:0:0:
128,192,41676,1,0,0:0:0:0:
469,192,41676,1,0,0:0:0:0:
213,192,41826,1,0,0:0:0:70:LR_Hat Synth.wav
384,192,41826,1,0,0:0:0:0:
298,192,41901,1,0,0:0:0:0:
469,192,41901,1,0,0:0:0:0:
42,192,41976,1,8,0:0:0:0:
128,192,41976,1,0,0:0:0:0:
384,192,41976,1,0,0:0:0:0:
213,192,42126,1,0,0:0:0:70:LR_Hat Synth.wav
298,192,42126,1,0,0:0:0:0:
128,192,42276,1,2,0:0:0:0:
298,192,42276,1,0,0:0:0:0:
469,192,42276,1,0,0:0:0:0:
42,192,42426,1,0,0:0:0:70:LR_Hat Synth.wav
213,192,42426,1,0,0:0:0:0:
128,192,42501,1,0,0:0:0:0:
298,192,42501,1,0,0:0:0:0:
213,192,42576,1,8,0:0:0:0:
384,192,42576,1,0,0:0:0:0:
469,192,42576,1,0,0:0:0:0:
128,192,42726,1,0,0:0:0:70:LR_Hat Synth.wav
298,192,42726,1,0,0:0:0:0:
42,192,42876,1,2,0:0:0:0:
213,192,42876,1,0,0:0:0:0:
384,192,42876,1,0,0:0:0:0:
298,192,43026,1,0,0:0:0:70:LR_Hat Synth.wav
469,192,43026,1,0,0:0:0:0:
213,192,43101,1,0,0:0:0:0:
384,192,43101,1,0,0:0:0:0:
42,192,43176,1,8,0:0:0:0:
128,192,43176,1,0,0:0:0:0:
298,192,43176,1,0,0:0:0:0:
213,192,43326,1,0,0:0:0:70:LR_Hat Synth.wav
384,192,43326,1,0,0:0:0:0:
42,192,43476,1,2,0:0:0:0:
298,192,43476,1,0,0:0:0:0:
384,192,43476,1,0,0:0:0:0:
213,192,43626,1,0,0:0:0:70:LR_Hat Synth.wav
469,192,43626,1,0,0:0:0:0:
128,192,43701,1,0,0:0:0:0:
384,192,43701,1,0,0:0:0:0:
42,192,43776,1,8,0:0:0:0:
298,192,43776,1,0,0:0:0:0:
469,192,43776,1,0,0:0:0:0:
213,192,43926,1,0,0:0:0:70:LR_Hat Synth.wav
298,192,43926,1,0,0:0:0:0:
42,192,44076,1,2,0:0:0:0:
128,192,44076,1,0,0:0:0:0:
469,192,44076,128,0,44301:0:0:0:0:
384,192,44151,128,0,44301:0:0:0:0:
128,192,44226,1,0,0:0:0:70:LR_Hat Synth.wav
298,192,44226,128,0,44376:0:0:0:0:
213,192,44301,128,0,44376:0:0:0:0:
42,192,44376,128,8,44601:0:0:0:0:
384,192,44376,1,0,0:0:0:0:
469,192,44376,1,0,0:0:0:0:
128,192,44451,128,0,44601:0:0:0:0:
213,192,44526,128,0,44676:0:0:0:70:LR_Hat Synth.wav
384,192,44526,1,0,0:0:0:0:
298,192,44601,128,0,44676:0:0:0:0:
42,192,44676,1,2,0:0:0:0:
128,192,44676,1,0,0:0:0:0:
469,192,44676,1,0,0:0:0:0:
128,192,44826,1,0,0:0:0:70:LR_Hat Synth.wav
384,192,44826,1,0,0:0:0:0:
213,192,44901,1,0,0:0:0:0:
469,192,44901,1,0,0:0:0:0:
42,192,44976,1,8,0:0:0:0:
298,192,44976,1,0,0:0:0:0:
384,192,44976,1,0,0:0:0:0:
128,192,45126,1,0,0:0:0:70:LR_Hat Synth.wav
213,192,45126,1,0,0:0:0:0:
42,192,45276,1,2,0:0:0:0:
384,192,45276,1,0,0:0:0:0:
469,192,45276,1,0,0:0:0:0:
128,192,45426,1,0,0:0:0:70:LR_Hat Synth.wav
384,192,45426,1,0,0:0:0:0:
42,192,45501,1,0,0:0:0:0:
298,192,45501,1,0,0:0:0:0:
128,192,45576,1,8,0:0:0:0:
213,192,45576,1,0,0:0:0:0:
469,192,45576,1,0,0:0:0:0:
298,192,45726,1,0,0:0:0:70:LR_Hat Synth.wav
384,192,45726,1,0,0:0:0:0:
128,192,45876,1,2,0:0:0:0:
298,192,45876,1,0,0:0:0:0:
469,192,45876,1,0,0:0:0:0:
42,192,46026,1,0,0:0:0:70:LR_Hat Synth.wav
213,192,46026,1,0,0:0:0:0:
128,192,46101,1,0,0:0:0:0:
298,192,46101,1,0,0:0:0:0:
42,192,46176,1,8,0:0:0:0:
213,192,46176,1,0,0:0:0:0:
384,192,46176,1,0,0:0:0:0:
128,192,46326,1,0,0:0:0:70:LR_Hat Synth.wav
298,192,46326,1,0,0:0:0:0:
42,192,46476,1,2,0:0:0:0:
213,192,46476,1,0,0:0:0:0:
384,192,46476,1,0,0:0:0:0:
298,192,46626,1,0,0:0:0:70:LR_Hat Synth.wav
469,192,46626,1,0,0:0:0:0:
213,192,46701,1,0,0:0:0:0:
384,192,46701,1,0,0:0:0:0:
128,192,46776,1,8,0:0:0:0:
298,192,46776,1,0,0:0:0:0:
469,192,46776,1,0,0:0:0:0:
42,192,46926,128,0,47226:0:0:0:70:LR_Hat Synth.wav
128,192,46926,1,0,0:0:0:0:
213,192,47076,128,2,47226:0:0:0:0:
298,192,47076,1,0,0:0:0:0:
469,192,47076,1,0,0:0:0:0:
384,192,47226,1,0,0:0:0:70:LR_Hat Synth.wav
469,192,47226,128,0,47526:0:0:0:0:
42,192,47376,1,8,0:0:0:0:
213,192,47376,1,0,0:0:0:0:
298,192,47376,128,0,47526:0:0:0:0:
42,192,47526,128,0,47826:0:0:0:70:LR_Hat Synth.wav
128,192,47526,1,0,0:0:0:0:
213,192,47676,128,2,47826:0:0:0:0:
384,192,47676,1,0,0:0:0:0:
469,192,47676,1,0,0:0:0:0:
298,192,47826,1,0,0:0:0:70:LR_Hat Synth.wav
469,192,47826,128,0,48126:0:0:0:0:
42,192,47976,1,8,0:0:0:0:
128,192,47976,1,0,0:0:0:0:
298,192,47976,128,0,48126:0:0:0:0:
213,192,48126,1,0,0:0:0:70:LR_Hat Synth.wav
42,192,48276,1,2,0:0:0:0:
213,192,48276,1,0,0:0:0:0:
469,192,48276,1,0,0:0:0:0:
384,192,48351,1,0,0:0:0:0:
42,192,48426,1,0,0:0:0:70:LR_Hat Synth.wav
298,192,48426,1,0,0:0:0:0:
213,192,48501,1,0,0:0:0:0:
128,192,48576,1,8,0:0:0:0:
384,192,48576,1,0,0:0:0:0:
469,192,48576,1,0,0:0:0:0:
298,192,48651,1,0,0:0:0:0:
213,192,48726,1,0,0:0:0:70:LR_Hat Synth.wav
469,192,48726,1,0,0:0:0:0:
128,192,48801,1,0,0:0:0:0:
42,192,48876,1,2,0:0:0:0:
298,192,48876,1,0,0:0:0:0:
384,192,48876,1,0,0:0:0:0:
213,192,48951,1,0,0:0:0:0:
128,192,49026,1,0,0:0:0:70:LR_Hat Synth.wav
384,192,49026,1,0,0:0:0:0:
42,192,49101,1,0,0:0:0:0:
213,192,49176,1,8,0:0:0:0:
298,192,49176,1,0,0:0:0:0:
469,192,49176,1,0,0:0:0:0:
128,192,49251,1,0,0:0:0:0:
42,192,49326,1,0,0:0:0:70:LR_Hat Synth.wav
298,192,49326,1,0,0:0:0:0:
128,192,49401,1,0,0:0:0:0:
42,192,49476,1,2,0:0:0:0:
213,192,49476,1,0,0:0:0:0:
384,192,49476,1,0,0:0:0:0:
469,192,49476,128,0,51576:0:0:0:0:
298,192,49626,1,0,0:0:0:70:LR_Hat Synth.wav
213,192,49701,1,0,0:0:0:0:
42,192,49776,1,8,0:0:0:0:
128,192,49776,1,0,0:0:0:0:
298,192,49776,1,0,0:0:0:0:
384,192,49776,1,0,0:0:0:0:
128,192,49926,1,0,0:0:0:70:LR_Hat Synth.wav
42,192,50076,1,2,0:0:0:0:
213,192,50076,1,0,0:0:0:0:
384,192,50076,1,0,0:0:0:0:
128,192,50226,1,0,0:0:0:70:LR_Hat Synth.wav
213,192,50301,1,0,0:0:0:0:
42,192,50376,1,8,0:0:0:0:
128,192,50376,1,0,0:0:0:0:
298,192,50376,1,0,0:0:0:0:
384,192,50376,1,0,0:0:0:0:
298,192,50526,1,0,0:0:0:70:LR_Hat Synth.wav
42,192,50676,1,2,0:0:0:0:
128,192,50676,1,0,0:0:0:0:
384,192,50676,1,0,0:0:0:0:
298,192,50826,1,0,0:0:0:70:LR_Hat Synth.wav
213,192,50901,1,0,0:0:0:0:
42,192,50976,1,8,0:0:0:0:
128,192,50976,1,0,0:0:0:0:
298,192,50976,1,0,0:0:0:0:
384,192,50976,1,0,0:0:0:0:
128,192,51126,1,0,0:0:0:70:LR_Hat Synth.wav
42,192,51276,1,2,0:0:0:0:
298,192,51276,1,0,0:0:0:0:
384,192,51276,1,0,0:0:0:0:
128,192,51426,1,0,0:0:0:70:LR_Hat Synth.wav
213,192,51501,1,0,0:0:0:0:
42,192,51576,1,8,0:0:0:0:
128,192,51576,1,0,0:0:0:0:
298,192,51576,128,0,51651:0:0:0:0:
384,192,51576,1,0,0:0:0:0:
213,192,51651,128,0,51726:0:0:0:0:
298,192,51726,128,0,51801:0:0:0:70:LR_Hat Synth.wav
213,192,51801,128,0,51876:0:0:0:0:
42,192,51876,128,2,53076:0:0:0:0:
128,192,51876,1,0,0:0:0:0:
298,192,51876,1,0,0:0:0:0:
469,192,51876,1,0,0:0:0:0:
384,192,52026,1,0,0:0:0:70:LR_Hat Synth.wav
298,192,52101,1,0,0:0:0:0:
128,192,52176,1,8,0:0:0:0:
213,192,52176,1,0,0:0:0:0:
384,192,52176,1,0,0:0:0:0:
469,192,52176,1,0,0:0:0:0:
213,192,52326,1,0,0:0:0:70:LR_Hat Synth.wav
128,192,52476,1,2,0:0:0:0:
298,192,52476,1,0,0:0:0:0:
469,192,52476,1,0,0:0:0:0:
213,192,52626,1,0,0:0:0:70:LR_Hat Synth.wav
298,192,52701,1,0,0:0:0:0:
128,192,52776,1,8,0:0:0:0:
213,192,52776,1,0,0:0:0:0:
384,192,52776,1,0,0:0:0:0:
469,192,52776,1,0,0:0:0:0:
384,192,52926,1,0,0:0:0:70:LR_Hat Synth.wav
128,192,53076,128,2,53376:0:0:0:0:
213,192,53076,1,0,0:0:0:0:
298,192,53076,1,0,0:0:0:0:
469,192,53076,1,0,0:0:0:0:
384,192,53226,1,0,0:0:0:70:LR_Hat Synth.wav
298,192,53301,1,0,0:0:0:0:
42,192,53376,1,8,0:0:0:0:
213,192,53376,128,0,53676:0:0:0:0:
384,192,53376,1,0,0:0:0:0:
469,192,53376,1,0,0:0:0:0:
298,192,53526,1,0,0:0:0:70:LR_Hat Synth.wav
42,192,53676,1,2,0:0:0:0:
298,192,53676,128,0,53976:0:0:0:0:
384,192,53676,1,0,0:0:0:0:
469,192,53676,1,0,0:0:0:0:
128,192,53826,1,0,0:0:0:70:LR_Hat Synth.wav
213,192,53901,1,0,0:0:0:0:
42,192,53976,1,8,0:0:0:0:
128,192,53976,1,0,0:0:0:0:
384,192,53976,1,0,0:0:0:0:
469,192,53976,1,0,0:0:0:0:
213,192,54051,1,0,0:0:0:0:
298,192,54051,1,0,0:0:0:0:
128,192,54126,1,0,0:0:0:70:LR_Hat Synth.wav
384,192,54126,1,0,0:0:0:0:
213,192,54201,1,0,0:0:0:0:
298,192,54201,1,0,0:0:0:0:
42,192,54276,128,8,54501:0:0:0:0:
128,192,54276,128,0,54501:0:0:0:70:LR_Drum Rpd x2.wav
384,192,54276,128,0,54426:0:0:0:0:
469,192,54276,128,0,54426:0:0:0:0:
298,192,54426,1,0,0:0:0:70:LR_Drum Rpd x2.wav
213,192,54501,1,0,0:0:0:0:
298,192,54576,1,0,0:0:0:70:LR_Drum Rpd x2.wav
298,192,54726,1,0,0:0:0:70:LR_Drum Rpd x2.wav
42,192,54876,128,8,55026:0:0:0:0:
128,192,54876,128,0,55026:0:0:0:70:LR_Drum Rpd x2.wav
298,192,54876,1,0,0:0:0:0:
384,192,54876,128,0,55101:0:0:0:0:
469,192,54876,128,0,55101:0:0:0:0:
213,192,55026,1,0,0:0:0:70:LR_Drum Rpd x2.wav
298,192,55101,1,0,0:0:0:0:
213,192,55176,1,0,0:0:0:70:LR_Drum Rpd x2.wav
213,192,55326,1,0,0:0:0:70:LR_Drum Rpd x2.wav
42,192,55476,128,8,55701:0:0:0:0:
128,192,55476,1,0,0:0:0:70:LR_Drum Rpd x2.wav
213,192,55476,128,0,55701:0:0:0:0:
298,192,55476,128,0,55626:0:0:0:0:
469,192,55476,128,0,55626:0:0:0:0:
384,192,55626,1,0,0:0:0:70:LR_Drum Rpd x2.wav
128,192,55701,1,0,0:0:0:0:
384,192,55776,1,0,0:0:0:70:LR_Drum Rpd x2.wav
384,192,55926,1,0,0:0:0:70:LR_Drum Rpd x2.wav
42,192,56076,128,8,56226:0:0:0:0:
213,192,56076,128,0,56226:0:0:0:70:LR_Drum Rpd x2.wav
298,192,56076,128,0,56301:0:0:0:0:
384,192,56076,1,0,0:0:0:0:
469,192,56076,128,0,56301:0:0:0:0:
128,192,56226,1,0,0:0:0:70:LR_Drum Rpd x2.wav
384,192,56301,1,0,0:0:0:0:
128,192,56376,1,0,0:0:0:70:LR_Drum Rpd x2.wav
128,192,56526,1,0,0:0:0:70:LR_Drum Rpd x2.wav
42,192,56676,1,0,0:0:0:70:LR_Drum Low Long.wav
213,192,56676,1,0,0:0:0:0:
298,192,56676,1,0,0:0:0:0:
469,192,56676,128,0,57876:0:0:0:0:
128,192,56826,1,0,0:0:0:0:
213,192,56901,1,0,0:0:0:0:
298,192,56976,1,0,0:0:0:70:LR_Drum Low Long.wav
384,192,56976,1,0,0:0:0:0:
42,192,57126,1,0,0:0:0:70:LR_Drum Low Long.wav
128,192,57126,1,0,0:0:0:0:
298,192,57276,1,0,0:0:0:0:
213,192,57351,1,0,0:0:0:0:
42,192,57426,1,0,0:0:0:70:LR_Drum Low Long.wav
128,192,57426,1,0,0:0:0:0:
298,192,57576,1,0,0:0:0:70:LR_Drum Low Long.wav
384,192,57576,1,0,0:0:0:0:
128,192,57726,1,0,0:0:0:0:
213,192,57801,1,0,0:0:0:0:
298,192,57876,1,0,0:0:0:70:LR_Drum Low Long.wav
384,192,57876,1,0,0:0:0:0:
42,192,58026,1,0,0:0:0:0:
213,192,58101,1,0,0:0:0:0:
298,192,58176,1,0,0:0:0:70:LR_Drum Low Long.wav
384,192,58176,1,0,0:0:0:0:
42,192,58326,1,0,0:0:0:70:LR_Drum Low Long.wav
128,192,58326,1,0,0:0:0:0:
469,192,58476,1,0,0:0:0:0:
298,192,58551,1,0,0:0:0:0:
128,192,58626,1,0,0:0:0:70:LR_Drum Low Long.wav
213,192,58626,1,0,0:0:0:0:
384,192,58776,1,0,0:0:0:70:LR_Drum Low Long.wav
469,192,58776,1,0,0:0:0:0:
213,192,58926,1,0,0:0:0:0:
42,192,59076,1,2,0:0:0:0:
128,192,59076,1,0,0:0:0:70:LR_CymbalQST.wav
298,192,59076,128,0,59676:0:0:0:0:
384,192,59076,1,0,0:0:0:0:
469,192,59076,128,0,59676:0:0:0:0:
213,192,59376,1,0,0:0:0:0:
42,192,59526,1,2,0:0:0:0:
128,192,59526,1,0,0:0:0:0:
42,192,59676,1,2,0:0:0:0:
128,192,59676,1,0,0:0:0:0:
42,192,59976,128,0,60051:0:0:0:70:LR_Ride Long Low.wav
128,192,59976,128,0,60032:0:0:0:0:
384,192,59976,128,0,60032:0:0:0:0:
469,192,59976,128,0,60051:0:0:0:0:
42,192,60276,1,2,0:0:0:0:
128,192,60276,1,0,0:0:0:0:
298,192,60276,128,0,60876:0:0:0:0:
469,192,60276,128,0,60876:0:0:0:0:
213,192,60576,1,0,0:0:0:0:
42,192,60726,1,2,0:0:0:0:
128,192,60726,1,0,0:0:0:0:
42,192,60876,1,2,0:0:0:0:
128,192,60876,1,0,0:0:0:0:
298,192,61026,1,0,0:0:0:0:
213,192,61101,1,0,0:0:0:0:
42,192,61176,128,0,61251:0:0:0:70:LR_Ride Long Low.wav
128,192,61176,128,0,61232:0:0:0:0:
384,192,61176,128,0,61232:0:0:0:0:
469,192,61176,128,0,61251:0:0:0:0:
213,192,61251,1,0,0:0:0:0:
298,192,61326,1,0,0:0:0:0:
42,192,61476,1,2,0:0:0:0:
128,192,61476,1,0,0:0:0:0:
298,192,61476,128,0,62076:0:0:0:0:
469,192,61476,128,0,62076:0:0:0:0:
213,192,61776,1,0,0:0:0:0:
42,192,61926,1,2,0:0:0:0:
128,192,61926,1,0,0:0:0:0:
42,192,62076,1,2,0:0:0:0:
128,192,62076,1,0,0:0:0:0:
42,192,62376,128,0,62451:0:0:0:70:LR_Ride Long Low.wav
128,192,62376,128,0,62432:0:0:0:0:
384,192,62376,128,0,62432:0:0:0:0:
469,192,62376,128,0,62451:0:0:0:0:
42,192,62526,1,2,0:0:0:0:
128,192,62526,1,0,0:0:0:0:
298,192,62676,128,0,63276:0:0:0:0:
469,192,62676,128,0,63276:0:0:0:0:
42,192,62826,1,2,0:0:0:0:
128,192,62826,1,0,0:0:0:0:
213,192,62976,1,0,0:0:0:0:
128,192,63076,1,0,0:0:0:0:
384,192,63126,1,2,0:0:0:0:
42,192,63176,1,0,0:0:0:0:
128,192,63276,1,2,0:0:0:0:
384,192,63276,1,0,0:0:0:0:
213,192,63376,1,0,0:0:0:0:
298,192,63476,1,0,0:0:0:0:
42,192,63576,128,0,63651:0:0:0:70:LR_Ride Long Low.wav
128,192,63576,128,0,63632:0:0:0:0:
384,192,63576,128,0,63632:0:0:0:0:
469,192,63576,128,0,63651:0:0:0:0:
213,192,63676,1,0,0:0:0:0:
298,192,63776,1,0,0:0:0:0:
42,192,63876,128,2,64476:0:0:0:0:
213,192,63876,128,0,64476:0:0:0:0:
384,192,63876,1,0,0:0:0:0:
469,192,63876,1,0,0:0:0:0:
298,192,64176,1,0,0:0:0:0:
384,192,64326,1,2,0:0:0:0:
469,192,64326,1,0,0:0:0:0:
384,192,64476,1,2,0:0:0:0:
469,192,64476,1,0,0:0:0:0:
42,192,64776,128,0,64832:0:0:0:70:LR_Ride Long Low.wav
128,192,64776,128,0,64851:0:0:0:0:
384,192,64776,128,0,64851:0:0:0:0:
469,192,64776,128,0,64832:0:0:0:0:
42,192,65076,128,2,65676:0:0:0:0:
213,192,65076,128,0,65676:0:0:0:0:
384,192,65076,1,0,0:0:0:0:
469,192,65076,1,0,0:0:0:0:
298,192,65376,1,0,0:0:0:0:
384,192,65526,1,2,0:0:0:0:
469,192,65526,1,0,0:0:0:0:
384,192,65676,1,2,0:0:0:0:
469,192,65676,1,0,0:0:0:0:
213,192,65826,1,0,0:0:0:0:
298,192,65901,1,0,0:0:0:0:
42,192,65976,128,0,66032:0:0:0:70:LR_Ride Long Low.wav
128,192,65976,128,0,66051:0:0:0:0:
384,192,65976,128,0,66051:0:0:0:0:
469,192,65976,128,0,66032:0:0:0:0:
298,192,66051,1,0,0:0:0:0:
213,192,66126,1,0,0:0:0:0:
42,192,66276,128,2,66876:0:0:0:0:
213,192,66276,128,0,66876:0:0:0:0:
384,192,66276,1,0,0:0:0:0:
469,192,66276,1,0,0:0:0:0:
298,192,66576,1,0,0:0:0:0:
384,192,66726,1,2,0:0:0:0:
469,192,66726,1,0,0:0:0:0:
384,192,66876,1,2,0:0:0:0:
469,192,66876,1,0,0:0:0:0:
42,192,67176,128,0,67232:0:0:0:70:LR_Ride Long Low.wav
128,192,67176,128,0,67251:0:0:0:0:
384,192,67176,128,0,67251:0:0:0:0:
469,192,67176,128,0,67232:0:0:0:0:
384,192,67326,1,2,0:0:0:0:
469,192,67326,1,0,0:0:0:0:
42,192,67476,128,0,68076:0:0:0:0:
213,192,67476,128,0,68076:0:0:0:0:
384,192,67626,1,2,0:0:0:0:
469,192,67626,1,0,0:0:0:0:
298,192,67776,1,0,0:0:0:0:
384,192,67876,1,0,0:0:0:0:
128,192,67926,1,2,0:0:0:0:
469,192,67976,1,0,0:0:0:0:
128,192,68076,1,2,0:0:0:0:
384,192,68076,1,0,0:0:0:0:
298,192,68176,1,0,0:0:0:0:
213,192,68276,1,0,0:0:0:0:
42,192,68376,128,0,68432:0:0:0:70:LR_Ride Long Low.wav
128,192,68376,128,0,68451:0:0:0:0:
384,192,68376,128,0,68451:0:0:0:0:
469,192,68376,128,0,68432:0:0:0:0:
298,192,68476,1,0,0:0:0:0:
213,192,68576,1,0,0:0:0:0:
42,192,68676,1,2,0:0:0:0:
128,192,68676,1,0,0:0:0:0:
384,192,68676,1,0,0:0:0:0:
469,192,68676,1,0,0:0:0:0:
213,192,69276,128,0,69426:0:0:0:0:
298,192,69351,128,0,69501:0:0:0:0:
384,192,69426,128,0,69576:0:0:0:0:
469,192,69501,128,0,69651:0:0:0:0:
42,192,69576,128,0,69726:0:0:0:0:
128,192,69651,128,0,69801:0:0:0:0:
213,192,69726,128,0,70476:0:0:0:0:
298,192,69801,128,0,70476:0:0:0:0:
42,192,69876,1,4,0:0:0:0:
469,192,69876,1,0,0:0:0:0:
42,192,70176,1,4,0:0:0:0:
469,192,70176,1,0,0:0:0:0:
42,192,70476,1,4,0:0:0:0:
469,192,70476,1,0,0:0:0:0:
128,192,70551,1,4,0:0:0:0:
384,192,70551,1,0,0:0:0:0:
213,192,70626,1,4,0:0:0:0:
298,192,70626,1,0,0:0:0:0:
128,192,70701,1,4,0:0:0:0:
384,192,70701,1,0,0:0:0:0:
42,192,70776,1,4,0:0:0:0:
469,192,70776,1,0,0:0:0:0:
128,192,70851,1,4,0:0:0:0:
384,192,70851,1,0,0:0:0:0:
213,192,70926,1,2,0:0:0:0:
298,192,70926,1,0,0:0:0:0:
42,192,71076,128,8,71376:0:0:0:0:
128,192,71076,128,0,71357:0:0:0:0:
213,192,71076,128,0,71338:0:0:0:0:
384,192,71076,128,0,71319:0:0:0:0:
469,192,71076,128,0,71301:0:0:0:0:
298,192,71376,128,0,71413:0:0:0:0:
384,192,71376,128,0,71432:0:0:0:0:
469,192,71376,128,0,71451:0:0:0:0:
42,192,72276,128,8,72501:0:0:0:0:
128,192,72276,128,0,72519:0:0:0:0:
298,192,72276,128,0,72538:0:0:0:0:
384,192,72276,128,0,72557:0:0:0:0:
469,192,72276,128,0,72576:0:0:0:0:
42,192,72576,128,0,72651:0:0:0:0:
128,192,72576,128,0,72632:0:0:0:0:
213,192,72576,128,0,72613:0:0:0:0:
42,192,73776,128,8,74001:0:0:0:0:
128,192,73776,128,0,74019:0:0:0:0:
213,192,73776,128,0,74038:0:0:0:0:
298,192,73776,128,0,74057:0:0:0:0:
469,192,73776,128,0,74076:0:0:0:0:
42,192,74376,128,8,74676:0:0:0:0:
213,192,74376,128,0,74601:0:0:0:0:
298,192,74376,128,0,74582:0:0:0:0:
384,192,74376,128,0,74563:0:0:0:0:
469,192,74376,128,0,74544:0:0:0:0:
128,192,74676,1,8,0:0:0:0:
213,192,74676,128,0,74826:0:0:0:0:
298,192,74676,1,0,0:0:0:0:
384,192,74676,1,0,0:0:0:0:
469,192,74676,1,0,0:0:0:0:
42,192,74826,128,4,74976:0:0:0:0:
469,192,74826,1,0,0:0:0:0:
384,192,74901,1,4,0:0:0:0:
128,192,74976,1,8,0:0:0:0:
213,192,74976,128,0,75126:0:0:0:0:
298,192,74976,1,0,0:0:0:0:
469,192,74976,1,0,0:0:0:0:
42,192,75126,128,4,75276:0:0:0:0:
384,192,75126,1,0,0:0:0:0:
128,192,75276,1,8,0:0:0:0:
213,192,75276,1,0,0:0:0:0:
298,192,75276,128,0,75426:0:0:0:0:
384,192,75276,1,0,0:0:0:0:
469,192,75276,1,0,0:0:0:0:
42,192,75426,1,4,0:0:0:0:
469,192,75426,128,0,75576:0:0:0:0:
42,192,75576,1,8,0:0:0:0:
128,192,75576,1,0,0:0:0:0:
213,192,75576,1,0,0:0:0:0:
298,192,75576,128,0,75726:0:0:0:0:
384,192,75576,1,0,0:0:0:0:
128,192,75726,1,0,0:0:0:0:
469,192,75726,128,0,75876:0:0:0:0:
42,192,75876,1,2,0:0:0:0:
128,192,75876,1,0,0:0:0:70:LR_CymbalQST.wav
213,192,75876,1,0,0:0:0:0:
298,192,75876,1,0,0:0:0:0:
384,192,75876,1,0,0:0:0:0:
128,192,76026,1,0,0:0:0:70:LR_Hat Synth.wav
384,192,76026,1,0,0:0:0:0:
213,192,76101,1,0,0:0:0:0:
298,192,76101,1,0,0:0:0:0:
42,192,76176,1,8,0:0:0:0:
128,192,76176,1,0,0:0:0:0:
384,192,76176,1,0,0:0:0:0:
469,192,76176,1,0,0:0:0:0:
213,192,76326,1,0,0:0:0:70:LR_Hat Synth.wav
469,192,76326,1,0,0:0:0:0:
42,192,76476,1,2,0:0:0:0:
128,192,76476,1,0,0:0:0:0:
298,192,76476,1,0,0:0:0:0:
384,192,76476,1,0,0:0:0:0:
213,192,76626,1,0,0:0:0:70:LR_Hat Synth.wav
469,192,76626,1,0,0:0:0:0:
128,192,76701,1,0,0:0:0:0:
298,192,76701,1,0,0:0:0:0:
42,192,76776,1,8,0:0:0:0:
213,192,76776,1,0,0:0:0:0:
384,192,76776,1,0,0:0:0:0:
469,192,76776,1,0,0:0:0:0:
128,192,76926,1,0,0:0:0:70:LR_Hat Synth.wav
298,192,76926,1,0,0:0:0:0:
42,192,77076,1,2,0:0:0:0:
213,192,77076,1,0,0:0:0:0:
384,192,77076,1,0,0:0:0:0:
469,192,77076,1,0,0:0:0:0:
298,192,77226,1,0,0:0:0:70:LR_Hat Synth.wav
213,192,77301,1,0,0:0:0:0:
384,192,77301,1,0,0:0:0:0:
42,192,77376,1,8,0:0:0:0:
128,192,77376,1,0,0:0:0:0:
298,192,77376,1,0,0:0:0:0:
469,192,77376,1,0,0:0:0:0:
42,192,77526,1,0,0:0:0:70:LR_Hat Synth.wav
384,192,77526,1,0,0:0:0:0:
128,192,77676,1,2,0:0:0:0:
213,192,77676,1,0,0:0:0:0:
298,192,77676,1,0,0:0:0:0:
469,192,77676,1,0,0:0:0:0:
42,192,77826,1,0,0:0:0:70:LR_Hat Synth.wav
384,192,77826,1,0,0:0:0:0:
213,192,77901,1,0,0:0:0:0:
298,192,77901,1,0,0:0:0:0:
42,192,77976,1,8,0:0:0:0:
128,192,77976,1,0,0:0:0:0:
384,192,77976,1,0,0:0:0:0:
469,192,77976,1,0,0:0:0:0:
213,192,78126,1,0,0:0:0:70:LR_Hat Synth.wav
298,192,78126,1,0,0:0:0:0:
42,192,78276,1,2,0:0:0:0:
128,192,78276,1,0,0:0:0:0:
384,192,78276,1,0,0:0:0:0:
469,192,78276,1,0,0:0:0:0:
128,192,78426,1,0,0:0:0:70:LR_Hat Synth.wav
384,192,78426,1,0,0:0:0:0:
128,192,78501,1,0,0:0:0:0:
384,192,78501,1,0,0:0:0:0:
42,192,78576,1,8,0:0:0:0:
213,192,78576,1,0,0:0:0:0:
298,192,78576,1,0,0:0:0:0:
469,192,78576,1,0,0:0:0:0:
213,192,78726,1,0,0:0:0:70:LR_Hat Synth.wav
298,192,78726,1,0,0:0:0:0:
42,192,78876,1,2,0:0:0:0:
128,192,78876,1,0,0:0:0:0:
384,192,78876,1,0,0:0:0:0:
469,192,78876,1,0,0:0:0:0:
42,192,79026,1,0,0:0:0:70:LR_Hat Synth.wav
469,192,79026,1,0,0:0:0:0:
128,192,79176,1,8,0:0:0:0:
213,192,79176,1,0,0:0:0:0:
298,192,79176,1,0,0:0:0:0:
384,192,79176,1,0,0:0:0:0:
128,192,79326,1,0,0:0:0:70:LR_Hat Synth.wav
384,192,79326,1,0,0:0:0:0:
42,192,79476,128,2,79626:0:0:0:0:
298,192,79476,1,0,0:0:0:0:
384,192,79476,1,0,0:0:0:0:
469,192,79476,1,0,0:0:0:0:
128,192,79551,128,0,79701:0:0:0:0:
213,192,79626,128,0,79776:0:0:0:70:LR_Hat Synth.wav
298,192,79701,128,0,79851:0:0:0:0:
42,192,79776,1,8,0:0:0:0:
128,192,79776,128,0,79926:0:0:0:0:
384,192,79776,1,0,0:0:0:0:
469,192,79776,1,0,0:0:0:0:
213,192,79851,128,0,80001:0:0:0:0:
298,192,79926,128,0,80076:0:0:0:70:LR_Hat Synth.wav
384,192,80001,128,0,80151:0:0:0:0:
42,192,80076,1,2,0:0:0:0:
128,192,80076,1,0,0:0:0:0:
213,192,80076,128,0,80226:0:0:0:0:
298,192,80151,128,0,80301:0:0:0:0:
384,192,80226,128,0,80376:0:0:0:70:LR_Hat Synth.wav
469,192,80301,128,0,80451:0:0:0:0:
42,192,80376,1,8,0:0:0:0:
128,192,80376,1,0,0:0:0:0:
213,192,80376,1,0,0:0:0:0:
298,192,80376,128,0,80601:0:0:0:0:
384,192,80451,128,0,80526:0:0:0:0:
469,192,80526,128,0,80676:0:0:0:70:LR_Hat Synth.wav
384,192,80601,128,0,80676:0:0:0:0:
42,192,80676,1,2,0:0:0:0:
128,192,80676,1,0,0:0:0:70:LR_CymbalQST.wav
213,192,80676,1,0,0:0:0:0:
298,192,80676,1,0,0:0:0:0:
384,192,80826,1,0,0:0:0:70:LR_Hat Synth.wav
298,192,80901,1,0,0:0:0:0:
42,192,80976,128,8,81426:0:0:0:0:
128,192,80976,128,0,81426:0:0:0:0:
213,192,80976,1,0,0:0:0:0:
384,192,80976,1,0,0:0:0:0:
469,192,80976,1,0,0:0:0:0:
298,192,81126,1,0,0:0:0:70:LR_Hat Synth.wav
213,192,81276,128,2,81426:0:0:0:0:
298,192,81276,128,0,81426:0:0:0:0:
469,192,81276,1,0,0:0:0:0:
384,192,81426,1,0,0:0:0:70:LR_Hat Synth.wav
298,192,81501,1,0,0:0:0:0:
42,192,81576,128,8,82026:0:0:0:0:
128,192,81576,128,0,82026:0:0:0:0:
213,192,81576,1,0,0:0:0:0:
384,192,81576,1,0,0:0:0:0:
469,192,81576,1,0,0:0:0:0:
298,192,81726,1,0,0:0:0:70:LR_Hat Synth.wav
213,192,81876,128,2,82026:0:0:0:0:
298,192,81876,128,0,82026:0:0:0:0:
469,192,81876,1,0,0:0:0:0:
384,192,82026,1,0,0:0:0:70:LR_Hat Synth.wav
298,192,82101,1,0,0:0:0:0:
42,192,82176,128,8,82626:0:0:0:0:
128,192,82176,128,0,82626:0:0:0:0:
213,192,82176,1,0,0:0:0:0:
384,192,82176,1,0,0:0:0:0:
469,192,82176,1,0,0:0:0:0:
298,192,82326,1,0,0:0:0:70:LR_Hat Synth.wav
213,192,82476,128,2,82776:0:0:0:0:
298,192,82476,128,0,82776:0:0:0:0:
469,192,82476,1,0,0:0:0:0:
384,192,82626,1,0,0:0:0:70:LR_Hat Synth.wav
42,192,82776,1,8,0:0:0:0:
128,192,82776,1,0,0:0:0:0:
384,192,82776,1,0,0:0:0:0:
469,192,82776,1,0,0:0:0:0:
128,192,82926,1,0,0:0:0:70:LR_Hat Synth.wav
298,192,82926,128,0,83076:0:0:0:0:
42,192,83076,1,2,0:0:0:0:
213,192,83076,1,0,0:0:0:0:
384,192,83076,1,0,0:0:0:0:
469,192,83076,128,0,83376:0:0:0:0:
42,192,83226,1,0,0:0:0:70:LR_Hat Synth.wav
128,192,83226,1,0,0:0:0:0:
213,192,83301,1,0,0:0:0:0:
42,192,83376,1,8,0:0:0:0:
128,192,83376,1,0,0:0:0:0:
298,192,83376,128,0,83676:0:0:0:0:
384,192,83376,1,0,0:0:0:0:
213,192,83526,1,0,0:0:0:70:LR_Hat Synth.wav
42,192,83676,1,2,0:0:0:0:
128,192,83676,1,0,0:0:0:0:
213,192,83676,128,0,83976:0:0:0:0:
469,192,83676,1,0,0:0:0:0:
384,192,83826,1,0,0:0:0:70:LR_Hat Synth.wav
469,192,83826,1,0,0:0:0:0:
298,192,83901,1,0,0:0:0:0:
42,192,83976,128,8,84276:0:0:0:0:
128,192,83976,1,0,0:0:0:0:
384,192,83976,1,0,0:0:0:0:
469,192,83976,1,0,0:0:0:0:
213,192,84126,1,0,0:0:0:70:LR_Hat Synth.wav
128,192,84276,1,2,0:0:0:0:
298,192,84276,1,0,0:0:0:0:
384,192,84276,128,0,84576:0:0:0:0:
469,192,84276,1,0,0:0:0:0:
128,192,84426,1,0,0:0:0:70:LR_Hat Synth.wav
213,192,84426,1,0,0:0:0:0:
298,192,84501,1,0,0:0:0:0:
42,192,84576,1,8,0:0:0:0:
128,192,84576,128,0,84876:0:0:0:0:
213,192,84576,1,0,0:0:0:0:
469,192,84576,1,0,0:0:0:0:
298,192,84726,1,0,0:0:0:70:LR_Hat Synth.wav
42,192,84876,1,2,0:0:0:0:
213,192,84876,1,0,0:0:0:0:
384,192,84876,128,0,85476:0:0:0:0:
469,192,84876,1,0,0:0:0:0:
128,192,85026,1,0,0:0:0:70:LR_Hat Synth.wav
298,192,85026,1,0,0:0:0:0:
213,192,85101,1,0,0:0:0:0:
42,192,85176,1,8,0:0:0:0:
128,192,85176,1,0,0:0:0:0:
298,192,85176,1,0,0:0:0:0:
469,192,85176,1,0,0:0:0:0:
213,192,85326,1,0,0:0:0:70:LR_Hat Synth.wav
42,192,85476,1,2,0:0:0:0:
128,192,85476,1,0,0:0:0:70:LR_CymbalQST.wav
213,192,85476,1,0,0:0:0:0:
298,192,85476,1,0,0:0:0:0:
469,192,85476,1,0,0:0:0:0:
128,192,85626,1,0,0:0:0:70:LR_Hat Synth.wav
213,192,85701,1,0,0:0:0:0:
42,192,85776,1,8,0:0:0:0:
128,192,85776,1,0,0:0:0:0:
298,192,85776,1,0,0:0:0:0:
384,192,85776,128,0,86226:0:0:0:0:
469,192,85776,128,0,86226:0:0:0:0:
213,192,85926,1,0,0:0:0:70:LR_Hat Synth.wav
42,192,86076,1,2,0:0:0:0:
213,192,86076,128,0,86226:0:0:0:0:
298,192,86076,128,0,86226:0:0:0:0:
128,192,86226,1,0,0:0:0:70:LR_Hat Synth.wav
213,192,86301,1,0,0:0:0:0:
42,192,86376,1,8,0:0:0:0:
128,192,86376,1,0,0:0:0:0:
298,192,86376,1,0,0:0:0:0:
384,192,86376,128,0,86826:0:0:0:0:
469,192,86376,128,0,86826:0:0:0:0:
213,192,86526,1,0,0:0:0:70:LR_Hat Synth.wav
42,192,86676,1,2,0:0:0:0:
213,192,86676,128,0,86826:0:0:0:0:
298,192,86676,128,0,86826:0:0:0:0:
128,192,86826,1,0,0:0:0:70:LR_Hat Synth.wav
213,192,86901,1,0,0:0:0:0:
42,192,86976,1,8,0:0:0:0:
128,192,86976,1,0,0:0:0:0:
298,192,86976,1,0,0:0:0:0:
384,192,86976,128,0,87426:0:0:0:0:
469,192,86976,128,0,87426:0:0:0:0:
213,192,87126,1,0,0:0:0:70:LR_Hat Synth.wav
42,192,87276,1,2,0:0:0:0:
213,192,87276,128,0,87576:0:0:0:0:
298,192,87276,128,0,87576:0:0:0:0:
128,192,87426,1,0,0:0:0:70:LR_Hat Synth.wav
42,192,87576,1,8,0:0:0:0:
128,192,87576,1,0,0:0:0:0:
384,192,87576,1,0,0:0:0:0:
469,192,87576,1,0,0:0:0:0:
213,192,87726,1,0,0:0:0:70:LR_Hat Synth.wav
298,192,87726,1,0,0:0:0:0:
42,192,87876,1,2,0:0:0:0:
128,192,87876,128,0,88176:0:0:0:0:
213,192,87876,1,0,0:0:0:0:
384,192,87876,1,0,0:0:0:0:
469,192,87876,128,0,89076:0:0:0:0:
42,192,88176,128,0,88476:0:0:0:0:
384,192,88476,128,0,88776:0:0:0:0:
298,192,88776,128,0,89076:0:0:0:0:
42,192,89076,128,0,90276:0:0:0:0:
213,192,89076,128,0,89376:0:0:0:0:
213,192,89526,128,0,89676:0:0:0:0:
128,192,89676,128,0,89826:0:0:0:0:
128,192,89976,128,0,90126:0:0:0:0:
128,192,90276,128,8,90426:0:0:0:0:
213,192,90276,128,0,90444:0:0:0:0:
298,192,90276,128,0,90463:0:0:0:0:
384,192,90276,128,0,90482:0:0:0:0:
469,192,90276,128,0,90501:0:0:0:0:
128,192,90576,128,8,90801:0:0:0:0:
213,192,90576,128,0,90782:0:0:0:0:
298,192,90576,128,0,90763:0:0:0:0:
384,192,90576,128,0,90744:0:0:0:0:
469,192,90576,128,0,90726:0:0:0:0:
128,192,90876,128,8,91026:0:0:0:0:
213,192,90876,128,0,91044:0:0:0:0:
298,192,90876,128,0,91063:0:0:0:0:
384,192,90876,128,0,91082:0:0:0:0:
469,192,90876,128,0,91101:0:0:0:0:
42,192,91176,1,0,0:0:0:70:LR_J Hit Pong.wav
42,192,91476,128,8,91701:0:0:0:0:
128,192,91476,128,0,91682:0:0:0:0:
213,192,91476,128,0,91663:0:0:0:0:
298,192,91476,128,0,91644:0:0:0:0:
384,192,91476,128,0,91626:0:0:0:0:
42,192,91776,128,8,91926:0:0:0:0:
128,192,91776,128,0,91944:0:0:0:0:
213,192,91776,128,0,91963:0:0:0:0:
298,192,91776,128,0,91982:0:0:0:0:
384,192,91776,128,0,92001:0:0:0:0:
42,192,92076,128,8,92301:0:0:0:0:
128,192,92076,128,0,92282:0:0:0:0:
213,192,92076,128,0,92263:0:0:0:0:
298,192,92076,128,0,92244:0:0:0:0:
384,192,92076,128,0,92226:0:0:0:0:
469,192,92376,1,0,0:0:0:0:
128,192,92676,128,8,92901:0:0:0:0:
213,192,92676,128,0,92882:0:0:0:0:
298,192,92676,128,0,92863:0:0:0:0:
384,192,92676,128,0,92844:0:0:0:0:
469,192,92676,128,0,92826:0:0:0:0:
128,192,92976,128,8,93201:0:0:0:0:
213,192,92976,128,0,93182:0:0:0:0:
298,192,92976,128,0,93163:0:0:0:0:
384,192,92976,128,0,93144:0:0:0:0:
469,192,92976,128,0,93126:0:0:0:0:
42,192,93276,128,8,93426:0:0:0:0:
128,192,93276,128,0,93444:0:0:0:0:
213,192,93276,128,0,93463:0:0:0:0:
298,192,93276,128,0,93482:0:0:0:0:
384,192,93276,128,0,93501:0:0:0:0:
469,192,93426,128,0,93519:0:0:0:0:
42,192,93576,128,8,93726:0:0:0:0:
128,192,93576,128,0,93744:0:0:0:0:
213,192,93576,128,0,93763:0:0:0:0:
298,192,93576,128,0,93782:0:0:0:0:
384,192,93576,128,0,93801:0:0:0:0:
469,192,93726,128,0,93819:0:0:0:0:
42,192,93876,128,8,94101:0:0:0:0:
128,192,93876,128,0,94082:0:0:0:0:
213,192,93876,128,0,94063:0:0:0:0:
384,192,93876,128,0,94044:0:0:0:0:
469,192,93876,128,0,94026:0:0:0:0:
42,192,94176,128,8,94326:0:0:0:0:
128,192,94176,128,0,94344:0:0:0:0:
213,192,94176,128,0,94363:0:0:0:0:
384,192,94176,128,0,94382:0:0:0:0:
469,192,94176,128,0,94401:0:0:0:0:
42,192,94476,128,8,94701:0:0:0:0:
128,192,94476,128,0,94682:0:0:0:0:
213,192,94476,128,0,94663:0:0:0:0:
384,192,94476,128,0,94644:0:0:0:0:
469,192,94476,128,0,94626:0:0:0:0:
298,192,94776,128,0,95001:0:0:0:0:
213,192,94851,128,0,95001:0:0:0:0:
128,192,94926,128,0,95076:0:0:0:0:
42,192,95001,128,0,95076:0:0:0:0:
213,192,95076,128,8,95226:0:0:0:0:
298,192,95076,128,0,95244:0:0:0:0:
384,192,95076,128,0,95263:0:0:0:0:
469,192,95076,128,0,95282:0:0:0:0:
42,192,95226,1,4,0:0:0:0:
128,192,95226,1,0,0:0:0:0:
213,192,95376,128,8,95526:0:0:0:0:
298,192,95376,128,0,95544:0:0:0:0:
384,192,95376,128,0,95563:0:0:0:0:
469,192,95376,128,0,95582:0:0:0:0:
42,192,95526,1,4,0:0:0:0:
128,192,95526,1,0,0:0:0:0:
213,192,95676,128,8,95826:0:0:0:0:
298,192,95676,128,0,95844:0:0:0:0:
384,192,95676,128,0,95863:0:0:0:0:
469,192,95676,128,0,95882:0:0:0:0:
42,192,95751,1,0,0:0:0:0:
128,192,95826,1,4,0:0:0:0:
213,192,95901,1,0,0:0:0:0:
42,192,95976,1,0,0:0:0:70:LR_J Hit Whistle.wav
42,192,96276,128,8,96482:0:0:0:0:
128,192,96276,128,0,96463:0:0:0:0:
213,192,96276,128,0,96444:0:0:0:0:
298,192,96276,128,0,96426:0:0:0:0:
384,192,96426,1,4,0:0:0:0:
469,192,96426,1,0,0:0:0:0:
42,192,96576,128,8,96782:0:0:0:0:
128,192,96576,128,0,96763:0:0:0:0:
213,192,96576,128,0,96744:0:0:0:0:
298,192,96576,128,0,96726:0:0:0:0:
384,192,96726,1,4,0:0:0:0:
469,192,96726,1,0,0:0:0:0:
42,192,96876,128,8,97082:0:0:0:0:
128,192,96876,128,0,97063:0:0:0:0:
213,192,96876,128,0,97044:0:0:0:0:
298,192,96876,128,0,97026:0:0:0:0:
469,192,96951,1,0,0:0:0:0:
384,192,97026,1,4,0:0:0:0:
298,192,97101,1,0,0:0:0:0:
469,192,97176,1,0,0:0:0:0:
298,192,97326,1,0,0:0:0:0:
213,192,97401,1,0,0:0:0:0:
42,192,97476,1,8,0:0:0:0:
128,192,97476,1,0,0:0:0:0:
384,192,97476,1,0,0:0:0:0:
469,192,97476,1,0,0:0:0:0:
298,192,97551,1,0,0:0:0:0:
213,192,97626,1,0,0:0:0:0:
128,192,97701,1,0,0:0:0:0:
42,192,97776,1,8,0:0:0:0:
298,192,97776,1,0,0:0:0:0:
384,192,97776,1,0,0:0:0:0:
469,192,97776,1,0,0:0:0:0:
128,192,97851,1,0,0:0:0:0:
213,192,97926,1,0,0:0:0:0:
298,192,98001,1,0,0:0:0:0:
42,192,98076,1,8,0:0:0:0:
128,192,98076,1,0,0:0:0:0:
384,192,98076,1,0,0:0:0:0:
469,192,98076,1,0,0:0:0:0:
213,192,98151,1,0,0:0:0:0:
42,192,98226,1,0,0:0:0:0:
298,192,98226,1,0,0:0:0:0:
384,192,98301,1,0,0:0:0:0:
42,192,98376,1,8,0:0:0:0:
128,192,98376,1,0,0:0:0:0:
213,192,98376,1,0,0:0:0:0:
469,192,98376,1,0,0:0:0:0:
384,192,98451,1,0,0:0:0:0:
128,192,98526,1,0,0:0:0:0:
298,192,98526,1,0,0:0:0:0:
213,192,98601,1,0,0:0:0:0:
42,192,98676,1,8,0:0:0:0:
128,192,98676,1,0,0:0:0:0:
469,192,98676,1,0,0:0:0:0:
384,192,98713,1,0,0:0:0:0:
298,192,98751,1,0,0:0:0:0:
42,192,98788,1,0,0:0:0:0:
128,192,98826,1,0,0:0:0:0:
213,192,98863,1,0,0:0:0:0:
469,192,98901,1,0,0:0:0:0:
384,192,98938,1,0,0:0:0:0:
213,192,98976,1,8,0:0:0:0:
298,192,98976,1,0,0:0:0:0:
128,192,99013,1,0,0:0:0:0:
42,192,99051,1,0,0:0:0:0:
298,192,99088,1,0,0:0:0:0:
384,192,99126,1,0,0:0:0:0:
469,192,99163,1,0,0:0:0:0:
213,192,99201,1,0,0:0:0:0:
128,192,99238,1,0,0:0:0:0:
42,192,99276,1,8,0:0:0:0:
469,192,99276,1,0,0:0:0:0:
384,192,99313,1,0,0:0:0:0:
298,192,99351,1,0,0:0:0:0:
213,192,99388,1,0,0:0:0:0:
128,192,99426,1,0,0:0:0:0:
42,192,99463,1,0,0:0:0:0:
384,192,99501,1,0,0:0:0:0:
298,192,99538,1,0,0:0:0:0:
213,192,99576,1,0,0:0:0:0:
128,192,99613,1,0,0:0:0:0:
469,192,99651,1,0,0:0:0:0:
384,192,99688,1,0,0:0:0:0:
298,192,99726,1,0,0:0:0:0:
213,192,99763,1,0,0:0:0:0:
128,192,99801,1,0,0:0:0:0:
42,192,99838,1,0,0:0:0:0:
298,192,99876,1,2,0:0:0:0:
384,192,99876,1,0,0:0:0:0:
469,192,99876,128,0,100776:0:0:0:0:
42,192,100776,128,0,101001:0:0:0:0:
128,192,100826,128,0,101001:0:0:0:0:
213,192,100876,128,0,101001:0:0:0:0:
298,192,100926,128,0,101076:0:0:0:0:
384,192,100976,128,0,101076:0:0:0:0:
469,192,101026,128,0,101076:0:0:0:0:
42,192,101076,1,2,0:0:0:0:
128,192,101076,1,0,0:0:0:0:
213,192,101076,1,0,0:0:0:0:
384,192,101151,1,0,0:0:0:0:
213,192,101226,1,0,0:0:0:0:
298,192,101301,1,0,0:0:0:0:
42,192,101376,1,4,0:0:0:0:
128,192,101376,1,8,0:0:0:0:
384,192,101451,1,0,0:0:0:70:LR_Drum Rpd x2.wav
213,192,101526,1,0,0:0:0:70:LR_Drum Rpd x2.wav
298,192,101601,1,0,0:0:0:70:LR_Drum Rpd x2.wav
42,192,101676,1,4,0:0:0:0:
128,192,101676,1,8,0:0:0:0:
384,192,101751,1,0,0:0:0:70:LR_Drum Rpd x2.wav
213,192,101826,1,0,0:0:0:70:LR_Drum Rpd x2.wav
298,192,101901,1,0,0:0:0:70:LR_Drum Rpd x2.wav
42,192,101976,1,4,0:0:0:0:
128,192,101976,1,8,0:0:0:0:
384,192,102051,1,0,0:0:0:70:LR_Drum Rpd x2.wav
213,192,102126,1,0,0:0:0:70:LR_Drum Rpd x2.wav
298,192,102201,1,0,0:0:0:70:LR_Drum Rpd x2.wav
384,192,102276,1,4,0:0:0:0:
469,192,102276,1,8,0:0:0:0:
128,192,102351,1,0,0:0:0:70:LR_Drum Rpd x2.wav
298,192,102426,1,0,0:0:0:70:LR_Drum Rpd x2.wav
213,192,102501,1,0,0:0:0:70:LR_Drum Rpd x2.wav
384,192,102576,1,4,0:0:0:0:
469,192,102576,1,8,0:0:0:0:
128,192,102651,1,0,0:0:0:70:LR_Drum Rpd x2.wav
298,192,102726,1,0,0:0:0:70:LR_Drum Rpd x2.wav
213,192,102801,1,0,0:0:0:70:LR_Drum Rpd x2.wav
384,192,102876,1,4,0:0:0:0:
469,192,102876,1,8,0:0:0:0:
128,192,102951,1,0,0:0:0:70:LR_Drum Rpd x2.wav
298,192,103026,1,0,0:0:0:70:LR_Drum Rpd x2.wav
213,192,103101,1,0,0:0:0:70:LR_Drum Rpd x2.wav
384,192,103176,1,4,0:0:0:0:
469,192,103176,1,8,0:0:0:0:
128,192,103251,1,0,0:0:0:70:LR_Drum Rpd x2.wav
298,192,103326,1,0,0:0:0:70:LR_Drum Rpd x2.wav
213,192,103401,1,0,0:0:0:70:LR_Drum Rpd x2.wav
42,192,103476,1,4,0:0:0:0:
128,192,103476,1,8,0:0:0:0:
384,192,103551,1,0,0:0:0:70:LR_Drum Rpd x2.wav
469,192,103551,1,0,0:0:0:0:
213,192,103626,1,0,0:0:0:70:LR_Drum Rpd x2.wav
298,192,103701,1,0,0:0:0:70:LR_Drum Rpd x2.wav
42,192,103776,1,4,0:0:0:0:
128,192,103776,1,8,0:0:0:0:
384,192,103851,1,0,0:0:0:80:LR_Drum Rpd x2.wav
469,192,103851,1,0,0:0:0:0:
213,192,103926,1,0,0:0:0:80:LR_Drum Rpd x2.wav
298,192,104001,1,0,0:0:0:80:LR_Drum Rpd x2.wav
42,192,104076,1,4,0:0:0:0:
213,192,104076,1,8,0:0:0:0:
298,192,104151,1,0,0:0:0:100:LR_Drum Rpd x2.wav
469,192,104151,1,0,0:0:0:0:
128,192,104226,1,0,0:0:0:100:LR_Drum Rpd x2.wav
384,192,104301,1,0,0:0:0:100:LR_Drum Rpd x2.wav
42,192,104376,1,4,0:0:0:0:
213,192,104376,1,8,0:0:0:0:
298,192,104451,1,4,0:0:0:0:
469,192,104451,1,0,0:0:0:0:
128,192,104526,1,4,0:0:0:0:
384,192,104601,1,4,0:0:0:0:
298,192,104676,1,4,0:0:0:0:
469,192,104676,1,8,0:0:0:0:
42,192,104751,1,4,0:0:0:0:
213,192,104751,1,0,0:0:0:0:
384,192,104826,1,4,0:0:0:0:
128,192,104901,1,4,0:0:0:0:
298,192,104976,1,8,0:0:0:0:
469,192,104976,1,4,0:0:0:0:
42,192,105051,1,4,0:0:0:0:
213,192,105051,1,0,0:0:0:0:
384,192,105126,1,4,0:0:0:0:
128,192,105201,1,4,0:0:0:0:
298,192,105276,1,4,0:0:0:0:
384,192,105276,1,8,0:0:0:0:
128,192,105351,1,4,0:0:0:0:
213,192,105351,1,0,0:0:0:0:
469,192,105426,1,4,0:0:0:0:
42,192,105501,1,4,0:0:0:0:
298,192,105576,1,8,0:0:0:0:
384,192,105576,1,4,0:0:0:0:
128,192,105651,1,4,0:0:0:0:
213,192,105651,1,0,0:0:0:0:
469,192,105726,1,4,0:0:0:0:
42,192,105801,1,4,0:0:0:0:
213,192,105876,1,4,0:0:0:0:
384,192,105876,1,8,0:0:0:0:
469,192,105876,1,0,0:0:0:0:
42,192,105951,1,4,0:0:0:0:
128,192,105951,1,0,0:0:0:0:
298,192,105951,1,0,0:0:0:0:
384,192,106026,1,4,0:0:0:0:
469,192,106026,1,0,0:0:0:0:
42,192,106101,1,4,0:0:0:0:
128,192,106101,1,0,0:0:0:0:
213,192,106176,1,8,0:0:0:0:
384,192,106176,1,4,0:0:0:0:
469,192,106176,1,0,0:0:0:0:
42,192,106251,1,4,0:0:0:0:
128,192,106251,1,0,0:0:0:0:
298,192,106251,1,0,0:0:0:0:
384,192,106326,1,4,0:0:0:0:
469,192,106326,1,0,0:0:0:0:
128,192,106401,1,4,0:0:0:0:
213,192,106401,1,0,0:0:0:0:
42,192,106476,1,4,0:0:0:0:
298,192,106476,1,8,0:0:0:0:
384,192,106476,1,0,0:0:0:0:
128,192,106551,1,4,0:0:0:0:
213,192,106551,1,0,0:0:0:0:
469,192,106551,1,0,0:0:0:0:
298,192,106626,1,4,0:0:0:0:
384,192,106626,1,0,0:0:0:0:
128,192,106701,1,4,0:0:0:0:
213,192,106701,1,0,0:0:0:0:
42,192,106776,1,8,0:0:0:0:
298,192,106776,1,4,0:0:0:0:
384,192,106776,1,0,0:0:0:0:
128,192,106851,1,4,0:0:0:0:
213,192,106851,1,0,0:0:0:0:
469,192,106851,1,0,0:0:0:0:
298,192,106926,1,4,0:0:0:0:
384,192,106926,1,0,0:0:0:0:
42,192,107001,1,4,0:0:0:0:
128,192,107001,1,0,0:0:0:0:
213,192,107076,1,8,0:0:0:0:
384,192,107076,1,4,0:0:0:0:
469,192,107076,1,0,0:0:0:0:
42,192,107151,1,4,0:0:0:0:
128,192,107151,1,0,0:0:0:0:
298,192,107151,1,0,0:0:0:0:
384,192,107226,1,4,0:0:0:0:
469,192,107226,1,0,0:0:0:0:
42,192,107301,1,4,0:0:0:0:
128,192,107301,1,0,0:0:0:0:
213,192,107376,1,4,0:0:0:0:
384,192,107376,1,8,0:0:0:0:
469,192,107376,1,0,0:0:0:0:
42,192,107451,1,4,0:0:0:0:
128,192,107451,1,0,0:0:0:0:
298,192,107451,1,0,0:0:0:0:
384,192,107526,1,4,0:0:0:0:
469,192,107526,1,0,0:0:0:0:
42,192,107601,1,4,0:0:0:0:
213,192,107601,1,0,0:0:0:0:
128,192,107676,1,8,0:0:0:0:
298,192,107676,1,4,0:0:0:0:
469,192,107676,1,0,0:0:0:0:
42,192,107751,1,4,0:0:0:0:
213,192,107751,1,0,0:0:0:0:
384,192,107751,1,0,0:0:0:0:
298,192,107826,1,4,0:0:0:0:
469,192,107826,1,0,0:0:0:0:
42,192,107901,1,4,0:0:0:0:
213,192,107901,1,0,0:0:0:0:
128,192,107976,1,4,0:0:0:0:
298,192,107976,1,8,0:0:0:0:
469,192,107976,1,0,0:0:0:0:
42,192,108051,1,4,0:0:0:0:
213,192,108051,1,0,0:0:0:0:
384,192,108051,1,0,0:0:0:0:
298,192,108126,1,4,0:0:0:0:
469,192,108126,1,0,0:0:0:0:
42,192,108201,1,4,0:0:0:0:
128,192,108201,1,0,0:0:0:0:
298,192,108276,1,4,0:0:0:0:
384,192,108276,1,8,0:0:0:0:
469,192,108276,1,0,0:0:0:0:
42,192,108351,1,4,0:0:0:0:
128,192,108351,1,0,0:0:0:0:
213,192,108351,1,0,0:0:0:0:
298,192,108426,1,4,0:0:0:0:
384,192,108426,1,0,0:0:0:0:
469,192,108426,1,0,0:0:0:0:
42,192,108501,1,4,0:0:0:0:
128,192,108501,1,0,0:0:0:0:
213,192,108501,1,0,0:0:0:0:
298,192,108576,1,8,0:0:0:0:
384,192,108576,1,4,0:0:0:0:
469,192,108576,1,0,0:0:0:0:
42,192,108651,1,4,0:0:0:0:
128,192,108651,1,0,0:0:0:0:
213,192,108651,1,0,0:0:0:0:
298,192,108726,1,4,0:0:0:0:
384,192,108726,1,0,0:0:0:0:
469,192,108726,1,0,0:0:0:0:
42,192,108801,1,4,0:0:0:0:
128,192,108801,1,0,0:0:0:0:
213,192,108801,1,0,0:0:0:0:
298,192,108876,1,8,0:0:0:0:
384,192,108876,1,4,0:0:0:0:
469,192,108876,1,0,0:0:0:0:
42,192,108951,1,4,0:0:0:0:
128,192,108951,1,0,0:0:0:0:
213,192,108951,1,0,0:0:0:0:
298,192,109026,1,4,0:0:0:0:
384,192,109026,1,0,0:0:0:0:
469,192,109026,1,0,0:0:0:0:
42,192,109101,1,4,0:0:0:0:
128,192,109101,1,0,0:0:0:0:
213,192,109101,1,0,0:0:0:0:
384,192,109176,1,4,0:0:0:0:
469,192,109176,1,8,0:0:0:0:
213,192,109213,1,4,0:0:0:0:
298,192,109213,1,0,0:0:0:0:
42,192,109251,1,4,0:0:0:0:
128,192,109251,1,0,0:0:0:0:
384,192,109288,1,4,0:0:0:0:
469,192,109288,1,0,0:0:0:0:
213,192,109326,1,4,0:0:0:0:
298,192,109326,1,0,0:0:0:0:
42,192,109363,1,4,0:0:0:0:
128,192,109363,1,0,0:0:0:0:
384,192,109401,1,4,0:0:0:0:
469,192,109401,1,0,0:0:0:0:
213,192,109438,1,4,0:0:0:0:
298,192,109438,1,0,0:0:0:0:
42,192,109476,128,4,110076:0:0:0:0:
128,192,109476,1,0,0:0:0:0:
128,192,109626,128,0,110176:0:0:0:0:
213,192,109776,128,0,110276:0:0:0:0:
298,192,109926,128,0,110376:0:0:0:0:
384,192,110076,128,0,110476:0:0:0:0:
469,192,110376,128,0,110576:0:0:0:0:
42,192,110676,1,4,0:0:0:0:
128,192,110676,1,0,0:0:0:70:LR_Kick-long med bass.wav
213,192,110676,1,0,0:0:0:70:LR_CymbalQST.wav
298,192,110676,1,0,0:0:0:0:
384,192,110676,1,0,0:0:0:0:
469,192,110676,128,0,110901:0:0:0:0:
42,192,110826,128,0,110882:0:0:0:70:LR_Hat Synth.wav
128,192,110826,128,0,110863:0:0:0:0:
42,192,110976,1,4,0:0:0:0:
128,192,110976,1,0,0:0:0:70:LR_Kick-long med bass.wav
213,192,110976,1,0,0:0:0:0:
469,192,110976,128,0,111201:0:0:0:0:
42,192,111126,128,0,111182:0:0:0:70:LR_Hat Synth.wav
128,192,111126,128,0,111163:0:0:0:0:
384,192,111126,128,0,111201:0:0:0:0:
42,192,111276,1,4,0:0:0:0:
128,192,111276,1,0,0:0:0:70:LR_Kick-long med bass.wav
213,192,111276,1,0,0:0:0:0:
384,192,111276,128,0,111501:0:0:0:0:
42,192,111426,128,0,111482:0:0:0:70:LR_Hat Synth.wav
128,192,111426,128,0,111463:0:0:0:0:
298,192,111426,128,0,111501:0:0:0:0:
42,192,111576,1,4,0:0:0:0:
128,192,111576,1,0,0:0:0:70:LR_Kick-long med bass.wav
213,192,111576,1,0,0:0:0:0:
298,192,111576,128,0,111801:0:0:0:0:
42,192,111726,128,0,111782:0:0:0:70:LR_Hat Synth.wav
128,192,111726,128,0,111763:0:0:0:0:
384,192,111726,128,0,111801:0:0:0:0:
42,192,111876,1,4,0:0:0:0:
128,192,111876,1,0,0:0:0:70:LR_Kick-long med bass.wav
213,192,111876,1,0,0:0:0:0:
384,192,111876,128,0,112101:0:0:0:0:
213,192,112026,1,0,0:0:0:70:LR_Hat Synth.wav
298,192,112026,128,0,112101:0:0:0:0:
42,192,112176,1,4,0:0:0:0:
128,192,112176,1,0,0:0:0:70:LR_Kick-long med bass.wav
298,192,112176,128,0,112401:0:0:0:0:
469,192,112176,1,0,0:0:0:0:
128,192,112326,1,0,0:0:0:70:LR_Hat Synth.wav
213,192,112326,128,0,112401:0:0:0:0:
42,192,112476,1,4,0:0:0:0:
213,192,112476,128,0,112701:0:0:0:70:LR_Kick-long med bass.wav
384,192,112476,1,0,0:0:0:0:
469,192,112476,1,0,0:0:0:0:
128,192,112626,128,0,112701:0:0:0:70:LR_Hat Synth.wav
384,192,112626,1,0,0:0:0:0:
128,192,112776,128,4,113001:0:0:0:0:
213,192,112776,1,0,0:0:0:70:LR_Kick-long med bass.wav
298,192,112776,1,0,0:0:0:0:
469,192,112776,1,0,0:0:0:0:
42,192,112926,128,0,113001:0:0:0:70:LR_Hat Synth.wav
298,192,112926,1,0,0:0:0:0:
42,192,113076,128,4,113301:0:0:0:0:
213,192,113076,1,0,0:0:0:70:LR_Kick-long med bass.wav
384,192,113076,1,0,0:0:0:0:
469,192,113076,1,0,0:0:0:0:
128,192,113226,128,0,113301:0:0:0:70:LR_Hat Synth.wav
384,192,113226,128,0,113263:0:0:0:0:
469,192,113226,128,0,113282:0:0:0:0:
128,192,113376,128,4,113601:0:0:0:0:
298,192,113376,1,0,0:0:0:70:LR_Kick-long med bass.wav
384,192,113376,1,0,0:0:0:0:
469,192,113376,1,0,0:0:0:0:
213,192,113526,128,0,113601:0:0:0:70:LR_Hat Synth.wav
384,192,113526,128,0,113563:0:0:0:0:
469,192,113526,128,0,113582:0:0:0:0:
213,192,113676,128,4,113901:0:0:0:0:
298,192,113676,1,0,0:0:0:70:LR_Kick-long med bass.wav
384,192,113676,1,0,0:0:0:0:
469,192,113676,1,0,0:0:0:0:
128,192,113826,128,0,113901:0:0:0:70:LR_Hat Synth.wav
384,192,113826,128,0,113863:0:0:0:0:
469,192,113826,128,0,113882:0:0:0:0:
128,192,113976,128,4,114201:0:0:0:0:
298,192,113976,1,0,0:0:0:70:LR_Kick-long med bass.wav
384,192,113976,1,0,0:0:0:0:
469,192,113976,1,0,0:0:0:0:
213,192,114126,128,0,114201:0:0:0:70:LR_Hat Synth.wav
384,192,114126,128,0,114163:0:0:0:0:
469,192,114126,128,0,114182:0:0:0:0:
42,192,114276,1,4,0:0:0:0:
128,192,114276,1,0,0:0:0:70:LR_Kick-long med bass.wav
213,192,114276,128,0,114426:0:0:0:0:
469,192,114276,1,0,0:0:0:0:
384,192,114351,1,0,0:0:0:0:
128,192,114426,1,0,0:0:0:70:LR_Hat Synth.wav
298,192,114426,128,0,114576:0:0:0:0:
213,192,114501,1,0,0:0:0:0:
42,192,114576,1,4,0:0:0:0:
128,192,114576,1,0,0:0:0:70:LR_Kick-long med bass.wav
384,192,114576,128,0,114726:0:0:0:0:
469,192,114576,1,0,0:0:0:0:
298,192,114651,1,0,0:0:0:0:
213,192,114726,1,0,0:0:0:70:LR_Hat Synth.wav
469,192,114726,128,0,114876:0:0:0:0:
384,192,114801,1,0,0:0:0:0:
42,192,114876,128,4,115026:0:0:0:0:
128,192,114876,1,0,0:0:0:70:LR_Kick-long med bass.wav
213,192,114876,1,0,0:0:0:0:
298,192,114876,1,0,0:0:0:0:
469,192,114951,1,0,0:0:0:0:
128,192,115026,128,0,115176:0:0:0:70:LR_Hat Synth.wav
384,192,115026,1,0,0:0:0:0:
42,192,115101,1,0,0:0:0:0:
213,192,115176,128,4,115326:0:0:0:0:
298,192,115176,1,0,0:0:0:70:LR_Kick-long med bass.wav
384,192,115176,1,0,0:0:0:0:
469,192,115176,1,0,0:0:0:0:
128,192,115251,1,0,0:0:0:0:
42,192,115326,1,0,0:0:0:70:LR_Hat Synth.wav
298,192,115326,128,0,115476:0:0:0:0:
213,192,115401,1,0,0:0:0:0:
42,192,115476,128,4,115701:0:0:0:0:
128,192,115476,1,0,0:0:0:70:LR_Kick-long med bass.wav
384,192,115476,1,0,0:0:0:70:LR_CymbalQST.wav
469,192,115476,1,0,0:0:0:0:
128,192,115626,128,0,115701:0:0:0:70:LR_Hat Synth.wav
384,192,115626,128,0,115663:0:0:0:0:
469,192,115626,128,0,115682:0:0:0:0:
128,192,115776,128,4,116001:0:0:0:0:
298,192,115776,1,0,0:0:0:70:LR_Kick-long med bass.wav
384,192,115776,1,0,0:0:0:0:
469,192,115776,1,0,0:0:0:0:
213,192,115926,128,0,116001:0:0:0:70:LR_Hat Synth.wav
384,192,115926,128,0,115963:0:0:0:0:
469,192,115926,128,0,115982:0:0:0:0:
213,192,116076,128,4,116301:0:0:0:0:
298,192,116076,1,0,0:0:0:70:LR_Kick-long med bass.wav
384,192,116076,1,0,0:0:0:0:
469,192,116076,1,0,0:0:0:0:
42,192,116226,128,0,116301:0:0:0:70:LR_Hat Synth.wav
384,192,116226,128,0,116263:0:0:0:0:
469,192,116226,128,0,116282:0:0:0:0:
42,192,116376,128,4,116601:0:0:0:0:
298,192,116376,1,0,0:0:0:70:LR_Kick-long med bass.wav
384,192,116376,1,0,0:0:0:0:
469,192,116376,1,0,0:0:0:0:
128,192,116526,128,0,116601:0:0:0:70:LR_Hat Synth.wav
384,192,116526,128,0,116563:0:0:0:0:
469,192,116526,128,0,116582:0:0:0:0:
128,192,116676,128,4,116901:0:0:0:0:
298,192,116676,1,0,0:0:0:70:LR_Kick-long med bass.wav
384,192,116676,1,0,0:0:0:0:
469,192,116676,1,0,0:0:0:0:
213,192,116826,128,0,116901:0:0:0:70:LR_Hat Synth.wav
298,192,116826,1,0,0:0:0:0:
42,192,116976,1,4,0:0:0:0:
213,192,116976,128,0,117201:0:0:0:70:LR_Kick-long med bass.wav
384,192,116976,1,0,0:0:0:0:
469,192,116976,1,0,0:0:0:0:
298,192,117126,128,0,117201:0:0:0:70:LR_Hat Synth.wav
384,192,117126,1,0,0:0:0:0:
42,192,117276,1,4,0:0:0:0:
128,192,117276,1,0,0:0:0:70:LR_Kick-long med bass.wav
298,192,117276,128,0,117501:0:0:0:0:
469,192,117276,1,0,0:0:0:0:
128,192,117426,1,0,0:0:0:70:LR_Hat Synth.wav
384,192,117426,128,0,117501:0:0:0:0:
42,192,117576,1,4,0:0:0:0:
213,192,117576,1,0,0:0:0:70:LR_Kick-long med bass.wav
298,192,117576,1,0,0:0:0:0:
384,192,117576,128,0,117801:0:0:0:0:
213,192,117726,1,0,0:0:0:70:LR_Hat Synth.wav
469,192,117726,128,0,117801:0:0:0:0:
42,192,117876,1,4,0:0:0:0:
128,192,117876,1,0,0:0:0:70:LR_Kick-long med bass.wav
384,192,117876,1,0,0:0:0:0:
469,192,117876,128,0,118101:0:0:0:0:
42,192,118026,128,0,118082:0:0:0:70:LR_Hat Synth.wav
128,192,118026,128,0,118063:0:0:0:0:
298,192,118026,128,0,118101:0:0:0:0:
42,192,118176,1,4,0:0:0:0:
128,192,118176,1,0,0:0:0:70:LR_Kick-long med bass.wav
213,192,118176,1,0,0:0:0:0:
298,192,118176,128,0,118401:0:0:0:0:
42,192,118326,128,0,118382:0:0:0:70:LR_Hat Synth.wav
128,192,118326,128,0,118363:0:0:0:0:
469,192,118326,128,0,118401:0:0:0:0:
42,192,118476,1,4,0:0:0:0:
128,192,118476,1,0,0:0:0:70:LR_Kick-long med bass.wav
213,192,118476,1,0,0:0:0:0:
469,192,118476,128,0,118701:0:0:0:0:
42,192,118626,128,0,118682:0:0:0:70:LR_Hat Synth.wav
128,192,118626,128,0,118663:0:0:0:0:
298,192,118626,128,0,118701:0:0:0:0:
42,192,118776,1,4,0:0:0:0:
128,192,118776,1,0,0:0:0:70:LR_Kick-long med bass.wav
213,192,118776,1,0,0:0:0:0:
298,192,118776,128,0,119001:0:0:0:0:
42,192,118926,128,0,118982:0:0:0:70:LR_Hat Synth.wav
128,192,118926,128,0,118963:0:0:0:0:
469,192,118926,128,0,119001:0:0:0:0:
42,192,119076,1,4,0:0:0:0:
128,192,119076,1,0,0:0:0:70:LR_Kick-long med bass.wav
298,192,119076,1,0,0:0:0:0:
469,192,119076,1,0,0:0:0:0:
213,192,119226,1,0,0:0:0:70:LR_Drum Rpd x2.wav
384,192,119226,1,0,0:0:0:0:
213,192,119301,1,0,0:0:0:70:LR_Drum Rpd x2.wav
384,192,119301,1,0,0:0:0:0:
213,192,119376,1,0,0:0:0:70:LR_Drum Rpd x2.wav
384,192,119376,1,0,0:0:0:0:
213,192,119526,1,0,0:0:0:70:LR_Drum Rpd x2.wav
384,192,119526,1,0,0:0:0:0:
128,192,119676,1,0,0:0:0:70:LR_Drum Rpd x2.wav
298,192,119676,1,0,0:0:0:0:
128,192,119826,1,0,0:0:0:70:LR_Drum Rpd x2.wav
298,192,119826,1,0,0:0:0:0:
42,192,119976,1,0,0:0:0:70:LR_Drum Rpd x2.wav
213,192,119976,1,0,0:0:0:0:
298,192,120126,1,0,0:0:0:70:LR_Drum Rpd x2.wav
469,192,120126,1,0,0:0:0:0:
42,192,120276,128,4,120501:0:0:0:0:
128,192,120276,1,0,0:0:0:70:LR_Kick-long med bass.wav
213,192,120276,1,0,0:0:0:70:LR_CymbalQST.wav
298,192,120276,1,0,0:0:0:0:
384,192,120276,1,0,0:0:0:0:
469,192,120276,1,0,0:0:0:0:
384,192,120426,128,0,120463:0:0:0:70:LR_Hat Synth.wav
469,192,120426,128,0,120482:0:0:0:0:
128,192,120501,1,0,0:0:0:0:
213,192,120501,1,0,0:0:0:0:
42,192,120576,128,4,120801:0:0:0:0:
298,192,120576,1,0,0:0:0:70:LR_Kick-long med bass.wav
384,192,120576,1,0,0:0:0:0:
469,192,120576,1,0,0:0:0:0:
128,192,120726,128,0,120801:0:0:0:70:LR_Hat Synth.wav
384,192,120726,128,0,120763:0:0:0:0:
469,192,120726,128,0,120782:0:0:0:0:
42,192,120876,1,4,0:0:0:0:
128,192,120876,128,0,121101:0:0:0:70:LR_Kick-long med bass.wav
384,192,120876,1,0,0:0:0:0:
469,192,120876,1,0,0:0:0:0:
298,192,120951,1,0,0:0:0:0:
213,192,121026,128,0,121101:0:0:0:70:LR_Hat Synth.wav
384,192,121026,128,0,121063:0:0:0:0:
469,192,121026,128,0,121082:0:0:0:0:
213,192,121176,128,4,121401:0:0:0:0:
298,192,121176,1,0,0:0:0:70:LR_Kick-long med bass.wav
384,192,121176,1,0,0:0:0:0:
469,192,121176,1,0,0:0:0:0:
128,192,121326,128,0,121401:0:0:0:70:LR_Hat Synth.wav
384,192,121326,128,0,121363:0:0:0:0:
469,192,121326,128,0,121382:0:0:0:0:
128,192,121476,128,4,121701:0:0:0:0:
298,192,121476,1,0,0:0:0:70:LR_Kick-long med bass.wav
384,192,121476,1,0,0:0:0:0:
469,192,121476,1,0,0:0:0:0:
213,192,121626,128,0,121701:0:0:0:70:LR_Hat Synth.wav
469,192,121626,1,0,0:0:0:0:
298,192,121701,1,0,0:0:0:0:
384,192,121701,1,0,0:0:0:0:
42,192,121776,1,4,0:0:0:0:
128,192,121776,1,0,0:0:0:70:LR_Kick-long med bass.wav
213,192,121776,128,0,122001:0:0:0:0:
469,192,121776,1,0,0:0:0:0:
298,192,121926,128,0,122001:0:0:0:70:LR_Hat Synth.wav
384,192,121926,1,0,0:0:0:0:
42,192,122076,1,4,0:0:0:0:
128,192,122076,1,0,0:0:0:70:LR_Kick-long med bass.wav
298,192,122076,128,0,122301:0:0:0:0:
469,192,122076,1,0,0:0:0:0:
213,192,122151,1,0,0:0:0:0:
128,192,122226,1,0,0:0:0:70:LR_Hat Synth.wav
384,192,122226,128,0,122301:0:0:0:0:
42,192,122376,1,4,0:0:0:0:
213,192,122376,1,0,0:0:0:70:LR_Kick-long med bass.wav
298,192,122376,1,0,0:0:0:0:
384,192,122376,128,0,122601:0:0:0:0:
213,192,122526,1,0,0:0:0:70:LR_Hat Synth.wav
469,192,122526,128,0,122601:0:0:0:0:
42,192,122676,1,4,0:0:0:0:
128,192,122676,1,0,0:0:0:70:LR_Kick-long med bass.wav
298,192,122676,1,0,0:0:0:0:
469,192,122676,128,0,122901:0:0:0:0:
42,192,122826,128,0,122882:0:0:0:70:LR_Hat Synth.wav
128,192,122826,128,0,122863:0:0:0:0:
384,192,122826,128,0,122901:0:0:0:0:
213,192,122901,1,0,0:0:0:0:
298,192,122901,1,0,0:0:0:0:
42,192,122976,1,4,0:0:0:0:
128,192,122976,1,0,0:0:0:70:LR_Kick-long med bass.wav
384,192,122976,128,0,123201:0:0:0:0:
469,192,122976,1,0,0:0:0:0:
42,192,123126,128,0,123182:0:0:0:70:LR_Hat Synth.wav
128,192,123126,128,0,123163:0:0:0:0:
298,192,123126,128,0,123201:0:0:0:0:
42,192,123276,1,4,0:0:0:0:
128,192,123276,1,0,0:0:0:70:LR_Kick-long med bass.wav
298,192,123276,128,0,123501:0:0:0:0:
469,192,123276,1,0,0:0:0:0:
213,192,123351,1,0,0:0:0:0:
42,192,123426,128,0,123482:0:0:0:70:LR_Hat Synth.wav
128,192,123426,128,0,123463:0:0:0:0:
384,192,123426,128,0,123501:0:0:0:0:
42,192,123576,1,4,0:0:0:0:
128,192,123576,1,0,0:0:0:70:LR_Kick-long med bass.wav
213,192,123576,1,0,0:0:0:0:
384,192,123576,128,0,123801:0:0:0:0:
42,192,123726,128,0,123782:0:0:0:70:LR_Hat Synth.wav
128,192,123726,128,0,123763:0:0:0:0:
298,192,123726,128,0,123801:0:0:0:0:
42,192,123876,1,4,0:0:0:0:
298,192,123876,128,0,124026:0:0:0:70:LR_Kick-long med bass.wav
384,192,123876,1,0,0:0:0:0:
469,192,123876,1,0,0:0:0:0:
128,192,123951,1,0,0:0:0:0:
213,192,124026,128,0,124176:0:0:0:70:LR_Hat Synth.wav
384,192,124026,1,0,0:0:0:0:
298,192,124101,1,0,0:0:0:0:
42,192,124176,1,4,0:0:0:0:
128,192,124176,128,0,124326:0:0:0:70:LR_Kick-long med bass.wav
384,192,124176,1,0,0:0:0:0:
469,192,124176,1,0,0:0:0:0:
213,192,124251,1,0,0:0:0:0:
42,192,124326,128,0,124476:0:0:0:70:LR_Hat Synth.wav
298,192,124326,1,0,0:0:0:0:
128,192,124401,1,0,0:0:0:0:
213,192,124476,1,4,0:0:0:0:
298,192,124476,1,0,0:0:0:70:LR_Kick-long med bass.wav
384,192,124476,1,0,0:0:0:0:
469,192,124476,128,0,124626:0:0:0:0:
42,192,124551,1,0,0:0:0:0:
128,192,124626,1,0,0:0:0:70:LR_Hat Synth.wav
384,192,124626,128,0,124776:0:0:0:0:
469,192,124701,1,0,0:0:0:0:
42,192,124776,1,4,0:0:0:0:
128,192,124776,1,0,0:0:0:70:LR_Kick-long med bass.wav
213,192,124776,1,0,0:0:0:0:
298,192,124776,128,0,124926:0:0:0:0:
384,192,124851,1,0,0:0:0:0:
213,192,124926,128,0,125076:0:0:0:70:LR_Hat Synth.wav
469,192,124926,1,0,0:0:0:0:
298,192,125001,1,0,0:0:0:0:
42,192,125076,1,4,0:0:0:0:
128,192,125076,1,0,0:0:0:70:LR_Kick-long med bass.wav
384,192,125076,1,0,0:0:0:70:LR_CymbalQST.wav
469,192,125076,128,0,125301:0:0:0:0:
42,192,125226,128,0,125282:0:0:0:70:LR_Hat Synth.wav
128,192,125226,128,0,125263:0:0:0:0:
384,192,125226,128,0,125301:0:0:0:0:
213,192,125301,1,0,0:0:0:0:
298,192,125301,1,0,0:0:0:0:
42,192,125376,1,4,0:0:0:0:
128,192,125376,1,0,0:0:0:70:LR_Kick-long med bass.wav
384,192,125376,128,0,125601:0:0:0:0:
469,192,125376,1,0,0:0:0:0:
42,192,125526,128,0,125582:0:0:0:70:LR_Hat Synth.wav
128,192,125526,128,0,125563:0:0:0:0:
298,192,125526,128,0,125601:0:0:0:0:
42,192,125676,1,4,0:0:0:0:
128,192,125676,1,0,0:0:0:70:LR_Kick-long med bass.wav
298,192,125676,128,0,125901:0:0:0:0:
384,192,125676,1,0,0:0:0:0:
213,192,125751,1,0,0:0:0:0:
42,192,125826,128,0,125882:0:0:0:70:LR_Hat Synth.wav
128,192,125826,128,0,125863:0:0:0:0:
469,192,125826,128,0,125901:0:0:0:0:
42,192,125976,1,4,0:0:0:0:
128,192,125976,1,0,0:0:0:70:LR_Kick-long med bass.wav
213,192,125976,1,0,0:0:0:0:
469,192,125976,128,0,126201:0:0:0:0:
42,192,126126,128,0,126182:0:0:0:70:LR_Hat Synth.wav
128,192,126126,128,0,126163:0:0:0:0:
384,192,126126,128,0,126201:0:0:0:0:
42,192,126276,1,4,0:0:0:0:
128,192,126276,1,0,0:0:0:70:LR_Kick-long med bass.wav
213,192,126276,1,0,0:0:0:0:
384,192,126276,128,0,126501:0:0:0:0:
42,192,126426,1,0,0:0:0:70:LR_Hat Synth.wav
298,192,126426,128,0,126501:0:0:0:0:
128,192,126501,1,0,0:0:0:0:
213,192,126501,1,0,0:0:0:0:
42,192,126576,1,4,0:0:0:0:
298,192,126576,128,0,126801:0:0:0:70:LR_Kick-long med bass.wav
384,192,126576,1,0,0:0:0:0:
469,192,126576,1,0,0:0:0:0:
128,192,126726,1,0,0:0:0:70:LR_Hat Synth.wav
213,192,126726,128,0,126801:0:0:0:0:
42,192,126876,1,4,0:0:0:0:
213,192,126876,128,0,127101:0:0:0:70:LR_Kick-long med bass.wav
384,192,126876,1,0,0:0:0:0:
469,192,126876,1,0,0:0:0:0:
298,192,126951,1,0,0:0:0:0:
128,192,127026,128,0,127101:0:0:0:70:LR_Hat Synth.wav
384,192,127026,1,0,0:0:0:0:
128,192,127176,128,4,127401:0:0:0:0:
213,192,127176,1,0,0:0:0:70:LR_Kick-long med bass.wav
298,192,127176,1,0,0:0:0:0:
469,192,127176,1,0,0:0:0:0:
42,192,127326,128,0,127401:0:0:0:70:LR_Hat Synth.wav
298,192,127326,1,0,0:0:0:0:
42,192,127476,1,4,0:0:0:0:
128,192,127476,1,0,0:0:0:70:LR_Kick-long med bass.wav
213,192,127476,1,0,0:0:0:0:
298,192,127476,1,0,0:0:0:0:
384,192,127476,1,0,0:0:0:0:
469,192,127551,1,0,0:0:0:70:LR_Drum Rpd x2.wav
128,192,127626,128,0,127663:0:0:0:70:LR_Drum Rpd x2.wav
213,192,127626,128,0,127663:0:0:0:0:
298,192,127626,128,0,127663:0:0:0:0:
384,192,127626,128,0,127663:0:0:0:0:
42,192,127701,1,0,0:0:0:70:LR_Drum Rpd x2.wav
128,192,127776,1,4,0:0:0:0:
213,192,127776,1,0,0:0:0:70:LR_Kick-long med bass.wav
298,192,127776,1,0,0:0:0:0:
384,192,127776,1,0,0:0:0:0:
469,192,127776,1,0,0:0:0:0:
42,192,127851,1,0,0:0:0:70:LR_Drum Rpd x2.wav
128,192,127926,128,0,127963:0:0:0:70:LR_Drum Rpd x2.wav
213,192,127926,128,0,127963:0:0:0:0:
298,192,127926,128,0,127963:0:0:0:0:
469,192,127926,128,0,127963:0:0:0:0:
384,192,128001,1,0,0:0:0:70:LR_Drum Rpd x2.wav
42,192,128076,1,4,0:0:0:0:
128,192,128076,1,0,0:0:0:70:LR_Kick-long med bass.wav
213,192,128076,1,0,0:0:0:0:
298,192,128076,1,0,0:0:0:0:
469,192,128076,1,0,0:0:0:0:
384,192,128151,1,0,0:0:0:70:LR_Drum Rpd x2.wav
42,192,128226,128,0,128263:0:0:0:70:LR_Drum Rpd x2.wav
213,192,128226,128,0,128263:0:0:0:0:
298,192,128226,128,0,128263:0:0:0:0:
469,192,128226,128,0,128263:0:0:0:0:
128,192,128301,1,0,0:0:0:70:LR_Drum Rpd x2.wav
42,192,128376,1,4,0:0:0:0:
213,192,128376,1,0,0:0:0:70:LR_Kick-long med bass.wav
298,192,128376,1,0,0:0:0:0:
384,192,128376,1,0,0:0:0:0:
469,192,128376,1,0,0:0:0:0:
128,192,128451,1,0,0:0:0:70:LR_Drum Rpd x2.wav
42,192,128526,128,0,128563:0:0:0:70:LR_Drum Rpd x2.wav
213,192,128526,128,0,128563:0:0:0:0:
298,192,128526,128,0,128563:0:0:0:0:
384,192,128526,128,0,128563:0:0:0:0:
469,192,128601,1,0,0:0:0:70:LR_Drum Rpd x2.wav
42,192,128676,1,4,0:0:0:0:
128,192,128676,1,0,0:0:0:70:LR_Kick-long med bass.wav
213,192,128676,1,0,0:0:0:0:
298,192,128676,1,0,0:0:0:0:
384,192,128676,1,0,0:0:0:0:
213,192,128826,1,0,0:0:0:0:
128,192,128863,1,0,0:0:0:0:
213,192,128901,1,0,0:0:0:0:
298,192,128976,1,0,0:0:0:0:
298,192,129051,1,0,0:0:0:0:
213,192,129126,1,0,0:0:0:0:
213,192,129201,1,0,0:0:0:0:
298,192,129276,1,0,0:0:0:0:
384,192,129313,1,0,0:0:0:0:
213,192,129426,1,0,0:0:0:0:
128,192,129463,1,0,0:0:0:0:
298,192,129576,1,0,0:0:0:0:
384,192,129613,1,0,0:0:0:0:
213,192,129726,1,0,0:0:0:0:
128,192,129763,1,0,0:0:0:0:
42,192,129876,1,2,0:0:0:0:
213,192,129876,1,0,0:0:0:0:
298,192,129876,1,0,0:0:0:0:
384,192,129876,128,0,130401:0:0:0:0:
469,192,129876,128,0,130401:0:0:0:0:
42,192,130026,1,0,0:0:0:0:
128,192,130026,1,0,0:0:0:0:
213,192,130101,1,0,0:0:0:0:
298,192,130176,1,0,0:0:0:0:
42,192,130326,1,0,0:0:0:0:
128,192,130326,1,0,0:0:0:0:
42,192,130476,1,8,0:0:0:0:
213,192,130476,1,0,0:0:0:0:
384,192,130476,1,0,0:0:0:0:
469,192,130476,1,0,0:0:0:0:
42,192,130626,1,0,0:0:0:0:
128,192,130626,1,0,0:0:0:0:
42,192,130926,1,0,0:0:0:0:
128,192,130926,1,0,0:0:0:0:
42,192,131076,1,2,0:0:0:0:
213,192,131076,1,0,0:0:0:0:
298,192,131076,128,0,131601:0:0:0:0:
469,192,131076,128,0,131601:0:0:0:0:
42,192,131226,1,0,0:0:0:0:
128,192,131226,1,0,0:0:0:0:
213,192,131301,1,0,0:0:0:0:
384,192,131376,1,0,0:0:0:0:
42,192,131526,1,0,0:0:0:0:
128,192,131526,1,0,0:0:0:0:
42,192,131676,1,8,0:0:0:0:
213,192,131676,1,0,0:0:0:0:
298,192,131676,1,0,0:0:0:0:
469,192,131676,1,0,0:0:0:0:
42,192,131826,1,0,0:0:0:0:
128,192,131826,1,0,0:0:0:0:
42,192,132126,1,0,0:0:0:0:
128,192,132126,1,0,0:0:0:0:
42,192,132276,1,2,0:0:0:0:
213,192,132276,1,0,0:0:0:0:
298,192,132276,128,0,132801:0:0:0:0:
384,192,132276,128,0,132801:0:0:0:0:
42,192,132426,1,0,0:0:0:0:
128,192,132426,1,0,0:0:0:0:
213,192,132501,1,0,0:0:0:0:
469,192,132576,1,0,0:0:0:0:
42,192,132726,1,0,0:0:0:0:
128,192,132726,1,0,0:0:0:0:
42,192,132876,1,8,0:0:0:0:
213,192,132876,1,0,0:0:0:0:
298,192,132876,1,0,0:0:0:0:
384,192,132876,1,0,0:0:0:0:
42,192,133026,1,0,0:0:0:0:
128,192,133026,1,0,0:0:0:0:
42,192,133326,1,0,0:0:0:0:
128,192,133326,1,0,0:0:0:0:
42,192,133476,1,2,0:0:0:0:
213,192,133476,128,0,134001:0:0:0:0:
298,192,133476,128,0,134001:0:0:0:0:
469,192,133476,1,0,0:0:0:0:
42,192,133626,1,0,0:0:0:0:
128,192,133626,1,0,0:0:0:0:
384,192,133701,1,0,0:0:0:0:
469,192,133776,1,0,0:0:0:0:
42,192,133926,1,0,0:0:0:0:
128,192,133926,1,0,0:0:0:0:
42,192,134076,128,8,134376:0:0:0:0:
213,192,134076,1,0,0:0:0:0:
298,192,134076,1,0,0:0:0:0:
469,192,134076,1,0,0:0:0:0:
128,192,134151,128,0,134376:0:0:0:0:
213,192,134226,128,0,134376:0:0:0:0:
384,192,134226,1,0,0:0:0:0:
469,192,134226,1,0,0:0:0:0:
298,192,134301,128,0,134376:0:0:0:0:
469,192,134376,128,0,134601:0:0:0:0:
384,192,134451,128,0,134601:0:0:0:0:
42,192,134526,1,0,0:0:0:0:
128,192,134526,1,0,0:0:0:0:
298,192,134526,128,0,134676:0:0:0:0:
213,192,134601,128,0,134676:0:0:0:0:
42,192,134676,128,2,135201:0:0:0:0:
128,192,134676,128,0,135201:0:0:0:0:
384,192,134676,1,0,0:0:0:0:
469,192,134676,1,0,0:0:0:0:
384,192,134826,1,0,0:0:0:0:
469,192,134826,1,0,0:0:0:0:
298,192,134901,1,0,0:0:0:0:
213,192,134976,1,0,0:0:0:0:
384,192,135126,1,0,0:0:0:0:
469,192,135126,1,0,0:0:0:0:
42,192,135276,1,8,0:0:0:0:
128,192,135276,1,0,0:0:0:0:
298,192,135276,1,0,0:0:0:0:
469,192,135276,1,0,0:0:0:0:
384,192,135426,1,0,0:0:0:0:
469,192,135426,1,0,0:0:0:0:
384,192,135726,1,0,0:0:0:0:
469,192,135726,1,0,0:0:0:0:
42,192,135876,128,2,136401:0:0:0:0:
213,192,135876,128,0,136401:0:0:0:0:
298,192,135876,1,0,0:0:0:0:
469,192,135876,1,0,0:0:0:0:
384,192,136026,1,0,0:0:0:0:
469,192,136026,1,0,0:0:0:0:
298,192,136101,1,0,0:0:0:0:
128,192,136176,1,0,0:0:0:0:
384,192,136326,1,0,0:0:0:0:
469,192,136326,1,0,0:0:0:0:
42,192,136476,1,8,0:0:0:0:
213,192,136476,1,0,0:0:0:0:
298,192,136476,1,0,0:0:0:0:
469,192,136476,1,0,0:0:0:0:
384,192,136626,1,0,0:0:0:0:
469,192,136626,1,0,0:0:0:0:
384,192,136926,1,0,0:0:0:0:
469,192,136926,1,0,0:0:0:0:
128,192,137076,128,2,137601:0:0:0:0:
213,192,137076,128,0,137601:0:0:0:0:
298,192,137076,1,0,0:0:0:0:
469,192,137076,1,0,0:0:0:0:
384,192,137226,1,0,0:0:0:0:
469,192,137226,1,0,0:0:0:0:
298,192,137301,1,0,0:0:0:0:
42,192,137376,1,0,0:0:0:0:
384,192,137526,1,0,0:0:0:0:
469,192,137526,1,0,0:0:0:0:
128,192,137676,1,8,0:0:0:0:
213,192,137676,1,0,0:0:0:0:
298,192,137676,1,0,0:0:0:0:
469,192,137676,1,0,0:0:0:0:
384,192,137826,1,0,0:0:0:0:
469,192,137826,1,0,0:0:0:0:
384,192,138126,1,0,0:0:0:0:
469,192,138126,1,0,0:0:0:0:
42,192,138276,1,2,0:0:0:0:
128,192,138276,1,0,0:0:0:0:
213,192,138276,128,0,138801:0:0:0:0:
298,192,138276,128,0,138801:0:0:0:0:
469,192,138276,128,0,138351:0:0:0:0:
384,192,138351,128,0,138426:0:0:0:0:
128,192,138426,128,0,138501:0:0:0:0:
42,192,138501,128,0,138576:0:0:0:0:
469,192,138576,128,0,138651:0:0:0:0:
384,192,138651,128,0,138726:0:0:0:0:
128,192,138726,128,0,138801:0:0:0:0:
42,192,138801,128,0,138876:0:0:0:0:
213,192,138876,128,8,138951:0:0:0:0:
298,192,138876,1,0,0:0:0:0:
384,192,138876,1,0,0:0:0:0:
469,192,138876,1,0,0:0:0:0:
128,192,138951,128,0,139026:0:0:0:0:
42,192,139026,128,0,139101:0:0:0:0:
298,192,139026,128,0,139101:0:0:0:0:
213,192,139101,128,0,139176:0:0:0:0:
128,192,139176,128,0,139251:0:0:0:0:
384,192,139176,128,0,139251:0:0:0:0:
298,192,139251,128,0,139326:0:0:0:0:
213,192,139326,128,0,139401:0:0:0:0:
469,192,139326,128,0,139401:0:0:0:0:
384,192,139401,128,0,139476:0:0:0:0:
42,192,139476,1,4,0:0:0:0:
128,192,139476,128,0,141576:0:0:0:0:
298,192,139476,1,0,0:0:0:0:
469,192,139476,1,0,0:0:0:0:
213,192,139626,1,0,0:0:0:70:LR_Hat Synth.wav
298,192,139701,1,0,0:0:0:0:
42,192,139776,1,4,0:0:0:0:
213,192,139776,1,0,0:0:0:0:
384,192,139776,1,0,0:0:0:0:
469,192,139776,1,0,0:0:0:0:
384,192,139926,1,0,0:0:0:70:LR_Hat Synth.wav
42,192,140076,1,4,0:0:0:0:
213,192,140076,1,0,0:0:0:0:
298,192,140076,1,0,0:0:0:0:
469,192,140226,1,0,0:0:0:70:LR_Hat Synth.wav
384,192,140301,1,0,0:0:0:0:
42,192,140376,1,4,0:0:0:0:
213,192,140376,1,0,0:0:0:0:
298,192,140376,1,0,0:0:0:0:
469,192,140376,1,0,0:0:0:0:
213,192,140526,1,0,0:0:0:70:LR_Hat Synth.wav
42,192,140676,1,4,0:0:0:0:
384,192,140676,1,0,0:0:0:0:
469,192,140676,1,0,0:0:0:0:
213,192,140826,1,0,0:0:0:70:LR_Hat Synth.wav
298,192,140901,1,0,0:0:0:0:
42,192,140976,1,4,0:0:0:0:
213,192,140976,1,0,0:0:0:0:
384,192,140976,1,0,0:0:0:0:
469,192,140976,1,0,0:0:0:0:
384,192,141126,1,0,0:0:0:70:LR_Hat Synth.wav
42,192,141276,1,4,0:0:0:0:
298,192,141276,1,0,0:0:0:0:
469,192,141276,1,0,0:0:0:0:
384,192,141426,1,0,0:0:0:70:LR_Hat Synth.wav
469,192,141426,1,0,0:0:0:0:
298,192,141501,1,0,0:0:0:0:
42,192,141576,1,4,0:0:0:0:
213,192,141576,128,0,141651:0:0:0:70:LR_Clap kick.wav
384,192,141576,128,0,141613:0:0:0:0:
469,192,141576,128,0,141613:0:0:0:0:
298,192,141651,128,0,141726:0:0:0:0:
213,192,141726,128,0,141801:0:0:0:70:LR_Hat Synth.wav
298,192,141801,128,0,141876:0:0:0:0:
128,192,141876,1,4,0:0:0:0:
213,192,141876,1,0,0:0:0:0:
384,192,141876,128,0,143076:0:0:0:0:
469,192,141876,1,0,0:0:0:0:
42,192,142026,1,0,0:0:0:70:LR_Hat Synth.wav
128,192,142101,1,0,0:0:0:0:
42,192,142176,1,4,0:0:0:0:
213,192,142176,1,0,0:0:0:0:
298,192,142176,1,0,0:0:0:0:
469,192,142176,1,0,0:0:0:0:
298,192,142326,1,0,0:0:0:70:LR_Hat Synth.wav
42,192,142476,1,4,0:0:0:0:
213,192,142476,1,0,0:0:0:0:
469,192,142476,1,0,0:0:0:0:
298,192,142626,1,0,0:0:0:70:LR_Hat Synth.wav
213,192,142701,1,0,0:0:0:0:
42,192,142776,1,4,0:0:0:0:
128,192,142776,1,0,0:0:0:0:
298,192,142776,1,0,0:0:0:0:
469,192,142776,1,0,0:0:0:0:
128,192,142926,1,0,0:0:0:70:LR_Hat Synth.wav
42,192,143076,1,4,0:0:0:0:
213,192,143076,1,0,0:0:0:0:
298,192,143076,1,0,0:0:0:0:
469,192,143076,128,0,143376:0:0:0:0:
128,192,143226,1,0,0:0:0:70:LR_Hat Synth.wav
213,192,143301,1,0,0:0:0:0:
42,192,143376,1,4,0:0:0:0:
128,192,143376,1,0,0:0:0:0:
298,192,143376,128,0,143676:0:0:0:0:
384,192,143376,1,0,0:0:0:0:
213,192,143526,1,0,0:0:0:70:LR_Hat Synth.wav
42,192,143676,128,4,143976:0:0:0:0:
128,192,143676,1,0,0:0:0:0:
213,192,143676,1,0,0:0:0:0:
469,192,143676,1,0,0:0:0:0:
384,192,143826,128,0,143863:0:0:0:70:LR_Hat Synth.wav
469,192,143826,128,0,143863:0:0:0:70:LR_Clap kick.wav
298,192,143901,1,0,0:0:0:0:
128,192,143976,1,4,0:0:0:0:
384,192,143976,128,0,144013:0:0:0:70:LR_Clap kick.wav
469,192,143976,128,0,144013:0:0:0:0:
213,192,144051,1,0,0:0:0:0:
298,192,144051,1,0,0:0:0:0:
128,192,144126,1,0,0:0:0:70:LR_Hat Synth.wav
384,192,144126,1,0,0:0:0:0:
213,192,144201,1,0,0:0:0:0:
298,192,144201,1,0,0:0:0:0:
42,192,144276,128,2,144426:0:0:0:0:
128,192,144276,128,0,144426:0:0:0:0:
384,192,144276,128,0,144501:0:0:0:0:
469,192,144276,128,0,144501:0:0:0:0:
213,192,144426,1,0,0:0:0:0:
298,192,144501,1,0,0:0:0:0:
213,192,144576,1,0,0:0:0:0:
213,192,144726,1,0,0:0:0:0:
42,192,144876,128,2,145101:0:0:0:0:
128,192,144876,128,0,145101:0:0:0:0:
213,192,144876,1,0,0:0:0:0:
384,192,144876,128,0,145026:0:0:0:0:
469,192,144876,128,0,145026:0:0:0:0:
298,192,145026,1,0,0:0:0:0:
213,192,145101,1,0,0:0:0:0:
298,192,145176,1,0,0:0:0:0:
298,192,145326,1,0,0:0:0:0:
42,192,145476,128,2,145626:0:0:0:0:
213,192,145476,128,0,145626:0:0:0:0:
298,192,145476,128,0,145701:0:0:0:0:
384,192,145476,1,0,0:0:0:0:
469,192,145476,128,0,145701:0:0:0:0:
128,192,145626,1,0,0:0:0:0:
384,192,145701,1,0,0:0:0:0:
128,192,145776,1,0,0:0:0:70:LR_Drum Rpd x2.wav
128,192,145926,1,0,0:0:0:70:LR_Drum Rpd x2.wav
42,192,146076,128,8,146301:0:0:0:0:
128,192,146076,1,0,0:0:0:70:LR_Drum Rpd x2.wav
213,192,146076,128,0,146301:0:0:0:0:
298,192,146076,128,0,146226:0:0:0:0:
469,192,146076,128,0,146226:0:0:0:0:
384,192,146226,1,0,0:0:0:70:LR_Drum Rpd x2.wav
128,192,146301,1,0,0:0:0:0:
384,192,146376,1,0,0:0:0:70:LR_Drum Rpd x2.wav
384,192,146526,1,0,0:0:0:70:LR_Drum Rpd x2.wav
42,192,146676,128,2,148401:0:0:0:0:
213,192,146676,1,0,0:0:0:0:
298,192,146676,1,0,0:0:0:0:
469,192,146676,1,0,0:0:0:0:
384,192,146826,1,0,0:0:0:0:
298,192,146901,1,0,0:0:0:0:
128,192,146976,1,0,0:0:0:70:LR_Drum Low Long.wav
213,192,146976,1,0,0:0:0:0:
384,192,147126,1,0,0:0:0:70:LR_Drum Low Long.wav
469,192,147126,1,0,0:0:0:0:
213,192,147276,1,0,0:0:0:0:
298,192,147351,1,0,0:0:0:0:
384,192,147426,1,0,0:0:0:70:LR_Drum Low Long.wav
469,192,147426,1,0,0:0:0:0:
128,192,147576,1,0,0:0:0:70:LR_Drum Low Long.wav
213,192,147576,1,0,0:0:0:0:
384,192,147726,1,0,0:0:0:0:
298,192,147801,1,0,0:0:0:0:
128,192,147876,1,0,0:0:0:70:LR_Drum Low Long.wav
213,192,147876,1,0,0:0:0:0:
469,192,148026,1,0,0:0:0:0:
298,192,148101,1,0,0:0:0:0:
128,192,148176,1,0,0:0:0:70:LR_Drum Low Long.wav
213,192,148176,1,0,0:0:0:0:
384,192,148326,1,0,0:0:0:70:LR_Drum Low Long.wav
469,192,148326,1,0,0:0:0:0:
42,192,148476,1,0,0:0:0:0:
213,192,148551,1,0,0:0:0:0:
298,192,148626,1,0,0:0:0:70:LR_Drum Low Long.wav
384,192,148626,1,0,0:0:0:0:
42,192,148776,1,0,0:0:0:70:LR_Drum Low Long.wav
128,192,148776,1,0,0:0:0:0:
298,192,148926,1,0,0:0:0:0:
42,192,149076,128,2,149676:0:0:0:0:
128,192,149076,1,0,0:0:0:70:LR_CymbalQST.wav
213,192,149076,128,0,149676:0:0:0:0:
384,192,149076,1,0,0:0:0:0:
469,192,149076,1,0,0:0:0:0:
298,192,149376,1,0,0:0:0:0:
384,192,149526,1,2,0:0:0:0:
469,192,149526,1,0,0:0:0:0:
384,192,149676,1,2,0:0:0:0:
469,192,149676,1,0,0:0:0:0:
42,192,149976,128,0,150051:0:0:0:70:LR_Ride Long Low.wav
128,192,149976,128,0,150032:0:0:0:0:
384,192,149976,128,0,150032:0:0:0:0:
469,192,149976,128,0,150051:0:0:0:0:
42,192,150276,128,2,150876:0:0:0:0:
213,192,150276,128,0,150876:0:0:0:0:
384,192,150276,1,0,0:0:0:0:
469,192,150276,1,0,0:0:0:0:
298,192,150576,1,0,0:0:0:0:
384,192,150726,1,2,0:0:0:0:
469,192,150726,1,0,0:0:0:0:
384,192,150876,1,2,0:0:0:0:
469,192,150876,1,0,0:0:0:0:
213,192,151026,1,0,0:0:0:0:
298,192,151101,1,0,0:0:0:0:
42,192,151176,128,0,151251:0:0:0:70:LR_Ride Long Low.wav
128,192,151176,128,0,151232:0:0:0:0:
384,192,151176,128,0,151232:0:0:0:0:
469,192,151176,128,0,151251:0:0:0:0:
298,192,151251,1,0,0:0:0:0:
213,192,151326,1,0,0:0:0:0:
42,192,151476,128,2,152076:0:0:0:0:
213,192,151476,128,0,152076:0:0:0:0:
384,192,151476,1,0,0:0:0:0:
469,192,151476,1,0,0:0:0:0:
298,192,151776,1,0,0:0:0:0:
384,192,151926,1,2,0:0:0:0:
469,192,151926,1,0,0:0:0:0:
384,192,152076,1,2,0:0:0:0:
469,192,152076,1,0,0:0:0:0:
42,192,152376,128,0,152451:0:0:0:70:LR_Ride Long Low.wav
128,192,152376,128,0,152432:0:0:0:0:
384,192,152376,128,0,152432:0:0:0:0:
469,192,152376,128,0,152451:0:0:0:0:
384,192,152526,1,2,0:0:0:0:
469,192,152526,1,0,0:0:0:0:
42,192,152676,128,0,153276:0:0:0:0:
213,192,152676,128,0,153276:0:0:0:0:
384,192,152826,1,2,0:0:0:0:
469,192,152826,1,0,0:0:0:0:
298,192,152976,1,0,0:0:0:0:
384,192,153076,1,0,0:0:0:0:
128,192,153126,1,2,0:0:0:0:
469,192,153176,1,0,0:0:0:0:
128,192,153276,1,2,0:0:0:0:
384,192,153276,1,0,0:0:0:0:
298,192,153376,1,0,0:0:0:0:
213,192,153476,1,0,0:0:0:0:
42,192,153576,128,0,153651:0:0:0:70:LR_Ride Long Low.wav
128,192,153576,128,0,153632:0:0:0:0:
384,192,153576,128,0,153632:0:0:0:0:
469,192,153576,128,0,153651:0:0:0:0:
298,192,153676,1,0,0:0:0:0:
213,192,153776,1,0,0:0:0:0:
42,192,153876,1,2,0:0:0:0:
128,192,153876,1,0,0:0:0:0:
298,192,153876,128,0,154476:0:0:0:0:
469,192,153876,128,0,154476:0:0:0:0:
213,192,154176,1,0,0:0:0:0:
42,192,154326,1,2,0:0:0:0:
128,192,154326,1,0,0:0:0:0:
42,192,154476,1,2,0:0:0:0:
128,192,154476,1,0,0:0:0:0:
42,192,154776,128,0,154832:0:0:0:70:LR_Ride Long Low.wav
128,192,154776,128,0,154851:0:0:0:0:
384,192,154776,128,0,154851:0:0:0:0:
469,192,154776,128,0,154832:0:0:0:0:
42,192,155076,1,2,0:0:0:0:
128,192,155076,1,0,0:0:0:0:
298,192,155076,128,0,155676:0:0:0:0:
469,192,155076,128,0,155676:0:0:0:0:
213,192,155376,1,0,0:0:0:0:
42,192,155526,1,2,0:0:0:0:
128,192,155526,1,0,0:0:0:0:
42,192,155676,1,2,0:0:0:0:
128,192,155676,1,0,0:0:0:0:
298,192,155826,1,0,0:0:0:0:
213,192,155901,1,0,0:0:0:0:
42,192,155976,128,0,156032:0:0:0:70:LR_Ride Long Low.wav
128,192,155976,128,0,156051:0:0:0:0:
384,192,155976,128,0,156051:0:0:0:0:
469,192,155976,128,0,156032:0:0:0:0:
213,192,156051,1,0,0:0:0:0:
298,192,156126,1,0,0:0:0:0:
42,192,156276,1,2,0:0:0:0:
128,192,156276,1,0,0:0:0:0:
298,192,156276,128,0,156876:0:0:0:0:
469,192,156276,128,0,156876:0:0:0:0:
213,192,156576,1,0,0:0:0:0:
42,192,156726,1,2,0:0:0:0:
128,192,156726,1,0,0:0:0:0:
42,192,156876,1,2,0:0:0:0:
128,192,156876,1,0,0:0:0:0:
42,192,157176,128,0,157232:0:0:0:70:LR_Ride Long Low.wav
128,192,157176,128,0,157251:0:0:0:0:
384,192,157176,128,0,157251:0:0:0:0:
469,192,157176,128,0,157232:0:0:0:0:
42,192,157326,1,2,0:0:0:0:
128,192,157326,1,0,0:0:0:0:
298,192,157476,128,0,158076:0:0:0:0:
469,192,157476,128,0,158076:0:0:0:0:
42,192,157626,1,2,0:0:0:0:
128,192,157626,1,0,0:0:0:0:
213,192,157776,1,0,0:0:0:0:
128,192,157876,1,0,0:0:0:0:
384,192,157926,1,2,0:0:0:0:
42,192,157976,1,0,0:0:0:0:
128,192,158076,1,2,0:0:0:0:
384,192,158076,1,0,0:0:0:0:
213,192,158176,1,0,0:0:0:0:
298,192,158276,1,0,0:0:0:0:
42,192,158376,128,0,158432:0:0:0:70:LR_Ride Long Low.wav
128,192,158376,128,0,158451:0:0:0:0:
384,192,158376,128,0,158451:0:0:0:0:
469,192,158376,128,0,158432:0:0:0:0:
213,192,158476,1,0,0:0:0:0:
298,192,158576,1,0,0:0:0:0:
42,192,158676,1,2,0:0:0:0:
128,192,158676,1,0,0:0:0:0:
384,192,158676,1,0,0:0:0:0:
469,192,158676,1,0,0:0:0:0:
298,192,159276,128,0,159426:0:0:0:0:
213,192,159351,128,0,159501:0:0:0:0:
128,192,159426,128,0,159576:0:0:0:0:
42,192,159501,128,0,159651:0:0:0:0:
469,192,159576,128,0,159726:0:0:0:0:
384,192,159651,128,0,159801:0:0:0:0:
298,192,159726,128,0,160476:0:0:0:0:
213,192,159801,128,0,160476:0:0:0:0:
42,192,159876,1,4,0:0:0:0:
469,192,159876,1,0,0:0:0:0:
42,192,160176,1,4,0:0:0:0:
469,192,160176,1,0,0:0:0:0:
42,192,160476,1,4,0:0:0:0:
469,192,160476,1,0,0:0:0:0:
213,192,160551,1,4,0:0:0:0:
298,192,160551,1,0,0:0:0:0:
42,192,160626,1,4,0:0:0:0:
469,192,160626,1,0,0:0:0:0:
213,192,160701,1,4,0:0:0:0:
298,192,160701,1,0,0:0:0:0:
42,192,160776,1,4,0:0:0:0:
469,192,160776,1,0,0:0:0:0:
128,192,160851,1,4,0:0:0:0:
384,192,160851,1,0,0:0:0:0:
213,192,160926,1,2,0:0:0:0:
298,192,160926,1,0,0:0:0:0:
42,192,161076,128,8,161301:0:0:0:0:
128,192,161076,128,0,161319:0:0:0:0:
298,192,161076,128,0,161338:0:0:0:0:
384,192,161076,128,0,161357:0:0:0:0:
469,192,161076,128,0,161376:0:0:0:0:
42,192,161376,128,0,161451:0:0:0:0:
128,192,161376,128,0,161432:0:0:0:0:
213,192,161376,128,0,161413:0:0:0:0:
42,192,162276,128,8,162576:0:0:0:0:
128,192,162276,128,0,162557:0:0:0:0:
213,192,162276,128,0,162538:0:0:0:0:
384,192,162276,128,0,162519:0:0:0:0:
469,192,162276,128,0,162501:0:0:0:0:
298,192,162576,128,0,162613:0:0:0:0:
384,192,162576,128,0,162632:0:0:0:0:
469,192,162576,128,0,162651:0:0:0:0:
42,192,163776,128,8,164076:0:0:0:0:
213,192,163776,128,0,164057:0:0:0:0:
298,192,163776,128,0,164038:0:0:0:0:
384,192,163776,128,0,164019:0:0:0:0:
469,192,163776,128,0,164001:0:0:0:0:
42,192,164376,128,8,164544:0:0:0:0:
128,192,164376,128,0,164563:0:0:0:0:
213,192,164376,128,0,164582:0:0:0:0:
298,192,164376,128,0,164601:0:0:0:0:
469,192,164376,128,0,164676:0:0:0:0:
42,192,164676,1,8,0:0:0:0:
128,192,164676,1,0,0:0:0:0:
213,192,164676,1,0,0:0:0:0:
298,192,164676,128,0,164826:0:0:0:0:
384,192,164676,1,0,0:0:0:0:
42,192,164826,1,4,0:0:0:0:
469,192,164826,128,0,164976:0:0:0:0:
128,192,164901,1,4,0:0:0:0:
42,192,164976,1,8,0:0:0:0:
213,192,164976,1,0,0:0:0:0:
298,192,164976,128,0,165126:0:0:0:0:
384,192,164976,1,0,0:0:0:0:
128,192,165126,1,4,0:0:0:0:
469,192,165126,128,0,165276:0:0:0:0:
42,192,165276,1,8,0:0:0:0:
128,192,165276,1,0,0:0:0:0:
213,192,165276,128,0,165426:0:0:0:0:
298,192,165276,1,0,0:0:0:0:
384,192,165276,1,0,0:0:0:0:
42,192,165426,128,4,165576:0:0:0:0:
469,192,165426,1,0,0:0:0:0:
128,192,165576,1,8,0:0:0:0:
213,192,165576,128,0,165726:0:0:0:0:
298,192,165576,1,0,0:0:0:0:
384,192,165576,1,0,0:0:0:0:
469,192,165576,1,0,0:0:0:0:
42,192,165726,128,0,165876:0:0:0:0:
298,192,165726,1,0,0:0:0:0:
128,192,165876,1,2,0:0:0:0:
213,192,165876,1,0,0:0:0:70:LR_CymbalQST.wav
298,192,165876,1,0,0:0:0:0:
384,192,165876,1,0,0:0:0:0:
469,192,165876,1,0,0:0:0:0:
42,192,166026,1,0,0:0:0:70:LR_Hat Synth.wav
469,192,166026,1,0,0:0:0:0:
298,192,166101,1,0,0:0:0:0:
42,192,166176,1,8,0:0:0:0:
128,192,166176,1,0,0:0:0:0:
213,192,166176,1,0,0:0:0:0:
384,192,166176,1,0,0:0:0:0:
469,192,166176,1,0,0:0:0:0:
298,192,166251,1,0,0:0:0:0:
128,192,166326,1,0,0:0:0:70:LR_Hat Synth.wav
469,192,166326,1,0,0:0:0:0:
42,192,166476,1,2,0:0:0:0:
213,192,166476,1,0,0:0:0:0:
384,192,166476,1,0,0:0:0:0:
469,192,166476,1,0,0:0:0:0:
128,192,166626,1,0,0:0:0:70:LR_Hat Synth.wav
298,192,166626,1,0,0:0:0:0:
469,192,166701,1,0,0:0:0:0:
42,192,166776,1,8,0:0:0:0:
128,192,166776,1,0,0:0:0:0:
213,192,166776,1,0,0:0:0:0:
298,192,166776,1,0,0:0:0:0:
384,192,166776,1,0,0:0:0:0:
469,192,166851,1,0,0:0:0:0:
42,192,166926,1,0,0:0:0:70:LR_Hat Synth.wav
298,192,166926,1,0,0:0:0:0:
128,192,167076,1,2,0:0:0:0:
213,192,167076,1,0,0:0:0:0:
298,192,167076,1,0,0:0:0:0:
384,192,167076,1,0,0:0:0:0:
42,192,167226,1,0,0:0:0:70:LR_Hat Synth.wav
469,192,167226,1,0,0:0:0:0:
213,192,167301,1,0,0:0:0:0:
42,192,167376,1,8,0:0:0:0:
128,192,167376,1,0,0:0:0:0:
298,192,167376,1,0,0:0:0:0:
384,192,167376,1,0,0:0:0:0:
469,192,167376,1,0,0:0:0:0:
213,192,167451,1,0,0:0:0:0:
42,192,167526,1,0,0:0:0:70:LR_Hat Synth.wav
384,192,167526,1,0,0:0:0:0:
42,192,167676,1,2,0:0:0:0:
128,192,167676,1,0,0:0:0:0:
298,192,167676,1,0,0:0:0:0:
469,192,167676,1,0,0:0:0:0:
213,192,167826,1,0,0:0:0:70:LR_Hat Synth.wav
384,192,167826,1,0,0:0:0:0:
42,192,167901,1,0,0:0:0:0:
128,192,167976,1,8,0:0:0:0:
213,192,167976,1,0,0:0:0:0:
298,192,167976,1,0,0:0:0:0:
384,192,167976,1,0,0:0:0:0:
469,192,167976,1,0,0:0:0:0:
42,192,168051,1,0,0:0:0:0:
213,192,168126,1,0,0:0:0:70:LR_Hat Synth.wav
469,192,168126,1,0,0:0:0:0:
128,192,168276,1,2,0:0:0:0:
213,192,168276,1,0,0:0:0:0:
298,192,168276,1,0,0:0:0:0:
384,192,168276,1,0,0:0:0:0:
128,192,168426,1,0,0:0:0:70:LR_Hat Synth.wav
384,192,168426,1,0,0:0:0:0:
128,192,168501,1,0,0:0:0:0:
384,192,168501,1,0,0:0:0:0:
42,192,168576,1,8,0:0:0:0:
213,192,168576,1,0,0:0:0:0:
298,192,168576,1,0,0:0:0:0:
469,192,168576,1,0,0:0:0:0:
128,192,168726,1,0,0:0:0:70:LR_Hat Synth.wav
384,192,168726,1,0,0:0:0:0:
42,192,168876,1,2,0:0:0:0:
128,192,168876,1,0,0:0:0:0:
384,192,168876,1,0,0:0:0:0:
469,192,168876,1,0,0:0:0:0:
213,192,169026,1,0,0:0:0:70:LR_Hat Synth.wav
298,192,169026,1,0,0:0:0:0:
42,192,169176,1,8,0:0:0:0:
213,192,169176,1,0,0:0:0:0:
298,192,169176,1,0,0:0:0:0:
469,192,169176,1,0,0:0:0:0:
128,192,169326,1,0,0:0:0:70:LR_Hat Synth.wav
384,192,169326,1,0,0:0:0:0:
42,192,169476,1,2,0:0:0:0:
128,192,169476,1,0,0:0:0:0:
213,192,169476,1,0,0:0:0:0:
469,192,169476,128,0,169626:0:0:0:0:
384,192,169551,128,0,169701:0:0:0:0:
298,192,169626,128,0,169776:0:0:0:70:LR_Hat Synth.wav
213,192,169701,128,0,169851:0:0:0:0:
42,192,169776,1,8,0:0:0:0:
128,192,169776,1,0,0:0:0:0:
384,192,169776,128,0,169926:0:0:0:0:
469,192,169776,1,0,0:0:0:0:
298,192,169851,128,0,170001:0:0:0:0:
213,192,169926,128,0,170076:0:0:0:70:LR_Hat Synth.wav
128,192,170001,128,0,170151:0:0:0:0:
298,192,170076,128,2,170226:0:0:0:0:
384,192,170076,1,0,0:0:0:0:
469,192,170076,1,0,0:0:0:0:
213,192,170151,128,0,170301:0:0:0:0:
128,192,170226,128,0,170376:0:0:0:70:LR_Hat Synth.wav
42,192,170301,128,0,170451:0:0:0:0:
213,192,170376,128,8,170601:0:0:0:0:
298,192,170376,1,0,0:0:0:0:
384,192,170376,1,0,0:0:0:0:
469,192,170376,1,0,0:0:0:0:
128,192,170451,128,0,170526:0:0:0:0:
42,192,170526,128,0,170676:0:0:0:70:LR_Hat Synth.wav
128,192,170601,128,0,170676:0:0:0:0:
213,192,170676,1,2,0:0:0:0:
298,192,170676,1,0,0:0:0:70:LR_CymbalQST.wav
384,192,170676,1,0,0:0:0:0:
469,192,170676,1,0,0:0:0:0:
213,192,170826,1,0,0:0:0:70:LR_Hat Synth.wav
298,192,170901,1,0,0:0:0:0:
42,192,170976,128,8,171426:0:0:0:0:
128,192,170976,1,0,0:0:0:0:
384,192,170976,1,0,0:0:0:0:
469,192,170976,128,0,171426:0:0:0:0:
213,192,171051,1,0,0:0:0:0:
298,192,171126,1,0,0:0:0:70:LR_Hat Synth.wav
128,192,171276,128,2,171426:0:0:0:0:
213,192,171276,1,0,0:0:0:0:
384,192,171276,128,0,171426:0:0:0:0:
298,192,171426,1,0,0:0:0:70:LR_Hat Synth.wav
213,192,171501,1,0,0:0:0:0:
42,192,171576,128,8,172026:0:0:0:0:
128,192,171576,1,0,0:0:0:0:
384,192,171576,1,0,0:0:0:0:
469,192,171576,128,0,172026:0:0:0:0:
298,192,171651,1,0,0:0:0:0:
213,192,171726,1,0,0:0:0:70:LR_Hat Synth.wav
128,192,171876,128,2,172026:0:0:0:0:
298,192,171876,1,0,0:0:0:0:
384,192,171876,128,0,172026:0:0:0:0:
213,192,172026,1,0,0:0:0:70:LR_Hat Synth.wav
298,192,172101,1,0,0:0:0:0:
42,192,172176,128,8,172626:0:0:0:0:
128,192,172176,1,0,0:0:0:0:
384,192,172176,1,0,0:0:0:0:
469,192,172176,128,0,172626:0:0:0:0:
213,192,172251,1,0,0:0:0:0:
298,192,172326,1,0,0:0:0:70:LR_Hat Synth.wav
128,192,172476,128,2,172776:0:0:0:0:
213,192,172476,1,0,0:0:0:0:
384,192,172476,128,0,172776:0:0:0:0:
298,192,172626,1,0,0:0:0:70:LR_Hat Synth.wav
213,192,172701,1,0,0:0:0:0:
42,192,172776,1,8,0:0:0:0:
469,192,172776,1,0,0:0:0:0:
298,192,172851,1,0,0:0:0:0:
213,192,172926,128,0,173076:0:0:0:70:LR_Hat Synth.wav
42,192,173076,128,2,173376:0:0:0:0:
128,192,173076,1,0,0:0:0:0:
384,192,173076,1,0,0:0:0:0:
469,192,173076,1,0,0:0:0:0:
213,192,173226,1,0,0:0:0:70:LR_Hat Synth.wav
298,192,173301,1,0,0:0:0:0:
128,192,173376,1,8,0:0:0:0:
213,192,173376,128,0,173676:0:0:0:0:
384,192,173376,1,0,0:0:0:0:
469,192,173376,1,0,0:0:0:0:
298,192,173451,1,0,0:0:0:0:
384,192,173526,1,0,0:0:0:70:LR_Hat Synth.wav
42,192,173676,1,2,0:0:0:0:
298,192,173676,128,0,173976:0:0:0:0:
384,192,173676,1,0,0:0:0:0:
469,192,173676,1,0,0:0:0:0:
128,192,173826,1,0,0:0:0:70:LR_Hat Synth.wav
213,192,173901,1,0,0:0:0:0:
42,192,173976,1,8,0:0:0:0:
128,192,173976,1,0,0:0:0:0:
384,192,173976,1,0,0:0:0:0:
469,192,173976,128,0,174276:0:0:0:0:
213,192,174051,1,0,0:0:0:0:
298,192,174126,1,0,0:0:0:70:LR_Hat Synth.wav
42,192,174276,1,2,0:0:0:0:
128,192,174276,128,0,174576:0:0:0:0:
213,192,174276,1,0,0:0:0:0:
384,192,174276,1,0,0:0:0:0:
469,192,174426,1,0,0:0:0:70:LR_Hat Synth.wav
298,192,174501,1,0,0:0:0:0:
42,192,174576,1,8,0:0:0:0:
213,192,174576,1,0,0:0:0:0:
384,192,174576,128,0,174876:0:0:0:0:
469,192,174576,1,0,0:0:0:0:
128,192,174651,1,0,0:0:0:0:
213,192,174726,1,0,0:0:0:70:LR_Hat Synth.wav
298,192,174726,128,0,174876:0:0:0:0:
42,192,174876,1,2,0:0:0:0:
128,192,174876,128,0,175476:0:0:0:0:
213,192,174876,1,0,0:0:0:0:
469,192,174876,1,0,0:0:0:0:
469,192,175026,1,0,0:0:0:70:LR_Hat Synth.wav
384,192,175101,1,0,0:0:0:0:
42,192,175176,1,8,0:0:0:0:
213,192,175176,1,0,0:0:0:0:
298,192,175176,1,0,0:0:0:0:
469,192,175176,1,0,0:0:0:0:
384,192,175251,1,0,0:0:0:0:
298,192,175326,1,0,0:0:0:70:LR_Hat Synth.wav
42,192,175476,1,2,0:0:0:0:
213,192,175476,1,0,0:0:0:70:LR_CymbalQST.wav
298,192,175476,1,0,0:0:0:0:
384,192,175476,1,0,0:0:0:0:
469,192,175476,1,0,0:0:0:0:
213,192,175626,1,0,0:0:0:70:LR_Hat Synth.wav
298,192,175701,1,0,0:0:0:0:
42,192,175776,1,8,0:0:0:0:
128,192,175776,128,0,176226:0:0:0:0:
384,192,175776,128,0,176226:0:0:0:0:
469,192,175776,1,0,0:0:0:0:
298,192,175851,1,0,0:0:0:0:
213,192,175926,1,0,0:0:0:70:LR_Hat Synth.wav
42,192,176076,128,2,176226:0:0:0:0:
298,192,176076,1,0,0:0:0:0:
469,192,176076,128,0,176226:0:0:0:0:
298,192,176226,1,0,0:0:0:70:LR_Hat Synth.wav
213,192,176301,1,0,0:0:0:0:
42,192,176376,1,8,0:0:0:0:
128,192,176376,128,0,176826:0:0:0:0:
384,192,176376,128,0,176826:0:0:0:0:
469,192,176376,1,0,0:0:0:0:
213,192,176451,1,0,0:0:0:0:
298,192,176526,1,0,0:0:0:70:LR_Hat Synth.wav
42,192,176676,128,2,176826:0:0:0:0:
213,192,176676,1,0,0:0:0:0:
469,192,176676,128,0,176826:0:0:0:0:
213,192,176826,1,0,0:0:0:70:LR_Hat Synth.wav
298,192,176901,1,0,0:0:0:0:
42,192,176976,1,8,0:0:0:0:
128,192,176976,128,0,177426:0:0:0:0:
384,192,176976,128,0,177426:0:0:0:0:
469,192,176976,1,0,0:0:0:0:
298,192,177051,1,0,0:0:0:0:
213,192,177126,1,0,0:0:0:70:LR_Hat Synth.wav
42,192,177276,128,2,177576:0:0:0:0:
298,192,177276,1,0,0:0:0:0:
469,192,177276,128,0,177576:0:0:0:0:
298,192,177426,1,0,0:0:0:70:LR_Hat Synth.wav
213,192,177501,1,0,0:0:0:0:
128,192,177576,1,8,0:0:0:0:
384,192,177576,1,0,0:0:0:0:
213,192,177651,1,0,0:0:0:0:
298,192,177726,1,0,0:0:0:70:LR_Hat Synth.wav
42,192,177876,128,2,179076:0:0:0:0:
128,192,177876,1,0,0:0:0:0:
213,192,177876,1,0,0:0:0:0:
384,192,177876,128,0,178176:0:0:0:0:
469,192,177876,1,0,0:0:0:0:
469,192,178176,128,0,178476:0:0:0:0:
128,192,178476,128,0,178776:0:0:0:0:
213,192,178776,128,0,179076:0:0:0:0:
298,192,179076,128,0,179376:0:0:0:0:
469,192,179076,128,0,185601:0:0:0:0:
298,192,179526,128,0,179676:0:0:0:0:
384,192,179676,128,0,179826:0:0:0:0:
42,192,179976,1,0,0:0:0:0:
384,192,179976,128,0,185451:0:0:0:0:
128,192,180051,1,0,0:0:0:0:
42,192,180126,1,0,0:0:0:70:LR_Drum Rpd x2.wav
213,192,180126,1,0,0:0:0:0:
298,192,180201,1,0,0:0:0:0:
42,192,180276,128,2,185001:0:0:0:0:
128,192,180276,128,0,184701:0:0:0:0:
213,192,180276,128,0,184851:0:0:0:0:
298,192,180576,128,0,185001:0:0:0:0:
128,192,184776,128,0,185601:0:0:0:0:
213,192,184926,128,0,186201:0:0:0:0:
42,192,185076,128,0,186201:0:0:0:0:
298,192,185076,128,0,185301:0:0:0:0:
298,192,185376,128,0,186051:0:0:0:0:
384,192,185526,128,0,185901:0:0:0:0:
128,192,185676,128,0,185901:0:0:0:0:
469,192,185676,128,0,186801:0:0:0:0:
128,192,185976,128,0,186651:0:0:0:70:LR_Sleigh Bell.wav
384,192,185976,128,0,187026:0:0:0:0:
298,192,186126,128,0,186351:0:0:0:0:
42,192,186276,128,0,186801:0:0:0:0:
213,192,186276,128,0,186501:0:0:0:0:
298,192,186426,128,0,186951:0:0:0:0:
213,192,186576,128,0,187251:0:0:0:0:
128,192,186726,128,0,187101:0:0:0:0:
42,192,186876,128,0,187401:0:0:0:0:
469,192,186876,128,0,187701:0:0:0:0:
298,192,187026,128,0,187101:0:0:0:0:
384,192,187101,128,0,188001:0:0:0:0:
128,192,187176,128,0,188001:0:0:0:0:
298,192,187176,128,0,187401:0:0:0:0:
213,192,187326,128,0,187701:0:0:0:0:
42,192,187476,128,0,188601:0:0:0:0:
298,192,187476,128,0,187851:0:0:0:0:
213,192,187776,128,0,188601:0:0:0:0:
469,192,187776,128,0,188301:0:0:0:0:
298,192,187926,128,0,188301:0:0:0:0:
128,192,188076,128,0,189076:0:0:0:0:
384,192,188076,128,0,189176:0:0:0:0:
298,192,188376,128,0,188876:0:0:0:70:LR_Sleigh Bell.wav
469,192,188376,128,0,189476:0:0:0:0:
42,192,188676,128,0,189776:0:0:0:0:
213,192,188676,128,0,188976:0:0:0:0:
298,192,188976,128,0,189276:0:0:0:0:
213,192,189076,128,0,189376:0:0:0:0:
128,192,189176,128,0,190401:0:0:0:0:
384,192,189276,128,0,189576:0:0:0:0:
298,192,189376,128,0,189676:0:0:0:0:
213,192,189476,128,0,189776:0:0:0:0:
469,192,189576,128,0,190701:0:0:0:0:
384,192,189676,128,0,190401:0:0:0:0:
298,192,189776,128,0,190251:0:0:0:0:
42,192,189876,128,0,191001:0:0:0:0:
213,192,189876,128,0,190101:0:0:0:0:
213,192,190176,128,0,190701:0:0:0:0:
298,192,190326,128,0,191001:0:0:0:0:
128,192,190476,128,0,190851:0:0:0:0:
384,192,190476,128,0,191151:0:0:0:0:
213,192,190776,128,0,191451:0:0:0:70:LR_Sleigh Bell.wav
469,192,190776,128,0,191601:0:0:0:0:
128,192,190926,128,0,191601:0:0:0:0:
42,192,191076,128,0,192201:0:0:0:0:
298,192,191076,128,0,191301:0:0:0:0:
384,192,191226,128,0,191826:0:0:0:0:
298,192,191376,128,0,191751:0:0:0:0:
213,192,191526,128,0,192051:0:0:0:0:
128,192,191676,128,0,191901:0:0:0:0:
469,192,191676,128,0,192501:0:0:0:0:
298,192,191826,128,0,191901:0:0:0:0:
384,192,191901,128,0,192801:0:0:0:0:
128,192,191976,128,0,192801:0:0:0:0:
298,192,191976,128,0,192201:0:0:0:0:
213,192,192126,128,0,192501:0:0:0:0:
42,192,192276,128,0,193876:0:0:0:0:
298,192,192276,128,0,192651:0:0:0:0:
213,192,192576,128,0,193251:0:0:0:0:
469,192,192576,128,0,193101:0:0:0:0:
298,192,192726,128,0,193101:0:0:0:0:
128,192,192876,128,0,193401:0:0:0:0:
384,192,192876,128,0,193401:0:0:0:0:
298,192,193176,128,0,193976:0:0:0:70:LR_Sleigh Bell.wav
469,192,193176,128,0,195801:0:0:0:0:
213,192,193326,128,0,193676:0:0:0:0:
128,192,193476,128,0,193776:0:0:0:0:
384,192,193476,128,0,194276:0:0:0:0:
213,192,193776,128,0,194076:0:0:0:0:
128,192,193876,128,0,194176:0:0:0:0:
42,192,193976,128,0,196626:0:0:0:0:
298,192,194076,128,0,194376:0:0:0:0:
213,192,194176,128,0,194476:0:0:0:0:
128,192,194276,128,0,196326:0:0:0:0:
384,192,194376,128,0,195876:0:0:0:0:
298,192,194476,128,0,195951:0:0:0:0:
213,192,194576,128,0,196026:0:0:0:0:
469,192,195876,128,0,196026:0:0:0:0:
384,192,195951,128,0,196101:0:0:0:0:
298,192,196026,128,0,196176:0:0:0:0:
213,192,196101,128,0,196251:0:0:0:0:
384,192,196176,128,0,196326:0:0:0:0:
298,192,196251,128,0,196401:0:0:0:0:
213,192,196326,128,0,196476:0:0:0:0:
128,192,196401,128,0,196551:0:0:0:0:
298,192,196476,128,0,196626:0:0:0:0:
213,192,196551,128,0,196701:0:0:0:0:
128,192,196626,128,0,196776:0:0:0:0:
42,192,196701,128,0,196851:0:0:0:0:
384,192,196776,128,0,196926:0:0:0:0:
298,192,196851,128,0,197001:0:0:0:0:
213,192,196926,128,0,197076:0:0:0:0:
128,192,197001,128,0,197151:0:0:0:0:
42,192,197076,128,0,200601:0:0:0:70:LR_Kick-long med bass.wav
469,192,197076,128,0,200601:0:0:0:0:
128,192,198276,128,0,200601:0:0:0:0:
384,192,198276,128,0,200601:0:0:0:0:
213,192,199476,128,0,200601:0:0:0:0:
298,192,199476,128,0,200601:0:0:0:0:
42,192,200676,1,4,0:0:0:0:
128,192,200676,1,0,0:0:0:0:
213,192,200676,1,0,0:0:0:0:
298,192,200676,1,0,0:0:0:0:
384,192,200676,1,0,0:0:0:0:
469,192,200676,1,0,0:0:0:0:
42,192,200976,1,4,0:0:0:0:
128,192,200976,1,0,0:0:0:0:
213,192,200976,1,0,0:0:0:0:
298,192,200976,1,0,0:0:0:0:
384,192,200976,1,0,0:0:0:0:
469,192,200976,1,0,0:0:0:0:
42,192,201276,1,4,0:0:0:0:
128,192,201276,1,0,0:0:0:0:
384,192,201276,1,0,0:0:0:0:
469,192,201276,1,0,0:0:0:0:
213,192,201351,1,4,0:0:0:0:
298,192,201351,1,0,0:0:0:0:
42,192,201426,1,4,0:0:0:0:
128,192,201426,1,0,0:0:0:0:
384,192,201426,1,0,0:0:0:0:
469,192,201426,1,0,0:0:0:0:
213,192,201501,1,4,0:0:0:0:
298,192,201501,1,0,0:0:0:0:
42,192,201576,1,4,0:0:0:0:
128,192,201576,1,0,0:0:0:0:
384,192,201576,1,0,0:0:0:0:
469,192,201576,1,0,0:0:0:0:
213,192,201651,1,4,0:0:0:0:
298,192,201651,1,0,0:0:0:0:
42,192,201726,1,2,0:0:0:0:
128,192,201726,1,0,0:0:0:0:
384,192,201726,1,0,0:0:0:0:
469,192,201726,1,0,0:0:0:0:
42,192,201876,128,8,202082:0:0:0:0:
128,192,201876,128,0,202101:0:0:0:0:
213,192,201876,128,0,202119:0:0:0:0:
298,192,201876,128,0,202138:0:0:0:0:
384,192,201876,128,0,202157:0:0:0:0:
469,192,201876,128,0,202176:0:0:0:0:
42,192,202176,128,0,202251:0:0:0:0:
128,192,202176,128,0,202232:0:0:0:0:
213,192,202176,128,0,202213:0:0:0:0:
42,192,203076,128,8,203376:0:0:0:0:
128,192,203076,128,0,203357:0:0:0:0:
213,192,203076,128,0,203338:0:0:0:0:
298,192,203076,128,0,203319:0:0:0:0:
384,192,203076,128,0,203301:0:0:0:0:
469,192,203076,128,0,203282:0:0:0:0:
298,192,203376,128,0,203413:0:0:0:0:
384,192,203376,128,0,203432:0:0:0:0:
469,192,203376,128,0,203451:0:0:0:0:
42,192,204576,128,8,204876:0:0:0:0:
128,192,204576,128,0,204857:0:0:0:0:
213,192,204576,128,0,204838:0:0:0:0:
298,192,204576,128,0,204838:0:0:0:0:
384,192,204576,128,0,204857:0:0:0:0:
469,192,204576,128,0,204876:0:0:0:0:
42,192,205176,128,8,205363:0:0:0:0:
128,192,205176,128,0,205382:0:0:0:0:
213,192,205176,128,0,205401:0:0:0:0:
298,192,205176,128,0,205476:0:0:0:0:
384,192,205176,128,0,205382:0:0:0:0:
469,192,205176,128,0,205363:0:0:0:0:
42,192,205476,1,8,0:0:0:0:
128,192,205476,1,0,0:0:0:0:
213,192,205476,1,0,0:0:0:0:
384,192,205476,1,0,0:0:0:0:
469,192,205476,128,0,205626:0:0:0:0:
42,192,205626,1,4,0:0:0:0:
298,192,205626,128,0,205776:0:0:0:0:
384,192,205626,1,0,0:0:0:0:
128,192,205701,1,4,0:0:0:0:
213,192,205701,1,0,0:0:0:0:
42,192,205776,1,8,0:0:0:0:
384,192,205776,1,0,0:0:0:0:
469,192,205776,128,0,205926:0:0:0:0:
128,192,205926,1,4,0:0:0:0:
213,192,205926,1,0,0:0:0:0:
298,192,205926,128,0,206076:0:0:0:0:
42,192,206076,128,8,206226:0:0:0:0:
128,192,206076,1,0,0:0:0:0:
213,192,206076,1,0,0:0:0:0:
384,192,206076,1,0,0:0:0:0:
469,192,206076,1,0,0:0:0:0:
213,192,206226,128,4,206376:0:0:0:0:
384,192,206226,1,0,0:0:0:0:
469,192,206226,1,0,0:0:0:0:
42,192,206376,128,8,206526:0:0:0:0:
128,192,206376,1,0,0:0:0:0:
298,192,206376,1,0,0:0:0:0:
384,192,206376,1,0,0:0:0:0:
469,192,206376,1,0,0:0:0:0:
213,192,206526,128,0,206676:0:0:0:0:
298,192,206526,1,0,0:0:0:0:
384,192,206526,1,0,0:0:0:0:
42,192,206676,1,2,0:0:0:0:
128,192,206676,1,0,0:0:0:0:
298,192,206676,1,0,0:0:0:0:
384,192,206676,1,0,0:0:0:0:
469,192,206676,1,0,0:0:0:0:
213,192,206751,1,0,0:0:0:0:
128,192,206826,1,0,0:0:0:70:LR_Hat Synth.wav
469,192,206826,1,0,0:0:0:0:
384,192,206901,1,0,0:0:0:0:
42,192,206976,1,8,0:0:0:0:
128,192,206976,1,0,0:0:0:0:
213,192,206976,1,0,0:0:0:0:
298,192,206976,1,0,0:0:0:0:
469,192,206976,1,0,0:0:0:0:
384,192,207051,1,0,0:0:0:0:
213,192,207126,1,0,0:0:0:70:LR_Hat Synth.wav
298,192,207126,1,0,0:0:0:0:
128,192,207201,1,0,0:0:0:0:
42,192,207276,1,2,0:0:0:0:
213,192,207276,1,0,0:0:0:0:
384,192,207276,1,0,0:0:0:0:
469,192,207276,1,0,0:0:0:0:
298,192,207351,1,0,0:0:0:0:
42,192,207426,1,0,0:0:0:70:LR_Hat Synth.wav
128,192,207426,1,0,0:0:0:0:
213,192,207501,1,0,0:0:0:0:
42,192,207576,1,8,0:0:0:0:
128,192,207576,1,0,0:0:0:0:
298,192,207576,1,0,0:0:0:0:
384,192,207576,1,0,0:0:0:0:
469,192,207576,1,0,0:0:0:0:
213,192,207651,1,0,0:0:0:0:
128,192,207726,1,0,0:0:0:70:LR_Hat Synth.wav
384,192,207726,1,0,0:0:0:0:
298,192,207801,1,0,0:0:0:0:
42,192,207876,1,2,0:0:0:0:
213,192,207876,1,0,0:0:0:0:
384,192,207876,1,0,0:0:0:0:
469,192,207876,1,0,0:0:0:0:
298,192,207951,1,0,0:0:0:0:
128,192,208026,1,0,0:0:0:70:LR_Hat Synth.wav
384,192,208026,1,0,0:0:0:0:
213,192,208101,1,0,0:0:0:0:
42,192,208176,1,8,0:0:0:0:
128,192,208176,1,0,0:0:0:0:
298,192,208176,1,0,0:0:0:0:
384,192,208176,1,0,0:0:0:0:
469,192,208176,1,0,0:0:0:0:
213,192,208251,1,0,0:0:0:0:
42,192,208326,1,0,0:0:0:70:LR_Hat Synth.wav
384,192,208326,1,0,0:0:0:0:
298,192,208401,1,0,0:0:0:0:
128,192,208476,1,2,0:0:0:0:
213,192,208476,1,0,0:0:0:0:
384,192,208476,1,0,0:0:0:0:
469,192,208476,1,0,0:0:0:0:
298,192,208551,1,0,0:0:0:0:
42,192,208626,1,0,0:0:0:70:LR_Hat Synth.wav
469,192,208626,1,0,0:0:0:0:
128,192,208701,1,0,0:0:0:0:
42,192,208776,1,8,0:0:0:0:
213,192,208776,1,0,0:0:0:0:
298,192,208776,1,0,0:0:0:0:
384,192,208776,1,0,0:0:0:0:
469,192,208776,1,0,0:0:0:0:
128,192,208851,1,0,0:0:0:0:
213,192,208926,1,0,0:0:0:70:LR_Hat Synth.wav
469,192,208926,1,0,0:0:0:0:
298,192,209001,1,0,0:0:0:0:
42,192,209076,1,2,0:0:0:0:
128,192,209076,1,0,0:0:0:0:
384,192,209076,1,0,0:0:0:0:
469,192,209076,1,0,0:0:0:0:
213,192,209151,1,0,0:0:0:0:
384,192,209226,128,0,209301:0:0:0:70:LR_Hat Synth.wav
469,192,209226,128,0,209301:0:0:0:0:
213,192,209301,128,0,209376:0:0:0:0:
298,192,209301,128,0,209376:0:0:0:0:
42,192,209376,1,8,0:0:0:0:
128,192,209376,1,0,0:0:0:0:
384,192,209376,128,0,209451:0:0:0:0:
469,192,209376,128,0,209451:0:0:0:0:
213,192,209451,1,0,0:0:0:0:
298,192,209526,128,0,209601:0:0:0:70:LR_Hat Synth.wav
384,192,209526,128,0,209601:0:0:0:0:
469,192,209601,1,0,0:0:0:0:
42,192,209676,1,2,0:0:0:0:
128,192,209676,1,0,0:0:0:0:
213,192,209676,128,0,209751:0:0:0:0:
298,192,209676,128,0,209751:0:0:0:0:
469,192,209751,1,0,0:0:0:0:
128,192,209826,128,0,209901:0:0:0:70:LR_Hat Synth.wav
213,192,209826,128,0,209901:0:0:0:0:
298,192,209901,1,0,0:0:0:0:
42,192,209976,128,8,210051:0:0:0:0:
128,192,209976,128,0,210051:0:0:0:0:
213,192,209976,1,0,0:0:0:0:
384,192,209976,1,0,0:0:0:0:
469,192,209976,1,0,0:0:0:0:
298,192,210051,1,0,0:0:0:0:
42,192,210126,128,0,210201:0:0:0:70:LR_Hat Synth.wav
128,192,210126,128,0,210201:0:0:0:0:
213,192,210201,1,0,0:0:0:0:
42,192,210276,128,2,210501:0:0:0:0:
384,192,210276,128,0,210426:0:0:0:0:
469,192,210276,128,0,210501:0:0:0:0:
128,192,210351,128,0,210576:0:0:0:0:
213,192,210426,128,0,210651:0:0:0:70:LR_Hat Synth.wav
298,192,210426,128,0,210651:0:0:0:0:
384,192,210501,128,0,210726:0:0:0:0:
42,192,210576,128,8,210801:0:0:0:0:
469,192,210576,128,0,210801:0:0:0:0:
128,192,210651,128,0,210801:0:0:0:0:
213,192,210726,128,0,210951:0:0:0:70:LR_Hat Synth.wav
298,192,210726,128,0,210951:0:0:0:0:
384,192,210801,128,0,210876:0:0:0:0:
42,192,210876,128,2,211101:0:0:0:0:
128,192,210876,128,0,211026:0:0:0:0:
469,192,210876,128,0,211101:0:0:0:0:
384,192,210951,128,0,211176:0:0:0:0:
213,192,211026,128,0,211251:0:0:0:70:LR_Hat Synth.wav
298,192,211026,128,0,211251:0:0:0:0:
128,192,211101,128,0,211326:0:0:0:0:
42,192,211176,128,8,211401:0:0:0:0:
469,192,211176,128,0,211401:0:0:0:0:
384,192,211251,128,0,211476:0:0:0:0:
213,192,211326,128,0,211401:0:0:0:70:LR_Hat Synth.wav
298,192,211326,128,0,211401:0:0:0:0:
128,192,211401,128,0,211476:0:0:0:0:
42,192,211476,1,2,0:0:0:0:
213,192,211476,1,0,0:0:0:0:
298,192,211476,1,0,0:0:0:0:
469,192,211476,1,0,0:0:0:0:
384,192,211551,1,0,0:0:0:0:
213,192,211626,1,0,0:0:0:70:LR_Hat Synth.wav
298,192,211626,1,0,0:0:0:0:
128,192,211701,1,0,0:0:0:0:
42,192,211776,1,8,0:0:0:0:
213,192,211776,128,0,211851:0:0:0:0:
298,192,211776,128,0,211926:0:0:0:0:
384,192,211776,128,0,212001:0:0:0:0:
469,192,211776,128,0,212076:0:0:0:0:
128,192,211851,1,0,0:0:0:0:
213,192,211926,1,0,0:0:0:70:LR_Hat Synth.wav
298,192,212001,1,0,0:0:0:0:
42,192,212076,128,2,212226:0:0:0:0:
128,192,212076,128,0,212151:0:0:0:0:
384,192,212076,1,0,0:0:0:0:
298,192,212151,1,0,0:0:0:0:
213,192,212226,1,0,0:0:0:70:LR_Hat Synth.wav
469,192,212226,1,0,0:0:0:0:
128,192,212301,1,0,0:0:0:0:
42,192,212376,1,8,0:0:0:0:
213,192,212376,128,0,212451:0:0:0:0:
298,192,212376,128,0,212526:0:0:0:0:
384,192,212376,128,0,212601:0:0:0:0:
469,192,212376,128,0,212676:0:0:0:0:
128,192,212451,1,0,0:0:0:0:
213,192,212526,1,0,0:0:0:70:LR_Hat Synth.wav
298,192,212601,1,0,0:0:0:0:
42,192,212676,128,2,212826:0:0:0:0:
128,192,212676,128,0,212751:0:0:0:0:
384,192,212676,1,0,0:0:0:0:
298,192,212751,1,0,0:0:0:0:
213,192,212826,1,0,0:0:0:70:LR_Hat Synth.wav
469,192,212826,1,0,0:0:0:0:
128,192,212901,1,0,0:0:0:0:
42,192,212976,1,8,0:0:0:0:
213,192,212976,128,0,213051:0:0:0:0:
298,192,212976,128,0,213126:0:0:0:0:
384,192,212976,128,0,213201:0:0:0:0:
469,192,212976,128,0,213276:0:0:0:0:
128,192,213051,1,0,0:0:0:0:
213,192,213126,1,0,0:0:0:70:LR_Hat Synth.wav
298,192,213201,1,0,0:0:0:0:
42,192,213276,128,2,213426:0:0:0:0:
128,192,213276,128,0,213351:0:0:0:0:
384,192,213276,1,0,0:0:0:0:
298,192,213351,1,0,0:0:0:0:
213,192,213426,1,0,0:0:0:70:LR_Hat Synth.wav
469,192,213426,1,0,0:0:0:0:
128,192,213501,1,0,0:0:0:0:
42,192,213576,1,8,0:0:0:0:
213,192,213576,1,0,0:0:0:0:
298,192,213576,1,0,0:0:0:0:
384,192,213576,1,0,0:0:0:0:
469,192,213576,1,0,0:0:0:0:
128,192,213651,1,0,0:0:0:0:
213,192,213726,1,0,0:0:0:70:LR_Hat Synth.wav
469,192,213726,128,0,213876:0:0:0:0:
298,192,213801,1,0,0:0:0:0:
42,192,213876,128,2,214176:0:0:0:0:
128,192,213876,1,0,0:0:0:0:
213,192,213876,1,0,0:0:0:0:
384,192,213876,1,0,0:0:0:0:
298,192,213951,1,0,0:0:0:0:
469,192,214026,1,0,0:0:0:70:LR_Hat Synth.wav
384,192,214101,1,0,0:0:0:0:
128,192,214176,1,8,0:0:0:0:
213,192,214176,128,0,214476:0:0:0:0:
298,192,214176,1,0,0:0:0:0:
469,192,214176,1,0,0:0:0:0:
384,192,214251,1,0,0:0:0:0:
469,192,214326,1,0,0:0:0:70:LR_Hat Synth.wav
42,192,214401,1,0,0:0:0:0:
128,192,214476,1,2,0:0:0:0:
298,192,214476,128,0,214776:0:0:0:0:
384,192,214476,1,0,0:0:0:0:
469,192,214476,1,0,0:0:0:0:
213,192,214551,1,0,0:0:0:0:
42,192,214626,1,0,0:0:0:70:LR_Hat Synth.wav
128,192,214701,1,0,0:0:0:0:
42,192,214776,1,8,0:0:0:0:
213,192,214776,1,0,0:0:0:0:
384,192,214776,1,0,0:0:0:0:
469,192,214776,128,0,215076:0:0:0:0:
128,192,214851,1,0,0:0:0:0:
42,192,214926,1,0,0:0:0:70:LR_Hat Synth.wav
298,192,215001,1,0,0:0:0:0:
42,192,215076,1,2,0:0:0:0:
128,192,215076,128,0,215376:0:0:0:0:
213,192,215076,1,0,0:0:0:0:
384,192,215076,1,0,0:0:0:0:
298,192,215151,1,0,0:0:0:0:
384,192,215226,1,0,0:0:0:70:LR_Hat Synth.wav
469,192,215301,1,0,0:0:0:0:
42,192,215376,1,8,0:0:0:0:
213,192,215376,1,0,0:0:0:0:
298,192,215376,1,0,0:0:0:0:
384,192,215376,128,0,216276:0:0:0:0:
128,192,215451,1,0,0:0:0:0:
213,192,215526,1,0,0:0:0:70:LR_Hat Synth.wav
298,192,215601,1,0,0:0:0:0:
42,192,215676,1,2,0:0:0:0:
128,192,215676,128,0,216276:0:0:0:0:
213,192,215676,1,0,0:0:0:0:
469,192,215676,1,0,0:0:0:0:
298,192,215751,1,0,0:0:0:0:
213,192,215826,1,0,0:0:0:70:LR_Hat Synth.wav
42,192,215901,1,0,0:0:0:0:
213,192,215976,1,8,0:0:0:0:
298,192,215976,1,0,0:0:0:0:
469,192,215976,1,0,0:0:0:0:
42,192,216051,1,0,0:0:0:0:
298,192,216126,1,0,0:0:0:70:LR_Hat Synth.wav
469,192,216201,1,0,0:0:0:0:
42,192,216276,1,2,0:0:0:0:
213,192,216276,1,0,0:0:0:70:LR_CymbalQST.wav
298,192,216276,1,0,0:0:0:0:
128,192,216351,1,0,0:0:0:0:
213,192,216426,1,0,0:0:0:70:LR_Hat Synth.wav
298,192,216426,1,0,0:0:0:0:
384,192,216501,1,0,0:0:0:0:
42,192,216576,128,4,216876:0:0:0:0:
128,192,216576,128,0,216801:0:0:0:0:
213,192,216576,128,0,216726:0:0:0:0:
298,192,216576,128,0,216651:0:0:0:0:
469,192,216576,1,0,0:0:0:0:
384,192,216651,1,0,0:0:0:0:
298,192,216726,1,0,0:0:0:70:LR_Hat Synth.wav
213,192,216801,1,0,0:0:0:0:
128,192,216876,1,2,0:0:0:0:
384,192,216876,128,0,216951:0:0:0:0:
469,192,216876,128,0,217026:0:0:0:0:
213,192,216951,1,0,0:0:0:0:
42,192,217026,1,0,0:0:0:70:LR_Hat Synth.wav
298,192,217026,1,0,0:0:0:0:
384,192,217101,1,0,0:0:0:0:
42,192,217176,128,4,217476:0:0:0:0:
128,192,217176,128,0,217401:0:0:0:0:
213,192,217176,128,0,217326:0:0:0:0:
298,192,217176,128,0,217251:0:0:0:0:
469,192,217176,1,0,0:0:0:0:
384,192,217251,1,0,0:0:0:0:
298,192,217326,1,0,0:0:0:70:LR_Hat Synth.wav
213,192,217401,1,0,0:0:0:0:
128,192,217476,1,2,0:0:0:0:
384,192,217476,128,0,217551:0:0:0:0:
469,192,217476,128,0,217626:0:0:0:0:
213,192,217551,1,0,0:0:0:0:
42,192,217626,1,0,0:0:0:70:LR_Hat Synth.wav
298,192,217626,1,0,0:0:0:0:
384,192,217701,1,0,0:0:0:0:
42,192,217776,128,4,218076:0:0:0:0:
128,192,217776,128,0,218001:0:0:0:0:
213,192,217776,128,0,217926:0:0:0:0:
298,192,217776,128,0,217851:0:0:0:0:
469,192,217776,1,0,0:0:0:0:
384,192,217851,1,0,0:0:0:0:
298,192,217926,1,0,0:0:0:70:LR_Hat Synth.wav
213,192,218001,1,0,0:0:0:0:
128,192,218076,1,2,0:0:0:0:
384,192,218076,128,0,218151:0:0:0:0:
469,192,218076,128,0,218226:0:0:0:0:
213,192,218151,1,0,0:0:0:0:
42,192,218226,1,4,0:0:0:0:
298,192,218226,1,0,0:0:0:70:LR_Hat Synth.wav
384,192,218301,1,0,0:0:0:0:
42,192,218376,1,2,0:0:0:0:
128,192,218376,1,0,0:0:0:0:
213,192,218376,1,0,0:0:0:0:
298,192,218376,1,0,0:0:0:0:
469,192,218376,1,0,0:0:0:0:
384,192,218451,1,0,0:0:0:0:
42,192,218526,128,4,218676:0:0:0:0:
298,192,218526,1,0,0:0:0:70:LR_Hat Synth.wav
213,192,218601,1,0,0:0:0:0:
128,192,218676,128,2,218976:0:0:0:0:
298,192,218676,1,0,0:0:0:0:
384,192,218676,1,0,0:0:0:0:
469,192,218676,128,0,219876:0:0:0:0:
42,192,218976,128,0,219276:0:0:0:0:
384,192,219276,128,0,219576:0:0:0:0:
298,192,219576,128,0,219876:0:0:0:0:
42,192,219876,128,0,221001:0:0:0:0:
213,192,219876,128,0,220176:0:0:0:0:
213,192,220326,128,0,220476:0:0:0:0:
128,192,220476,128,0,220626:0:0:0:0:
128,192,220776,128,0,221001:0:0:0:0:
42,192,221076,128,8,221207:0:0:0:0:
128,192,221076,128,0,221226:0:0:0:0:
213,192,221076,128,0,221244:0:0:0:0:
298,192,221076,128,0,221263:0:0:0:0:
384,192,221076,128,0,221282:0:0:0:0:
469,192,221076,128,0,221301:0:0:0:0:
42,192,221376,128,8,221507:0:0:0:0:
128,192,221376,128,0,221526:0:0:0:0:
213,192,221376,128,0,221544:0:0:0:0:
298,192,221376,128,0,221563:0:0:0:0:
384,192,221376,128,0,221582:0:0:0:0:
469,192,221376,128,0,221601:0:0:0:0:
42,192,221676,128,8,221807:0:0:0:0:
128,192,221676,128,0,221826:0:0:0:0:
213,192,221676,128,0,221844:0:0:0:0:
298,192,221676,128,0,221863:0:0:0:0:
384,192,221676,128,0,221882:0:0:0:0:
469,192,221676,128,0,221901:0:0:0:0:
42,192,221976,1,0,0:0:0:70:LR_J Hit Pong.wav
128,192,221976,1,0,0:0:0:0:
42,192,222276,128,8,222501:0:0:0:0:
128,192,222276,128,0,222482:0:0:0:0:
213,192,222276,128,0,222463:0:0:0:0:
298,192,222276,128,0,222444:0:0:0:0:
384,192,222276,128,0,222426:0:0:0:0:
469,192,222276,128,0,222407:0:0:0:0:
42,192,222576,128,8,222801:0:0:0:0:
128,192,222576,128,0,222782:0:0:0:0:
213,192,222576,128,0,222763:0:0:0:0:
298,192,222576,128,0,222744:0:0:0:0:
384,192,222576,128,0,222726:0:0:0:0:
469,192,222576,128,0,222707:0:0:0:0:
42,192,222876,128,8,223101:0:0:0:0:
128,192,222876,128,0,223082:0:0:0:0:
213,192,222876,128,0,223063:0:0:0:0:
298,192,222876,128,0,223044:0:0:0:0:
384,192,222876,128,0,223026:0:0:0:0:
469,192,222876,128,0,223007:0:0:0:0:
384,192,223176,1,0,0:0:0:0:
469,192,223176,1,0,0:0:0:0:
42,192,223476,128,8,223701:0:0:0:0:
128,192,223476,128,0,223682:0:0:0:0:
213,192,223476,128,0,223663:0:0:0:0:
298,192,223476,128,0,223663:0:0:0:0:
384,192,223476,128,0,223682:0:0:0:0:
469,192,223476,128,0,223701:0:0:0:0:
42,192,223776,128,8,224001:0:0:0:0:
128,192,223776,128,0,223982:0:0:0:0:
213,192,223776,128,0,223963:0:0:0:0:
298,192,223776,128,0,223963:0:0:0:0:
384,192,223776,128,0,223982:0:0:0:0:
469,192,223776,128,0,224001:0:0:0:0:
42,192,224076,128,8,224263:0:0:0:0:
128,192,224076,128,0,224282:0:0:0:0:
213,192,224076,128,0,224151:0:0:0:0:
298,192,224076,128,0,224151:0:0:0:0:
384,192,224076,128,0,224282:0:0:0:0:
469,192,224076,128,0,224263:0:0:0:0:
213,192,224226,128,0,224301:0:0:0:0:
298,192,224226,128,0,224301:0:0:0:0:
42,192,224376,128,8,224563:0:0:0:0:
128,192,224376,128,0,224582:0:0:0:0:
213,192,224376,128,0,224451:0:0:0:0:
298,192,224376,128,0,224451:0:0:0:0:
384,192,224376,128,0,224582:0:0:0:0:
469,192,224376,128,0,224563:0:0:0:0:
213,192,224526,128,0,224601:0:0:0:0:
298,192,224526,128,0,224601:0:0:0:0:
42,192,224676,128,8,224863:0:0:0:0:
128,192,224676,128,0,224882:0:0:0:0:
213,192,224676,128,0,224901:0:0:0:0:
298,192,224676,128,0,224863:0:0:0:0:
384,192,224676,128,0,224882:0:0:0:0:
469,192,224676,128,0,224901:0:0:0:0:
42,192,224976,128,8,225201:0:0:0:0:
128,192,224976,128,0,225182:0:0:0:0:
213,192,224976,128,0,225163:0:0:0:0:
298,192,224976,128,0,225201:0:0:0:0:
384,192,224976,128,0,225182:0:0:0:0:
469,192,224976,128,0,225163:0:0:0:0:
42,192,225276,128,8,225463:0:0:0:0:
128,192,225276,128,0,225482:0:0:0:0:
213,192,225276,128,0,225501:0:0:0:0:
298,192,225276,128,0,225463:0:0:0:0:
384,192,225276,128,0,225482:0:0:0:0:
469,192,225276,128,0,225501:0:0:0:0:
128,192,225576,128,0,225651:0:0:0:0:
384,192,225576,128,0,225651:0:0:0:0:
213,192,225651,128,0,225726:0:0:0:0:
469,192,225651,128,0,225726:0:0:0:0:
42,192,225726,128,0,225801:0:0:0:0:
298,192,225726,128,0,225801:0:0:0:0:
384,192,225801,128,0,225876:0:0:0:0:
469,192,225801,128,0,225876:0:0:0:0:
42,192,225876,128,8,226101:0:0:0:0:
128,192,225876,128,0,226082:0:0:0:0:
213,192,225876,128,0,226063:0:0:0:0:
298,192,225876,128,0,226044:0:0:0:0:
384,192,226026,1,0,0:0:0:0:
469,192,226026,1,0,0:0:0:0:
42,192,226176,128,8,226401:0:0:0:0:
128,192,226176,128,0,226382:0:0:0:0:
213,192,226176,128,0,226363:0:0:0:0:
298,192,226176,1,0,0:0:0:0:
384,192,226176,1,0,0:0:0:0:
469,192,226176,1,0,0:0:0:0:
384,192,226326,1,0,0:0:0:0:
469,192,226326,1,0,0:0:0:0:
42,192,226476,128,8,226701:0:0:0:0:
128,192,226476,128,0,226682:0:0:0:0:
384,192,226476,1,0,0:0:0:0:
469,192,226476,1,0,0:0:0:0:
213,192,226551,1,0,0:0:0:0:
298,192,226551,1,0,0:0:0:0:
384,192,226626,1,0,0:0:0:0:
469,192,226626,1,0,0:0:0:0:
213,192,226701,1,0,0:0:0:0:
298,192,226701,1,0,0:0:0:0:
42,192,226776,1,0,0:0:0:70:LR_J Hit Whistle.wav
128,192,226776,1,0,0:0:0:0:
42,192,227076,1,8,0:0:0:0:
128,192,227076,1,0,0:0:0:0:
213,192,227076,128,0,227244:0:0:0:0:
298,192,227076,128,0,227263:0:0:0:0:
384,192,227076,128,0,227282:0:0:0:0:
469,192,227076,128,0,227301:0:0:0:0:
42,192,227226,1,0,0:0:0:0:
128,192,227226,1,0,0:0:0:0:
42,192,227376,1,8,0:0:0:0:
128,192,227376,1,0,0:0:0:0:
213,192,227376,1,0,0:0:0:0:
298,192,227376,128,0,227563:0:0:0:0:
384,192,227376,128,0,227582:0:0:0:0:
469,192,227376,128,0,227601:0:0:0:0:
42,192,227526,1,0,0:0:0:0:
128,192,227526,1,0,0:0:0:0:
42,192,227676,1,8,0:0:0:0:
128,192,227676,1,0,0:0:0:0:
384,192,227676,128,0,227882:0:0:0:0:
469,192,227676,128,0,227901:0:0:0:0:
213,192,227751,1,0,0:0:0:0:
298,192,227751,1,0,0:0:0:0:
42,192,227826,1,0,0:0:0:0:
128,192,227826,1,0,0:0:0:0:
213,192,227901,1,0,0:0:0:0:
298,192,227901,1,0,0:0:0:0:
384,192,227976,1,0,0:0:0:0:
469,192,227976,1,0,0:0:0:0:
128,192,228126,1,0,0:0:0:0:
213,192,228126,1,0,0:0:0:0:
298,192,228201,1,0,0:0:0:0:
384,192,228201,1,0,0:0:0:0:
42,192,228276,1,8,0:0:0:0:
128,192,228276,1,0,0:0:0:0:
213,192,228276,1,0,0:0:0:0:
469,192,228276,1,0,0:0:0:0:
298,192,228351,1,0,0:0:0:0:
384,192,228351,1,0,0:0:0:0:
128,192,228426,1,0,0:0:0:0:
213,192,228426,1,0,0:0:0:0:
42,192,228501,1,0,0:0:0:0:
469,192,228501,1,0,0:0:0:0:
128,192,228576,1,8,0:0:0:0:
213,192,228576,1,0,0:0:0:0:
298,192,228576,1,0,0:0:0:0:
384,192,228576,1,0,0:0:0:0:
42,192,228651,1,0,0:0:0:0:
469,192,228651,1,0,0:0:0:0:
298,192,228726,1,0,0:0:0:0:
384,192,228726,1,0,0:0:0:0:
128,192,228801,1,0,0:0:0:0:
213,192,228801,1,0,0:0:0:0:
42,192,228876,1,8,0:0:0:0:
298,192,228876,1,0,0:0:0:0:
384,192,228876,1,0,0:0:0:0:
469,192,228876,1,0,0:0:0:0:
128,192,228951,1,0,0:0:0:0:
213,192,228951,1,0,0:0:0:0:
298,192,229026,1,0,0:0:0:0:
384,192,229026,1,0,0:0:0:0:
469,192,229026,1,0,0:0:0:0:
42,192,229101,1,0,0:0:0:0:
128,192,229101,1,0,0:0:0:0:
213,192,229176,1,8,0:0:0:0:
298,192,229176,1,0,0:0:0:0:
384,192,229176,1,0,0:0:0:0:
469,192,229176,1,0,0:0:0:0:
42,192,229251,1,0,0:0:0:0:
128,192,229251,1,0,0:0:0:0:
298,192,229326,1,0,0:0:0:0:
384,192,229326,1,0,0:0:0:0:
469,192,229326,1,0,0:0:0:0:
128,192,229401,1,0,0:0:0:0:
213,192,229401,1,0,0:0:0:0:
42,192,229476,1,8,0:0:0:0:
384,192,229476,1,0,0:0:0:0:
469,192,229476,1,0,0:0:0:0:
298,192,229513,1,0,0:0:0:0:
213,192,229551,1,0,0:0:0:0:
128,192,229588,1,0,0:0:0:0:
42,192,229626,1,0,0:0:0:0:
469,192,229663,1,0,0:0:0:0:
384,192,229701,1,0,0:0:0:0:
298,192,229738,1,0,0:0:0:0:
42,192,229776,1,8,0:0:0:0:
128,192,229776,1,0,0:0:0:0:
469,192,229776,1,0,0:0:0:0:
213,192,229813,1,0,0:0:0:0:
298,192,229851,1,0,0:0:0:0:
384,192,229888,1,0,0:0:0:0:
469,192,229926,1,0,0:0:0:0:
42,192,229963,1,0,0:0:0:0:
128,192,230001,1,0,0:0:0:0:
213,192,230038,1,0,0:0:0:0:
42,192,230076,1,8,0:0:0:0:
384,192,230076,1,0,0:0:0:0:
469,192,230076,1,0,0:0:0:0:
298,192,230113,1,0,0:0:0:0:
213,192,230151,1,0,0:0:0:0:
128,192,230188,1,0,0:0:0:0:
42,192,230226,1,0,0:0:0:0:
469,192,230226,1,0,0:0:0:0:
384,192,230263,1,0,0:0:0:0:
298,192,230301,1,0,0:0:0:0:
213,192,230338,1,0,0:0:0:0:
128,192,230376,1,0,0:0:0:0:
384,192,230376,1,0,0:0:0:0:
298,192,230413,1,0,0:0:0:0:
213,192,230451,1,0,0:0:0:0:
128,192,230488,1,0,0:0:0:0:
42,192,230526,1,0,0:0:0:0:
469,192,230526,1,0,0:0:0:0:
384,192,230563,1,0,0:0:0:0:
298,192,230601,1,0,0:0:0:0:
213,192,230638,1,0,0:0:0:0:
42,192,230676,1,2,0:0:0:0:
128,192,230676,1,0,0:0:0:0:
384,192,230676,1,0,0:0:0:0:
469,192,230676,1,0,0:0:0:0:
42,192,230826,1,0,0:0:0:70:LR_Drum Rpd x2.wav
213,192,230826,1,0,0:0:0:0:
298,192,230826,1,0,0:0:0:0:
469,192,230826,1,0,0:0:0:0:
128,192,230901,1,0,0:0:0:70:LR_Drum Rpd x2.wav
384,192,230901,1,0,0:0:0:0:
42,192,230976,128,8,235403:0:0:0:0:
213,192,230976,128,0,235403:0:0:0:0:
298,192,230976,128,0,235403:0:0:0:0:
469,192,230976,128,0,235403:0:0:0:0:
128,192,231318,128,0,235403:0:0:0:0:
384,192,231318,128,0,235403:0:0:0:0:
