osu file format v14

[General]
AudioFilename: audio.mp3
AudioLeadIn: 0
PreviewTime: 29226
Countdown: 0
SampleSet: Soft
StackLeniency: 0.7
Mode: 3
LetterboxInBreaks: 0
SpecialStyle: 0
WidescreenStoryboard: 1

[Editor]
Bookmarks: 29076,68676,71076,146301,177576
DistanceSpacing: 3.5
BeatDivisor: 4
GridSize: 4
TimelineZoom: 1.7

[Metadata]
Title:Mazare Party
TitleUnicode:Mazare Party
Artist:MAZARE
ArtistUnicode:MAZARE
Creator:Insp1r3
Version:6K Hard
Source:
Tags:Oriental EDM MAZARE Camellia かめりあ Nanahira kradness yukacco Chilly Cokiiplay booty Asherz007 jakads dudehacker MIND HACK
BeatmapID:1519840
BeatmapSetID:650415

[Difficulty]
HPDrainRate:8
CircleSize:6
OverallDifficulty:8
ApproachRate:5
SliderMultiplier:1.4
SliderTickRate:1

[Events]
//Background and Video events
0,0,"bg.jpg",0,0
//Break Periods
//Storyboard Layer 0 (Background)
//Storyboard Layer 1 (Fail)
//Storyboard Layer 2 (Pass)
//Storyboard Layer 3 (Foreground)
//Storyboard Sound Samples
Sample,119076,0,"LR_Kick-long med bass.wav",70
Sample,127476,0,"LR_Kick-long med bass.wav",70
Sample,127776,0,"LR_Kick-long med bass.wav",70
Sample,128076,0,"LR_Kick-long med bass.wav",70
Sample,128376,0,"LR_Kick-long med bass.wav",70
Sample,218226,0,"LR_Hat Synth.wav",70
Sample,218526,0,"LR_Hat Synth.wav",70

[TimingPoints]
276,300,4,2,1,100,1,0
30276,-100,4,2,1,100,0,1
38676,-100,4,2,1,100,0,0
75876,-100,4,2,1,100,0,1
87876,-100,4,2,1,100,0,0
110676,-100,4,2,1,100,0,1
119076,-100,4,2,1,100,0,0
120276,-100,4,2,1,100,0,1
128676,-100,4,2,1,100,0,0
165876,-100,4,2,1,100,0,1
177876,-100,4,2,1,100,0,0
206676,-100,4,2,1,100,0,1
218676,-100,4,2,1,100,0,0
230976,342.857142857143,4,2,1,100,1,0
230976,-87.719298245614,4,2,1,100,0,0
231318,222.222222222222,4,2,1,100,1,0
231318,-135.135135135135,4,2,1,100,0,0
231484,285.714285714286,4,2,1,100,1,0
231484,-105.263157894737,4,2,1,100,0,0
231555,375,4,2,1,100,1,0
231555,-80,4,2,1,100,0,0
231742,363.636363636364,4,2,1,100,1,0
231742,-82.6446280991736,4,2,1,100,0,0
231832,600,4,2,1,100,1,0
231832,-50,4,2,1,100,0,0
231982,272.727272727273,4,2,1,100,1,0
231982,-109.89010989011,4,2,1,100,0,0
232050,444.444444444444,4,2,1,100,1,0
232050,-67.5675675675676,4,2,1,100,0,0
232161,400,4,2,1,100,1,0
232161,-75.187969924812,4,2,1,100,0,0
232261,444.444444444444,4,2,1,100,1,0
232261,-67.5675675675676,4,2,1,100,0,0
232372,375,4,2,1,100,1,0
232372,-80,4,2,1,100,0,0
232465,461.538461538462,4,2,1,100,1,0
232465,-64.9350649350649,4,2,1,100,0,0
232580,352.941176470588,4,2,1,100,1,0
232580,-84.7457627118644,4,2,1,100,0,0

[HitObjects]
128,192,1326,5,0,0:0:0:70:LR_Drum Rpd x2.wav
298,192,1326,1,0,0:0:0:0:
384,192,1326,1,0,0:0:0:0:
128,192,1476,1,0,0:0:0:70:LR_Drum Low Long.wav
298,192,1476,1,0,0:0:0:0:
384,192,1476,1,0,0:0:0:0:
128,192,2076,128,0,2676:0:0:0:0:
384,192,2676,128,0,3876:0:0:0:0:
213,192,3876,128,0,5076:0:0:0:0:
298,192,4176,128,0,5076:0:0:0:0:
42,192,5076,1,4,0:0:0:0:
128,192,5076,1,0,0:0:0:0:
384,192,5376,1,4,0:0:0:0:
469,192,5376,1,0,0:0:0:0:
42,192,5676,1,4,0:0:0:0:
213,192,5751,1,4,0:0:0:0:
298,192,5826,1,4,0:0:0:0:
469,192,5901,1,4,0:0:0:0:
42,192,5976,1,4,0:0:0:0:
213,192,6051,1,4,0:0:0:0:
298,192,6126,1,2,0:0:0:0:
128,192,6276,128,8,6576:0:0:0:0:
213,192,6276,128,0,6576:0:0:0:0:
469,192,6276,128,0,6576:0:0:0:0:
213,192,6876,1,0,0:0:0:0:
298,192,7176,1,0,0:0:0:0:
42,192,7476,128,8,7776:0:0:0:0:
128,192,7476,128,0,7776:0:0:0:0:
469,192,7476,128,0,7776:0:0:0:0:
213,192,8076,1,0,0:0:0:0:
298,192,8376,1,0,0:0:0:0:
469,192,8676,1,0,0:0:0:0:
128,192,8976,128,8,9276:0:0:0:0:
298,192,8976,128,0,9276:0:0:0:0:
384,192,8976,128,0,9276:0:0:0:0:
42,192,9276,1,0,0:0:0:0:
128,192,9576,128,8,9876:0:0:0:0:
213,192,9576,128,0,9876:0:0:0:0:
384,192,9576,128,0,9876:0:0:0:0:
469,192,9876,1,8,0:0:0:0:
298,192,10026,1,4,0:0:0:0:
213,192,10101,1,4,0:0:0:0:
42,192,10176,1,8,0:0:0:0:
128,192,10176,1,0,0:0:0:0:
298,192,10326,1,4,0:0:0:0:
213,192,10476,1,8,0:0:0:0:
384,192,10476,1,0,0:0:0:0:
128,192,10626,1,4,0:0:0:0:
298,192,10776,1,8,0:0:0:0:
469,192,10776,1,0,0:0:0:0:
42,192,11076,1,8,0:0:0:0:
213,192,11076,1,0,0:0:0:0:
469,192,11076,1,0,0:0:0:0:
298,192,11376,1,2,0:0:0:0:
384,192,11526,1,0,0:0:0:0:
213,192,11676,1,2,0:0:0:0:
298,192,11976,1,2,0:0:0:0:
128,192,12276,1,2,0:0:0:0:
213,192,12426,1,0,0:0:0:0:
384,192,12576,1,2,0:0:0:0:
128,192,12876,1,2,0:0:0:0:
298,192,13026,1,0,0:0:0:0:
384,192,13176,1,2,0:0:0:0:
213,192,13476,1,2,0:0:0:0:
298,192,13626,1,2,0:0:0:0:
213,192,13776,1,2,0:0:0:0:
298,192,13926,1,2,0:0:0:0:
42,192,14076,1,2,0:0:0:0:
213,192,14151,1,2,0:0:0:0:
298,192,14226,1,2,0:0:0:0:
469,192,14301,1,2,0:0:0:0:
42,192,14376,1,2,0:0:0:0:
213,192,14451,1,4,0:0:0:0:
298,192,14526,1,4,0:0:0:0:
384,192,14601,1,4,0:0:0:0:
42,192,14676,1,4,0:0:0:0:
469,192,14676,1,0,0:0:0:0:
384,192,14976,1,0,0:0:0:0:
298,192,15051,1,0,0:0:0:0:
213,192,15126,1,0,0:0:0:0:
128,192,15201,1,0,0:0:0:0:
42,192,15276,1,0,0:0:0:0:
384,192,15576,1,0,0:0:0:0:
42,192,15876,1,8,0:0:0:0:
213,192,15876,1,0,0:0:0:0:
469,192,15876,1,0,0:0:0:0:
128,192,16176,1,8,0:0:0:0:
298,192,16176,1,0,0:0:0:0:
384,192,16176,1,0,0:0:0:0:
42,192,16476,1,8,0:0:0:0:
213,192,16476,1,0,0:0:0:0:
469,192,16476,1,0,0:0:0:0:
128,192,17076,1,8,0:0:0:0:
298,192,17076,1,0,0:0:0:0:
384,192,17076,1,0,0:0:0:0:
42,192,17376,1,8,0:0:0:0:
213,192,17376,1,0,0:0:0:0:
469,192,17376,1,0,0:0:0:0:
213,192,17676,1,8,0:0:0:0:
298,192,17676,1,0,0:0:0:0:
384,192,17676,1,0,0:0:0:0:
128,192,18276,1,8,0:0:0:0:
213,192,18276,1,0,0:0:0:0:
384,192,18276,1,0,0:0:0:0:
42,192,18576,1,8,0:0:0:0:
384,192,18576,1,0,0:0:0:0:
469,192,18576,1,0,0:0:0:0:
128,192,18876,1,8,0:0:0:0:
298,192,18876,1,0,0:0:0:0:
384,192,19026,1,0,0:0:0:0:
213,192,19176,1,8,0:0:0:0:
469,192,19176,1,0,0:0:0:0:
128,192,19326,1,0,0:0:0:0:
42,192,19476,1,8,0:0:0:0:
213,192,19476,1,0,0:0:0:0:
384,192,19476,1,0,0:0:0:0:
128,192,19776,1,8,0:0:0:0:
384,192,19776,1,0,0:0:0:0:
469,192,19776,1,0,0:0:0:0:
42,192,20076,1,8,0:0:0:0:
213,192,20076,1,0,0:0:0:0:
298,192,20076,1,0,0:0:0:0:
213,192,20376,128,0,20676:0:0:0:0:
42,192,20676,1,8,0:0:0:0:
128,192,20676,1,0,0:0:0:0:
469,192,20676,1,0,0:0:0:0:
298,192,20826,1,4,0:0:0:0:
42,192,20976,1,8,0:0:0:0:
213,192,20976,1,0,0:0:0:0:
384,192,20976,1,0,0:0:0:0:
128,192,21126,1,4,0:0:0:0:
213,192,21276,1,8,0:0:0:0:
298,192,21276,1,0,0:0:0:0:
469,192,21276,1,0,0:0:0:0:
384,192,21426,1,4,0:0:0:0:
213,192,21576,1,0,0:0:0:70:LR_J Hit Whistle.wav
128,192,21876,1,8,0:0:0:0:
298,192,21876,1,0,0:0:0:0:
384,192,21876,1,0,0:0:0:0:
42,192,22026,1,4,0:0:0:0:
128,192,22176,1,8,0:0:0:0:
213,192,22176,1,0,0:0:0:0:
469,192,22176,1,0,0:0:0:0:
298,192,22326,1,4,0:0:0:0:
42,192,22476,1,8,0:0:0:0:
213,192,22476,1,0,0:0:0:0:
384,192,22476,1,0,0:0:0:0:
469,192,22626,1,4,0:0:0:0:
128,192,22926,1,0,0:0:0:0:
213,192,23001,1,0,0:0:0:0:
42,192,23076,1,8,0:0:0:0:
298,192,23076,1,0,0:0:0:0:
469,192,23076,1,0,0:0:0:0:
384,192,23226,1,0,0:0:0:0:
128,192,23376,1,8,0:0:0:0:
213,192,23376,1,0,0:0:0:0:
469,192,23376,1,0,0:0:0:0:
298,192,23526,1,0,0:0:0:0:
42,192,23676,1,8,0:0:0:0:
469,192,23676,1,0,0:0:0:0:
213,192,23826,1,0,0:0:0:0:
128,192,23976,1,8,0:0:0:0:
384,192,23976,1,0,0:0:0:0:
469,192,24126,1,0,0:0:0:0:
42,192,24276,1,8,0:0:0:0:
213,192,24276,128,0,24576:0:0:0:0:
384,192,24276,1,0,0:0:0:0:
128,192,24576,1,8,0:0:0:0:
298,192,24576,128,0,24876:0:0:0:0:
469,192,24576,1,0,0:0:0:0:
42,192,24876,1,8,0:0:0:0:
213,192,24876,1,0,0:0:0:0:
384,192,24876,128,0,25476:0:0:0:0:
469,192,25176,1,0,0:0:0:0:
128,192,25476,1,2,0:0:0:0:
298,192,25476,1,0,0:0:0:0:
384,192,25776,1,4,0:0:0:0:
469,192,25776,1,8,0:0:0:0:
42,192,26076,1,4,0:0:0:0:
298,192,26076,1,8,0:0:0:0:
128,192,26376,1,4,0:0:0:0:
384,192,26376,1,8,0:0:0:0:
298,192,26676,1,4,0:0:0:0:
469,192,26676,1,8,0:0:0:0:
213,192,26751,1,0,0:0:0:70:LR_Drum Rpd x2.wav
128,192,26976,1,4,0:0:0:0:
384,192,26976,1,8,0:0:0:0:
42,192,27051,1,0,0:0:0:70:LR_Drum Rpd x2.wav
213,192,27276,1,4,0:0:0:0:
298,192,27276,1,8,0:0:0:0:
128,192,27351,1,0,0:0:0:70:LR_Drum Rpd x2.wav
42,192,27576,1,4,0:0:0:0:
384,192,27576,1,8,0:0:0:0:
469,192,27651,1,0,0:0:0:70:LR_Drum Rpd x2.wav
213,192,27876,1,4,0:0:0:0:
298,192,27876,1,8,0:0:0:0:
384,192,27951,1,0,0:0:0:70:LR_Drum Rpd x2.wav
128,192,28176,1,4,0:0:0:0:
469,192,28176,1,8,0:0:0:0:
42,192,28251,1,0,0:0:0:80:LR_Drum Rpd x2.wav
298,192,28476,1,4,0:0:0:0:
384,192,28476,1,8,0:0:0:0:
213,192,28551,1,0,0:0:0:100:LR_Drum Rpd x2.wav
42,192,28776,1,4,0:0:0:0:
128,192,28776,1,8,0:0:0:0:
384,192,28851,1,4,0:0:0:0:
469,192,28851,1,0,0:0:0:0:
42,192,28926,1,4,0:0:0:0:
128,192,28926,1,0,0:0:0:0:
384,192,29001,1,4,0:0:0:0:
469,192,29001,1,0,0:0:0:0:
42,192,29076,1,4,0:0:0:0:
128,192,29076,1,0,0:0:0:0:
128,192,30276,1,2,0:0:0:0:
384,192,30276,1,0,0:0:0:70:LR_CymbalQST.wav
213,192,30426,1,0,0:0:0:0:
298,192,30501,1,0,0:0:0:0:
42,192,30576,1,8,0:0:0:0:
213,192,30576,1,0,0:0:0:0:
384,192,30576,1,0,0:0:0:0:
298,192,30726,1,0,0:0:0:0:
42,192,30876,1,2,0:0:0:0:
469,192,30876,1,0,0:0:0:0:
213,192,31026,1,0,0:0:0:0:
298,192,31101,1,0,0:0:0:0:
128,192,31176,1,8,0:0:0:0:
384,192,31176,1,0,0:0:0:0:
469,192,31176,1,0,0:0:0:0:
213,192,31326,1,0,0:0:0:0:
42,192,31476,1,2,0:0:0:0:
384,192,31476,1,0,0:0:0:0:
298,192,31626,1,0,0:0:0:0:
42,192,31776,1,8,0:0:0:0:
128,192,31776,1,0,0:0:0:0:
469,192,31776,1,0,0:0:0:0:
213,192,31851,1,0,0:0:0:0:
298,192,31926,1,0,0:0:0:0:
384,192,32001,1,0,0:0:0:0:
128,192,32076,1,2,0:0:0:0:
469,192,32076,1,0,0:0:0:0:
298,192,32226,1,0,0:0:0:0:
42,192,32376,1,8,0:0:0:0:
213,192,32376,1,0,0:0:0:0:
469,192,32376,1,0,0:0:0:0:
128,192,32526,1,0,0:0:0:0:
384,192,32676,1,2,0:0:0:0:
469,192,32676,1,0,0:0:0:0:
298,192,32826,1,0,0:0:0:0:
213,192,32901,1,0,0:0:0:0:
42,192,32976,1,8,0:0:0:0:
128,192,32976,1,0,0:0:0:0:
384,192,32976,1,0,0:0:0:0:
298,192,33126,1,0,0:0:0:0:
213,192,33201,1,0,0:0:0:0:
128,192,33276,1,2,0:0:0:0:
469,192,33276,1,0,0:0:0:0:
384,192,33426,1,0,0:0:0:0:
42,192,33576,1,8,0:0:0:0:
213,192,33576,1,0,0:0:0:0:
469,192,33576,1,0,0:0:0:0:
298,192,33726,1,0,0:0:0:0:
128,192,33876,1,2,0:0:0:0:
384,192,33876,1,0,0:0:0:0:
213,192,34026,1,0,0:0:0:0:
42,192,34176,1,8,0:0:0:0:
298,192,34176,1,0,0:0:0:0:
469,192,34176,1,0,0:0:0:0:
213,192,34251,1,0,0:0:0:0:
128,192,34326,1,0,0:0:0:0:
42,192,34401,1,0,0:0:0:0:
128,192,34476,1,2,0:0:0:0:
384,192,34476,1,0,0:0:0:0:
469,192,34626,1,0,0:0:0:0:
42,192,34776,1,8,0:0:0:0:
213,192,34776,1,0,0:0:0:0:
384,192,34776,1,0,0:0:0:0:
298,192,34926,1,0,0:0:0:0:
128,192,35076,1,2,0:0:0:0:
384,192,35076,1,0,0:0:0:70:LR_CymbalQST.wav
469,192,35076,1,0,0:0:0:0:
213,192,35226,1,0,0:0:0:0:
298,192,35301,1,0,0:0:0:0:
42,192,35376,1,8,0:0:0:0:
128,192,35376,1,0,0:0:0:0:
469,192,35526,1,0,0:0:0:0:
384,192,35601,1,0,0:0:0:0:
213,192,35676,1,2,0:0:0:0:
298,192,35676,1,0,0:0:0:0:
42,192,35901,1,0,0:0:0:0:
128,192,35976,1,8,0:0:0:0:
384,192,35976,1,0,0:0:0:0:
469,192,35976,1,0,0:0:0:0:
298,192,36126,1,0,0:0:0:0:
42,192,36276,1,2,0:0:0:0:
384,192,36276,1,0,0:0:0:0:
128,192,36426,1,0,0:0:0:0:
42,192,36576,1,8,0:0:0:0:
213,192,36576,1,0,0:0:0:0:
469,192,36576,1,0,0:0:0:0:
298,192,36651,1,0,0:0:0:0:
384,192,36726,1,0,0:0:0:0:
469,192,36801,1,0,0:0:0:0:
42,192,36876,1,2,0:0:0:0:
213,192,36876,1,0,0:0:0:0:
128,192,37026,1,0,0:0:0:0:
213,192,37176,1,8,0:0:0:0:
298,192,37176,1,0,0:0:0:0:
469,192,37176,1,0,0:0:0:0:
384,192,37326,1,0,0:0:0:0:
42,192,37476,1,2,0:0:0:0:
128,192,37476,1,0,0:0:0:0:
298,192,37626,1,0,0:0:0:0:
213,192,37701,1,0,0:0:0:0:
128,192,37776,1,8,0:0:0:0:
384,192,37776,1,0,0:0:0:0:
469,192,37776,1,0,0:0:0:0:
298,192,37926,1,0,0:0:0:0:
213,192,38076,1,2,0:0:0:0:
469,192,38076,1,0,0:0:0:0:
42,192,38226,1,0,0:0:0:0:
128,192,38376,1,8,0:0:0:0:
213,192,38376,1,0,0:0:0:0:
384,192,38376,1,0,0:0:0:0:
298,192,38526,1,0,0:0:0:0:
384,192,38676,1,2,0:0:0:0:
469,192,38676,1,0,0:0:0:0:
42,192,38826,1,0,0:0:0:0:
213,192,38901,1,0,0:0:0:0:
469,192,38976,1,0,0:0:0:0:
298,192,39051,1,0,0:0:0:0:
42,192,39126,1,0,0:0:0:0:
213,192,39201,1,0,0:0:0:0:
298,192,39276,1,0,0:0:0:0:
298,192,39426,1,0,0:0:0:0:
298,192,39576,1,0,0:0:0:0:
384,192,39726,1,0,0:0:0:0:
42,192,39876,1,2,0:0:0:0:
213,192,39876,1,0,0:0:0:70:LR_CymbalQST.wav
128,192,40026,1,0,0:0:0:70:LR_Hat Synth.wav
298,192,40176,1,8,0:0:0:0:
384,192,40176,1,0,0:0:0:0:
469,192,40176,1,0,0:0:0:0:
213,192,40326,1,0,0:0:0:70:LR_Hat Synth.wav
42,192,40476,1,2,0:0:0:0:
469,192,40476,1,0,0:0:0:0:
128,192,40626,1,0,0:0:0:70:LR_Hat Synth.wav
213,192,40776,1,8,0:0:0:0:
298,192,40776,1,0,0:0:0:0:
384,192,40776,1,0,0:0:0:0:
469,192,40926,1,0,0:0:0:70:LR_Hat Synth.wav
42,192,41076,1,2,0:0:0:0:
128,192,41076,1,0,0:0:0:0:
213,192,41226,1,0,0:0:0:70:LR_Hat Synth.wav
128,192,41376,1,8,0:0:0:0:
298,192,41376,1,0,0:0:0:0:
384,192,41376,1,0,0:0:0:0:
469,192,41526,1,0,0:0:0:70:LR_Hat Synth.wav
42,192,41676,1,2,0:0:0:0:
213,192,41676,1,0,0:0:0:0:
128,192,41826,1,0,0:0:0:70:LR_Hat Synth.wav
213,192,41976,1,8,0:0:0:0:
384,192,41976,1,0,0:0:0:0:
469,192,41976,1,0,0:0:0:0:
298,192,42126,1,0,0:0:0:70:LR_Hat Synth.wav
42,192,42276,1,2,0:0:0:0:
384,192,42276,1,0,0:0:0:0:
213,192,42426,1,0,0:0:0:70:LR_Hat Synth.wav
128,192,42576,1,8,0:0:0:0:
298,192,42576,1,0,0:0:0:0:
384,192,42576,1,0,0:0:0:0:
469,192,42726,1,0,0:0:0:70:LR_Hat Synth.wav
42,192,42876,1,2,0:0:0:0:
213,192,42876,1,0,0:0:0:0:
298,192,43026,1,0,0:0:0:70:LR_Hat Synth.wav
128,192,43176,1,8,0:0:0:0:
384,192,43176,1,0,0:0:0:0:
469,192,43176,1,0,0:0:0:0:
42,192,43326,1,0,0:0:0:70:LR_Hat Synth.wav
213,192,43476,1,2,0:0:0:0:
298,192,43476,1,0,0:0:0:0:
128,192,43626,1,0,0:0:0:70:LR_Hat Synth.wav
42,192,43776,1,8,0:0:0:0:
384,192,43776,1,0,0:0:0:0:
469,192,43776,1,0,0:0:0:0:
213,192,43926,1,0,0:0:0:70:LR_Hat Synth.wav
42,192,44076,1,2,0:0:0:0:
298,192,44076,1,0,0:0:0:0:
469,192,44226,1,0,0:0:0:70:LR_Hat Synth.wav
128,192,44301,1,0,0:0:0:0:
213,192,44376,1,8,0:0:0:0:
298,192,44376,1,0,0:0:0:0:
384,192,44451,1,0,0:0:0:0:
42,192,44526,1,0,0:0:0:70:LR_Hat Synth.wav
128,192,44601,1,0,0:0:0:0:
298,192,44676,1,2,0:0:0:0:
384,192,44676,1,0,0:0:0:0:
213,192,44826,1,0,0:0:0:70:LR_Hat Synth.wav
42,192,44976,1,8,0:0:0:0:
128,192,44976,1,0,0:0:0:0:
469,192,44976,1,0,0:0:0:0:
298,192,45126,1,0,0:0:0:70:LR_Hat Synth.wav
128,192,45276,1,2,0:0:0:0:
384,192,45276,1,0,0:0:0:0:
42,192,45426,1,0,0:0:0:70:LR_Hat Synth.wav
213,192,45576,1,8,0:0:0:0:
298,192,45576,1,0,0:0:0:0:
469,192,45576,1,0,0:0:0:0:
384,192,45726,1,0,0:0:0:70:LR_Hat Synth.wav
42,192,45876,1,2,0:0:0:0:
128,192,45876,1,0,0:0:0:0:
298,192,46026,1,0,0:0:0:70:LR_Hat Synth.wav
213,192,46176,1,8,0:0:0:0:
384,192,46176,1,0,0:0:0:0:
469,192,46176,1,0,0:0:0:0:
42,192,46326,1,0,0:0:0:70:LR_Hat Synth.wav
128,192,46476,1,2,0:0:0:0:
469,192,46476,1,0,0:0:0:0:
213,192,46626,1,0,0:0:0:70:LR_Hat Synth.wav
42,192,46776,1,8,0:0:0:0:
298,192,46776,1,0,0:0:0:0:
384,192,46776,1,0,0:0:0:0:
128,192,46926,1,0,0:0:0:70:LR_Hat Synth.wav
213,192,47076,1,2,0:0:0:0:
469,192,47076,1,0,0:0:0:0:
298,192,47226,1,0,0:0:0:70:LR_Hat Synth.wav
42,192,47376,1,8,0:0:0:0:
128,192,47376,1,0,0:0:0:0:
384,192,47376,1,0,0:0:0:0:
213,192,47526,1,0,0:0:0:70:LR_Hat Synth.wav
298,192,47676,1,2,0:0:0:0:
469,192,47676,1,0,0:0:0:0:
128,192,47826,1,0,0:0:0:70:LR_Hat Synth.wav
42,192,47976,1,8,0:0:0:0:
213,192,47976,1,0,0:0:0:0:
384,192,47976,1,0,0:0:0:0:
298,192,48126,1,0,0:0:0:70:LR_Hat Synth.wav
42,192,48276,1,2,0:0:0:0:
469,192,48276,1,0,0:0:0:0:
384,192,48351,1,0,0:0:0:0:
298,192,48426,1,0,0:0:0:70:LR_Hat Synth.wav
213,192,48501,1,0,0:0:0:0:
128,192,48576,1,8,0:0:0:0:
384,192,48576,1,0,0:0:0:0:
469,192,48576,1,0,0:0:0:0:
298,192,48651,1,0,0:0:0:0:
213,192,48726,1,0,0:0:0:70:LR_Hat Synth.wav
128,192,48801,1,0,0:0:0:0:
42,192,48876,1,2,0:0:0:0:
469,192,48876,1,0,0:0:0:0:
384,192,48951,1,0,0:0:0:0:
213,192,49026,1,0,0:0:0:70:LR_Hat Synth.wav
298,192,49101,1,0,0:0:0:0:
42,192,49176,1,8,0:0:0:0:
128,192,49176,1,0,0:0:0:0:
384,192,49176,1,0,0:0:0:0:
213,192,49326,1,0,0:0:0:70:LR_Hat Synth.wav
384,192,49476,1,2,0:0:0:0:
469,192,49476,128,0,51576:0:0:0:0:
213,192,49626,1,0,0:0:0:70:LR_Hat Synth.wav
42,192,49776,1,8,0:0:0:0:
128,192,49776,1,0,0:0:0:0:
298,192,49776,1,0,0:0:0:0:
384,192,49926,1,0,0:0:0:70:LR_Hat Synth.wav
128,192,50076,1,2,0:0:0:0:
213,192,50076,1,0,0:0:0:0:
298,192,50226,1,0,0:0:0:70:LR_Hat Synth.wav
42,192,50376,1,8,0:0:0:0:
213,192,50376,1,0,0:0:0:0:
384,192,50376,1,0,0:0:0:0:
128,192,50526,1,0,0:0:0:70:LR_Hat Synth.wav
298,192,50676,1,2,0:0:0:0:
384,192,50676,1,0,0:0:0:0:
128,192,50826,1,0,0:0:0:70:LR_Hat Synth.wav
42,192,50976,1,8,0:0:0:0:
213,192,50976,1,0,0:0:0:0:
298,192,50976,1,0,0:0:0:0:
384,192,51126,1,0,0:0:0:70:LR_Hat Synth.wav
128,192,51276,1,2,0:0:0:0:
213,192,51276,1,0,0:0:0:0:
42,192,51426,1,0,0:0:0:70:LR_Hat Synth.wav
128,192,51576,1,8,0:0:0:0:
213,192,51576,128,0,51651:0:0:0:0:
298,192,51651,128,0,51726:0:0:0:0:
384,192,51726,128,0,51801:0:0:0:70:LR_Hat Synth.wav
469,192,51801,128,0,51876:0:0:0:0:
128,192,51876,128,2,53076:0:0:0:0:
213,192,51876,1,0,0:0:0:0:
298,192,52026,1,0,0:0:0:70:LR_Hat Synth.wav
42,192,52176,1,8,0:0:0:0:
384,192,52176,1,0,0:0:0:0:
469,192,52176,1,0,0:0:0:0:
213,192,52326,1,0,0:0:0:70:LR_Hat Synth.wav
298,192,52476,1,2,0:0:0:0:
384,192,52476,1,0,0:0:0:0:
213,192,52626,1,0,0:0:0:70:LR_Hat Synth.wav
42,192,52776,1,8,0:0:0:0:
298,192,52776,1,0,0:0:0:0:
469,192,52776,1,0,0:0:0:0:
384,192,52926,1,0,0:0:0:70:LR_Hat Synth.wav
213,192,53076,128,2,53376:0:0:0:0:
469,192,53076,1,0,0:0:0:0:
42,192,53226,1,0,0:0:0:70:LR_Hat Synth.wav
128,192,53376,1,8,0:0:0:0:
298,192,53376,1,0,0:0:0:0:
384,192,53376,128,0,53676:0:0:0:0:
469,192,53526,1,0,0:0:0:70:LR_Hat Synth.wav
128,192,53676,128,2,53976:0:0:0:0:
298,192,53676,1,0,0:0:0:0:
469,192,53826,1,0,0:0:0:70:LR_Hat Synth.wav
42,192,53976,1,8,0:0:0:0:
213,192,53976,128,0,54276:0:0:0:0:
384,192,53976,1,0,0:0:0:0:
298,192,54126,1,0,0:0:0:70:LR_Hat Synth.wav
128,192,54276,1,8,0:0:0:0:
384,192,54276,1,0,0:0:0:70:LR_Drum Rpd x2.wav
469,192,54276,1,0,0:0:0:0:
42,192,54426,1,0,0:0:0:70:LR_Drum Rpd x2.wav
128,192,54501,1,0,0:0:0:0:
213,192,54576,1,0,0:0:0:70:LR_Drum Rpd x2.wav
298,192,54726,1,0,0:0:0:70:LR_Drum Rpd x2.wav
42,192,54876,1,8,0:0:0:0:
128,192,54876,1,0,0:0:0:70:LR_Drum Rpd x2.wav
384,192,54876,1,0,0:0:0:0:
469,192,55026,1,0,0:0:0:70:LR_Drum Rpd x2.wav
384,192,55101,1,0,0:0:0:0:
298,192,55176,1,0,0:0:0:70:LR_Drum Rpd x2.wav
213,192,55326,1,0,0:0:0:70:LR_Drum Rpd x2.wav
128,192,55476,1,8,0:0:0:0:
298,192,55476,1,0,0:0:0:70:LR_Drum Rpd x2.wav
469,192,55476,1,0,0:0:0:0:
42,192,55626,1,0,0:0:0:70:LR_Drum Rpd x2.wav
128,192,55701,1,0,0:0:0:0:
213,192,55776,1,0,0:0:0:70:LR_Drum Rpd x2.wav
384,192,55926,1,0,0:0:0:70:LR_Drum Rpd x2.wav
42,192,56076,1,8,0:0:0:0:
128,192,56076,1,0,0:0:0:70:LR_Drum Rpd x2.wav
298,192,56076,1,0,0:0:0:0:
469,192,56226,1,0,0:0:0:70:LR_Drum Rpd x2.wav
384,192,56301,1,0,0:0:0:0:
298,192,56376,1,0,0:0:0:70:LR_Drum Rpd x2.wav
128,192,56526,1,0,0:0:0:70:LR_Drum Rpd x2.wav
42,192,56676,1,0,0:0:0:70:LR_Drum Low Long.wav
213,192,56676,1,0,0:0:0:0:
384,192,56976,1,0,0:0:0:70:LR_Drum Low Long.wav
213,192,57126,1,0,0:0:0:70:LR_Drum Low Long.wav
298,192,57126,1,0,0:0:0:0:
128,192,57351,1,0,0:0:0:0:
213,192,57426,1,0,0:0:0:70:LR_Drum Low Long.wav
42,192,57576,1,0,0:0:0:70:LR_Drum Low Long.wav
128,192,57576,1,0,0:0:0:0:
298,192,57876,1,0,0:0:0:70:LR_Drum Low Long.wav
469,192,57876,1,0,0:0:0:0:
384,192,58101,1,0,0:0:0:0:
298,192,58176,1,0,0:0:0:70:LR_Drum Low Long.wav
42,192,58326,1,0,0:0:0:70:LR_Drum Low Long.wav
213,192,58326,1,0,0:0:0:0:
128,192,58551,1,0,0:0:0:0:
213,192,58626,1,0,0:0:0:70:LR_Drum Low Long.wav
42,192,58776,1,0,0:0:0:70:LR_Drum Low Long.wav
469,192,58776,1,0,0:0:0:0:
298,192,58926,1,0,0:0:0:0:
213,192,59076,128,2,59676:0:0:0:0:
384,192,59076,1,0,0:0:0:70:LR_CymbalQST.wav
128,192,59526,1,2,0:0:0:0:
298,192,59526,1,0,0:0:0:0:
42,192,59676,1,2,0:0:0:0:
469,192,59676,1,0,0:0:0:0:
128,192,59976,1,0,0:0:0:70:LR_Ride Long Low.wav
213,192,59976,1,0,0:0:0:0:
384,192,59976,1,0,0:0:0:0:
42,192,60276,1,2,0:0:0:0:
298,192,60276,128,0,60876:0:0:0:0:
213,192,60726,1,2,0:0:0:0:
384,192,60726,1,0,0:0:0:0:
42,192,60876,1,2,0:0:0:0:
469,192,60876,1,0,0:0:0:0:
128,192,61176,1,0,0:0:0:70:LR_Ride Long Low.wav
298,192,61176,1,0,0:0:0:0:
384,192,61176,1,0,0:0:0:0:
213,192,61476,128,2,62076:0:0:0:0:
469,192,61476,1,0,0:0:0:0:
128,192,61926,1,2,0:0:0:0:
298,192,61926,1,0,0:0:0:0:
42,192,62076,1,2,0:0:0:0:
469,192,62076,1,0,0:0:0:0:
128,192,62376,1,0,0:0:0:70:LR_Ride Long Low.wav
298,192,62376,1,0,0:0:0:0:
384,192,62376,1,0,0:0:0:0:
42,192,62526,1,2,0:0:0:0:
213,192,62526,1,0,0:0:0:0:
298,192,62826,1,2,0:0:0:0:
384,192,62826,1,0,0:0:0:0:
128,192,63126,1,2,0:0:0:0:
213,192,63126,1,0,0:0:0:0:
42,192,63276,1,2,0:0:0:0:
469,192,63276,1,0,0:0:0:0:
213,192,63426,1,0,0:0:0:0:
298,192,63501,1,0,0:0:0:0:
128,192,63576,1,0,0:0:0:70:LR_Ride Long Low.wav
384,192,63576,1,0,0:0:0:0:
213,192,63726,1,0,0:0:0:0:
42,192,63876,128,2,64476:0:0:0:0:
128,192,63876,1,0,0:0:0:0:
469,192,63876,1,0,0:0:0:0:
213,192,64326,1,2,0:0:0:0:
298,192,64326,1,0,0:0:0:0:
384,192,64476,1,2,0:0:0:0:
469,192,64476,1,0,0:0:0:0:
128,192,64776,1,0,0:0:0:70:LR_Ride Long Low.wav
213,192,64776,1,0,0:0:0:0:
298,192,64776,1,0,0:0:0:0:
42,192,65076,1,2,0:0:0:0:
469,192,65076,128,0,65676:0:0:0:0:
213,192,65526,1,2,0:0:0:0:
298,192,65526,1,0,0:0:0:0:
42,192,65676,1,2,0:0:0:0:
128,192,65676,1,0,0:0:0:0:
213,192,65976,1,0,0:0:0:70:LR_Ride Long Low.wav
298,192,65976,1,0,0:0:0:0:
384,192,65976,1,0,0:0:0:0:
42,192,66276,128,2,66876:0:0:0:0:
469,192,66276,1,0,0:0:0:0:
213,192,66726,1,2,0:0:0:0:
298,192,66726,1,0,0:0:0:0:
384,192,66876,1,2,0:0:0:0:
469,192,66876,1,0,0:0:0:0:
128,192,67176,1,0,0:0:0:70:LR_Ride Long Low.wav
298,192,67176,1,0,0:0:0:0:
384,192,67176,1,0,0:0:0:0:
42,192,67326,1,2,0:0:0:0:
213,192,67326,1,0,0:0:0:0:
469,192,67476,1,0,0:0:0:0:
298,192,67626,1,2,0:0:0:0:
384,192,67626,1,0,0:0:0:0:
213,192,67776,1,0,0:0:0:0:
128,192,67926,1,2,0:0:0:0:
298,192,67926,1,0,0:0:0:0:
42,192,68076,1,2,0:0:0:0:
469,192,68076,1,0,0:0:0:0:
213,192,68226,1,0,0:0:0:0:
298,192,68301,1,0,0:0:0:0:
128,192,68376,1,0,0:0:0:70:LR_Ride Long Low.wav
384,192,68376,1,0,0:0:0:0:
213,192,68526,1,0,0:0:0:0:
42,192,68676,1,2,0:0:0:0:
128,192,68676,1,0,0:0:0:0:
469,192,68676,1,0,0:0:0:0:
42,192,69276,1,0,0:0:0:0:
469,192,69351,1,0,0:0:0:0:
213,192,69426,1,0,0:0:0:0:
384,192,69501,1,0,0:0:0:0:
128,192,69576,1,0,0:0:0:0:
298,192,69651,1,0,0:0:0:0:
469,192,69726,1,0,0:0:0:0:
213,192,69801,1,0,0:0:0:0:
42,192,69876,1,4,0:0:0:0:
128,192,69876,1,0,0:0:0:0:
384,192,70176,1,4,0:0:0:0:
469,192,70176,1,0,0:0:0:0:
42,192,70476,1,4,0:0:0:0:
213,192,70551,1,4,0:0:0:0:
298,192,70626,1,4,0:0:0:0:
469,192,70701,1,4,0:0:0:0:
42,192,70776,1,4,0:0:0:0:
213,192,70851,1,4,0:0:0:0:
298,192,70926,1,2,0:0:0:0:
128,192,71076,128,8,71376:0:0:0:0:
213,192,71076,128,0,71376:0:0:0:0:
469,192,71076,128,0,71376:0:0:0:0:
213,192,71676,1,0,0:0:0:0:
298,192,71976,1,0,0:0:0:0:
42,192,72276,128,8,72576:0:0:0:0:
128,192,72276,128,0,72576:0:0:0:0:
469,192,72276,128,0,72576:0:0:0:0:
213,192,72876,1,0,0:0:0:0:
298,192,73176,1,0,0:0:0:0:
469,192,73476,1,0,0:0:0:0:
128,192,73776,128,8,74076:0:0:0:0:
298,192,73776,128,0,74076:0:0:0:0:
384,192,73776,128,0,74076:0:0:0:0:
42,192,74076,1,0,0:0:0:0:
128,192,74376,128,8,74676:0:0:0:0:
213,192,74376,128,0,74676:0:0:0:0:
384,192,74376,128,0,74676:0:0:0:0:
469,192,74676,1,8,0:0:0:0:
298,192,74826,1,4,0:0:0:0:
213,192,74901,1,4,0:0:0:0:
42,192,74976,1,8,0:0:0:0:
128,192,74976,1,0,0:0:0:0:
298,192,75126,1,4,0:0:0:0:
213,192,75276,1,8,0:0:0:0:
384,192,75276,1,0,0:0:0:0:
128,192,75426,1,4,0:0:0:0:
384,192,75576,1,8,0:0:0:0:
469,192,75576,1,0,0:0:0:0:
298,192,75726,1,0,0:0:0:0:
42,192,75876,1,2,0:0:0:0:
213,192,75876,1,0,0:0:0:70:LR_CymbalQST.wav
128,192,76026,1,0,0:0:0:70:LR_Hat Synth.wav
298,192,76101,1,0,0:0:0:0:
42,192,76176,1,8,0:0:0:0:
384,192,76176,1,0,0:0:0:0:
469,192,76176,1,0,0:0:0:0:
213,192,76326,1,0,0:0:0:70:LR_Hat Synth.wav
128,192,76476,1,2,0:0:0:0:
384,192,76476,1,0,0:0:0:0:
298,192,76626,1,0,0:0:0:70:LR_Hat Synth.wav
42,192,76776,1,8,0:0:0:0:
213,192,76776,1,0,0:0:0:0:
384,192,76776,1,0,0:0:0:0:
469,192,76926,1,0,0:0:0:70:LR_Hat Synth.wav
128,192,77076,1,2,0:0:0:0:
298,192,77076,1,0,0:0:0:0:
384,192,77226,1,0,0:0:0:70:LR_Hat Synth.wav
213,192,77376,1,8,0:0:0:0:
298,192,77376,1,0,0:0:0:0:
469,192,77376,1,0,0:0:0:0:
128,192,77526,1,0,0:0:0:70:LR_Hat Synth.wav
42,192,77676,1,2,0:0:0:0:
213,192,77676,1,0,0:0:0:0:
384,192,77826,1,0,0:0:0:70:LR_Hat Synth.wav
128,192,77976,1,8,0:0:0:0:
298,192,77976,1,0,0:0:0:0:
469,192,77976,1,0,0:0:0:0:
213,192,78126,1,0,0:0:0:70:LR_Hat Synth.wav
42,192,78276,1,2,0:0:0:0:
384,192,78276,1,0,0:0:0:0:
128,192,78426,1,0,0:0:0:70:LR_Hat Synth.wav
42,192,78501,1,0,0:0:0:0:
213,192,78576,1,8,0:0:0:0:
298,192,78576,1,0,0:0:0:0:
469,192,78576,1,0,0:0:0:0:
384,192,78726,1,0,0:0:0:70:LR_Hat Synth.wav
42,192,78876,1,2,0:0:0:0:
128,192,78876,1,0,0:0:0:0:
213,192,79026,1,0,0:0:0:70:LR_Hat Synth.wav
298,192,79176,1,8,0:0:0:0:
384,192,79176,1,0,0:0:0:0:
469,192,79176,1,0,0:0:0:0:
128,192,79326,1,0,0:0:0:70:LR_Hat Synth.wav
42,192,79476,1,2,0:0:0:0:
213,192,79476,1,0,0:0:0:0:
298,192,79626,1,0,0:0:0:70:LR_Hat Synth.wav
128,192,79776,1,8,0:0:0:0:
384,192,79776,1,0,0:0:0:0:
469,192,79776,1,0,0:0:0:0:
42,192,79926,1,0,0:0:0:70:LR_Hat Synth.wav
298,192,79926,1,0,0:0:0:0:
128,192,80076,1,2,0:0:0:0:
213,192,80076,1,0,0:0:0:0:
298,192,80226,1,0,0:0:0:70:LR_Hat Synth.wav
469,192,80226,1,0,0:0:0:0:
42,192,80376,1,8,0:0:0:0:
213,192,80376,1,0,0:0:0:0:
384,192,80376,1,0,0:0:0:0:
128,192,80526,1,0,0:0:0:70:LR_Hat Synth.wav
469,192,80526,1,0,0:0:0:0:
42,192,80676,1,2,0:0:0:0:
298,192,80676,1,0,0:0:0:70:LR_CymbalQST.wav
213,192,80826,1,0,0:0:0:70:LR_Hat Synth.wav
384,192,80976,128,8,81276:0:0:0:0:
469,192,80976,1,0,0:0:0:0:
42,192,81126,1,0,0:0:0:70:LR_Hat Synth.wav
128,192,81276,128,2,81576:0:0:0:0:
213,192,81276,1,0,0:0:0:0:
298,192,81426,1,0,0:0:0:70:LR_Hat Synth.wav
42,192,81576,1,8,0:0:0:0:
384,192,81576,128,0,81876:0:0:0:0:
469,192,81576,1,0,0:0:0:0:
213,192,81726,1,0,0:0:0:70:LR_Hat Synth.wav
128,192,81876,128,2,82176:0:0:0:0:
298,192,81876,1,0,0:0:0:0:
469,192,82026,1,0,0:0:0:70:LR_Hat Synth.wav
42,192,82176,1,8,0:0:0:0:
213,192,82176,1,0,0:0:0:0:
384,192,82176,128,0,82476:0:0:0:0:
298,192,82326,1,0,0:0:0:70:LR_Hat Synth.wav
128,192,82476,128,2,82776:0:0:0:0:
469,192,82476,1,0,0:0:0:0:
213,192,82626,1,0,0:0:0:70:LR_Hat Synth.wav
42,192,82776,1,8,0:0:0:0:
298,192,82776,1,0,0:0:0:0:
384,192,82776,1,0,0:0:0:0:
469,192,82926,1,0,0:0:0:70:LR_Hat Synth.wav
128,192,83076,1,2,0:0:0:0:
213,192,83076,1,0,0:0:0:0:
298,192,83226,1,0,0:0:0:70:LR_Hat Synth.wav
42,192,83376,1,8,0:0:0:0:
384,192,83376,1,0,0:0:0:0:
469,192,83376,1,0,0:0:0:0:
213,192,83526,1,0,0:0:0:70:LR_Hat Synth.wav
128,192,83676,1,2,0:0:0:0:
298,192,83676,1,0,0:0:0:0:
469,192,83826,1,0,0:0:0:70:LR_Hat Synth.wav
42,192,83976,1,8,0:0:0:0:
213,192,83976,1,0,0:0:0:0:
384,192,83976,1,0,0:0:0:0:
128,192,84126,1,0,0:0:0:70:LR_Hat Synth.wav
213,192,84276,1,2,0:0:0:0:
298,192,84276,1,0,0:0:0:0:
469,192,84426,1,0,0:0:0:70:LR_Hat Synth.wav
42,192,84576,1,8,0:0:0:0:
128,192,84576,1,0,0:0:0:0:
384,192,84576,1,0,0:0:0:0:
298,192,84726,1,0,0:0:0:70:LR_Hat Synth.wav
213,192,84876,1,2,0:0:0:0:
469,192,84876,1,0,0:0:0:0:
128,192,85026,1,0,0:0:0:70:LR_Hat Synth.wav
42,192,85176,1,8,0:0:0:0:
384,192,85176,1,0,0:0:0:0:
469,192,85176,1,0,0:0:0:0:
213,192,85326,1,0,0:0:0:70:LR_Hat Synth.wav
128,192,85476,1,2,0:0:0:0:
298,192,85476,1,0,0:0:0:70:LR_CymbalQST.wav
213,192,85626,1,0,0:0:0:70:LR_Hat Synth.wav
298,192,85701,1,0,0:0:0:0:
384,192,85776,128,8,86076:0:0:0:0:
469,192,85776,1,0,0:0:0:0:
42,192,85926,1,0,0:0:0:70:LR_Hat Synth.wav
128,192,86076,128,2,86376:0:0:0:0:
213,192,86076,1,0,0:0:0:0:
298,192,86226,1,0,0:0:0:70:LR_Hat Synth.wav
42,192,86376,1,8,0:0:0:0:
384,192,86376,128,0,86676:0:0:0:0:
469,192,86376,1,0,0:0:0:0:
213,192,86526,1,0,0:0:0:70:LR_Hat Synth.wav
128,192,86676,128,2,86976:0:0:0:0:
298,192,86676,1,0,0:0:0:0:
469,192,86826,1,0,0:0:0:70:LR_Hat Synth.wav
42,192,86976,1,8,0:0:0:0:
213,192,86976,1,0,0:0:0:0:
384,192,86976,128,0,87276:0:0:0:0:
298,192,87126,1,0,0:0:0:70:LR_Hat Synth.wav
128,192,87276,128,2,87576:0:0:0:0:
469,192,87276,1,0,0:0:0:0:
213,192,87426,1,0,0:0:0:70:LR_Hat Synth.wav
42,192,87576,1,8,0:0:0:0:
384,192,87576,1,0,0:0:0:0:
469,192,87726,1,0,0:0:0:70:LR_Hat Synth.wav
298,192,87876,128,2,88176:0:0:0:0:
128,192,88176,128,0,88476:0:0:0:0:
469,192,88476,128,0,88776:0:0:0:0:
384,192,88776,128,0,89076:0:0:0:0:
298,192,89076,128,0,89526:0:0:0:0:
128,192,89526,1,0,0:0:0:0:
213,192,89676,128,0,89976:0:0:0:0:
128,192,89976,128,0,90276:0:0:0:0:
42,192,90276,1,8,0:0:0:0:
213,192,90276,1,0,0:0:0:0:
469,192,90276,1,0,0:0:0:0:
128,192,90576,1,8,0:0:0:0:
298,192,90576,1,0,0:0:0:0:
384,192,90576,1,0,0:0:0:0:
42,192,90876,1,8,0:0:0:0:
213,192,90876,1,0,0:0:0:0:
469,192,90876,1,0,0:0:0:0:
128,192,91476,1,8,0:0:0:0:
298,192,91476,1,0,0:0:0:0:
384,192,91476,1,0,0:0:0:0:
42,192,91776,1,8,0:0:0:0:
213,192,91776,1,0,0:0:0:0:
469,192,91776,1,0,0:0:0:0:
213,192,92076,1,8,0:0:0:0:
298,192,92076,1,0,0:0:0:0:
384,192,92076,1,0,0:0:0:0:
128,192,92676,1,8,0:0:0:0:
213,192,92676,1,0,0:0:0:0:
384,192,92676,1,0,0:0:0:0:
42,192,92976,1,8,0:0:0:0:
384,192,92976,1,0,0:0:0:0:
469,192,92976,1,0,0:0:0:0:
128,192,93276,1,8,0:0:0:0:
298,192,93276,1,0,0:0:0:0:
384,192,93426,1,0,0:0:0:0:
213,192,93576,1,8,0:0:0:0:
469,192,93576,1,0,0:0:0:0:
128,192,93726,1,0,0:0:0:0:
42,192,93876,1,8,0:0:0:0:
213,192,93876,1,0,0:0:0:0:
384,192,93876,1,0,0:0:0:0:
128,192,94176,1,8,0:0:0:0:
384,192,94176,1,0,0:0:0:0:
469,192,94176,1,0,0:0:0:0:
42,192,94476,1,8,0:0:0:0:
213,192,94476,1,0,0:0:0:0:
298,192,94476,1,0,0:0:0:0:
213,192,94776,128,0,95076:0:0:0:0:
42,192,95076,1,8,0:0:0:0:
128,192,95076,1,0,0:0:0:0:
469,192,95076,1,0,0:0:0:0:
298,192,95226,1,4,0:0:0:0:
42,192,95376,1,8,0:0:0:0:
213,192,95376,1,0,0:0:0:0:
384,192,95376,1,0,0:0:0:0:
128,192,95526,1,4,0:0:0:0:
213,192,95676,1,8,0:0:0:0:
298,192,95676,1,0,0:0:0:0:
469,192,95676,1,0,0:0:0:0:
384,192,95826,1,4,0:0:0:0:
213,192,95976,1,0,0:0:0:70:LR_J Hit Whistle.wav
128,192,96276,1,8,0:0:0:0:
298,192,96276,1,0,0:0:0:0:
384,192,96276,1,0,0:0:0:0:
42,192,96426,1,4,0:0:0:0:
128,192,96576,1,8,0:0:0:0:
213,192,96576,1,0,0:0:0:0:
469,192,96576,1,0,0:0:0:0:
298,192,96726,1,4,0:0:0:0:
42,192,96876,1,8,0:0:0:0:
213,192,96876,1,0,0:0:0:0:
384,192,96876,1,0,0:0:0:0:
469,192,97026,1,4,0:0:0:0:
128,192,97326,1,0,0:0:0:0:
213,192,97401,1,0,0:0:0:0:
42,192,97476,1,8,0:0:0:0:
298,192,97476,1,0,0:0:0:0:
469,192,97476,1,0,0:0:0:0:
128,192,97776,1,8,0:0:0:0:
213,192,97776,1,0,0:0:0:0:
384,192,97776,1,0,0:0:0:0:
42,192,98076,1,8,0:0:0:0:
298,192,98076,1,0,0:0:0:0:
384,192,98226,1,0,0:0:0:0:
128,192,98376,1,8,0:0:0:0:
213,192,98376,1,0,0:0:0:0:
469,192,98526,1,0,0:0:0:0:
42,192,98676,1,8,0:0:0:0:
213,192,98676,128,0,98976:0:0:0:0:
384,192,98676,1,0,0:0:0:0:
128,192,98976,1,8,0:0:0:0:
298,192,98976,128,0,99276:0:0:0:0:
469,192,98976,1,0,0:0:0:0:
42,192,99276,1,8,0:0:0:0:
213,192,99276,1,0,0:0:0:0:
384,192,99276,128,0,99876:0:0:0:0:
128,192,99876,128,2,101076:0:0:0:0:
469,192,100776,1,0,0:0:0:0:
384,192,100851,1,0,0:0:0:0:
298,192,100926,1,0,0:0:0:0:
213,192,101001,1,0,0:0:0:0:
42,192,101076,128,2,101676:0:0:0:0:
384,192,101076,1,0,0:0:0:0:
213,192,101376,1,4,0:0:0:0:
469,192,101376,1,8,0:0:0:0:
128,192,101676,1,4,0:0:0:0:
384,192,101676,1,8,0:0:0:0:
213,192,101976,1,4,0:0:0:0:
298,192,101976,1,8,0:0:0:0:
128,192,102276,1,4,0:0:0:0:
469,192,102276,1,8,0:0:0:0:
298,192,102576,1,4,0:0:0:0:
384,192,102576,1,8,0:0:0:0:
42,192,102876,1,4,0:0:0:0:
213,192,102876,1,8,0:0:0:0:
128,192,103176,1,4,0:0:0:0:
384,192,103176,1,8,0:0:0:0:
298,192,103251,1,0,0:0:0:70:LR_Drum Rpd x2.wav
213,192,103326,1,0,0:0:0:70:LR_Drum Rpd x2.wav
128,192,103401,1,0,0:0:0:70:LR_Drum Rpd x2.wav
42,192,103476,128,4,104076:0:0:0:0:
469,192,103476,1,8,0:0:0:0:
213,192,103776,1,4,0:0:0:0:
384,192,103776,1,8,0:0:0:0:
128,192,104076,1,4,0:0:0:0:
298,192,104076,1,8,0:0:0:0:
213,192,104376,1,4,0:0:0:0:
469,192,104376,1,8,0:0:0:0:
42,192,104676,1,4,0:0:0:0:
384,192,104676,1,8,0:0:0:0:
128,192,104976,1,8,0:0:0:0:
298,192,104976,1,4,0:0:0:0:
213,192,105276,1,4,0:0:0:0:
469,192,105276,1,8,0:0:0:0:
42,192,105576,1,8,0:0:0:0:
469,192,105576,1,4,0:0:0:0:
384,192,105651,1,4,0:0:0:0:
298,192,105726,1,4,0:0:0:0:
213,192,105801,1,4,0:0:0:0:
42,192,105876,128,4,106176:0:0:0:0:
128,192,105876,1,8,0:0:0:0:
469,192,105876,1,0,0:0:0:0:
384,192,105951,1,4,0:0:0:0:
298,192,106026,1,4,0:0:0:0:
128,192,106176,1,8,0:0:0:0:
469,192,106176,1,4,0:0:0:0:
213,192,106251,1,4,0:0:0:0:
298,192,106326,1,4,0:0:0:0:
42,192,106476,1,4,0:0:0:0:
469,192,106476,1,8,0:0:0:0:
128,192,106551,1,4,0:0:0:0:
213,192,106626,1,4,0:0:0:0:
128,192,106776,1,8,0:0:0:0:
384,192,106776,1,4,0:0:0:0:
298,192,106851,1,4,0:0:0:0:
213,192,106926,1,4,0:0:0:0:
42,192,107076,1,8,0:0:0:0:
469,192,107076,1,4,0:0:0:0:
384,192,107151,1,4,0:0:0:0:
298,192,107226,1,4,0:0:0:0:
128,192,107376,1,4,0:0:0:0:
213,192,107376,1,8,0:0:0:0:
298,192,107451,1,4,0:0:0:0:
384,192,107526,1,4,0:0:0:0:
42,192,107676,1,8,0:0:0:0:
128,192,107676,1,4,0:0:0:0:
213,192,107751,1,4,0:0:0:0:
298,192,107826,1,4,0:0:0:0:
128,192,107976,1,4,0:0:0:0:
469,192,107976,1,8,0:0:0:0:
384,192,108051,1,4,0:0:0:0:
298,192,108126,1,4,0:0:0:0:
42,192,108276,1,12,0:0:0:0:
128,192,108351,1,4,0:0:0:0:
213,192,108426,1,4,0:0:0:0:
469,192,108501,1,4,0:0:0:0:
384,192,108576,1,12,0:0:0:0:
298,192,108651,1,4,0:0:0:0:
42,192,108726,1,4,0:0:0:0:
128,192,108801,1,4,0:0:0:0:
469,192,108876,1,12,0:0:0:0:
384,192,108951,1,4,0:0:0:0:
298,192,109026,1,4,0:0:0:0:
213,192,109101,1,4,0:0:0:0:
42,192,109176,128,4,109476:0:0:0:0:
128,192,109176,128,8,109476:0:0:0:0:
384,192,109476,1,4,0:0:0:0:
469,192,109476,1,0,0:0:0:0:
128,192,110676,128,4,110976:0:0:0:0:
213,192,110676,1,0,0:0:0:70:LR_Kick-long med bass.wav
469,192,110676,1,0,0:0:0:70:LR_CymbalQST.wav
42,192,110976,128,4,111126:0:0:0:0:
298,192,110976,1,0,0:0:0:70:LR_Kick-long med bass.wav
384,192,111126,128,0,111276:0:0:0:70:LR_Hat Synth.wav
469,192,111126,1,0,0:0:0:0:
128,192,111276,1,4,0:0:0:0:
213,192,111276,128,0,111426:0:0:0:70:LR_Kick-long med bass.wav
42,192,111426,128,0,111576:0:0:0:70:LR_Hat Synth.wav
384,192,111426,1,0,0:0:0:0:
298,192,111576,1,4,0:0:0:0:
469,192,111576,128,0,111726:0:0:0:70:LR_Kick-long med bass.wav
213,192,111726,128,0,111876:0:0:0:70:LR_Hat Synth.wav
128,192,111876,1,4,0:0:0:0:
384,192,111876,128,0,112026:0:0:0:70:LR_Kick-long med bass.wav
42,192,112026,1,0,0:0:0:70:LR_Hat Synth.wav
298,192,112026,128,0,112176:0:0:0:0:
128,192,112176,128,4,112326:0:0:0:0:
469,192,112176,1,0,0:0:0:70:LR_Kick-long med bass.wav
42,192,112326,128,0,112476:0:0:0:70:LR_Hat Synth.wav
298,192,112326,1,0,0:0:0:0:
213,192,112476,1,4,0:0:0:0:
384,192,112476,128,0,112626:0:0:0:70:LR_Kick-long med bass.wav
42,192,112626,1,0,0:0:0:70:LR_Hat Synth.wav
469,192,112626,128,0,112776:0:0:0:0:
128,192,112776,1,4,0:0:0:0:
298,192,112776,128,0,112926:0:0:0:70:LR_Kick-long med bass.wav
213,192,112926,128,0,113076:0:0:0:70:LR_Hat Synth.wav
469,192,112926,1,0,0:0:0:0:
42,192,113076,128,4,113226:0:0:0:0:
384,192,113076,1,0,0:0:0:70:LR_Kick-long med bass.wav
298,192,113226,128,0,113376:0:0:0:70:LR_Hat Synth.wav
469,192,113226,1,0,0:0:0:0:
128,192,113376,128,4,113526:0:0:0:0:
213,192,113376,1,0,0:0:0:70:LR_Kick-long med bass.wav
298,192,113526,1,0,0:0:0:70:LR_Hat Synth.wav
469,192,113526,128,0,113676:0:0:0:0:
42,192,113676,1,4,0:0:0:0:
384,192,113676,128,0,113826:0:0:0:70:LR_Kick-long med bass.wav
213,192,113826,128,0,113976:0:0:0:70:LR_Hat Synth.wav
469,192,113826,1,0,0:0:0:0:
128,192,113976,1,4,0:0:0:0:
298,192,113976,128,0,114126:0:0:0:70:LR_Kick-long med bass.wav
213,192,114126,1,0,0:0:0:70:LR_Hat Synth.wav
384,192,114126,128,0,114276:0:0:0:0:
42,192,114276,1,4,0:0:0:0:
469,192,114276,128,0,114426:0:0:0:70:LR_Kick-long med bass.wav
298,192,114426,1,0,0:0:0:70:LR_Hat Synth.wav
384,192,114426,128,0,114576:0:0:0:0:
128,192,114576,128,4,114726:0:0:0:0:
213,192,114576,1,0,0:0:0:70:LR_Kick-long med bass.wav
42,192,114726,128,0,114876:0:0:0:70:LR_Hat Synth.wav
469,192,114726,1,0,0:0:0:0:
298,192,114876,128,4,115026:0:0:0:0:
384,192,114876,1,0,0:0:0:70:LR_Kick-long med bass.wav
128,192,115026,128,0,115176:0:0:0:70:LR_Hat Synth.wav
213,192,115026,1,0,0:0:0:0:
42,192,115176,1,4,0:0:0:0:
469,192,115176,128,0,115326:0:0:0:70:LR_Kick-long med bass.wav
213,192,115326,128,0,115476:0:0:0:70:LR_Hat Synth.wav
298,192,115326,1,0,0:0:0:0:
42,192,115476,1,4,0:0:0:0:
128,192,115476,128,0,115626:0:0:0:70:LR_Kick-long med bass.wav
469,192,115476,1,0,0:0:0:70:LR_CymbalQST.wav
298,192,115626,128,0,115776:0:0:0:70:LR_Hat Synth.wav
384,192,115626,1,0,0:0:0:0:
42,192,115776,128,4,115926:0:0:0:0:
213,192,115776,1,0,0:0:0:70:LR_Kick-long med bass.wav
384,192,115926,128,0,116076:0:0:0:70:LR_Hat Synth.wav
469,192,115926,1,0,0:0:0:0:
128,192,116076,1,4,0:0:0:0:
213,192,116076,128,0,116226:0:0:0:70:LR_Kick-long med bass.wav
42,192,116226,128,0,116376:0:0:0:70:LR_Hat Synth.wav
384,192,116226,1,0,0:0:0:0:
298,192,116376,1,4,0:0:0:0:
469,192,116376,128,0,116526:0:0:0:70:LR_Kick-long med bass.wav
42,192,116526,1,0,0:0:0:70:LR_Hat Synth.wav
213,192,116526,128,0,116676:0:0:0:0:
128,192,116676,1,4,0:0:0:0:
384,192,116676,128,0,116826:0:0:0:70:LR_Kick-long med bass.wav
213,192,116826,1,0,0:0:0:70:LR_Hat Synth.wav
298,192,116826,128,0,116976:0:0:0:0:
128,192,116976,128,4,117126:0:0:0:0:
469,192,116976,1,0,0:0:0:70:LR_Kick-long med bass.wav
42,192,117126,128,0,117276:0:0:0:70:LR_Hat Synth.wav
298,192,117126,1,0,0:0:0:0:
213,192,117276,1,4,0:0:0:0:
384,192,117276,128,0,117426:0:0:0:70:LR_Kick-long med bass.wav
42,192,117426,1,0,0:0:0:70:LR_Hat Synth.wav
469,192,117426,128,0,117576:0:0:0:0:
128,192,117576,1,4,0:0:0:0:
298,192,117576,128,0,117726:0:0:0:70:LR_Kick-long med bass.wav
213,192,117726,128,0,117876:0:0:0:70:LR_Hat Synth.wav
469,192,117726,1,0,0:0:0:0:
42,192,117876,128,4,118026:0:0:0:0:
384,192,117876,1,0,0:0:0:70:LR_Kick-long med bass.wav
213,192,118026,1,0,0:0:0:70:LR_Hat Synth.wav
298,192,118026,128,0,118176:0:0:0:0:
128,192,118176,128,4,118326:0:0:0:0:
469,192,118176,1,0,0:0:0:70:LR_Kick-long med bass.wav
213,192,118326,128,0,118476:0:0:0:70:LR_Hat Synth.wav
384,192,118326,1,0,0:0:0:0:
42,192,118476,128,4,118626:0:0:0:0:
128,192,118476,1,0,0:0:0:70:LR_Kick-long med bass.wav
298,192,118476,1,0,0:0:0:0:
384,192,118626,128,0,118776:0:0:0:70:LR_Hat Synth.wav
213,192,118776,1,4,0:0:0:0:
469,192,118776,128,0,119076:0:0:0:70:LR_Kick-long med bass.wav
42,192,118926,1,0,0:0:0:70:LR_Hat Synth.wav
128,192,118926,128,0,119076:0:0:0:0:
384,192,119076,1,4,0:0:0:0:
298,192,119226,1,0,0:0:0:70:LR_Drum Rpd x2.wav
128,192,119301,1,0,0:0:0:70:LR_Drum Rpd x2.wav
298,192,119376,1,0,0:0:0:70:LR_Drum Rpd x2.wav
298,192,119526,1,0,0:0:0:70:LR_Drum Rpd x2.wav
213,192,119676,1,0,0:0:0:70:LR_Drum Rpd x2.wav
213,192,119826,1,0,0:0:0:70:LR_Drum Rpd x2.wav
128,192,119976,1,0,0:0:0:70:LR_Drum Rpd x2.wav
384,192,119976,1,0,0:0:0:0:
42,192,120126,1,0,0:0:0:70:LR_Drum Rpd x2.wav
128,192,120276,128,4,120576:0:0:0:0:
213,192,120276,1,0,0:0:0:70:LR_Kick-long med bass.wav
469,192,120276,1,0,0:0:0:70:LR_CymbalQST.wav
42,192,120576,128,4,120726:0:0:0:0:
213,192,120576,1,0,0:0:0:70:LR_Kick-long med bass.wav
384,192,120726,128,0,120876:0:0:0:70:LR_Hat Synth.wav
469,192,120726,1,0,0:0:0:0:
128,192,120876,1,4,0:0:0:0:
213,192,120876,128,0,121026:0:0:0:70:LR_Kick-long med bass.wav
42,192,121026,128,0,121176:0:0:0:70:LR_Hat Synth.wav
384,192,121026,1,0,0:0:0:0:
298,192,121176,1,4,0:0:0:0:
469,192,121176,128,0,121326:0:0:0:70:LR_Kick-long med bass.wav
213,192,121326,128,0,121476:0:0:0:70:LR_Hat Synth.wav
128,192,121476,1,4,0:0:0:0:
384,192,121476,128,0,121626:0:0:0:70:LR_Kick-long med bass.wav
42,192,121626,1,0,0:0:0:70:LR_Hat Synth.wav
298,192,121626,128,0,121776:0:0:0:0:
128,192,121776,128,4,121926:0:0:0:0:
469,192,121776,1,0,0:0:0:70:LR_Kick-long med bass.wav
42,192,121926,128,0,122076:0:0:0:70:LR_Hat Synth.wav
298,192,121926,1,0,0:0:0:0:
213,192,122076,1,4,0:0:0:0:
384,192,122076,128,0,122226:0:0:0:70:LR_Kick-long med bass.wav
42,192,122226,1,0,0:0:0:70:LR_Hat Synth.wav
469,192,122226,128,0,122376:0:0:0:0:
128,192,122376,1,4,0:0:0:0:
298,192,122376,128,0,122526:0:0:0:70:LR_Kick-long med bass.wav
213,192,122526,128,0,122676:0:0:0:70:LR_Hat Synth.wav
469,192,122526,1,0,0:0:0:0:
42,192,122676,128,4,122826:0:0:0:0:
384,192,122676,1,0,0:0:0:70:LR_Kick-long med bass.wav
298,192,122826,128,0,122976:0:0:0:70:LR_Hat Synth.wav
469,192,122826,1,0,0:0:0:0:
128,192,122976,128,4,123126:0:0:0:0:
213,192,122976,1,0,0:0:0:70:LR_Kick-long med bass.wav
298,192,123126,1,0,0:0:0:70:LR_Hat Synth.wav
469,192,123126,128,0,123276:0:0:0:0:
42,192,123276,1,4,0:0:0:0:
384,192,123276,128,0,123426:0:0:0:70:LR_Kick-long med bass.wav
213,192,123426,128,0,123576:0:0:0:70:LR_Hat Synth.wav
469,192,123426,1,0,0:0:0:0:
128,192,123576,1,4,0:0:0:0:
298,192,123576,128,0,123726:0:0:0:70:LR_Kick-long med bass.wav
213,192,123726,1,0,0:0:0:70:LR_Hat Synth.wav
384,192,123726,128,0,123876:0:0:0:0:
42,192,123876,1,4,0:0:0:0:
469,192,123876,128,0,124026:0:0:0:70:LR_Kick-long med bass.wav
298,192,124026,1,0,0:0:0:70:LR_Hat Synth.wav
384,192,124026,128,0,124176:0:0:0:0:
128,192,124176,128,4,124326:0:0:0:0:
213,192,124176,1,0,0:0:0:70:LR_Kick-long med bass.wav
42,192,124326,128,0,124476:0:0:0:70:LR_Hat Synth.wav
469,192,124326,1,0,0:0:0:0:
298,192,124476,128,4,124626:0:0:0:0:
384,192,124476,1,0,0:0:0:70:LR_Kick-long med bass.wav
128,192,124626,128,0,124776:0:0:0:70:LR_Hat Synth.wav
213,192,124626,1,0,0:0:0:0:
42,192,124776,1,4,0:0:0:0:
469,192,124776,128,0,124926:0:0:0:70:LR_Kick-long med bass.wav
213,192,124926,128,0,125076:0:0:0:70:LR_Hat Synth.wav
298,192,124926,1,0,0:0:0:0:
42,192,125076,1,4,0:0:0:0:
128,192,125076,128,0,125226:0:0:0:70:LR_Kick-long med bass.wav
469,192,125076,1,0,0:0:0:70:LR_CymbalQST.wav
298,192,125226,128,0,125376:0:0:0:70:LR_Hat Synth.wav
384,192,125226,1,0,0:0:0:0:
42,192,125376,128,4,125526:0:0:0:0:
213,192,125376,1,0,0:0:0:70:LR_Kick-long med bass.wav
384,192,125526,128,0,125676:0:0:0:70:LR_Hat Synth.wav
469,192,125526,1,0,0:0:0:0:
128,192,125676,1,4,0:0:0:0:
213,192,125676,128,0,125826:0:0:0:70:LR_Kick-long med bass.wav
42,192,125826,128,0,125976:0:0:0:70:LR_Hat Synth.wav
384,192,125826,1,0,0:0:0:0:
298,192,125976,1,4,0:0:0:0:
469,192,125976,128,0,126126:0:0:0:70:LR_Kick-long med bass.wav
42,192,126126,1,0,0:0:0:70:LR_Hat Synth.wav
213,192,126126,128,0,126276:0:0:0:0:
128,192,126276,1,4,0:0:0:0:
384,192,126276,128,0,126426:0:0:0:70:LR_Kick-long med bass.wav
213,192,126426,1,0,0:0:0:70:LR_Hat Synth.wav
298,192,126426,128,0,126576:0:0:0:0:
128,192,126576,128,4,126726:0:0:0:0:
469,192,126576,1,0,0:0:0:70:LR_Kick-long med bass.wav
42,192,126726,128,0,126876:0:0:0:70:LR_Hat Synth.wav
298,192,126726,1,0,0:0:0:0:
213,192,126876,1,4,0:0:0:0:
384,192,126876,128,0,127026:0:0:0:70:LR_Kick-long med bass.wav
42,192,127026,1,0,0:0:0:70:LR_Hat Synth.wav
469,192,127026,128,0,127176:0:0:0:0:
128,192,127176,1,4,0:0:0:0:
298,192,127176,128,0,127326:0:0:0:70:LR_Kick-long med bass.wav
213,192,127326,128,0,127476:0:0:0:70:LR_Hat Synth.wav
469,192,127326,1,0,0:0:0:0:
128,192,127476,1,4,0:0:0:0:
298,192,127551,1,0,0:0:0:70:LR_Drum Rpd x2.wav
469,192,127626,1,0,0:0:0:70:LR_Drum Rpd x2.wav
42,192,127701,1,0,0:0:0:70:LR_Drum Rpd x2.wav
384,192,127776,1,4,0:0:0:0:
128,192,127851,1,0,0:0:0:70:LR_Drum Rpd x2.wav
298,192,127926,1,0,0:0:0:70:LR_Drum Rpd x2.wav
469,192,128076,1,4,0:0:0:0:
213,192,128151,1,0,0:0:0:70:LR_Drum Rpd x2.wav
42,192,128226,1,0,0:0:0:70:LR_Drum Rpd x2.wav
384,192,128301,1,0,0:0:0:70:LR_Drum Rpd x2.wav
128,192,128376,1,4,0:0:0:0:
298,192,128451,1,0,0:0:0:70:LR_Drum Rpd x2.wav
469,192,128526,1,0,0:0:0:70:LR_Drum Rpd x2.wav
42,192,128601,1,0,0:0:0:70:LR_Drum Rpd x2.wav
298,192,128676,1,4,0:0:0:0:
384,192,128676,1,0,0:0:0:70:LR_Kick-long med bass.wav
42,192,128826,1,0,0:0:0:0:
213,192,128901,1,0,0:0:0:0:
469,192,128976,1,0,0:0:0:0:
298,192,129051,1,0,0:0:0:0:
42,192,129126,1,0,0:0:0:0:
213,192,129201,1,0,0:0:0:0:
298,192,129276,1,0,0:0:0:0:
298,192,129426,1,0,0:0:0:0:
298,192,129576,1,0,0:0:0:0:
384,192,129726,1,0,0:0:0:0:
42,192,129876,128,2,131076:0:0:0:0:
213,192,129876,1,0,0:0:0:0:
469,192,129876,1,0,0:0:0:0:
298,192,130026,1,0,0:0:0:0:
128,192,130176,1,0,0:0:0:0:
213,192,130326,1,0,0:0:0:0:
128,192,130476,1,8,0:0:0:0:
384,192,130476,1,0,0:0:0:0:
469,192,130476,1,0,0:0:0:0:
213,192,130626,1,0,0:0:0:0:
298,192,130776,1,0,0:0:0:0:
469,192,130926,1,0,0:0:0:0:
213,192,131076,128,2,132276:0:0:0:0:
384,192,131076,1,0,0:0:0:0:
298,192,131226,1,0,0:0:0:0:
128,192,131376,1,0,0:0:0:0:
384,192,131526,1,0,0:0:0:0:
42,192,131676,1,8,0:0:0:0:
128,192,131676,1,0,0:0:0:0:
469,192,131676,1,0,0:0:0:0:
298,192,131826,1,0,0:0:0:0:
42,192,131976,1,0,0:0:0:0:
384,192,132126,1,0,0:0:0:0:
128,192,132276,1,2,0:0:0:0:
298,192,132276,128,0,133476:0:0:0:0:
469,192,132426,1,0,0:0:0:0:
42,192,132576,1,0,0:0:0:0:
213,192,132726,1,0,0:0:0:0:
42,192,132876,1,8,0:0:0:0:
384,192,132876,1,0,0:0:0:0:
469,192,132876,1,0,0:0:0:0:
128,192,133026,1,0,0:0:0:0:
213,192,133176,1,0,0:0:0:0:
42,192,133326,1,0,0:0:0:0:
128,192,133476,1,2,0:0:0:0:
384,192,133476,128,0,134676:0:0:0:0:
469,192,133626,1,0,0:0:0:0:
213,192,133776,1,0,0:0:0:0:
42,192,133926,1,0,0:0:0:0:
128,192,134076,128,8,134676:0:0:0:0:
298,192,134076,1,0,0:0:0:0:
469,192,134076,1,0,0:0:0:0:
213,192,134226,1,0,0:0:0:0:
298,192,134526,1,0,0:0:0:0:
42,192,134676,128,2,135876:0:0:0:0:
469,192,134676,1,0,0:0:0:0:
213,192,134826,1,0,0:0:0:0:
128,192,134976,1,0,0:0:0:0:
213,192,135126,1,0,0:0:0:0:
298,192,135276,1,8,0:0:0:0:
384,192,135276,1,0,0:0:0:0:
469,192,135276,1,0,0:0:0:0:
128,192,135426,1,0,0:0:0:0:
384,192,135576,1,0,0:0:0:0:
298,192,135726,1,0,0:0:0:0:
128,192,135876,1,2,0:0:0:0:
213,192,135876,128,0,137076:0:0:0:0:
384,192,136026,1,0,0:0:0:0:
469,192,136176,1,0,0:0:0:0:
128,192,136326,1,0,0:0:0:0:
42,192,136476,1,8,0:0:0:0:
298,192,136476,1,0,0:0:0:0:
384,192,136476,1,0,0:0:0:0:
469,192,136626,1,0,0:0:0:0:
128,192,136776,1,0,0:0:0:0:
42,192,136926,1,0,0:0:0:0:
298,192,137076,128,2,138276:0:0:0:0:
469,192,137076,1,0,0:0:0:0:
213,192,137226,1,0,0:0:0:0:
128,192,137376,1,0,0:0:0:0:
469,192,137526,1,0,0:0:0:0:
42,192,137676,1,8,0:0:0:0:
128,192,137676,1,0,0:0:0:0:
384,192,137676,1,0,0:0:0:0:
213,192,137826,1,0,0:0:0:0:
42,192,137976,1,0,0:0:0:0:
128,192,138126,1,0,0:0:0:0:
213,192,138276,1,2,0:0:0:0:
384,192,138276,128,0,139476:0:0:0:0:
469,192,138426,1,0,0:0:0:0:
298,192,138576,1,0,0:0:0:0:
213,192,138726,1,0,0:0:0:0:
42,192,138876,1,8,0:0:0:0:
128,192,138876,1,0,0:0:0:0:
469,192,138876,1,0,0:0:0:0:
298,192,139026,1,0,0:0:0:0:
213,192,139176,1,0,0:0:0:0:
128,192,139326,1,0,0:0:0:0:
298,192,139476,1,4,0:0:0:0:
469,192,139476,128,0,141576:0:0:0:0:
213,192,139626,1,0,0:0:0:70:LR_Hat Synth.wav
42,192,139776,1,4,0:0:0:0:
128,192,139776,1,0,0:0:0:0:
298,192,139776,1,0,0:0:0:0:
384,192,139926,1,0,0:0:0:70:LR_Hat Synth.wav
128,192,140076,1,4,0:0:0:0:
213,192,140076,1,0,0:0:0:0:
298,192,140226,1,0,0:0:0:70:LR_Hat Synth.wav
42,192,140376,1,4,0:0:0:0:
213,192,140376,1,0,0:0:0:0:
384,192,140376,1,0,0:0:0:0:
128,192,140526,1,0,0:0:0:70:LR_Hat Synth.wav
298,192,140676,1,4,0:0:0:0:
384,192,140676,1,0,0:0:0:0:
128,192,140826,1,0,0:0:0:70:LR_Hat Synth.wav
42,192,140976,1,4,0:0:0:0:
213,192,140976,1,0,0:0:0:0:
298,192,140976,1,0,0:0:0:0:
384,192,141126,1,0,0:0:0:70:LR_Hat Synth.wav
128,192,141276,1,4,0:0:0:0:
213,192,141276,1,0,0:0:0:0:
298,192,141426,1,0,0:0:0:70:LR_Hat Synth.wav
42,192,141576,1,4,0:0:0:0:
128,192,141576,1,0,0:0:0:70:LR_Clap kick.wav
213,192,141576,128,0,141651:0:0:0:0:
298,192,141651,128,0,141726:0:0:0:0:
384,192,141726,128,0,141801:0:0:0:70:LR_Hat Synth.wav
469,192,141801,128,0,141876:0:0:0:0:
128,192,141876,128,4,143076:0:0:0:0:
213,192,141876,1,0,0:0:0:0:
298,192,142026,1,0,0:0:0:70:LR_Hat Synth.wav
42,192,142176,1,4,0:0:0:0:
384,192,142176,1,0,0:0:0:0:
469,192,142176,1,0,0:0:0:0:
213,192,142326,1,0,0:0:0:70:LR_Hat Synth.wav
298,192,142476,1,4,0:0:0:0:
384,192,142476,1,0,0:0:0:0:
213,192,142626,1,0,0:0:0:70:LR_Hat Synth.wav
42,192,142776,1,4,0:0:0:0:
298,192,142776,1,0,0:0:0:0:
469,192,142776,1,0,0:0:0:0:
384,192,142926,1,0,0:0:0:70:LR_Hat Synth.wav
213,192,143076,1,4,0:0:0:0:
469,192,143076,1,0,0:0:0:0:
42,192,143226,1,0,0:0:0:70:LR_Hat Synth.wav
128,192,143376,1,4,0:0:0:0:
298,192,143376,1,0,0:0:0:0:
384,192,143376,1,0,0:0:0:0:
469,192,143526,1,0,0:0:0:70:LR_Hat Synth.wav
42,192,143676,1,4,0:0:0:0:
213,192,143676,1,0,0:0:0:0:
128,192,143826,1,0,0:0:0:70:LR_Hat Synth.wav
298,192,143826,1,0,0:0:0:70:LR_Clap kick.wav
469,192,143826,1,0,0:0:0:0:
42,192,143976,1,4,0:0:0:0:
213,192,143976,1,0,0:0:0:70:LR_Clap kick.wav
384,192,143976,1,0,0:0:0:0:
298,192,144126,1,0,0:0:0:70:LR_Hat Synth.wav
128,192,144276,1,2,0:0:0:0:
469,192,144276,1,0,0:0:0:0:
42,192,144426,1,0,0:0:0:0:
128,192,144501,1,0,0:0:0:0:
213,192,144576,1,0,0:0:0:0:
298,192,144726,1,0,0:0:0:0:
42,192,144876,1,2,0:0:0:0:
128,192,144876,1,0,0:0:0:0:
384,192,144876,1,0,0:0:0:0:
469,192,145026,1,0,0:0:0:0:
384,192,145101,1,0,0:0:0:0:
298,192,145176,1,0,0:0:0:0:
213,192,145326,1,0,0:0:0:0:
128,192,145476,1,2,0:0:0:0:
298,192,145476,1,0,0:0:0:0:
469,192,145476,1,0,0:0:0:0:
42,192,145626,1,0,0:0:0:0:
128,192,145701,1,0,0:0:0:0:
213,192,145776,1,0,0:0:0:70:LR_Drum Rpd x2.wav
384,192,145926,1,0,0:0:0:70:LR_Drum Rpd x2.wav
42,192,146076,1,8,0:0:0:0:
128,192,146076,1,0,0:0:0:70:LR_Drum Rpd x2.wav
298,192,146076,1,0,0:0:0:0:
469,192,146226,1,0,0:0:0:70:LR_Drum Rpd x2.wav
384,192,146301,1,0,0:0:0:0:
298,192,146376,1,0,0:0:0:70:LR_Drum Rpd x2.wav
128,192,146526,1,0,0:0:0:70:LR_Drum Rpd x2.wav
42,192,146676,1,2,0:0:0:0:
213,192,146676,1,0,0:0:0:0:
384,192,146976,1,0,0:0:0:70:LR_Drum Low Long.wav
213,192,147126,1,0,0:0:0:70:LR_Drum Low Long.wav
298,192,147126,1,0,0:0:0:0:
128,192,147351,1,0,0:0:0:0:
213,192,147426,1,0,0:0:0:70:LR_Drum Low Long.wav
42,192,147576,1,0,0:0:0:70:LR_Drum Low Long.wav
128,192,147576,1,0,0:0:0:0:
298,192,147876,1,0,0:0:0:70:LR_Drum Low Long.wav
469,192,147876,1,0,0:0:0:0:
384,192,148101,1,0,0:0:0:0:
298,192,148176,1,0,0:0:0:70:LR_Drum Low Long.wav
42,192,148326,1,0,0:0:0:70:LR_Drum Low Long.wav
213,192,148326,1,0,0:0:0:0:
128,192,148551,1,0,0:0:0:0:
213,192,148626,1,0,0:0:0:70:LR_Drum Low Long.wav
42,192,148776,1,0,0:0:0:70:LR_Drum Low Long.wav
469,192,148776,1,0,0:0:0:0:
298,192,148926,1,0,0:0:0:0:
213,192,149076,128,2,149676:0:0:0:0:
384,192,149076,1,0,0:0:0:70:LR_CymbalQST.wav
128,192,149526,1,2,0:0:0:0:
298,192,149526,1,0,0:0:0:0:
42,192,149676,1,2,0:0:0:0:
469,192,149676,1,0,0:0:0:0:
128,192,149976,1,0,0:0:0:70:LR_Ride Long Low.wav
213,192,149976,1,0,0:0:0:0:
384,192,149976,1,0,0:0:0:0:
42,192,150276,1,2,0:0:0:0:
298,192,150276,128,0,150876:0:0:0:0:
213,192,150726,1,2,0:0:0:0:
384,192,150726,1,0,0:0:0:0:
42,192,150876,1,2,0:0:0:0:
469,192,150876,1,0,0:0:0:0:
128,192,151176,1,0,0:0:0:70:LR_Ride Long Low.wav
298,192,151176,1,0,0:0:0:0:
384,192,151176,1,0,0:0:0:0:
213,192,151476,128,2,152076:0:0:0:0:
469,192,151476,1,0,0:0:0:0:
128,192,151926,1,2,0:0:0:0:
298,192,151926,1,0,0:0:0:0:
42,192,152076,1,2,0:0:0:0:
469,192,152076,1,0,0:0:0:0:
128,192,152376,1,0,0:0:0:70:LR_Ride Long Low.wav
298,192,152376,1,0,0:0:0:0:
384,192,152376,1,0,0:0:0:0:
42,192,152526,1,2,0:0:0:0:
213,192,152526,1,0,0:0:0:0:
298,192,152826,1,2,0:0:0:0:
384,192,152826,1,0,0:0:0:0:
128,192,153126,1,2,0:0:0:0:
213,192,153126,1,0,0:0:0:0:
42,192,153276,1,2,0:0:0:0:
469,192,153276,1,0,0:0:0:0:
213,192,153426,1,0,0:0:0:0:
298,192,153501,1,0,0:0:0:0:
128,192,153576,1,0,0:0:0:70:LR_Ride Long Low.wav
384,192,153576,1,0,0:0:0:0:
213,192,153726,1,0,0:0:0:0:
42,192,153876,128,2,154476:0:0:0:0:
128,192,153876,1,0,0:0:0:0:
469,192,153876,1,0,0:0:0:0:
213,192,154326,1,2,0:0:0:0:
298,192,154326,1,0,0:0:0:0:
384,192,154476,1,2,0:0:0:0:
469,192,154476,1,0,0:0:0:0:
128,192,154776,1,0,0:0:0:70:LR_Ride Long Low.wav
213,192,154776,1,0,0:0:0:0:
298,192,154776,1,0,0:0:0:0:
42,192,155076,1,2,0:0:0:0:
469,192,155076,128,0,155676:0:0:0:0:
213,192,155526,1,2,0:0:0:0:
298,192,155526,1,0,0:0:0:0:
42,192,155676,1,2,0:0:0:0:
128,192,155676,1,0,0:0:0:0:
213,192,155976,1,0,0:0:0:70:LR_Ride Long Low.wav
298,192,155976,1,0,0:0:0:0:
384,192,155976,1,0,0:0:0:0:
42,192,156276,128,2,156876:0:0:0:0:
469,192,156276,1,0,0:0:0:0:
213,192,156726,1,2,0:0:0:0:
298,192,156726,1,0,0:0:0:0:
384,192,156876,1,2,0:0:0:0:
469,192,156876,1,0,0:0:0:0:
128,192,157176,1,0,0:0:0:70:LR_Ride Long Low.wav
298,192,157176,1,0,0:0:0:0:
384,192,157176,1,0,0:0:0:0:
42,192,157326,1,2,0:0:0:0:
213,192,157326,1,0,0:0:0:0:
469,192,157476,1,0,0:0:0:0:
298,192,157626,1,2,0:0:0:0:
384,192,157626,1,0,0:0:0:0:
213,192,157776,1,0,0:0:0:0:
128,192,157926,1,2,0:0:0:0:
298,192,157926,1,0,0:0:0:0:
42,192,158076,1,2,0:0:0:0:
469,192,158076,1,0,0:0:0:0:
213,192,158226,1,0,0:0:0:0:
298,192,158301,1,0,0:0:0:0:
128,192,158376,1,0,0:0:0:70:LR_Ride Long Low.wav
384,192,158376,1,0,0:0:0:0:
213,192,158526,1,0,0:0:0:0:
42,192,158676,1,2,0:0:0:0:
128,192,158676,1,0,0:0:0:0:
469,192,158676,1,0,0:0:0:0:
42,192,159276,1,0,0:0:0:0:
128,192,159351,1,0,0:0:0:0:
213,192,159426,1,0,0:0:0:0:
298,192,159501,1,0,0:0:0:0:
384,192,159576,1,0,0:0:0:0:
469,192,159651,1,0,0:0:0:0:
213,192,159726,1,0,0:0:0:0:
298,192,159801,1,0,0:0:0:0:
42,192,159876,1,4,0:0:0:0:
128,192,159876,1,0,0:0:0:0:
384,192,160176,1,4,0:0:0:0:
469,192,160176,1,0,0:0:0:0:
42,192,160476,1,4,0:0:0:0:
213,192,160551,1,4,0:0:0:0:
298,192,160626,1,4,0:0:0:0:
469,192,160701,1,4,0:0:0:0:
42,192,160776,1,4,0:0:0:0:
213,192,160851,1,4,0:0:0:0:
298,192,160926,1,2,0:0:0:0:
128,192,161076,128,8,161376:0:0:0:0:
213,192,161076,128,0,161376:0:0:0:0:
469,192,161076,128,0,161376:0:0:0:0:
213,192,161676,1,0,0:0:0:0:
298,192,161976,1,0,0:0:0:0:
42,192,162276,128,8,162576:0:0:0:0:
128,192,162276,128,0,162576:0:0:0:0:
469,192,162276,128,0,162576:0:0:0:0:
213,192,162876,1,0,0:0:0:0:
298,192,163176,1,0,0:0:0:0:
469,192,163476,1,0,0:0:0:0:
128,192,163776,128,8,164076:0:0:0:0:
298,192,163776,128,0,164076:0:0:0:0:
384,192,163776,128,0,164076:0:0:0:0:
42,192,164076,1,0,0:0:0:0:
128,192,164376,128,8,164676:0:0:0:0:
213,192,164376,128,0,164676:0:0:0:0:
384,192,164376,128,0,164676:0:0:0:0:
469,192,164676,1,8,0:0:0:0:
298,192,164826,1,4,0:0:0:0:
213,192,164901,1,4,0:0:0:0:
42,192,164976,1,8,0:0:0:0:
128,192,164976,1,0,0:0:0:0:
298,192,165126,1,4,0:0:0:0:
213,192,165276,1,8,0:0:0:0:
384,192,165276,1,0,0:0:0:0:
128,192,165426,1,4,0:0:0:0:
384,192,165576,1,8,0:0:0:0:
469,192,165576,1,0,0:0:0:0:
298,192,165726,1,0,0:0:0:0:
42,192,165876,1,2,0:0:0:0:
213,192,165876,1,0,0:0:0:70:LR_CymbalQST.wav
128,192,166026,1,0,0:0:0:70:LR_Hat Synth.wav
298,192,166101,1,0,0:0:0:0:
42,192,166176,1,8,0:0:0:0:
384,192,166176,1,0,0:0:0:0:
469,192,166176,1,0,0:0:0:0:
213,192,166326,1,0,0:0:0:70:LR_Hat Synth.wav
128,192,166476,1,2,0:0:0:0:
384,192,166476,1,0,0:0:0:0:
298,192,166626,1,0,0:0:0:70:LR_Hat Synth.wav
42,192,166776,1,8,0:0:0:0:
213,192,166776,1,0,0:0:0:0:
384,192,166776,1,0,0:0:0:0:
469,192,166926,1,0,0:0:0:70:LR_Hat Synth.wav
128,192,167076,1,2,0:0:0:0:
298,192,167076,1,0,0:0:0:0:
384,192,167226,1,0,0:0:0:70:LR_Hat Synth.wav
213,192,167376,1,8,0:0:0:0:
298,192,167376,1,0,0:0:0:0:
469,192,167376,1,0,0:0:0:0:
128,192,167526,1,0,0:0:0:70:LR_Hat Synth.wav
42,192,167676,1,2,0:0:0:0:
213,192,167676,1,0,0:0:0:0:
384,192,167826,1,0,0:0:0:70:LR_Hat Synth.wav
128,192,167976,1,8,0:0:0:0:
298,192,167976,1,0,0:0:0:0:
469,192,167976,1,0,0:0:0:0:
213,192,168126,1,0,0:0:0:70:LR_Hat Synth.wav
42,192,168276,1,2,0:0:0:0:
384,192,168276,1,0,0:0:0:0:
128,192,168426,1,0,0:0:0:70:LR_Hat Synth.wav
42,192,168501,1,0,0:0:0:0:
213,192,168576,1,8,0:0:0:0:
298,192,168576,1,0,0:0:0:0:
469,192,168576,1,0,0:0:0:0:
384,192,168726,1,0,0:0:0:70:LR_Hat Synth.wav
42,192,168876,1,2,0:0:0:0:
128,192,168876,1,0,0:0:0:0:
213,192,169026,1,0,0:0:0:70:LR_Hat Synth.wav
298,192,169176,1,8,0:0:0:0:
384,192,169176,1,0,0:0:0:0:
469,192,169176,1,0,0:0:0:0:
128,192,169326,1,0,0:0:0:70:LR_Hat Synth.wav
42,192,169476,1,2,0:0:0:0:
213,192,169476,1,0,0:0:0:0:
298,192,169626,1,0,0:0:0:70:LR_Hat Synth.wav
128,192,169776,1,8,0:0:0:0:
384,192,169776,1,0,0:0:0:0:
469,192,169776,1,0,0:0:0:0:
42,192,169926,1,0,0:0:0:70:LR_Hat Synth.wav
298,192,169926,1,0,0:0:0:0:
128,192,170076,1,2,0:0:0:0:
213,192,170076,1,0,0:0:0:0:
298,192,170226,1,0,0:0:0:70:LR_Hat Synth.wav
469,192,170226,1,0,0:0:0:0:
42,192,170376,1,8,0:0:0:0:
213,192,170376,1,0,0:0:0:0:
384,192,170376,1,0,0:0:0:0:
128,192,170526,1,0,0:0:0:70:LR_Hat Synth.wav
469,192,170526,1,0,0:0:0:0:
42,192,170676,1,2,0:0:0:0:
298,192,170676,1,0,0:0:0:70:LR_CymbalQST.wav
128,192,170826,1,0,0:0:0:70:LR_Hat Synth.wav
384,192,170976,128,8,171276:0:0:0:0:
469,192,170976,1,0,0:0:0:0:
42,192,171126,1,0,0:0:0:70:LR_Hat Synth.wav
128,192,171276,128,2,171576:0:0:0:0:
213,192,171276,1,0,0:0:0:0:
298,192,171426,1,0,0:0:0:70:LR_Hat Synth.wav
42,192,171576,1,8,0:0:0:0:
384,192,171576,128,0,171876:0:0:0:0:
469,192,171576,1,0,0:0:0:0:
213,192,171726,1,0,0:0:0:70:LR_Hat Synth.wav
128,192,171876,128,2,172176:0:0:0:0:
298,192,171876,1,0,0:0:0:0:
469,192,172026,1,0,0:0:0:70:LR_Hat Synth.wav
42,192,172176,1,8,0:0:0:0:
213,192,172176,1,0,0:0:0:0:
384,192,172176,128,0,172476:0:0:0:0:
298,192,172326,1,0,0:0:0:70:LR_Hat Synth.wav
128,192,172476,128,2,172776:0:0:0:0:
469,192,172476,1,0,0:0:0:0:
213,192,172626,1,0,0:0:0:70:LR_Hat Synth.wav
42,192,172776,1,8,0:0:0:0:
298,192,172776,1,0,0:0:0:0:
384,192,172776,1,0,0:0:0:0:
469,192,172926,1,0,0:0:0:70:LR_Hat Synth.wav
128,192,173076,1,2,0:0:0:0:
213,192,173076,1,0,0:0:0:0:
298,192,173226,1,0,0:0:0:70:LR_Hat Synth.wav
42,192,173376,1,8,0:0:0:0:
384,192,173376,1,0,0:0:0:0:
469,192,173376,1,0,0:0:0:0:
213,192,173526,1,0,0:0:0:70:LR_Hat Synth.wav
128,192,173676,1,2,0:0:0:0:
298,192,173676,1,0,0:0:0:0:
469,192,173826,1,0,0:0:0:70:LR_Hat Synth.wav
42,192,173976,1,8,0:0:0:0:
213,192,173976,1,0,0:0:0:0:
384,192,173976,1,0,0:0:0:0:
128,192,174126,1,0,0:0:0:70:LR_Hat Synth.wav
213,192,174276,1,2,0:0:0:0:
298,192,174276,1,0,0:0:0:0:
469,192,174426,1,0,0:0:0:70:LR_Hat Synth.wav
42,192,174576,1,8,0:0:0:0:
128,192,174576,1,0,0:0:0:0:
384,192,174576,1,0,0:0:0:0:
298,192,174726,1,0,0:0:0:70:LR_Hat Synth.wav
213,192,174876,1,2,0:0:0:0:
469,192,174876,1,0,0:0:0:0:
128,192,175026,1,0,0:0:0:70:LR_Hat Synth.wav
42,192,175176,1,8,0:0:0:0:
384,192,175176,1,0,0:0:0:0:
469,192,175176,1,0,0:0:0:0:
213,192,175326,1,0,0:0:0:70:LR_Hat Synth.wav
128,192,175476,1,2,0:0:0:0:
298,192,175476,1,0,0:0:0:70:LR_CymbalQST.wav
213,192,175626,1,0,0:0:0:70:LR_Hat Synth.wav
298,192,175701,1,0,0:0:0:0:
384,192,175776,128,8,176076:0:0:0:0:
469,192,175776,1,0,0:0:0:0:
42,192,175926,1,0,0:0:0:70:LR_Hat Synth.wav
128,192,176076,128,2,176376:0:0:0:0:
213,192,176076,1,0,0:0:0:0:
298,192,176226,1,0,0:0:0:70:LR_Hat Synth.wav
42,192,176376,1,8,0:0:0:0:
384,192,176376,128,0,176676:0:0:0:0:
469,192,176376,1,0,0:0:0:0:
213,192,176526,1,0,0:0:0:70:LR_Hat Synth.wav
128,192,176676,128,2,176976:0:0:0:0:
298,192,176676,1,0,0:0:0:0:
469,192,176826,1,0,0:0:0:70:LR_Hat Synth.wav
42,192,176976,1,8,0:0:0:0:
213,192,176976,1,0,0:0:0:0:
384,192,176976,128,0,177276:0:0:0:0:
298,192,177126,1,0,0:0:0:70:LR_Hat Synth.wav
128,192,177276,128,2,177576:0:0:0:0:
469,192,177276,1,0,0:0:0:0:
213,192,177426,1,0,0:0:0:70:LR_Hat Synth.wav
42,192,177576,1,8,0:0:0:0:
384,192,177576,1,0,0:0:0:0:
469,192,177726,1,0,0:0:0:70:LR_Hat Synth.wav
298,192,177876,128,2,178176:0:0:0:0:
128,192,178176,128,0,178476:0:0:0:0:
469,192,178476,128,0,178776:0:0:0:0:
384,192,178776,128,0,179076:0:0:0:0:
298,192,179076,128,0,179526:0:0:0:0:
128,192,179526,1,0,0:0:0:0:
213,192,179676,128,0,180276:0:0:0:0:
128,192,180126,1,0,0:0:0:70:LR_Drum Rpd x2.wav
298,192,180126,1,0,0:0:0:0:
42,192,180276,1,2,0:0:0:0:
384,192,180276,1,0,0:0:0:0:
469,192,180276,1,0,0:0:0:0:
128,192,180576,128,0,183276:0:0:0:0:
213,192,184776,1,0,0:0:0:0:
128,192,184926,1,0,0:0:0:0:
298,192,185076,1,0,0:0:0:0:
469,192,185076,1,0,0:0:0:0:
384,192,185376,1,0,0:0:0:0:
298,192,185526,1,0,0:0:0:0:
42,192,185676,1,0,0:0:0:0:
213,192,185676,1,0,0:0:0:0:
384,192,185976,1,0,0:0:0:70:LR_Sleigh Bell.wav
128,192,186126,1,0,0:0:0:0:
213,192,186276,1,0,0:0:0:0:
298,192,186276,1,0,0:0:0:0:
469,192,186426,1,0,0:0:0:0:
384,192,186576,1,0,0:0:0:0:
298,192,186726,1,0,0:0:0:0:
42,192,186876,1,0,0:0:0:0:
213,192,186876,1,0,0:0:0:0:
469,192,187176,1,0,0:0:0:0:
213,192,187326,1,0,0:0:0:0:
42,192,187476,1,0,0:0:0:0:
298,192,187476,1,0,0:0:0:0:
384,192,187776,1,0,0:0:0:0:
128,192,187926,1,0,0:0:0:0:
213,192,188076,1,0,0:0:0:0:
298,192,188076,1,0,0:0:0:0:
42,192,188376,1,0,0:0:0:70:LR_Sleigh Bell.wav
469,192,188376,1,0,0:0:0:0:
213,192,188676,1,0,0:0:0:0:
298,192,188676,1,0,0:0:0:0:
128,192,188976,1,0,0:0:0:0:
213,192,189076,1,0,0:0:0:0:
384,192,189176,1,0,0:0:0:0:
298,192,189276,1,0,0:0:0:0:
128,192,189376,1,0,0:0:0:0:
213,192,189476,1,0,0:0:0:0:
384,192,189576,1,0,0:0:0:0:
298,192,189676,1,0,0:0:0:0:
213,192,189776,1,0,0:0:0:0:
42,192,189876,1,0,0:0:0:0:
469,192,189876,1,0,0:0:0:0:
384,192,190176,1,0,0:0:0:0:
298,192,190326,1,0,0:0:0:0:
42,192,190476,1,0,0:0:0:0:
213,192,190476,1,0,0:0:0:0:
384,192,190776,1,0,0:0:0:70:LR_Sleigh Bell.wav
128,192,190926,1,0,0:0:0:0:
213,192,191076,1,0,0:0:0:0:
298,192,191076,1,0,0:0:0:0:
469,192,191226,1,0,0:0:0:0:
384,192,191376,1,0,0:0:0:0:
298,192,191526,1,0,0:0:0:0:
42,192,191676,1,0,0:0:0:0:
213,192,191676,1,0,0:0:0:0:
298,192,191976,1,0,0:0:0:0:
384,192,192126,1,0,0:0:0:0:
42,192,192276,1,0,0:0:0:0:
469,192,192276,1,0,0:0:0:0:
384,192,192576,1,0,0:0:0:0:
128,192,192726,1,0,0:0:0:0:
213,192,192876,1,0,0:0:0:0:
298,192,192876,1,0,0:0:0:0:
128,192,193176,1,0,0:0:0:70:LR_Sleigh Bell.wav
384,192,193326,1,0,0:0:0:0:
42,192,193476,1,0,0:0:0:0:
128,192,193476,1,0,0:0:0:0:
469,192,193776,1,0,0:0:0:0:
213,192,193876,1,0,0:0:0:0:
298,192,193976,1,0,0:0:0:0:
42,192,194076,1,0,0:0:0:0:
469,192,194176,1,0,0:0:0:0:
128,192,194276,1,0,0:0:0:0:
384,192,194376,1,0,0:0:0:0:
42,192,194476,1,0,0:0:0:0:
213,192,194576,1,0,0:0:0:0:
384,192,194676,1,0,0:0:0:0:
469,192,195876,1,0,0:0:0:0:
384,192,195951,1,0,0:0:0:0:
213,192,196026,1,0,0:0:0:0:
42,192,196101,1,0,0:0:0:0:
469,192,196176,1,0,0:0:0:0:
298,192,196251,1,0,0:0:0:0:
128,192,196326,1,0,0:0:0:0:
42,192,196401,1,0,0:0:0:0:
469,192,196476,1,0,0:0:0:0:
384,192,196551,1,0,0:0:0:0:
128,192,196626,1,0,0:0:0:0:
42,192,196701,1,0,0:0:0:0:
469,192,196776,1,0,0:0:0:0:
298,192,196851,1,0,0:0:0:0:
213,192,196926,1,0,0:0:0:0:
42,192,197001,1,0,0:0:0:0:
384,192,197076,1,0,0:0:0:70:LR_Kick-long med bass.wav
469,192,197076,1,0,0:0:0:0:
213,192,198276,1,0,0:0:0:0:
298,192,198276,1,0,0:0:0:0:
42,192,199476,1,0,0:0:0:0:
128,192,199476,1,0,0:0:0:0:
42,192,200676,1,4,0:0:0:0:
128,192,200676,1,0,0:0:0:0:
384,192,200976,1,4,0:0:0:0:
469,192,200976,1,0,0:0:0:0:
298,192,201276,1,4,0:0:0:0:
213,192,201351,1,4,0:0:0:0:
298,192,201426,1,4,0:0:0:0:
213,192,201501,1,4,0:0:0:0:
298,192,201576,1,4,0:0:0:0:
213,192,201651,1,4,0:0:0:0:
128,192,201726,1,2,0:0:0:0:
42,192,201801,1,0,0:0:0:0:
298,192,201876,1,8,0:0:0:0:
384,192,201876,1,0,0:0:0:0:
469,192,201876,1,0,0:0:0:0:
384,192,202176,128,0,202326:0:0:0:0:
128,192,202476,1,0,0:0:0:0:
298,192,202776,1,0,0:0:0:0:
128,192,203076,1,8,0:0:0:0:
213,192,203076,1,0,0:0:0:0:
469,192,203076,1,0,0:0:0:0:
384,192,203376,128,0,203526:0:0:0:0:
42,192,203676,1,0,0:0:0:0:
298,192,203976,1,0,0:0:0:0:
213,192,204276,1,0,0:0:0:0:
128,192,204576,1,8,0:0:0:0:
298,192,204576,1,0,0:0:0:0:
384,192,204576,1,0,0:0:0:0:
213,192,204876,1,0,0:0:0:0:
42,192,205176,1,8,0:0:0:0:
384,192,205176,1,0,0:0:0:0:
469,192,205176,1,0,0:0:0:0:
128,192,205476,1,8,0:0:0:0:
469,192,205476,1,0,0:0:0:0:
298,192,205626,1,4,0:0:0:0:
213,192,205701,1,4,0:0:0:0:
42,192,205776,1,8,0:0:0:0:
128,192,205776,1,0,0:0:0:0:
298,192,205926,1,4,0:0:0:0:
213,192,206076,1,8,0:0:0:0:
384,192,206076,1,0,0:0:0:0:
128,192,206226,1,4,0:0:0:0:
384,192,206376,1,8,0:0:0:0:
469,192,206376,1,0,0:0:0:0:
298,192,206526,1,0,0:0:0:0:
42,192,206676,1,2,0:0:0:0:
213,192,206676,1,0,0:0:0:0:
128,192,206826,1,0,0:0:0:70:LR_Hat Synth.wav
298,192,206901,1,0,0:0:0:0:
42,192,206976,1,8,0:0:0:0:
384,192,206976,1,0,0:0:0:0:
469,192,206976,1,0,0:0:0:0:
213,192,207126,1,0,0:0:0:70:LR_Hat Synth.wav
128,192,207276,1,2,0:0:0:0:
384,192,207276,1,0,0:0:0:0:
298,192,207426,1,0,0:0:0:70:LR_Hat Synth.wav
42,192,207576,1,8,0:0:0:0:
213,192,207576,1,0,0:0:0:0:
384,192,207576,1,0,0:0:0:0:
469,192,207726,1,0,0:0:0:70:LR_Hat Synth.wav
128,192,207876,1,2,0:0:0:0:
298,192,207876,1,0,0:0:0:0:
384,192,208026,1,0,0:0:0:70:LR_Hat Synth.wav
213,192,208176,1,8,0:0:0:0:
298,192,208176,1,0,0:0:0:0:
469,192,208176,1,0,0:0:0:0:
128,192,208326,1,0,0:0:0:70:LR_Hat Synth.wav
42,192,208476,1,2,0:0:0:0:
213,192,208476,1,0,0:0:0:0:
384,192,208626,1,0,0:0:0:70:LR_Hat Synth.wav
128,192,208776,1,8,0:0:0:0:
298,192,208776,1,0,0:0:0:0:
469,192,208776,1,0,0:0:0:0:
213,192,208926,1,0,0:0:0:70:LR_Hat Synth.wav
42,192,209076,1,2,0:0:0:0:
384,192,209076,1,0,0:0:0:0:
128,192,209226,1,0,0:0:0:70:LR_Hat Synth.wav
42,192,209301,1,0,0:0:0:0:
213,192,209376,1,8,0:0:0:0:
298,192,209376,1,0,0:0:0:0:
469,192,209376,1,0,0:0:0:0:
384,192,209526,1,0,0:0:0:70:LR_Hat Synth.wav
42,192,209676,1,2,0:0:0:0:
128,192,209676,1,0,0:0:0:0:
213,192,209826,1,0,0:0:0:70:LR_Hat Synth.wav
298,192,209976,1,8,0:0:0:0:
384,192,209976,1,0,0:0:0:0:
469,192,209976,1,0,0:0:0:0:
128,192,210126,1,0,0:0:0:70:LR_Hat Synth.wav
42,192,210276,1,2,0:0:0:0:
213,192,210276,1,0,0:0:0:0:
298,192,210426,1,0,0:0:0:70:LR_Hat Synth.wav
128,192,210576,1,8,0:0:0:0:
384,192,210576,1,0,0:0:0:0:
469,192,210576,1,0,0:0:0:0:
42,192,210726,1,0,0:0:0:70:LR_Hat Synth.wav
298,192,210726,1,0,0:0:0:0:
128,192,210876,1,2,0:0:0:0:
213,192,210876,1,0,0:0:0:0:
298,192,211026,1,0,0:0:0:70:LR_Hat Synth.wav
469,192,211026,1,0,0:0:0:0:
42,192,211176,1,8,0:0:0:0:
213,192,211176,1,0,0:0:0:0:
384,192,211176,1,0,0:0:0:0:
128,192,211326,1,0,0:0:0:70:LR_Hat Synth.wav
469,192,211326,1,0,0:0:0:0:
42,192,211476,1,2,0:0:0:0:
298,192,211476,1,0,0:0:0:0:
128,192,211626,1,0,0:0:0:70:LR_Hat Synth.wav
384,192,211776,128,8,212076:0:0:0:0:
469,192,211776,1,0,0:0:0:0:
42,192,211926,1,0,0:0:0:70:LR_Hat Synth.wav
128,192,212076,128,2,212376:0:0:0:0:
213,192,212076,1,0,0:0:0:0:
298,192,212226,1,0,0:0:0:70:LR_Hat Synth.wav
42,192,212376,1,8,0:0:0:0:
384,192,212376,128,0,212676:0:0:0:0:
469,192,212376,1,0,0:0:0:0:
213,192,212526,1,0,0:0:0:70:LR_Hat Synth.wav
128,192,212676,128,2,212976:0:0:0:0:
298,192,212676,1,0,0:0:0:0:
469,192,212826,1,0,0:0:0:70:LR_Hat Synth.wav
42,192,212976,1,8,0:0:0:0:
213,192,212976,1,0,0:0:0:0:
384,192,212976,128,0,213276:0:0:0:0:
298,192,213126,1,0,0:0:0:70:LR_Hat Synth.wav
128,192,213276,128,2,213576:0:0:0:0:
469,192,213276,1,0,0:0:0:0:
213,192,213426,1,0,0:0:0:70:LR_Hat Synth.wav
42,192,213576,1,8,0:0:0:0:
298,192,213576,1,0,0:0:0:0:
384,192,213576,1,0,0:0:0:0:
469,192,213726,1,0,0:0:0:70:LR_Hat Synth.wav
128,192,213876,1,2,0:0:0:0:
213,192,213876,1,0,0:0:0:0:
298,192,214026,1,0,0:0:0:70:LR_Hat Synth.wav
42,192,214176,1,8,0:0:0:0:
384,192,214176,1,0,0:0:0:0:
469,192,214176,1,0,0:0:0:0:
213,192,214326,1,0,0:0:0:70:LR_Hat Synth.wav
128,192,214476,1,2,0:0:0:0:
298,192,214476,1,0,0:0:0:0:
469,192,214626,1,0,0:0:0:70:LR_Hat Synth.wav
42,192,214776,1,8,0:0:0:0:
213,192,214776,1,0,0:0:0:0:
384,192,214776,1,0,0:0:0:0:
128,192,214926,1,0,0:0:0:70:LR_Hat Synth.wav
213,192,215076,1,2,0:0:0:0:
298,192,215076,1,0,0:0:0:0:
469,192,215226,1,0,0:0:0:70:LR_Hat Synth.wav
42,192,215376,1,8,0:0:0:0:
128,192,215376,1,0,0:0:0:0:
384,192,215376,1,0,0:0:0:0:
298,192,215526,1,0,0:0:0:70:LR_Hat Synth.wav
213,192,215676,1,2,0:0:0:0:
469,192,215676,1,0,0:0:0:0:
128,192,215826,1,0,0:0:0:70:LR_Hat Synth.wav
42,192,215976,1,8,0:0:0:0:
384,192,215976,1,0,0:0:0:0:
469,192,215976,1,0,0:0:0:0:
213,192,216126,1,0,0:0:0:70:LR_Hat Synth.wav
128,192,216276,1,2,0:0:0:0:
298,192,216276,1,0,0:0:0:70:LR_CymbalQST.wav
213,192,216426,1,0,0:0:0:70:LR_Hat Synth.wav
298,192,216501,1,0,0:0:0:0:
384,192,216576,128,4,216876:0:0:0:0:
469,192,216576,1,0,0:0:0:0:
42,192,216726,1,0,0:0:0:70:LR_Hat Synth.wav
128,192,216876,128,2,217176:0:0:0:0:
213,192,216876,1,0,0:0:0:0:
298,192,217026,1,0,0:0:0:70:LR_Hat Synth.wav
42,192,217176,1,4,0:0:0:0:
384,192,217176,128,0,217476:0:0:0:0:
469,192,217176,1,0,0:0:0:0:
213,192,217326,1,0,0:0:0:70:LR_Hat Synth.wav
128,192,217476,128,2,217776:0:0:0:0:
298,192,217476,1,0,0:0:0:0:
469,192,217626,1,0,0:0:0:70:LR_Hat Synth.wav
42,192,217776,1,4,0:0:0:0:
213,192,217776,1,0,0:0:0:0:
384,192,217776,128,0,218076:0:0:0:0:
298,192,217926,1,0,0:0:0:70:LR_Hat Synth.wav
128,192,218076,128,2,218376:0:0:0:0:
469,192,218076,1,0,0:0:0:0:
213,192,218226,1,4,0:0:0:0:
42,192,218376,1,2,0:0:0:0:
384,192,218376,1,0,0:0:0:0:
469,192,218526,1,4,0:0:0:0:
128,192,218601,1,0,0:0:0:0:
213,192,218676,128,2,218976:0:0:0:0:
298,192,218676,128,0,218976:0:0:0:0:
42,192,218976,128,0,219276:0:0:0:0:
384,192,218976,128,0,219276:0:0:0:0:
128,192,219276,128,0,219576:0:0:0:0:
213,192,219276,128,0,219576:0:0:0:0:
298,192,219576,128,0,219876:0:0:0:0:
469,192,219576,128,0,219876:0:0:0:0:
128,192,219876,128,0,220326:0:0:0:0:
384,192,219876,128,0,220326:0:0:0:0:
213,192,220326,128,0,220476:0:0:0:0:
42,192,220476,128,0,220776:0:0:0:0:
298,192,220476,128,0,220776:0:0:0:0:
128,192,220776,128,0,221076:0:0:0:0:
384,192,220776,128,0,221076:0:0:0:0:
42,192,221076,1,8,0:0:0:0:
213,192,221076,1,0,0:0:0:0:
469,192,221076,1,0,0:0:0:0:
128,192,221376,1,8,0:0:0:0:
298,192,221376,1,0,0:0:0:0:
384,192,221376,1,0,0:0:0:0:
42,192,221676,1,8,0:0:0:0:
213,192,221676,1,0,0:0:0:0:
469,192,221676,1,0,0:0:0:0:
128,192,222276,1,8,0:0:0:0:
298,192,222276,1,0,0:0:0:0:
384,192,222276,1,0,0:0:0:0:
42,192,222576,1,8,0:0:0:0:
213,192,222576,1,0,0:0:0:0:
469,192,222576,1,0,0:0:0:0:
213,192,222876,1,8,0:0:0:0:
298,192,222876,1,0,0:0:0:0:
384,192,222876,1,0,0:0:0:0:
128,192,223476,1,8,0:0:0:0:
213,192,223476,1,0,0:0:0:0:
384,192,223476,1,0,0:0:0:0:
42,192,223776,1,8,0:0:0:0:
384,192,223776,1,0,0:0:0:0:
469,192,223776,1,0,0:0:0:0:
128,192,224076,1,8,0:0:0:0:
298,192,224076,1,0,0:0:0:0:
384,192,224226,1,0,0:0:0:0:
213,192,224376,1,8,0:0:0:0:
469,192,224376,1,0,0:0:0:0:
128,192,224526,1,0,0:0:0:0:
42,192,224676,1,8,0:0:0:0:
213,192,224676,1,0,0:0:0:0:
384,192,224676,1,0,0:0:0:0:
128,192,224976,1,8,0:0:0:0:
384,192,224976,1,0,0:0:0:0:
469,192,224976,1,0,0:0:0:0:
42,192,225276,1,8,0:0:0:0:
213,192,225276,1,0,0:0:0:0:
298,192,225276,1,0,0:0:0:0:
213,192,225576,128,0,225876:0:0:0:0:
42,192,225876,1,8,0:0:0:0:
128,192,225876,1,0,0:0:0:0:
469,192,225876,1,0,0:0:0:0:
298,192,226026,1,0,0:0:0:0:
42,192,226176,1,8,0:0:0:0:
213,192,226176,1,0,0:0:0:0:
384,192,226176,1,0,0:0:0:0:
128,192,226326,1,0,0:0:0:0:
213,192,226476,1,8,0:0:0:0:
298,192,226476,1,0,0:0:0:0:
469,192,226476,1,0,0:0:0:0:
384,192,226626,1,0,0:0:0:0:
213,192,226776,1,0,0:0:0:70:LR_J Hit Whistle.wav
128,192,227076,1,8,0:0:0:0:
298,192,227076,1,0,0:0:0:0:
384,192,227076,1,0,0:0:0:0:
42,192,227226,1,0,0:0:0:0:
128,192,227376,1,8,0:0:0:0:
213,192,227376,1,0,0:0:0:0:
469,192,227376,1,0,0:0:0:0:
298,192,227526,1,0,0:0:0:0:
42,192,227676,1,8,0:0:0:0:
213,192,227676,1,0,0:0:0:0:
384,192,227676,1,0,0:0:0:0:
469,192,227826,1,0,0:0:0:0:
128,192,228126,1,0,0:0:0:0:
213,192,228201,1,0,0:0:0:0:
42,192,228276,1,8,0:0:0:0:
298,192,228276,1,0,0:0:0:0:
469,192,228276,1,0,0:0:0:0:
128,192,228576,1,8,0:0:0:0:
213,192,228576,1,0,0:0:0:0:
384,192,228576,1,0,0:0:0:0:
42,192,228876,1,8,0:0:0:0:
298,192,228876,1,0,0:0:0:0:
384,192,229026,1,0,0:0:0:0:
128,192,229176,1,8,0:0:0:0:
213,192,229176,1,0,0:0:0:0:
469,192,229326,1,0,0:0:0:0:
42,192,229476,1,8,0:0:0:0:
213,192,229476,128,0,229776:0:0:0:0:
384,192,229476,1,0,0:0:0:0:
128,192,229776,1,8,0:0:0:0:
298,192,229776,128,0,230076:0:0:0:0:
469,192,229776,1,0,0:0:0:0:
42,192,230076,1,8,0:0:0:0:
213,192,230076,1,0,0:0:0:0:
384,192,230076,128,0,230676:0:0:0:0:
469,192,230376,1,0,0:0:0:0:
298,192,230826,1,0,0:0:0:70:LR_Drum Rpd x2.wav
213,192,230901,1,0,0:0:0:70:LR_Drum Rpd x2.wav
42,192,230976,128,8,235403:0:0:0:0:
128,192,230976,128,0,235403:0:0:0:0:
