osu file format v14

[General]
AudioFilename: audio.mp3
AudioLeadIn: 0
PreviewTime: 29226
Countdown: 0
SampleSet: Soft
StackLeniency: 0.7
Mode: 3
LetterboxInBreaks: 0
SpecialStyle: 0
WidescreenStoryboard: 1

[Editor]
Bookmarks: 29076,68676,71076,177576
DistanceSpacing: 3.5
BeatDivisor: 4
GridSize: 4
TimelineZoom: 1.2

[Metadata]
Title:Mazare Party
TitleUnicode:Mazare Party
Artist:MAZARE
ArtistUnicode:MAZARE
Creator:Insp1r3
Version:4K Easy
Source:
Tags:Oriental EDM MAZARE Camellia かめりあ Nanahira kradness yukacco Chilly Cokiiplay booty Asherz007 jakads dudehacker MIND HACK
BeatmapID:1399365
BeatmapSetID:650415

[Difficulty]
HPDrainRate:7
CircleSize:4
OverallDifficulty:7
ApproachRate:5
SliderMultiplier:1.4
SliderTickRate:1

[Events]
//Background and Video events
0,0,"bg.jpg",0,0
//Break Periods
//Storyboard Layer 0 (Background)
//Storyboard Layer 1 (Fail)
//Storyboard Layer 2 (Pass)
//Storyboard Layer 3 (Foreground)
//Storyboard Sound Samples
Sample,30276,0,"LR_CymbalQST.wav",70
Sample,35076,0,"LR_CymbalQST.wav",70
Sample,39876,0,"LR_CymbalQST.wav",70
Sample,54276,0,"LR_Drum Rpd x2.wav",70
Sample,54876,0,"LR_Drum Rpd x2.wav",70
Sample,55476,0,"LR_Drum Rpd x2.wav",70
Sample,56076,0,"LR_Drum Rpd x2.wav",70
Sample,59076,0,"LR_CymbalQST.wav",70
Sample,75876,0,"LR_CymbalQST.wav",70
Sample,80676,0,"LR_CymbalQST.wav",70
Sample,85476,0,"LR_CymbalQST.wav",70
Sample,110676,0,"LR_Kick-long med bass.wav",70
Sample,110676,0,"LR_CymbalQST.wav",70
Sample,110976,0,"LR_Kick-long med bass.wav",70
Sample,111276,0,"LR_Kick-long med bass.wav",70
Sample,111576,0,"LR_Kick-long med bass.wav",70
Sample,111876,0,"LR_Kick-long med bass.wav",70
Sample,112176,0,"LR_Kick-long med bass.wav",70
Sample,112476,0,"LR_Kick-long med bass.wav",70
Sample,112776,0,"LR_Kick-long med bass.wav",70
Sample,113076,0,"LR_Kick-long med bass.wav",70
Sample,113376,0,"LR_Kick-long med bass.wav",70
Sample,113676,0,"LR_Kick-long med bass.wav",70
Sample,113976,0,"LR_Kick-long med bass.wav",70
Sample,114276,0,"LR_Kick-long med bass.wav",70
Sample,114576,0,"LR_Kick-long med bass.wav",70
Sample,114876,0,"LR_Kick-long med bass.wav",70
Sample,115176,0,"LR_Kick-long med bass.wav",70
Sample,115476,0,"LR_CymbalQST.wav",70
Sample,115776,0,"LR_Kick-long med bass.wav",70
Sample,116076,0,"LR_Kick-long med bass.wav",70
Sample,116376,0,"LR_Kick-long med bass.wav",70
Sample,116676,0,"LR_Kick-long med bass.wav",70
Sample,116976,0,"LR_Kick-long med bass.wav",70
Sample,117276,0,"LR_Kick-long med bass.wav",70
Sample,117576,0,"LR_Kick-long med bass.wav",70
Sample,117876,0,"LR_Kick-long med bass.wav",70
Sample,118176,0,"LR_Kick-long med bass.wav",70
Sample,118476,0,"LR_Kick-long med bass.wav",70
Sample,118776,0,"LR_Kick-long med bass.wav",70
Sample,119076,0,"LR_Kick-long med bass.wav",70
Sample,120276,0,"LR_Kick-long med bass.wav",70
Sample,120276,0,"LR_CymbalQST.wav",70
Sample,120576,0,"LR_Kick-long med bass.wav",70
Sample,120876,0,"LR_Kick-long med bass.wav",70
Sample,121176,0,"LR_Kick-long med bass.wav",70
Sample,121476,0,"LR_Kick-long med bass.wav",70
Sample,121776,0,"LR_Kick-long med bass.wav",70
Sample,122076,0,"LR_Kick-long med bass.wav",70
Sample,122376,0,"LR_Kick-long med bass.wav",70
Sample,122676,0,"LR_Kick-long med bass.wav",70
Sample,122976,0,"LR_Kick-long med bass.wav",70
Sample,123276,0,"LR_Kick-long med bass.wav",70
Sample,123576,0,"LR_Kick-long med bass.wav",70
Sample,123876,0,"LR_Kick-long med bass.wav",70
Sample,124176,0,"LR_Kick-long med bass.wav",70
Sample,124476,0,"LR_Kick-long med bass.wav",70
Sample,124776,0,"LR_Kick-long med bass.wav",70
Sample,125076,0,"LR_CymbalQST.wav",70
Sample,125376,0,"LR_Kick-long med bass.wav",70
Sample,125676,0,"LR_Kick-long med bass.wav",70
Sample,125976,0,"LR_Kick-long med bass.wav",70
Sample,126276,0,"LR_Kick-long med bass.wav",70
Sample,126576,0,"LR_Kick-long med bass.wav",70
Sample,126876,0,"LR_Kick-long med bass.wav",70
Sample,127176,0,"LR_Kick-long med bass.wav",70
Sample,127476,0,"LR_Kick-long med bass.wav",70
Sample,127776,0,"LR_Kick-long med bass.wav",70
Sample,128076,0,"LR_Kick-long med bass.wav",70
Sample,128376,0,"LR_Kick-long med bass.wav",70
Sample,128676,0,"LR_Kick-long med bass.wav",70
Sample,143826,0,"LR_Clap kick.wav",70
Sample,146076,0,"LR_Drum Rpd x2.wav",70
Sample,149076,0,"LR_CymbalQST.wav",70
Sample,165876,0,"LR_CymbalQST.wav",70
Sample,170676,0,"LR_CymbalQST.wav",70
Sample,175476,0,"LR_CymbalQST.wav",70
Sample,216276,0,"LR_CymbalQST.wav",70

[TimingPoints]
276,300,4,2,1,100,1,0
30276,-100,4,2,1,100,0,1
38676,-100,4,2,1,100,0,0
75876,-100,4,2,1,100,0,1
87876,-100,4,2,1,100,0,0
110676,-100,4,2,1,100,0,1
119076,-100,4,2,1,100,0,0
120276,-100,4,2,1,100,0,1
128676,-100,4,2,1,100,0,0
165876,-100,4,2,1,100,0,1
177876,-100,4,2,1,100,0,0
206676,-100,4,2,1,100,0,1
218676,-100,4,2,1,100,0,0
230976,342.857142857143,4,2,1,100,1,0
230976,-87.719298245614,4,2,1,100,0,0
231318,222.222222222222,4,2,1,100,1,0
231318,-135.135135135135,4,2,1,100,0,0
231484,285.714285714286,4,2,1,100,1,0
231484,-105.263157894737,4,2,1,100,0,0
231555,375,4,2,1,100,1,0
231555,-80,4,2,1,100,0,0
231742,363.636363636364,4,2,1,100,1,0
231742,-82.6446280991736,4,2,1,100,0,0
231832,600,4,2,1,100,1,0
231832,-50,4,2,1,100,0,0
231982,272.727272727273,4,2,1,100,1,0
231982,-109.89010989011,4,2,1,100,0,0
232050,444.444444444444,4,2,1,100,1,0
232050,-67.5675675675676,4,2,1,100,0,0
232161,400,4,2,1,100,1,0
232161,-75.187969924812,4,2,1,100,0,0
232261,444.444444444444,4,2,1,100,1,0
232261,-67.5675675675676,4,2,1,100,0,0
232372,375,4,2,1,100,1,0
232372,-80,4,2,1,100,0,0
232465,461.538461538462,4,2,1,100,1,0
232465,-64.9350649350649,4,2,1,100,0,0
232580,352.941176470588,4,2,1,100,1,0
232580,-84.7457627118644,4,2,1,100,0,0

[HitObjects]
320,192,1326,5,0,0:0:0:70:LR_Drum Rpd x2.wav
64,192,1476,1,0,0:0:0:70:LR_Drum Low Long.wav
64,192,2076,1,0,0:0:0:0:
192,192,2676,1,0,0:0:0:0:
448,192,3876,1,0,0:0:0:0:
320,192,5076,1,4,0:0:0:0:
192,192,5376,1,4,0:0:0:0:
320,192,5676,128,4,6276:0:0:0:0:
192,192,6276,128,8,6576:0:0:0:0:
320,192,6876,1,0,0:0:0:0:
64,192,7176,1,0,0:0:0:0:
320,192,7476,128,8,7776:0:0:0:0:
192,192,8076,1,0,0:0:0:0:
448,192,8376,1,0,0:0:0:0:
64,192,8676,1,0,0:0:0:0:
192,192,8976,128,8,9276:0:0:0:0:
448,192,9276,1,0,0:0:0:0:
320,192,9576,128,8,9876:0:0:0:0:
192,192,9876,1,8,0:0:0:0:
448,192,10176,1,8,0:0:0:0:
64,192,10476,1,8,0:0:0:0:
320,192,10776,1,8,0:0:0:0:
192,192,11076,1,8,0:0:0:0:
448,192,11376,1,2,0:0:0:0:
320,192,11676,1,2,0:0:0:0:
64,192,11976,1,2,0:0:0:0:
192,192,12276,1,2,0:0:0:0:
320,192,12576,1,2,0:0:0:0:
192,192,12876,1,2,0:0:0:0:
320,192,13176,1,2,0:0:0:0:
448,192,13476,1,2,0:0:0:0:
320,192,13626,1,2,0:0:0:0:
192,192,13776,1,2,0:0:0:0:
64,192,13926,1,2,0:0:0:0:
320,192,14076,128,2,14676:0:0:0:0:
64,192,14676,1,4,0:0:0:0:
448,192,14976,1,0,0:0:0:0:
64,192,15276,1,0,0:0:0:0:
320,192,15576,1,0,0:0:0:0:
448,192,15876,128,8,16176:0:0:0:0:
320,192,16176,128,8,16476:0:0:0:0:
192,192,16476,128,8,16776:0:0:0:0:
320,192,17076,128,8,17376:0:0:0:0:
64,192,17376,128,8,17676:0:0:0:0:
448,192,17676,128,8,17976:0:0:0:0:
192,192,18276,128,8,18576:0:0:0:0:
64,192,18576,128,8,18876:0:0:0:0:
448,192,18876,1,8,0:0:0:0:
320,192,19176,1,8,0:0:0:0:
64,192,19476,128,8,19776:0:0:0:0:
448,192,19776,128,8,20076:0:0:0:0:
64,192,20076,128,8,20376:0:0:0:0:
320,192,20376,1,0,0:0:0:0:
448,192,20676,128,8,20976:0:0:0:0:
192,192,20976,128,8,21276:0:0:0:0:
64,192,21276,128,8,21576:0:0:0:0:
320,192,21876,128,8,22176:0:0:0:0:
192,192,22176,128,8,22476:0:0:0:0:
320,192,22476,128,8,22776:0:0:0:0:
448,192,23076,128,8,23376:0:0:0:0:
192,192,23376,128,8,23676:0:0:0:0:
64,192,23676,128,8,23976:0:0:0:0:
192,192,23976,128,8,24276:0:0:0:0:
320,192,24276,128,8,24576:0:0:0:0:
448,192,24576,128,8,24876:0:0:0:0:
64,192,24876,128,8,25476:0:0:0:0:
320,192,24876,128,0,25476:0:0:0:0:
448,192,25476,1,2,0:0:0:0:
64,192,25776,1,12,0:0:0:0:
448,192,26076,1,12,0:0:0:0:
192,192,26376,1,12,0:0:0:0:
64,192,26676,1,12,0:0:0:0:
320,192,26976,1,12,0:0:0:0:
448,192,27276,1,12,0:0:0:0:
192,192,27576,1,12,0:0:0:0:
448,192,27876,1,12,0:0:0:0:
320,192,28176,1,12,0:0:0:0:
64,192,28476,1,12,0:0:0:0:
192,192,28776,1,12,0:0:0:0:
64,192,29076,1,4,0:0:0:0:
448,192,29076,1,0,0:0:0:0:
192,192,30276,1,2,0:0:0:0:
64,192,30576,1,8,0:0:0:0:
320,192,30576,1,0,0:0:0:0:
448,192,30876,1,2,0:0:0:0:
192,192,31176,1,8,0:0:0:0:
320,192,31176,1,0,0:0:0:0:
64,192,31476,1,2,0:0:0:0:
320,192,31776,1,8,0:0:0:0:
448,192,31776,1,0,0:0:0:0:
192,192,32076,1,2,0:0:0:0:
64,192,32376,1,8,0:0:0:0:
448,192,32376,1,0,0:0:0:0:
320,192,32676,1,2,0:0:0:0:
64,192,32976,1,8,0:0:0:0:
192,192,32976,1,0,0:0:0:0:
448,192,33276,1,2,0:0:0:0:
192,192,33576,1,8,0:0:0:0:
320,192,33576,1,0,0:0:0:0:
64,192,33876,1,2,0:0:0:0:
192,192,34176,1,8,0:0:0:0:
448,192,34176,1,0,0:0:0:0:
320,192,34476,1,2,0:0:0:0:
64,192,34776,1,8,0:0:0:0:
448,192,34776,1,0,0:0:0:0:
192,192,35076,1,2,0:0:0:0:
64,192,35376,1,8,0:0:0:0:
320,192,35376,1,0,0:0:0:0:
448,192,35676,1,2,0:0:0:0:
64,192,35976,1,8,0:0:0:0:
320,192,35976,1,0,0:0:0:0:
192,192,36276,1,2,0:0:0:0:
320,192,36576,1,8,0:0:0:0:
448,192,36576,1,0,0:0:0:0:
64,192,36876,1,2,0:0:0:0:
192,192,37176,1,8,0:0:0:0:
320,192,37176,1,0,0:0:0:0:
448,192,37476,1,2,0:0:0:0:
64,192,37776,1,8,0:0:0:0:
320,192,37776,1,0,0:0:0:0:
192,192,38076,1,2,0:0:0:0:
64,192,38376,1,8,0:0:0:0:
320,192,38376,1,0,0:0:0:0:
192,192,38676,1,2,0:0:0:0:
448,192,38976,1,0,0:0:0:0:
320,192,39276,1,0,0:0:0:0:
320,192,39576,1,0,0:0:0:0:
192,192,39876,1,2,0:0:0:0:
64,192,40176,1,8,0:0:0:0:
448,192,40176,1,0,0:0:0:0:
192,192,40476,1,2,0:0:0:0:
64,192,40776,1,8,0:0:0:0:
320,192,40776,1,0,0:0:0:0:
448,192,41076,1,2,0:0:0:0:
192,192,41376,1,8,0:0:0:0:
320,192,41376,1,0,0:0:0:0:
64,192,41676,1,2,0:0:0:0:
320,192,41976,1,8,0:0:0:0:
448,192,41976,1,0,0:0:0:0:
64,192,42276,1,2,0:0:0:0:
192,192,42576,1,8,0:0:0:0:
320,192,42576,1,0,0:0:0:0:
448,192,42876,1,2,0:0:0:0:
64,192,43176,1,8,0:0:0:0:
192,192,43176,1,0,0:0:0:0:
320,192,43476,1,2,0:0:0:0:
192,192,43776,1,8,0:0:0:0:
448,192,43776,1,0,0:0:0:0:
320,192,44076,1,2,0:0:0:0:
64,192,44376,1,8,0:0:0:0:
448,192,44376,1,0,0:0:0:0:
192,192,44676,1,2,0:0:0:0:
64,192,44976,1,8,0:0:0:0:
320,192,44976,1,0,0:0:0:0:
448,192,45276,1,2,0:0:0:0:
192,192,45576,1,8,0:0:0:0:
320,192,45576,1,0,0:0:0:0:
64,192,45876,1,2,0:0:0:0:
192,192,46176,1,8,0:0:0:0:
448,192,46176,1,0,0:0:0:0:
320,192,46476,1,2,0:0:0:0:
192,192,46776,1,8,0:0:0:0:
448,192,46776,1,0,0:0:0:0:
64,192,47076,1,2,0:0:0:0:
320,192,47376,1,8,0:0:0:0:
448,192,47376,1,0,0:0:0:0:
192,192,47676,1,2,0:0:0:0:
320,192,47976,1,8,0:0:0:0:
448,192,47976,1,0,0:0:0:0:
64,192,48276,1,2,0:0:0:0:
192,192,48576,1,8,0:0:0:0:
448,192,48576,1,0,0:0:0:0:
320,192,48876,1,2,0:0:0:0:
64,192,49176,1,8,0:0:0:0:
192,192,49176,1,0,0:0:0:0:
448,192,49476,128,2,51876:0:0:0:0:
192,192,49776,1,8,0:0:0:0:
64,192,50076,1,2,0:0:0:0:
320,192,50376,1,8,0:0:0:0:
192,192,50676,1,2,0:0:0:0:
64,192,50976,1,8,0:0:0:0:
320,192,51276,1,2,0:0:0:0:
192,192,51576,1,8,0:0:0:0:
64,192,51876,128,2,53076:0:0:0:0:
448,192,52176,1,8,0:0:0:0:
320,192,52476,1,2,0:0:0:0:
192,192,52776,1,8,0:0:0:0:
448,192,53076,128,2,54276:0:0:0:0:
320,192,53376,1,8,0:0:0:0:
192,192,53676,1,2,0:0:0:0:
64,192,53976,1,8,0:0:0:0:
320,192,54276,128,8,54576:0:0:0:0:
192,192,54876,128,8,55176:0:0:0:0:
448,192,55476,128,8,55776:0:0:0:0:
64,192,56076,128,8,56376:0:0:0:0:
448,192,56676,1,0,0:0:0:70:LR_Drum Low Long.wav
320,192,56976,1,0,0:0:0:70:LR_Drum Low Long.wav
64,192,57426,1,0,0:0:0:70:LR_Drum Low Long.wav
448,192,57876,1,0,0:0:0:70:LR_Drum Low Long.wav
192,192,58176,1,0,0:0:0:70:LR_Drum Low Long.wav
320,192,58626,1,0,0:0:0:70:LR_Drum Low Long.wav
64,192,59076,1,2,0:0:0:0:
320,192,59676,1,2,0:0:0:0:
64,192,59976,1,0,0:0:0:70:LR_Ride Long Low.wav
448,192,59976,1,0,0:0:0:0:
192,192,60276,1,2,0:0:0:0:
64,192,60876,1,2,0:0:0:0:
320,192,61176,1,0,0:0:0:70:LR_Ride Long Low.wav
448,192,61176,1,0,0:0:0:0:
192,192,61476,1,2,0:0:0:0:
64,192,62076,1,2,0:0:0:0:
320,192,62376,1,0,0:0:0:70:LR_Ride Long Low.wav
448,192,62376,1,0,0:0:0:0:
192,192,62676,1,0,0:0:0:0:
448,192,62976,128,0,63876:0:0:0:0:
320,192,63276,1,2,0:0:0:0:
64,192,63576,1,0,0:0:0:70:LR_Ride Long Low.wav
320,192,63876,1,2,0:0:0:0:
448,192,64476,1,2,0:0:0:0:
64,192,64776,1,0,0:0:0:70:LR_Ride Long Low.wav
320,192,64776,1,0,0:0:0:0:
192,192,65076,1,2,0:0:0:0:
448,192,65676,1,2,0:0:0:0:
192,192,65976,1,0,0:0:0:70:LR_Ride Long Low.wav
320,192,65976,1,0,0:0:0:0:
64,192,66276,1,2,0:0:0:0:
320,192,66876,1,2,0:0:0:0:
64,192,67176,1,0,0:0:0:70:LR_Ride Long Low.wav
448,192,67176,1,0,0:0:0:0:
192,192,67476,1,0,0:0:0:0:
448,192,67776,128,0,68676:0:0:0:0:
320,192,68076,1,2,0:0:0:0:
64,192,68376,1,0,0:0:0:70:LR_Ride Long Low.wav
192,192,68376,1,0,0:0:0:0:
320,192,68676,1,2,0:0:0:0:
320,192,69276,128,0,69876:0:0:0:0:
64,192,69876,1,4,0:0:0:0:
448,192,70176,1,4,0:0:0:0:
192,192,70476,128,4,71076:0:0:0:0:
64,192,71076,1,8,0:0:0:0:
320,192,71076,1,0,0:0:0:0:
448,192,71676,1,0,0:0:0:0:
64,192,71976,1,0,0:0:0:0:
192,192,72276,1,8,0:0:0:0:
320,192,72276,1,0,0:0:0:0:
64,192,72876,1,0,0:0:0:0:
192,192,73176,1,0,0:0:0:0:
448,192,73476,1,0,0:0:0:0:
64,192,73776,1,8,0:0:0:0:
320,192,73776,1,0,0:0:0:0:
192,192,74076,1,0,0:0:0:0:
64,192,74376,1,8,0:0:0:0:
320,192,74376,1,0,0:0:0:0:
448,192,74676,128,8,75276:0:0:0:0:
192,192,75276,128,8,75876:0:0:0:0:
64,192,75876,1,2,0:0:0:0:
320,192,76176,1,8,0:0:0:0:
448,192,76176,1,0,0:0:0:0:
192,192,76476,1,2,0:0:0:0:
64,192,76776,1,8,0:0:0:0:
320,192,76776,1,0,0:0:0:0:
192,192,77076,1,2,0:0:0:0:
320,192,77376,1,8,0:0:0:0:
448,192,77376,1,0,0:0:0:0:
64,192,77676,1,2,0:0:0:0:
192,192,77976,1,8,0:0:0:0:
448,192,77976,1,0,0:0:0:0:
320,192,78276,1,2,0:0:0:0:
64,192,78576,1,8,0:0:0:0:
448,192,78576,1,0,0:0:0:0:
192,192,78876,1,2,0:0:0:0:
64,192,79176,1,8,0:0:0:0:
320,192,79176,1,0,0:0:0:0:
448,192,79476,128,2,80076:0:0:0:0:
192,192,79776,1,8,0:0:0:0:
64,192,80076,128,2,80676:0:0:0:0:
320,192,80376,1,8,0:0:0:0:
448,192,80676,1,2,0:0:0:0:
192,192,80976,1,8,0:0:0:0:
320,192,80976,1,0,0:0:0:0:
64,192,81276,1,2,0:0:0:0:
320,192,81576,1,8,0:0:0:0:
448,192,81576,1,0,0:0:0:0:
192,192,81876,1,2,0:0:0:0:
64,192,82176,1,8,0:0:0:0:
320,192,82176,1,0,0:0:0:0:
448,192,82476,1,2,0:0:0:0:
64,192,82776,1,8,0:0:0:0:
192,192,82776,1,0,0:0:0:0:
320,192,83076,1,2,0:0:0:0:
192,192,83376,1,8,0:0:0:0:
448,192,83376,1,0,0:0:0:0:
320,192,83676,1,2,0:0:0:0:
64,192,83976,1,8,0:0:0:0:
448,192,83976,1,0,0:0:0:0:
192,192,84276,1,2,0:0:0:0:
64,192,84576,1,8,0:0:0:0:
320,192,84576,1,0,0:0:0:0:
448,192,84876,1,2,0:0:0:0:
192,192,85176,1,8,0:0:0:0:
320,192,85176,1,0,0:0:0:0:
64,192,85476,1,2,0:0:0:0:
448,192,85776,128,8,86076:0:0:0:0:
64,192,86076,128,2,86376:0:0:0:0:
448,192,86376,128,8,86676:0:0:0:0:
64,192,86676,128,2,86976:0:0:0:0:
448,192,86976,128,8,87276:0:0:0:0:
64,192,87276,128,2,87576:0:0:0:0:
192,192,87876,1,2,0:0:0:0:
64,192,88176,1,0,0:0:0:0:
448,192,88476,1,0,0:0:0:0:
320,192,88776,1,0,0:0:0:0:
192,192,89076,128,0,89376:0:0:0:0:
192,192,89676,1,0,0:0:0:0:
320,192,89976,1,0,0:0:0:0:
448,192,90276,128,8,90576:0:0:0:0:
320,192,90576,128,8,90876:0:0:0:0:
192,192,90876,128,8,91176:0:0:0:0:
320,192,91476,128,8,91776:0:0:0:0:
64,192,91776,128,8,92076:0:0:0:0:
448,192,92076,128,8,92376:0:0:0:0:
192,192,92676,128,8,92976:0:0:0:0:
64,192,92976,128,8,93276:0:0:0:0:
448,192,93276,1,8,0:0:0:0:
320,192,93576,1,8,0:0:0:0:
64,192,93876,128,8,94176:0:0:0:0:
448,192,94176,128,8,94476:0:0:0:0:
64,192,94476,128,8,94776:0:0:0:0:
320,192,94776,1,0,0:0:0:0:
448,192,95076,128,8,95376:0:0:0:0:
192,192,95376,128,8,95676:0:0:0:0:
64,192,95676,128,8,95976:0:0:0:0:
320,192,96276,128,8,96576:0:0:0:0:
192,192,96576,128,8,96876:0:0:0:0:
320,192,96876,128,8,97176:0:0:0:0:
448,192,97476,128,8,97776:0:0:0:0:
192,192,97776,128,8,98076:0:0:0:0:
64,192,98076,128,8,98376:0:0:0:0:
192,192,98376,128,8,98676:0:0:0:0:
320,192,98676,128,8,98976:0:0:0:0:
448,192,98976,128,8,99276:0:0:0:0:
64,192,99276,128,8,99876:0:0:0:0:
320,192,99276,128,0,99876:0:0:0:0:
448,192,99876,1,2,0:0:0:0:
320,192,100776,128,0,101076:0:0:0:0:
64,192,101076,128,2,101676:0:0:0:0:
192,192,101376,1,12,0:0:0:0:
320,192,101676,128,12,102276:0:0:0:0:
448,192,101976,1,12,0:0:0:0:
64,192,102276,128,12,102876:0:0:0:0:
192,192,102576,1,12,0:0:0:0:
320,192,102876,128,12,103476:0:0:0:0:
192,192,103176,1,12,0:0:0:0:
448,192,103476,128,12,104076:0:0:0:0:
64,192,103776,1,12,0:0:0:0:
192,192,104076,128,12,104676:0:0:0:0:
320,192,104376,1,12,0:0:0:0:
64,192,104676,128,12,105276:0:0:0:0:
320,192,104976,1,12,0:0:0:0:
448,192,105276,128,12,105876:0:0:0:0:
192,192,105576,1,12,0:0:0:0:
320,192,105876,128,12,106476:0:0:0:0:
448,192,106176,1,12,0:0:0:0:
64,192,106476,128,12,107076:0:0:0:0:
448,192,106776,1,12,0:0:0:0:
320,192,107076,128,12,107676:0:0:0:0:
192,192,107376,1,12,0:0:0:0:
64,192,107676,128,12,108276:0:0:0:0:
192,192,107976,1,12,0:0:0:0:
448,192,108276,128,12,109176:0:0:0:0:
320,192,109176,128,12,109476:0:0:0:0:
192,192,109476,1,4,0:0:0:0:
320,192,110676,128,4,110976:0:0:0:0:
192,192,110976,128,4,111276:0:0:0:0:
448,192,111276,128,4,111576:0:0:0:0:
64,192,111576,128,4,111876:0:0:0:0:
192,192,111876,128,4,112176:0:0:0:0:
320,192,112176,128,4,112476:0:0:0:0:
64,192,112476,128,4,112776:0:0:0:0:
320,192,112776,128,4,113076:0:0:0:0:
192,192,113076,128,4,113376:0:0:0:0:
320,192,113376,128,4,113676:0:0:0:0:
448,192,113676,128,4,113976:0:0:0:0:
192,192,113976,128,4,114276:0:0:0:0:
64,192,114276,128,4,114576:0:0:0:0:
192,192,114576,128,4,114876:0:0:0:0:
448,192,114876,128,4,115176:0:0:0:0:
320,192,115176,128,4,115476:0:0:0:0:
64,192,115476,128,4,115776:0:0:0:0:
192,192,115476,1,0,0:0:0:70:LR_Kick-long med bass.wav
320,192,115776,128,4,116076:0:0:0:0:
192,192,116076,128,4,116376:0:0:0:0:
448,192,116376,128,4,116676:0:0:0:0:
64,192,116676,128,4,116976:0:0:0:0:
320,192,116976,128,4,117276:0:0:0:0:
192,192,117276,128,4,117576:0:0:0:0:
448,192,117576,128,4,117876:0:0:0:0:
192,192,117876,128,4,118176:0:0:0:0:
320,192,118176,128,4,118476:0:0:0:0:
192,192,118476,128,4,118776:0:0:0:0:
448,192,118776,128,4,119076:0:0:0:0:
64,192,119076,1,4,0:0:0:0:
320,192,119376,1,0,0:0:0:70:LR_Drum Rpd x2.wav
192,192,119676,1,0,0:0:0:70:LR_Drum Rpd x2.wav
448,192,119976,1,0,0:0:0:70:LR_Drum Rpd x2.wav
320,192,120276,128,4,120576:0:0:0:0:
192,192,120576,128,4,120876:0:0:0:0:
448,192,120876,128,4,121176:0:0:0:0:
64,192,121176,128,4,121476:0:0:0:0:
192,192,121476,128,4,121776:0:0:0:0:
320,192,121776,128,4,122076:0:0:0:0:
64,192,122076,128,4,122376:0:0:0:0:
320,192,122376,128,4,122676:0:0:0:0:
192,192,122676,128,4,122976:0:0:0:0:
320,192,122976,128,4,123276:0:0:0:0:
448,192,123276,128,4,123576:0:0:0:0:
192,192,123576,128,4,123876:0:0:0:0:
64,192,123876,128,4,124176:0:0:0:0:
192,192,124176,128,4,124476:0:0:0:0:
448,192,124476,128,4,124776:0:0:0:0:
320,192,124776,128,4,125076:0:0:0:0:
64,192,125076,128,4,125376:0:0:0:0:
192,192,125076,1,0,0:0:0:70:LR_Kick-long med bass.wav
320,192,125376,128,4,125676:0:0:0:0:
192,192,125676,128,4,125976:0:0:0:0:
448,192,125976,128,4,126276:0:0:0:0:
64,192,126276,128,4,126576:0:0:0:0:
320,192,126576,128,4,126876:0:0:0:0:
192,192,126876,128,4,127176:0:0:0:0:
448,192,127176,128,4,127476:0:0:0:0:
192,192,127476,128,4,127776:0:0:0:0:
320,192,127776,128,4,128076:0:0:0:0:
192,192,128076,128,4,128376:0:0:0:0:
448,192,128376,128,4,128676:0:0:0:0:
320,192,128676,1,4,0:0:0:0:
64,192,128976,1,0,0:0:0:0:
192,192,129276,1,0,0:0:0:0:
192,192,129576,1,0,0:0:0:0:
64,192,129876,128,2,131076:0:0:0:0:
320,192,130476,1,8,0:0:0:0:
448,192,130476,1,0,0:0:0:0:
448,192,131076,128,2,132276:0:0:0:0:
64,192,131676,1,8,0:0:0:0:
320,192,131676,1,0,0:0:0:0:
192,192,132276,128,2,133476:0:0:0:0:
64,192,132876,1,8,0:0:0:0:
320,192,132876,1,0,0:0:0:0:
320,192,133476,128,2,134376:0:0:0:0:
64,192,134076,1,8,0:0:0:0:
192,192,134076,1,0,0:0:0:0:
448,192,134376,128,0,134676:0:0:0:0:
64,192,134676,128,2,135876:0:0:0:0:
192,192,135276,1,8,0:0:0:0:
448,192,135276,1,0,0:0:0:0:
448,192,135876,128,2,137076:0:0:0:0:
192,192,136476,1,8,0:0:0:0:
320,192,136476,1,0,0:0:0:0:
320,192,137076,128,2,138276:0:0:0:0:
192,192,137676,1,8,0:0:0:0:
448,192,137676,1,0,0:0:0:0:
192,192,138276,128,2,139476:0:0:0:0:
64,192,138876,1,8,0:0:0:0:
448,192,138876,1,0,0:0:0:0:
448,192,139476,1,4,0:0:0:0:
64,192,139776,1,4,0:0:0:0:
192,192,139776,1,0,0:0:0:0:
448,192,140076,1,4,0:0:0:0:
64,192,140376,1,4,0:0:0:0:
320,192,140376,1,0,0:0:0:0:
448,192,140676,1,4,0:0:0:0:
192,192,140976,1,4,0:0:0:0:
320,192,140976,1,0,0:0:0:0:
64,192,141276,1,4,0:0:0:0:
192,192,141576,1,4,0:0:0:0:
448,192,141576,1,0,0:0:0:70:LR_Clap kick.wav
320,192,141876,1,4,0:0:0:0:
64,192,142176,1,4,0:0:0:0:
448,192,142176,1,0,0:0:0:0:
192,192,142476,1,4,0:0:0:0:
64,192,142776,1,4,0:0:0:0:
320,192,142776,1,0,0:0:0:0:
448,192,143076,1,4,0:0:0:0:
64,192,143376,1,4,0:0:0:0:
192,192,143376,1,0,0:0:0:0:
320,192,143676,1,4,0:0:0:0:
192,192,143826,1,0,0:0:0:70:LR_Hat Synth.wav
64,192,143976,1,4,0:0:0:0:
448,192,143976,1,0,0:0:0:70:LR_Clap kick.wav
448,192,144276,128,2,144576:0:0:0:0:
192,192,144576,1,0,0:0:0:0:
320,192,144876,128,2,145176:0:0:0:0:
64,192,145176,1,0,0:0:0:0:
448,192,145476,128,2,145776:0:0:0:0:
320,192,145776,1,0,0:0:0:70:LR_Drum Rpd x2.wav
192,192,146076,128,8,146376:0:0:0:0:
320,192,146376,1,0,0:0:0:70:LR_Drum Rpd x2.wav
448,192,146676,1,2,0:0:0:0:
64,192,146976,1,0,0:0:0:70:LR_Drum Low Long.wav
320,192,147576,1,0,0:0:0:70:LR_Drum Low Long.wav
448,192,147876,1,0,0:0:0:70:LR_Drum Low Long.wav
192,192,148176,1,0,0:0:0:70:LR_Drum Low Long.wav
64,192,148776,1,0,0:0:0:70:LR_Drum Low Long.wav
320,192,149076,1,2,0:0:0:0:
192,192,149676,1,2,0:0:0:0:
64,192,149976,1,0,0:0:0:70:LR_Ride Long Low.wav
448,192,149976,1,0,0:0:0:0:
320,192,150276,1,2,0:0:0:0:
64,192,150876,1,2,0:0:0:0:
320,192,151176,1,0,0:0:0:70:LR_Ride Long Low.wav
448,192,151176,1,0,0:0:0:0:
192,192,151476,1,2,0:0:0:0:
448,192,152076,1,2,0:0:0:0:
64,192,152376,1,0,0:0:0:70:LR_Ride Long Low.wav
192,192,152376,1,0,0:0:0:0:
320,192,152676,1,0,0:0:0:0:
64,192,153276,1,2,0:0:0:0:
192,192,153576,1,0,0:0:0:70:LR_Ride Long Low.wav
448,192,153576,1,0,0:0:0:0:
64,192,153876,128,2,154476:0:0:0:0:
448,192,154476,1,2,0:0:0:0:
192,192,154776,1,0,0:0:0:70:LR_Ride Long Low.wav
320,192,154776,1,0,0:0:0:0:
448,192,155076,128,2,155676:0:0:0:0:
64,192,155676,1,2,0:0:0:0:
320,192,155976,1,0,0:0:0:70:LR_Ride Long Low.wav
448,192,155976,1,0,0:0:0:0:
192,192,156276,128,2,156876:0:0:0:0:
64,192,156876,1,2,0:0:0:0:
192,192,157176,1,0,0:0:0:70:LR_Ride Long Low.wav
320,192,157176,1,0,0:0:0:0:
448,192,157476,128,0,158076:0:0:0:0:
192,192,157776,1,0,0:0:0:0:
64,192,158076,1,2,0:0:0:0:
192,192,158376,1,0,0:0:0:70:LR_Ride Long Low.wav
320,192,158376,1,0,0:0:0:0:
448,192,158676,1,2,0:0:0:0:
448,192,159276,128,0,159876:0:0:0:0:
64,192,159876,1,4,0:0:0:0:
448,192,160176,1,4,0:0:0:0:
64,192,160476,128,4,161076:0:0:0:0:
320,192,161076,1,8,0:0:0:0:
192,192,161676,1,0,0:0:0:0:
320,192,161976,1,0,0:0:0:0:
64,192,162276,1,8,0:0:0:0:
192,192,162276,1,0,0:0:0:0:
448,192,162876,1,0,0:0:0:0:
64,192,163176,1,0,0:0:0:0:
320,192,163476,1,0,0:0:0:0:
64,192,163776,1,8,0:0:0:0:
448,192,163776,1,0,0:0:0:0:
192,192,164076,1,0,0:0:0:0:
64,192,164376,1,8,0:0:0:0:
448,192,164376,1,0,0:0:0:0:
320,192,164676,128,8,165276:0:0:0:0:
192,192,165276,128,8,165876:0:0:0:0:
448,192,165876,1,2,0:0:0:0:
192,192,166176,1,8,0:0:0:0:
320,192,166176,1,0,0:0:0:0:
64,192,166476,1,2,0:0:0:0:
192,192,166776,1,8,0:0:0:0:
448,192,166776,1,0,0:0:0:0:
320,192,167076,1,2,0:0:0:0:
64,192,167376,1,8,0:0:0:0:
448,192,167376,1,0,0:0:0:0:
192,192,167676,1,2,0:0:0:0:
64,192,167976,1,8,0:0:0:0:
320,192,167976,1,0,0:0:0:0:
192,192,168276,1,2,0:0:0:0:
320,192,168576,1,8,0:0:0:0:
448,192,168576,1,0,0:0:0:0:
64,192,168876,1,2,0:0:0:0:
192,192,169176,1,8,0:0:0:0:
448,192,169176,1,0,0:0:0:0:
320,192,169476,1,2,0:0:0:0:
64,192,169776,1,8,0:0:0:0:
448,192,169776,128,0,170376:0:0:0:0:
192,192,170076,1,2,0:0:0:0:
320,192,170376,1,8,0:0:0:0:
192,192,170676,1,2,0:0:0:0:
64,192,170976,1,8,0:0:0:0:
320,192,170976,1,0,0:0:0:0:
448,192,171276,1,2,0:0:0:0:
192,192,171576,1,8,0:0:0:0:
320,192,171576,1,0,0:0:0:0:
64,192,171876,1,2,0:0:0:0:
192,192,172176,1,8,0:0:0:0:
448,192,172176,1,0,0:0:0:0:
320,192,172476,1,2,0:0:0:0:
64,192,172776,1,8,0:0:0:0:
448,192,172776,1,0,0:0:0:0:
192,192,173076,1,2,0:0:0:0:
64,192,173376,1,8,0:0:0:0:
320,192,173376,1,0,0:0:0:0:
192,192,173676,1,2,0:0:0:0:
320,192,173976,1,8,0:0:0:0:
448,192,173976,1,0,0:0:0:0:
64,192,174276,1,2,0:0:0:0:
192,192,174576,1,8,0:0:0:0:
448,192,174576,1,0,0:0:0:0:
320,192,174876,1,2,0:0:0:0:
64,192,175176,1,8,0:0:0:0:
192,192,175176,1,0,0:0:0:0:
448,192,175476,1,2,0:0:0:0:
192,192,175776,1,8,0:0:0:0:
320,192,175776,1,0,0:0:0:0:
448,192,176076,1,2,0:0:0:0:
64,192,176376,1,8,0:0:0:0:
320,192,176376,1,0,0:0:0:0:
192,192,176676,1,2,0:0:0:0:
320,192,176976,1,8,0:0:0:0:
448,192,176976,1,0,0:0:0:0:
192,192,177276,1,2,0:0:0:0:
64,192,177576,1,8,0:0:0:0:
320,192,177576,1,0,0:0:0:0:
448,192,177876,1,2,0:0:0:0:
64,192,178176,1,0,0:0:0:0:
448,192,178476,1,0,0:0:0:0:
192,192,178776,1,0,0:0:0:0:
320,192,179076,128,0,179676:0:0:0:0:
64,192,179676,128,0,180276:0:0:0:0:
448,192,180276,1,2,0:0:0:0:
192,192,180576,128,0,183276:0:0:0:0:
64,192,184776,1,0,0:0:0:0:
320,192,185076,1,0,0:0:0:0:
448,192,185376,1,0,0:0:0:0:
320,192,185676,1,0,0:0:0:0:
64,192,185976,1,0,0:0:0:70:LR_Sleigh Bell.wav
192,192,186276,1,0,0:0:0:0:
64,192,186576,1,0,0:0:0:0:
448,192,186876,1,0,0:0:0:0:
320,192,187026,128,0,187326:0:0:0:0:
64,192,187476,1,0,0:0:0:0:
320,192,187776,1,0,0:0:0:0:
448,192,188076,1,0,0:0:0:0:
192,192,188376,1,0,0:0:0:70:LR_Sleigh Bell.wav
320,192,188676,128,0,189276:0:0:0:0:
448,192,189576,1,0,0:0:0:0:
320,192,189876,1,0,0:0:0:0:
64,192,190176,1,0,0:0:0:0:
192,192,190476,1,0,0:0:0:0:
448,192,190776,1,0,0:0:0:70:LR_Sleigh Bell.wav
320,192,191076,1,0,0:0:0:0:
448,192,191376,1,0,0:0:0:0:
64,192,191676,1,0,0:0:0:0:
192,192,191976,1,0,0:0:0:0:
448,192,192276,1,0,0:0:0:0:
320,192,192576,1,0,0:0:0:0:
192,192,192876,1,0,0:0:0:0:
448,192,193176,1,0,0:0:0:70:LR_Sleigh Bell.wav
320,192,193476,128,0,194676:0:0:0:0:
192,192,195876,128,0,197076:0:0:0:0:
320,192,197076,1,0,0:0:0:70:LR_Kick-long med bass.wav
64,192,198276,1,0,0:0:0:0:
192,192,199476,1,0,0:0:0:0:
320,192,200676,1,4,0:0:0:0:
64,192,200976,1,4,0:0:0:0:
192,192,201276,128,4,201876:0:0:0:0:
448,192,201876,1,8,0:0:0:0:
192,192,202476,1,0,0:0:0:0:
448,192,202776,1,0,0:0:0:0:
64,192,203076,1,8,0:0:0:0:
192,192,203076,1,0,0:0:0:0:
448,192,203676,1,0,0:0:0:0:
64,192,203976,1,0,0:0:0:0:
320,192,204276,1,0,0:0:0:0:
64,192,204576,1,8,0:0:0:0:
448,192,204576,1,0,0:0:0:0:
192,192,204876,1,0,0:0:0:0:
320,192,205176,1,8,0:0:0:0:
448,192,205176,1,0,0:0:0:0:
64,192,205476,128,8,206076:0:0:0:0:
448,192,206076,128,8,206676:0:0:0:0:
64,192,206676,1,2,0:0:0:0:
192,192,206976,1,8,0:0:0:0:
320,192,206976,1,0,0:0:0:0:
448,192,207276,1,2,0:0:0:0:
64,192,207576,1,8,0:0:0:0:
320,192,207576,1,0,0:0:0:0:
192,192,207876,1,2,0:0:0:0:
64,192,208176,1,8,0:0:0:0:
448,192,208176,1,0,0:0:0:0:
320,192,208476,1,2,0:0:0:0:
192,192,208776,1,8,0:0:0:0:
448,192,208776,1,0,0:0:0:0:
320,192,209076,1,2,0:0:0:0:
64,192,209376,1,8,0:0:0:0:
192,192,209376,1,0,0:0:0:0:
448,192,209676,1,2,0:0:0:0:
64,192,209976,1,8,0:0:0:0:
320,192,209976,1,0,0:0:0:0:
320,192,210276,128,2,210876:0:0:0:0:
448,192,210276,1,0,0:0:0:0:
192,192,210576,1,8,0:0:0:0:
64,192,210876,128,2,211476:0:0:0:0:
320,192,211176,1,8,0:0:0:0:
448,192,211476,1,2,0:0:0:0:
192,192,211776,1,8,0:0:0:0:
320,192,211776,1,0,0:0:0:0:
448,192,212076,1,2,0:0:0:0:
64,192,212376,1,8,0:0:0:0:
192,192,212376,1,0,0:0:0:0:
448,192,212676,1,2,0:0:0:0:
64,192,212976,1,8,0:0:0:0:
320,192,212976,1,0,0:0:0:0:
192,192,213276,1,2,0:0:0:0:
320,192,213576,1,8,0:0:0:0:
448,192,213576,1,0,0:0:0:0:
64,192,213876,1,2,0:0:0:0:
192,192,214176,1,8,0:0:0:0:
448,192,214176,1,0,0:0:0:0:
64,192,214476,1,2,0:0:0:0:
320,192,214776,1,8,0:0:0:0:
448,192,214776,1,0,0:0:0:0:
64,192,215076,1,2,0:0:0:0:
192,192,215376,1,8,0:0:0:0:
320,192,215376,1,0,0:0:0:0:
448,192,215676,1,2,0:0:0:0:
64,192,215976,1,8,0:0:0:0:
192,192,215976,1,0,0:0:0:0:
320,192,216276,1,2,0:0:0:0:
448,192,216576,128,4,216876:0:0:0:0:
64,192,216876,128,2,217176:0:0:0:0:
448,192,217176,128,4,217476:0:0:0:0:
64,192,217476,128,2,217776:0:0:0:0:
448,192,217776,128,4,218076:0:0:0:0:
64,192,218076,128,2,218376:0:0:0:0:
320,192,218676,1,2,0:0:0:0:
64,192,218976,1,0,0:0:0:0:
448,192,219276,1,0,0:0:0:0:
320,192,219576,1,0,0:0:0:0:
192,192,219876,128,0,220176:0:0:0:0:
320,192,220476,1,0,0:0:0:0:
64,192,220776,1,0,0:0:0:0:
448,192,221076,128,8,221376:0:0:0:0:
320,192,221376,128,8,221676:0:0:0:0:
192,192,221676,128,8,221976:0:0:0:0:
320,192,222276,128,8,222576:0:0:0:0:
64,192,222576,128,8,222876:0:0:0:0:
448,192,222876,128,8,223176:0:0:0:0:
192,192,223476,128,8,223776:0:0:0:0:
64,192,223776,128,8,224076:0:0:0:0:
448,192,224076,1,8,0:0:0:0:
320,192,224376,1,8,0:0:0:0:
64,192,224676,128,8,224976:0:0:0:0:
448,192,224976,128,8,225276:0:0:0:0:
64,192,225276,128,8,225576:0:0:0:0:
320,192,225576,1,0,0:0:0:0:
448,192,225876,128,8,226176:0:0:0:0:
192,192,226176,128,8,226476:0:0:0:0:
64,192,226476,128,8,226776:0:0:0:0:
320,192,227076,128,8,227376:0:0:0:0:
192,192,227376,128,8,227676:0:0:0:0:
320,192,227676,128,8,227976:0:0:0:0:
448,192,228276,128,8,228576:0:0:0:0:
192,192,228576,128,8,228876:0:0:0:0:
64,192,228876,128,8,229176:0:0:0:0:
192,192,229176,128,8,229476:0:0:0:0:
320,192,229476,128,8,229776:0:0:0:0:
448,192,229776,128,8,230076:0:0:0:0:
64,192,230076,128,8,230676:0:0:0:0:
320,192,230076,128,0,230676:0:0:0:0:
192,192,230826,1,0,0:0:0:70:LR_Drum Rpd x2.wav
320,192,230976,128,8,235403:0:0:0:0:
