osu file format v14

[General]
AudioFilename: audio.mp3
AudioLeadIn: 0
PreviewTime: 160430
Countdown: 0
SampleSet: None
StackLeniency: 0.2
Mode: 0
LetterboxInBreaks: 0
WidescreenStoryboard: 0

[Editor]
Bookmarks: 15905,25505,30305,39905,49505,59105,70505,90305,101105,110705,129905,139505,149105,160505,180305,196505,200705,221105,231005
DistanceSpacing: 0.5
BeatDivisor: 4
GridSize: 4
TimelineZoom: 2.2

[Metadata]
Title:Mazare Party
TitleUnicode:Mazare Party
Artist:MAZARE (Camellia feat. kradness, Nanahira and yukacco)
ArtistUnicode:MAZARE(かめりあ,kradness,ななひら,Yukacco)
Creator:Midge
Version:midgET
Source:
Tags:
BeatmapID:1128910
BeatmapSetID:532828

[Difficulty]
HPDrainRate:6
CircleSize:4
OverallDifficulty:8
ApproachRate:9.4
SliderMultiplier:2.1
SliderTickRate:1

[Events]
//Background and Video events
0,0,"SAKURA.—.Japan.in.the.Box.full.2037766.jpg",0,0
//Break Periods
2,180505,184265
//Storyboard Layer 0 (Background)
//Storyboard Layer 1 (Fail)
//Storyboard Layer 2 (Pass)
//Storyboard Layer 3 (Foreground)
//Storyboard Sound Samples

[TimingPoints]
305,300,4,1,0,75,1,0
8555,-200,4,1,0,75,0,0
9005,-100,4,1,0,75,0,0
9305,-133.333333333333,4,1,0,75,0,0
9605,-80,4,1,0,75,0,0
11405,-133.333333333333,4,1,0,75,0,0
14705,-200,4,1,0,75,0,0
15905,-100,4,1,0,75,0,1
15980,-100,4,1,0,75,0,0
16205,-80,4,1,0,75,0,0
16505,-66.6666666666667,4,1,0,75,0,0
17105,-100,4,1,0,75,0,0
17405,-80,4,1,0,75,0,0
17705,-66.6666666666667,4,1,0,75,0,0
18305,-100,4,1,0,75,0,0
20405,-133.333333333333,4,1,0,75,0,0
21005,-80,4,1,0,75,0,0
21305,-66.6666666666667,4,1,0,75,0,0
21605,-200,4,1,0,75,0,0
22505,-100,4,1,0,75,0,0
22805,-200,4,1,0,75,0,0
23105,-100,4,1,0,75,0,0
24605,-80,4,1,0,75,0,0
24905,-66.6666666666667,4,1,0,75,0,0
25505,-200,4,1,0,75,0,0
26105,-133.333333333333,4,1,0,75,0,0
26705,-100,4,1,0,75,0,0
27305,-80,4,1,0,75,0,0
29105,-133.333333333333,4,1,0,75,0,0
29405,-100,4,1,0,75,0,0
30305,-100,4,1,0,75,0,1
30380,-100,4,1,0,75,0,0
30605,-80,4,1,0,75,0,0
33605,-66.6666666666667,4,1,0,75,0,0
34955,-100,4,1,0,75,0,0
35405,-80,4,1,0,75,0,0
35705,-66.6666666666667,4,1,0,75,0,0
37655,-133.333333333333,4,1,0,75,0,0
37955,-100,4,1,0,75,0,0
38255,-80,4,1,0,75,0,0
49505,-66.6666666666667,4,1,0,75,0,0
49805,-80,4,1,0,75,0,0
54305,-100,4,1,0,75,0,0
54905,-80,4,1,0,75,0,0
55505,-66.6666666666667,4,1,0,75,0,0
56105,-57.1428571428571,4,1,0,75,0,0
56705,-133.333333333333,4,1,0,75,0,0
59105,-100,4,1,0,75,0,0
60005,-66.6666666666667,4,1,0,75,0,0
60305,-100,4,1,0,75,0,0
61205,-66.6666666666667,4,1,0,75,0,0
61505,-100,4,1,0,75,0,0
62405,-66.6666666666667,4,1,0,75,0,0
62705,-100,4,1,0,75,0,0
63305,-80,4,1,0,75,0,0
63905,-100,4,1,0,75,0,0
64805,-66.6666666666667,4,1,0,75,0,0
65105,-100,4,1,0,75,0,0
66005,-66.6666666666667,4,1,0,75,0,0
66305,-100,4,1,0,75,0,0
66905,-80,4,1,0,75,0,0
67505,-66.6666666666667,4,1,0,75,0,0
67805,-133.333333333333,4,1,0,75,0,0
68105,-200,4,1,0,75,0,0
70505,-133.333333333333,4,1,0,75,0,0
71105,-100,4,1,0,75,0,1
71180,-100,4,1,0,75,0,0
71405,-66.6666666666667,4,1,0,75,0,0
71705,-133.333333333333,4,1,0,75,0,0
72305,-100,4,1,0,75,0,1
72380,-100,4,1,0,75,0,0
72605,-66.6666666666667,4,1,0,75,0,0
72905,-133.333333333333,4,1,0,75,0,0
73505,-200,4,1,0,75,0,0
73805,-66.6666666666667,4,1,0,75,0,1
74105,-133.333333333333,4,1,0,75,0,1
74405,-57.1428571428571,4,1,0,75,0,1
74855,-100,4,1,0,75,0,1
75830,-100,4,1,0,75,0,0
75905,-66.6666666666667,4,1,0,75,0,1
76505,-100,4,1,0,75,0,1
80705,-66.6666666666667,4,1,0,75,0,1
81005,-100,4,1,0,75,0,1
81605,-80,4,1,0,75,0,1
82205,-66.6666666666667,4,1,0,75,0,1
83105,-100,4,1,0,75,0,1
85505,-66.6666666666667,4,1,0,75,0,1
85805,-100,4,1,0,75,0,1
86405,-80,4,1,0,75,0,1
87005,-66.6666666666667,4,1,0,75,0,1
87905,-200,4,1,0,75,0,0
90305,-100,4,1,0,75,0,1
90380,-66.6666666666667,4,1,0,75,0,0
90530,-80,4,1,0,75,0,0
90905,-66.6666666666667,4,1,0,75,0,0
91505,-100,4,1,0,75,0,0
91805,-80,4,1,0,75,0,0
92105,-66.6666666666667,4,1,0,75,0,0
92705,-100,4,1,0,75,0,0
94805,-133.333333333333,4,1,0,75,0,0
96005,-200,4,1,0,75,0,0
97055,-100,4,1,0,75,0,0
97205,-133.333333333333,4,1,0,75,0,0
97505,-66.6666666666667,4,1,0,75,0,0
98705,-100,4,1,0,75,0,0
99005,-80,4,1,0,75,0,0
99305,-66.6666666666667,4,1,0,75,0,0
99905,-200,4,1,0,75,0,0
101705,-133.333333333333,4,1,0,75,0,0
102305,-100,4,1,0,75,0,0
102905,-80,4,1,0,75,0,0
103505,-133.333333333333,4,1,0,75,0,0
103805,-100,4,1,0,75,0,0
105905,-133.333333333333,4,1,0,75,0,0
106505,-100,4,1,0,75,0,0
107105,-80,4,1,0,75,0,0
107705,-66.6666666666667,4,1,0,75,0,0
110405,-50,4,1,0,75,0,0
110705,-66.6666666666667,4,1,0,75,0,1
110780,-100,4,1,0,75,0,0
111455,-80,4,1,0,75,0,0
111755,-66.6666666666667,4,1,0,75,0,0
112505,-100,4,1,0,75,0,0
112805,-66.6666666666667,4,1,0,75,0,0
113255,-133.333333333333,4,1,0,75,0,0
113555,-100,4,1,0,75,0,0
113855,-80,4,1,0,75,0,0
114155,-66.6666666666667,4,1,0,75,0,0
114605,-100,4,1,0,75,0,0
115205,-80,4,1,0,75,0,0
115505,-66.6666666666667,4,1,0,75,0,0
115805,-100,4,1,0,75,0,0
116255,-80,4,1,0,75,0,0
116555,-66.6666666666667,4,1,0,75,0,0
117905,-100,4,1,0,75,0,0
118505,-66.6666666666667,4,1,0,75,0,0
119255,-100,4,1,0,75,0,0
120305,-66.6666666666667,4,1,0,75,0,1
120380,-100,4,1,0,75,0,0
120605,-80,4,1,0,75,0,0
120905,-100,4,1,0,75,0,0
121205,-66.6666666666667,4,1,0,75,0,0
122105,-100,4,1,0,75,0,0
122405,-80,4,1,0,75,0,0
122705,-66.6666666666667,4,1,0,75,0,0
123305,-100,4,1,0,75,0,0
123605,-80,4,1,0,75,0,0
125255,-100,4,1,0,75,0,0
126305,-133.333333333333,4,1,0,75,0,0
126605,-200,4,1,0,75,0,0
126905,-66.6666666666667,4,1,0,75,0,0
127205,-66.6666666666667,4,1,0,75,0,0
128105,-50,4,1,0,75,0,0
129905,-100,4,1,0,75,0,1
129980,-100,4,1,0,75,0,0
131705,-50,4,1,0,75,0,0
132305,-100,4,1,0,75,0,0
134705,-80,4,1,0,75,0,0
135005,-100,4,1,0,75,0,0
135305,-66.6666666666667,4,1,0,75,0,0
135905,-100,4,1,0,75,0,0
136505,-66.6666666666667,4,1,0,75,0,0
139505,-80,4,1,0,75,0,0
144455,-133.333333333333,4,1,0,75,0,0
145055,-100,4,1,0,75,0,0
145655,-80,4,1,0,75,0,0
146255,-66.6666666666667,4,1,0,75,0,0
146705,-133.333333333333,4,1,0,75,0,0
149105,-100,4,1,0,75,0,0
150005,-66.6666666666667,4,1,0,75,0,0
150905,-100,4,1,0,75,0,0
151205,-66.6666666666667,4,1,0,75,0,0
151505,-100,4,1,0,75,0,0
152405,-66.6666666666667,4,1,0,75,0,0
152705,-100,4,1,0,75,0,0
153605,-66.6666666666667,4,1,0,75,0,0
153905,-100,4,1,0,75,0,0
154805,-66.6666666666667,4,1,0,75,0,0
155705,-100,4,1,0,75,0,0
156005,-66.6666666666667,4,1,0,75,0,0
156305,-100,4,1,0,75,0,0
156905,-80,4,1,0,75,0,0
157505,-66.6666666666667,4,1,0,75,0,0
157805,-80,4,1,0,75,0,0
158105,-100,4,1,0,75,0,0
161105,-100,4,1,0,75,0,1
161180,-100,4,1,0,75,0,0
161405,-66.6666666666667,4,1,0,75,0,0
161705,-133.333333333333,4,1,0,75,0,0
162305,-100,4,1,0,75,0,1
162380,-100,4,1,0,75,0,0
162605,-66.6666666666667,4,1,0,75,0,0
162905,-133.333333333333,4,1,0,75,0,0
163505,-200,4,1,0,75,0,0
163805,-80,4,1,0,75,0,1
164105,-133.333333333333,4,1,0,75,0,1
164405,-66.6666666666667,4,1,0,75,0,1
164855,-100,4,1,0,75,0,1
165830,-100,4,1,0,75,0,0
165905,-100,4,1,0,75,0,1
170705,-66.6666666666667,4,1,0,75,0,1
171005,-100,4,1,0,75,0,1
171605,-80,4,1,0,75,0,1
172205,-66.6666666666667,4,1,0,75,0,1
173105,-100,4,1,0,75,0,1
175505,-66.6666666666667,4,1,0,75,0,1
175805,-100,4,1,0,75,0,1
176405,-80,4,1,0,75,0,1
177005,-66.6666666666667,4,1,0,75,0,1
177755,-100,4,1,0,75,0,1
177905,-133.333333333333,4,1,0,75,0,0
177905,-133.333333333333,4,1,0,75,0,0
184805,-200,4,1,0,75,0,0
192905,-166.666666666667,4,1,0,75,0,0
193505,-142.857142857143,4,1,0,75,0,0
196505,-133.333333333333,4,1,0,75,0,0
201905,-100,4,1,0,75,0,1
201980,-100,4,1,0,75,0,0
202205,-66.6666666666667,4,1,0,75,0,0
202505,-133.333333333333,4,1,0,75,0,0
203105,-100,4,1,0,75,0,1
203180,-100,4,1,0,75,0,0
203405,-66.6666666666667,4,1,0,75,0,0
203705,-133.333333333333,4,1,0,75,0,0
204305,-200,4,1,0,75,0,0
204605,-80,4,1,0,75,0,1
204905,-133.333333333333,4,1,0,75,0,1
205205,-66.6666666666667,4,1,0,75,0,1
206630,-100,4,1,0,75,0,0
206705,-100,4,1,0,75,0,1
208205,-80,4,1,0,75,0,1
209255,-100,4,1,0,75,0,1
211505,-66.6666666666667,4,1,0,75,0,1
211805,-100,4,1,0,75,0,1
212405,-80,4,1,0,75,0,1
213005,-66.6666666666667,4,1,0,75,0,1
214205,-100,4,1,0,75,0,1
216305,-66.6666666666667,4,1,0,75,0,1
216605,-100,4,1,0,75,0,1
217205,-80,4,1,0,75,0,1
217805,-66.6666666666667,4,1,0,75,0,1
218405,-100,4,1,0,75,0,1
218705,-200,4,1,0,75,0,0
220805,-133.333333333333,4,1,0,75,0,0
221105,-100,4,1,0,75,0,1
221180,-80,4,1,0,75,0,0
221705,-66.6666666666667,4,1,0,75,0,0
222305,-100,4,1,0,75,0,0
222605,-80,4,1,0,75,0,0
222905,-66.6666666666667,4,1,0,75,0,0
223505,-100,4,1,0,75,0,0
225005,-80,4,1,0,75,0,0
225305,-66.6666666666667,4,1,0,75,0,0
225605,-100,4,1,0,75,0,0
225755,-80,4,1,0,75,0,0
226805,-200,4,1,0,75,0,0
227705,-100,4,1,0,75,0,0
228005,-200,4,1,0,75,0,0
228305,-100,4,1,0,75,0,0
228605,-80,4,1,0,75,0,0
228905,-66.6666666666667,4,1,0,75,0,0
229505,-100,4,1,0,75,0,0
229805,-80,4,1,0,75,0,0
230105,-66.6666666666667,4,1,0,75,0,0
230555,-100,4,1,0,75,0,0

[HitObjects]
256,96,1355,5,0,0:0:0:0:
256,288,1505,1,0,0:0:0:0:
256,192,1523,12,0,5030,0:0:0:0:
256,288,5105,5,0,0:0:0:0:
256,96,5255,1,0,0:0:0:0:
230,319,5405,5,0,0:0:0:0:
305,67,5555,1,0,0:0:0:0:
165,332,5705,5,0,0:0:0:0:
186,316,5780,1,0,0:0:0:0:
206,285,5855,1,0,0:0:0:0:
219,239,5930,1,0,0:0:0:0:
197,191,6005,5,0,0:0:0:0:
204,128,6080,1,0,0:0:0:0:
251,71,6155,1,0,0:0:0:0:
329,57,6230,1,0,0:0:0:0:
405,94,6305,6,0,B|409:106|393:136|346:114|330:62|382:14|432:14|495:68|482:116|469:141,1,210
358,306,6905,5,0,0:0:0:0:
324,330,7205,1,0,0:0:0:0:
146,282,7505,6,0,B|138:265|112:244|112:244|148:261|205:270|292:234,1,210
346,72,8105,5,0,0:0:0:0:
322,104,8405,1,0,0:0:0:0:
232,176,8705,6,0,P|168:195|144:188,1,78.75
101,196,9005,6,0,P|179:184|261:248,1,157.5
377,246,9305,6,0,L|356:104,1,118.125004506111
387,86,9605,6,0,L|365:299,1,196.875
283,348,9905,5,0,0:0:0:0:
181,199,10055,2,0,L|149:125,1,65.625
30,298,10205,1,0,0:0:0:0:
277,176,10355,1,0,0:0:0:0:
61,96,10505,5,0,0:0:0:0:
139,265,10655,1,0,0:0:0:0:
273,94,10805,1,0,0:0:0:0:
46,195,10955,1,0,0:0:0:0:
292,56,11105,6,0,P|360:34|442:52,1,131.25
324,183,11405,6,0,P|267:188|240:181,1,78.7500030040742
180,107,11705,1,0,0:0:0:0:
160,94,12005,2,0,L|137:15,1,78.7500030040742
55,141,12305,6,0,L|63:302,2,157.500006008148
131,71,13055,1,0,0:0:0:0:
209,133,13205,2,0,P|242:157|298:172,1,78.7500030040742
383,156,13505,5,0,0:0:0:0:
446,138,13655,1,0,0:0:0:0:
355,226,13805,1,0,0:0:0:0:
325,102,13955,1,0,0:0:0:0:
407,289,14105,5,0,0:0:0:0:
399,315,14180,1,0,0:0:0:0:
378,333,14255,1,0,0:0:0:0:
351,338,14330,1,0,0:0:0:0:
324,329,14405,5,0,0:0:0:0:
274,296,14480,1,0,0:0:0:0:
216,281,14555,1,0,0:0:0:0:
158,293,14630,1,0,0:0:0:0:
124,339,14705,6,0,P|98:363|25:375,2,105
117,313,15605,2,0,L|131:254,1,52.5
190,86,15905,6,0,P|195:152|285:202,1,157.5
477,205,16205,6,0,P|425:275|312:287,1,196.875
130,107,16505,6,0,P|184:211|312:212,1,236.250009012223
418,75,16805,5,0,0:0:0:0:
392,189,16955,1,0,0:0:0:0:
238,74,17105,6,0,L|61:43,1,157.5
62,177,17405,6,0,L|274:179,1,196.875
297,25,17705,6,0,L|39:35,1,236.250009012223
89,215,18005,5,0,0:0:0:0:
259,152,18155,1,0,0:0:0:0:
446,283,18305,6,0,P|395:350|307:327,1,157.5
321,292,18605,2,0,P|384:332|483:276,1,157.5
493,215,18905,5,0,0:0:0:0:
285,275,19055,1,0,0:0:0:0:
227,147,19205,1,0,0:0:0:0:
511,250,19355,1,0,0:0:0:0:
209,182,19505,6,0,B|182:164|182:164|153:172|132:170|132:170|112:142|78:130|78:130|43:137|-2:115,2,210
295,278,20255,1,0,0:0:0:0:
116,326,20405,6,0,P|93:328|125:313,1,118.125004506111
129,364,20705,5,0,0:0:0:0:
300,195,20855,1,0,0:0:0:0:
65,264,21005,1,0,0:0:0:0:
348,318,21155,1,0,0:0:0:0:
246,118,21305,5,0,0:0:0:0:
236,79,21380,1,0,0:0:0:0:
248,41,21455,1,0,0:0:0:0:
279,17,21530,1,0,0:0:0:0:
350,60,21605,6,0,B|360:76|360:76|388:88|441:83,1,78.75
489,172,21905,5,0,0:0:0:0:
260,255,22055,1,0,0:0:0:0:
432,282,22205,1,0,0:0:0:0:
194,178,22355,1,0,0:0:0:0:
484,85,22505,2,0,L|513:156,1,52.5
290,103,22655,2,0,L|281:52,1,52.5
93,129,22805,6,0,L|73:188,1,52.5
116,90,23030,5,0,0:0:0:0:
93,129,23105,2,0,P|92:183|161:238,1,105
362,182,23405,2,0,P|287:153|222:169,1,105
148,361,23705,5,0,0:0:0:0:
297,248,23855,1,0,0:0:0:0:
93,243,24005,1,0,0:0:0:0:
348,329,24155,1,0,0:0:0:0:
224,131,24305,6,0,P|141:139|98:215,1,157.5
283,206,24605,6,0,P|303:72|232:43,1,196.875
187,216,24905,6,0,P|238:295|374:239,1,236.250009012223
205,99,25205,5,0,0:0:0:0:
146,314,25355,1,0,0:0:0:0:
306,247,25505,6,0,P|325:225|341:189,1,52.5
206,137,25805,2,0,P|187:159|171:195,1,52.5
364,227,26105,6,0,P|375:188|370:142,1,78.7500030040742
148,157,26405,2,0,P|137:196|142:242,1,78.7500030040742
410,147,26705,6,0,P|381:87|337:55,1,105
102,237,27005,2,0,P|131:297|175:329,1,105
381,35,27305,6,0,P|327:7|244:1,1,131.25
131,349,27605,2,0,P|185:377|268:383,1,131.25
171,202,27905,5,0,0:0:0:0:
159,208,27980,1,0,0:0:0:0:
147,214,28055,1,0,0:0:0:0:
135,220,28130,1,0,0:0:0:0:
121,249,28205,5,0,0:0:0:0:
145,259,28280,1,0,0:0:0:0:
171,259,28355,1,0,0:0:0:0:
195,250,28430,1,0,0:0:0:0:
235,180,28505,5,0,0:0:0:0:
228,170,28580,1,0,0:0:0:0:
214,159,28655,1,0,0:0:0:0:
190,153,28730,1,0,0:0:0:0:
156,158,28805,5,0,0:0:0:0:
116,155,28880,1,0,0:0:0:0:
75,117,28955,1,0,0:0:0:0:
79,54,29030,1,0,0:0:0:0:
154,74,29105,6,0,B|165:80|165:80|173:77|173:77|190:85|243:84,1,78.7500030040742
421,74,29405,6,0,B|408:74|408:74|398:83|398:83|379:86|379:86|341:102|304:111,1,105
122,65,29705,5,0,0:0:0:0:
242,100,29855,1,0,0:0:0:0:
456,68,30005,5,0,0:0:0:0:
304,151,30155,1,0,0:0:0:0:
75,40,30305,6,0,P|33:84|22:142,1,105
124,38,30530,5,0,0:0:0:0:
71,65,30605,2,0,P|41:126|66:227,1,131.25
163,41,30830,5,0,0:0:0:0:
88,105,30905,1,0,0:0:0:0:
315,75,31055,1,0,0:0:0:0:
120,222,31205,1,0,0:0:0:0:
214,7,31355,1,0,0:0:0:0:
160,302,31505,5,0,0:0:0:0:
235,139,31655,2,0,L|236:218,1,65.625
163,312,31805,1,0,0:0:0:0:
180,331,31880,1,0,0:0:0:0:
223,344,31955,1,0,0:0:0:0:
278,339,32030,1,0,0:0:0:0:
329,293,32105,5,0,0:0:0:0:
171,106,32255,2,0,L|111:168,1,65.625
226,259,32405,2,0,B|225:273|255:288|278:257|274:189|211:187,1,131.25
82,227,32630,5,0,0:0:0:0:
71,237,32705,1,0,0:0:0:0:
120,212,32855,5,0,0:0:0:0:
97,235,32930,1,0,0:0:0:0:
74,258,33005,1,0,0:0:0:0:
169,228,33155,5,0,0:0:0:0:
132,263,33230,1,0,0:0:0:0:
95,299,33305,1,0,0:0:0:0:
246,242,33455,5,0,0:0:0:0:
184,301,33530,1,0,0:0:0:0:
125,360,33605,2,0,L|234:316,1,78.7500030040742
320,230,33755,2,0,P|270:214|212:216,1,78.7500030040742
24,260,33905,5,0,0:0:0:0:
200,46,34055,1,0,0:0:0:0:
335,192,34205,1,0,0:0:0:0:
326,248,34280,1,0,0:0:0:0:
297,270,34355,1,0,0:0:0:0:
276,275,34430,1,0,0:0:0:0:
255,269,34505,5,0,0:0:0:0:
415,206,34655,1,0,0:0:0:0:
253,115,34805,6,0,P|215:102|168:101,1,78.7500030040742
53,202,34955,6,0,P|107:189|125:195,1,52.5
264,297,35105,6,0,P|319:335|375:338,1,105
449,257,35330,5,0,0:0:0:0:
437,226,35405,2,0,P|374:187|298:183,1,131.25
251,252,35630,5,0,0:0:0:0:
264,297,35705,2,0,P|308:343|425:317,1,157.500006008148
468,268,35930,5,0,0:0:0:0:
437,226,36005,2,0,L|376:140,1,78.7500030040742
195,82,36155,2,0,L|243:179,1,78.7500030040742
492,157,36305,5,0,0:0:0:0:
286,86,36455,1,0,0:0:0:0:
217,275,36605,1,0,0:0:0:0:
233,269,36680,1,0,0:0:0:0:
258,251,36755,1,0,0:0:0:0:
274,195,36830,1,0,0:0:0:0:
252,129,36905,5,0,0:0:0:0:
81,91,37055,2,0,P|78:129|107:175,1,78.7500030040742
217,275,37205,6,0,P|281:225|234:112,1,157.500006008148
49,239,37505,5,0,0:0:0:0:
58,192,37655,6,0,L|91:231,1,39.3750015020371
112,261,37805,1,0,0:0:0:0:
121,176,37955,6,0,L|176:235,1,52.5
216,265,38105,1,0,0:0:0:0:
207,161,38255,6,0,L|259:210,1,65.625
341,285,38405,1,0,0:0:0:0:
274,85,38555,1,0,0:0:0:0:
449,298,38705,5,0,0:0:0:0:
310,64,38855,1,0,0:0:0:0:
306,75,38930,1,0,0:0:0:0:
302,87,39005,1,0,0:0:0:0:
298,98,39080,1,0,0:0:0:0:
295,110,39155,1,0,0:0:0:0:
291,121,39230,1,0,0:0:0:0:
319,145,39305,5,0,0:0:0:0:
328,118,39455,1,0,0:0:0:0:
336,92,39605,1,0,0:0:0:0:
345,65,39755,1,0,0:0:0:0:
389,52,39905,6,0,B|389:76|389:76|379:82|379:82|378:113|378:113|353:151|345:185,1,131.25
240,277,40205,2,0,P|246:178|168:139,1,196.875
117,211,40505,1,0,0:0:0:0:
254,79,40655,1,0,0:0:0:0:
66,92,40805,1,0,0:0:0:0:
273,196,40955,1,0,0:0:0:0:
343,55,41105,6,0,P|375:29|485:32,1,131.25
430,184,41405,2,0,L|297:210,1,131.25
343,55,41705,2,0,P|375:29|485:32,1,131.25
430,184,42005,1,0,0:0:0:0:
301,209,42155,1,0,0:0:0:0:
183,144,42305,6,0,P|113:118|47:141,1,131.25
216,305,42605,2,0,P|307:189|264:104,1,196.875
259,180,42905,1,0,0:0:0:0:
375,296,43055,1,0,0:0:0:0:
311,98,43205,1,0,0:0:0:0:
143,243,43355,1,0,0:0:0:0:
371,198,43505,6,0,L|505:116,1,131.25
231,96,43805,2,0,P|182:160|195:226,1,131.25
371,198,44105,2,0,L|505:116,1,131.25
231,96,44405,5,0,0:0:0:0:
220,103,44480,1,0,0:0:0:0:
201,121,44555,1,0,0:0:0:0:
183,156,44630,1,0,0:0:0:0:
185,206,44705,6,0,B|191:220|206:221|223:217|238:174|203:124|135:133,1,131.25
133,273,45005,2,0,P|227:288|273:260,1,131.25
275,113,45305,5,0,0:0:0:0:
103,177,45455,1,0,0:0:0:0:
302,238,45605,1,0,0:0:0:0:
159,49,45755,1,0,0:0:0:0:
125,299,45905,6,0,P|76:337|-8:321,1,131.25
143,145,46205,2,0,L|278:150,1,131.25
125,299,46505,2,0,P|76:337|-8:321,1,131.25
143,145,46805,1,0,0:0:0:0:
274,149,46955,5,0,0:0:0:0:
116,75,47105,1,0,0:0:0:0:
160,9,47255,5,0,0:0:0:0:
236,271,47405,1,0,0:0:0:0:
279,166,47555,5,0,0:0:0:0:
102,60,47705,1,0,0:0:0:0:
179,2,47855,5,0,0:0:0:0:
227,297,48005,1,0,0:0:0:0:
303,180,48155,5,0,0:0:0:0:
79,53,48305,1,0,0:0:0:0:
65,30,48380,1,0,0:0:0:0:
81,10,48455,1,0,0:0:0:0:
106,19,48530,1,0,0:0:0:0:
104,45,48605,5,0,0:0:0:0:
106,84,48680,1,0,0:0:0:0:
126,117,48755,1,0,0:0:0:0:
162,131,48830,1,0,0:0:0:0:
225,89,48905,5,0,0:0:0:0:
176,108,48980,1,0,0:0:0:0:
150,153,49055,1,0,0:0:0:0:
154,205,49130,1,0,0:0:0:0:
246,193,49205,5,0,0:0:0:0:
304,163,49280,1,0,0:0:0:0:
335,105,49355,1,0,0:0:0:0:
334,39,49430,1,0,0:0:0:0:
234,18,49505,6,0,B|222:-4|188:11|179:44|207:77|264:86|291:62|321:19,1,157.500006008148
384,26,49805,2,0,P|300:15|221:107,1,196.875
221,132,50105,1,0,0:0:0:0:
381,142,50255,1,0,0:0:0:0:
133,103,50405,1,0,0:0:0:0:
325,206,50555,1,0,0:0:0:0:
132,40,50705,6,0,P|100:32|24:108,1,131.25
208,304,51005,2,0,L|252:172,1,131.25
132,40,51305,2,0,P|100:32|24:108,1,131.25
208,304,51605,1,0,0:0:0:0:
249,179,51755,1,0,0:0:0:0:
92,295,51905,6,0,B|74:310|82:334|125:333|156:291|147:226|116:207,1,131.25
137,94,52205,2,0,P|160:208|262:214,1,196.875
275,204,52505,1,0,0:0:0:0:
69,213,52655,1,0,0:0:0:0:
261,306,52805,1,0,0:0:0:0:
269,106,52955,1,0,0:0:0:0:
143,313,53105,6,0,B|127:342|127:342|251:282,1,131.25
442,168,53405,2,0,P|386:147|311:182,1,131.25
143,313,53705,2,0,B|127:342|127:342|251:282,1,131.25
442,168,54005,5,0,0:0:0:0:
430,160,54080,1,0,0:0:0:0:
405,150,54155,1,0,0:0:0:0:
366,149,54230,1,0,0:0:0:0:
321,171,54305,6,0,P|298:190|189:193,1,105
175,143,54530,1,0,0:0:0:0:
161,127,54605,1,0,0:0:0:0:
294,31,54755,1,0,0:0:0:0:
321,171,54905,6,0,P|272:215|179:227,1,131.25
135,192,55130,1,0,0:0:0:0:
101,172,55205,1,0,0:0:0:0:
226,27,55355,1,0,0:0:0:0:
321,171,55505,6,0,P|293:217|201:268,1,157.500006008148
117,253,55730,1,0,0:0:0:0:
66,250,55805,1,0,0:0:0:0:
149,37,55955,1,0,0:0:0:0:
321,171,56105,6,0,P|293:237|184:316,1,183.750001752377
105,314,56330,1,0,0:0:0:0:
45,321,56405,1,0,0:0:0:0:
80,80,56555,1,0,0:0:0:0:
321,171,56705,6,0,L|417:198,1,78.7500030040742
485,155,57005,1,0,0:0:0:0:
244,192,57155,2,0,B|215:197|215:197|141:171,1,78.7500030040742
121,104,57455,1,0,0:0:0:0:
250,34,57605,2,0,P|288:55|320:109,1,78.7500030040742
265,222,57905,5,0,0:0:0:0:
241,133,58055,1,0,0:0:0:0:
346,200,58205,1,0,0:0:0:0:
158,224,58355,2,0,P|96:216|54:195,2,78.7500030040742
57,140,58805,5,0,0:0:0:0:
187,236,58955,1,0,0:0:0:0:
319,86,59105,2,0,P|360:56|419:63,1,105
390,231,59405,1,0,0:0:0:0:
187,200,59555,1,0,0:0:0:0:
265,80,59705,2,0,P|349:43|455:68,1,157.5
400,73,60005,6,0,P|314:83|200:28,1,157.500006008148
45,85,60305,6,0,P|93:117|138:175,1,105
53,252,60605,1,0,0:0:0:0:
146,108,60755,1,0,0:0:0:0:
213,271,60905,2,0,P|262:312|356:278,1,157.5
381,271,61205,6,0,L|216:312,1,157.500006008148
72,285,61505,6,0,P|134:252|149:187,1,105
91,99,61805,1,0,0:0:0:0:
186,246,61955,1,0,0:0:0:0:
253,85,62105,2,0,P|282:53|356:13,1,105
478,196,62405,6,0,P|394:209|318:200,1,157.500006008148
205,59,62705,6,0,P|270:32|353:58,1,157.5
195,165,63005,6,0,P|149:148|100:149,2,70
314,255,63305,6,0,P|366:259|418:234,2,87.5
281,180,63605,5,0,0:0:0:0:
293,98,63705,1,0,0:0:0:0:
353,149,63805,1,0,0:0:0:0:
281,180,63905,6,0,B|270:193|270:193|262:193|262:193|247:219|247:219|207:245|197:281,1,105
339,333,64205,1,0,0:0:0:0:
467,228,64355,1,0,0:0:0:0:
270,162,64505,2,0,P|208:165|123:245,1,157.5
141,299,64805,6,0,B|143:313|154:327|154:327|204:270|221:154,1,157.500006008148
48,88,65105,5,0,0:0:0:0:
231,188,65255,1,0,0:0:0:0:
58,182,65405,1,0,0:0:0:0:
243,57,65555,1,0,0:0:0:0:
371,223,65705,2,0,B|375:252|417:249|428:204|412:163|360:143|307:163,1,157.5
345,302,66005,6,0,P|437:298|477:220,1,157.500006008148
253,105,66305,6,0,L|234:244,1,105
270,303,66605,1,0,0:0:0:0:
131,196,66755,1,0,0:0:0:0:
284,61,66905,6,0,B|285:88|285:88|278:122|278:122|281:157|275:201,1,131.25
291,338,67205,1,0,0:0:0:0:
101,153,67355,1,0,0:0:0:0:
320,26,67505,6,0,B|328:55|328:55|318:92|318:92|332:143|322:198,1,157.500006008148
165,327,67805,6,0,P|181:295|191:251,2,52.5000020027161
58,238,68105,6,0,P|46:212|40:178,2,35
165,163,68405,5,0,0:0:0:0:
171,139,68505,1,0,0:0:0:0:
93,88,68605,5,0,0:0:0:0:
88,76,68705,1,0,0:0:0:0:
256,192,68723,12,0,69830,0:0:0:0:
205,250,69905,5,0,0:0:0:0:
241,172,70055,1,0,0:0:0:0:
127,207,70205,5,0,0:0:0:0:
70,58,70355,1,0,0:0:0:0:
55,270,70505,6,0,L|90:212,1,39.3750015020371
246,68,70655,2,0,L|216:119,1,39.3750015020371
136,334,70805,5,0,0:0:0:0:
157,320,70880,1,0,0:0:0:0:
183,275,70955,1,0,0:0:0:0:
181,202,71030,1,0,0:0:0:0:
123,143,71105,6,0,B|111:129|85:140|84:176|119:194|168:183|196:141|200:113,1,157.5
171,82,71405,6,0,P|156:108|219:240,1,157.500006008148
381,299,71705,6,0,L|324:216,1,78.7500030040742
116,266,72005,2,0,P|176:298|219:296,1,78.7500030040742
442,309,72305,6,0,B|467:313|467:313|420:251|356:238,1,157.5
248,283,72605,6,0,P|221:292|237:215,1,157.500006008148
81,298,72905,6,0,L|73:215,1,78.7500030040742
262,104,73205,2,0,P|258:139|233:189,1,78.7500030040742
24,109,73505,6,0,B|11:88|5:54|5:54|19:27,1,78.75
179,71,73805,6,0,P|165:116|51:117,1,157.500006008148
316,28,74105,6,0,B|323:38|323:38|317:57|317:57|325:72|328:110|314:152,1,118.125004506111
217,174,74405,6,0,B|203:185|195:202|195:202|277:240|255:345,1,183.750001752377
154,274,74705,5,0,0:0:0:0:
89,158,74855,2,0,L|56:104,1,52.5
181,50,75005,5,0,0:0:0:0:
114,263,75155,1,0,0:0:0:0:
177,334,75305,5,0,0:0:0:0:
136,100,75455,1,0,0:0:0:0:
241,35,75605,5,0,0:0:0:0:
210,351,75755,1,0,0:0:0:0:
315,176,75905,6,0,P|371:127|469:124,1,157.500006008148
351,273,76205,1,0,0:0:0:0:
171,221,76355,1,0,0:0:0:0:
295,132,76505,1,0,0:0:0:0:
295,338,76655,1,0,0:0:0:0:
155,190,76805,6,0,P|94:136|44:117,1,105
87,262,77105,2,0,P|166:267|197:181,1,157.5
185,185,77405,2,0,P|228:265|272:275,1,105
385,244,77705,5,0,0:0:0:0:
281,352,77855,1,0,0:0:0:0:
284,153,78005,1,0,0:0:0:0:
358,284,78155,1,0,0:0:0:0:
300,80,78305,6,0,B|295:62|295:62|274:51|274:51|259:27|231:7|186:17,1,105
292,117,78530,1,0,0:0:0:0:
300,80,78605,2,0,P|334:56|404:54,1,105
297,189,78905,5,0,0:0:0:0:
164,127,79055,1,0,0:0:0:0:
361,120,79205,1,0,0:0:0:0:
187,230,79355,1,0,0:0:0:0:
419,283,79505,2,0,B|438:292|445:317|407:335|368:322|358:265|365:211,1,157.5
393,196,79805,2,0,P|393:244|296:288,1,157.5
242,327,80105,5,0,0:0:0:0:
229,317,80180,1,0,0:0:0:0:
218,298,80255,1,0,0:0:0:0:
217,267,80330,1,0,0:0:0:0:
235,235,80405,5,0,0:0:0:0:
255,199,80480,1,0,0:0:0:0:
264,153,80555,1,0,0:0:0:0:
249,103,80630,1,0,0:0:0:0:
206,57,80705,6,0,B|187:38|159:57|160:98|198:119|240:61|287:92,1,157.500006008148
368,209,81005,6,0,P|315:220|238:138,1,157.5
362,170,81305,2,0,P|415:183|474:224,1,105
245,275,81605,6,0,P|199:198|268:93,1,196.875
265,232,81905,2,0,P|280:297|248:360,1,131.25
102,155,82205,6,0,P|165:71|292:87,1,236.250009012223
149,145,82505,2,0,P|81:212|13:215,1,157.500006008148
61,41,82805,5,0,0:0:0:0:
268,150,82955,1,0,0:0:0:0:
79,248,83105,2,0,P|50:281|44:356,1,105
182,236,83405,2,0,P|240:206|340:238,1,157.5
284,320,83705,6,0,B|270:326|270:326|253:276|304:215,1,105
417,128,84005,2,0,P|422:192|377:242,1,105
231,99,84305,5,0,0:0:0:0:
372,41,84455,1,0,0:0:0:0:
344,156,84605,1,0,0:0:0:0:
148,57,84755,1,0,0:0:0:0:
171,231,84905,6,0,P|174:264|162:339,1,105
26,169,85205,2,0,P|27:106|53:60,1,105
171,231,85505,6,0,P|196:296|301:281,1,157.500006008148
205,121,85805,6,0,L|105:251,1,157.5
240,194,86105,2,0,L|373:156,1,105
196,59,86405,6,0,L|81:262,1,196.875
256,139,86705,2,0,L|405:122,1,131.25
152,0,87005,6,0,L|72:224,1,236.250009012223
281,97,87305,2,0,L|453:102,1,157.500006008148
69,12,87605,5,0,0:0:0:0:
93,279,87755,1,0,0:0:0:0:
296,74,87905,2,0,P|320:56|362:45,1,52.5
329,185,88205,2,0,P|273:190|246:174,1,78.75
228,134,88505,2,0,P|236:165|201:239,1,105
96,318,89105,6,0,P|128:213|168:209,1,157.5
238,253,89630,1,0,0:0:0:0:
250,278,89705,2,0,P|275:295|298:298,1,52.5
459,204,90005,2,0,P|457:224|428:259,1,52.5
301,324,90305,6,0,P|258:307|275:185,1,157.5
192,220,90605,6,0,P|241:300|336:306,1,196.875
346,274,90905,6,0,P|290:302|129:222,1,236.250009012223
150,156,91205,5,0,0:0:0:0:
229,347,91355,1,0,0:0:0:0:
372,252,91505,6,0,L|415:94,1,157.5
352,81,91805,6,0,L|417:304,1,196.875
351,284,92105,6,0,L|433:62,1,236.250009012223
340,41,92405,5,0,0:0:0:0:
464,195,92555,1,0,0:0:0:0:
242,201,92705,6,0,L|78:169,1,157.5
85,223,93005,2,0,P|151:213|240:131,1,157.5
207,106,93305,5,0,0:0:0:0:
122,311,93455,1,0,0:0:0:0:
317,237,93605,1,0,0:0:0:0:
124,93,93755,1,0,0:0:0:0:
316,127,93905,6,0,B|338:117|338:117|370:127|415:123|415:123|433:138|433:138|465:129|501:128|501:128|526:85,2,210
238,227,94655,1,0,0:0:0:0:
110,158,94805,6,0,B|104:158|94:137|97:109|111:86|147:91|166:102|162:132|142:133|129:124,1,118.125004506111
35,97,95105,5,0,0:0:0:0:
206,45,95255,1,0,0:0:0:0:
127,239,95405,1,0,0:0:0:0:
350,248,95555,1,0,0:0:0:0:
172,102,95705,5,0,0:0:0:0:
132,100,95780,1,0,0:0:0:0:
95,115,95855,1,0,0:0:0:0:
73,148,95930,1,0,0:0:0:0:
131,211,96005,6,0,B|151:219|151:219|194:206|216:188,1,78.75
221,77,96305,5,0,0:0:0:0:
190,283,96455,1,0,0:0:0:0:
326,184,96605,1,0,0:0:0:0:
104,276,96755,1,0,0:0:0:0:
336,282,96905,5,0,0:0:0:0:
361,277,96980,1,0,0:0:0:0:
386,272,97055,2,0,L|431:235,1,52.5
269,146,97205,6,0,P|237:153|272:165,1,78.7500030040742
336,282,97430,5,0,0:0:0:0:
386,272,97505,2,0,P|444:209|388:115,1,157.500006008148
175,113,97805,2,0,B|149:138|149:138|163:211|256:234,1,157.500006008148
323,62,98105,5,0,0:0:0:0:
85,77,98255,1,0,0:0:0:0:
291,186,98405,1,0,0:0:0:0:
240,0,98555,1,0,0:0:0:0:
189,279,98705,6,0,B|181:298|172:310|172:310|167:241|190:181,1,157.5
344,126,99005,6,0,B|363:117|388:115|388:115|365:172|240:208,1,196.875
119,79,99305,6,0,B|96:64|85:29|85:29|152:41|237:127,1,236.250009012223
274,263,99605,5,0,0:0:0:0:
134,143,99755,1,0,0:0:0:0:
314,82,99905,2,0,L|350:63,11,26.25
378,92,100805,5,0,0:0:0:0:
313,131,100880,1,0,0:0:0:0:
263,164,100955,1,0,0:0:0:0:
230,185,101030,1,0,0:0:0:0:
205,200,101105,6,0,L|149:237,1,52.5
307,184,101405,2,0,L|363:147,1,52.5
200,248,101705,6,0,L|154:318,1,78.7500030040742
312,136,102005,2,0,L|358:66,1,78.7500030040742
243,279,102305,6,0,L|262:384,1,105
269,105,102605,2,0,L|250:0,1,105
344,280,102905,6,0,L|447:365,1,131.25
167,103,103205,1,0,0:0:0:0:
157,95,103280,1,0,0:0:0:0:
137,79,103355,1,0,0:0:0:0:
113,58,103430,1,0,0:0:0:0:
72,24,103505,6,0,L|38:-6,3,39.3750015020371
241,79,103805,6,0,L|302:58,3,52.5
66,192,104105,5,0,0:0:0:0:
53,208,104180,1,0,0:0:0:0:
49,228,104255,1,0,0:0:0:0:
51,248,104330,1,0,0:0:0:0:
60,266,104405,5,0,0:0:0:0:
96,296,104480,1,0,0:0:0:0:
143,292,104555,1,0,0:0:0:0:
180,263,104630,1,0,0:0:0:0:
187,216,104705,6,0,P|136:166|77:171,1,105
248,343,105005,2,0,P|316:332|354:290,1,105
339,90,105305,6,0,L|332:145,1,52.5
255,266,105455,2,0,L|264:182,1,52.5
187,31,105605,5,0,0:0:0:0:
179,93,105680,1,0,0:0:0:0:
174,129,105755,1,0,0:0:0:0:
171,155,105830,1,0,0:0:0:0:
168,176,105905,6,0,L|158:260,1,78.7500030040742
346,208,106205,2,0,L|356:124,1,78.7500030040742
196,250,106505,6,0,P|217:298|247:342,1,105
316,134,106805,2,0,P|295:86|265:42,1,105
283,294,107105,6,0,P|324:317|424:330,1,131.25
229,90,107405,2,0,P|188:67|88:54,1,131.25
364,257,107705,6,0,P|436:245|502:164,1,157.500006008148
148,127,108005,2,0,P|76:139|10:220,1,157.500006008148
376,126,108305,5,0,0:0:0:0:
375,118,108380,1,0,0:0:0:0:
368,103,108455,1,0,0:0:0:0:
351,86,108530,1,0,0:0:0:0:
320,77,108605,5,0,0:0:0:0:
282,87,108680,1,0,0:0:0:0:
234,91,108755,1,0,0:0:0:0:
181,74,108830,1,0,0:0:0:0:
135,29,108905,5,0,0:0:0:0:
201,54,108980,1,0,0:0:0:0:
235,124,109055,1,0,0:0:0:0:
222,209,109130,1,0,0:0:0:0:
145,261,109205,6,0,L|96:283,6,39.3750015020371
24,258,109505,5,0,0:0:0:0:
219,289,109655,1,0,0:0:0:0:
57,337,109805,1,0,0:0:0:0:
260,205,109955,1,0,0:0:0:0:
84,52,110105,6,0,P|59:48|100:85,1,157.500006008148
274,18,110405,6,0,P|313:13|257:41,1,210
453,56,110705,6,0,B|466:88|466:88|447:81|447:81|447:99|430:131|430:131|440:142|440:142|408:171|412:215|412:215|400:238|382:257,1,236.250009012223
308,271,111005,1,0,0:0:0:0:
487,202,111155,2,0,P|511:172|513:147,1,52.5
349,43,111305,1,0,0:0:0:0:
481,169,111455,6,0,P|488:129|464:75,1,65.625
275,25,111605,1,0,0:0:0:0:
455,143,111755,6,0,P|440:99|377:49,1,78.7500030040742
186,70,111905,1,0,0:0:0:0:
118,182,112055,1,0,0:0:0:0:
295,159,112205,2,0,B|305:149|305:149|291:127|291:127|297:74|244:32|196:65,1,157.500006008148
220,204,112505,6,0,L|270:225,1,52.5
447,257,112655,2,0,L|378:271,1,52.5
144,291,112805,6,0,L|254:278,1,78.7500030040742
464,146,112955,2,0,L|372:153,1,78.7500030040742
284,338,113105,5,0,0:0:0:0:
180,225,113255,2,0,L|168:176,1,39.3750015020371
164,314,113405,5,0,0:0:0:0:
295,190,113555,2,0,L|307:114,1,52.5
282,266,113705,5,0,0:0:0:0:
113,138,113855,2,0,L|95:63,1,65.625
109,246,114005,5,0,0:0:0:0:
369,109,114155,2,0,L|390:18,1,78.7500030040742
224,59,114305,5,0,0:0:0:0:
413,181,114455,1,0,0:0:0:0:
494,83,114605,2,0,L|436:106,1,52.5
212,207,114755,2,0,L|278:183,1,52.5
468,224,114905,5,0,0:0:0:0:
481,231,114980,1,0,0:0:0:0:
493,247,115055,1,0,0:0:0:0:
498,278,115130,1,0,0:0:0:0:
477,315,115205,6,0,L|414:287,1,65.625
133,183,115355,2,0,L|215:245,1,65.625
329,117,115505,6,0,P|361:96|286:74,1,157.500006008148
438,101,115730,5,0,0:0:0:0:
461,67,115805,1,0,0:0:0:0:
301,209,115955,6,0,L|374:177,1,52.5
461,67,116105,1,0,0:0:0:0:
196,47,116255,6,0,P|257:29|276:31,1,65.625
461,67,116405,1,0,0:0:0:0:
114,152,116555,6,0,B|121:157|121:157|137:148|137:148|165:157|218:135,1,78.7500030040742
461,67,116705,1,0,0:0:0:0:
317,156,116855,1,0,0:0:0:0:
466,228,117005,2,0,B|480:244|464:252|464:252|428:268|390:188|421:149,1,157.500006008148
352,289,117305,6,0,P|336:334|302:357,1,78.7500030040742
162,267,117455,2,0,L|130:174,1,78.7500030040742
327,212,117605,2,0,P|378:286|329:345,1,157.500006008148
114,164,117905,6,0,L|186:132,1,52.5
426,109,118055,2,0,L|356:137,1,52.5
156,243,118205,2,0,B|111:246|111:246|196:207,1,105
448,239,118505,6,0,L|364:221,1,78.7500030040742
98,150,118655,2,0,L|193:173,1,78.7500030040742
403,303,118805,2,0,B|459:331|459:331|305:316,1,157.500006008148
205,93,119105,5,0,0:0:0:0:
284,192,119255,2,0,L|216:192,1,52.5
188,192,119405,1,0,0:0:0:0:
328,192,119555,1,0,0:0:0:0:
140,172,119705,5,0,0:0:0:0:
372,216,119855,1,0,0:0:0:0:
132,112,120005,5,0,0:0:0:0:
384,276,120155,1,0,0:0:0:0:
360,76,120305,6,0,B|352:60|352:60|352:80|340:96|340:96|318:66|318:66|311:70|311:70|276:40|224:32|176:60,1,236.250009012223
242,179,120605,6,0,P|262:129|211:165,1,131.25
199,242,120830,5,0,0:0:0:0:
225,255,120905,2,0,P|249:256|291:243,1,52.5
411,196,121055,2,0,P|347:182|321:185,1,52.5
196,291,121205,6,0,P|257:285|298:259,1,78.7500030040742
445,145,121355,2,0,P|407:138|335:159,1,78.7500030040742
177,329,121505,5,0,0:0:0:0:
70,217,121655,1,0,0:0:0:0:
249,191,121805,1,0,0:0:0:0:
17,290,121955,1,0,0:0:0:0:
306,278,122105,6,0,L|361:255,1,52.5
449,127,122255,2,0,L|371:170,1,52.5
293,325,122405,6,0,P|362:275|348:209,1,131.25
201,121,122705,6,0,B|191:103|159:108|151:158|200:181|252:165|286:145|320:102,1,157.500006008148
218,47,123005,2,0,P|140:57|112:161,1,157.500006008148
108,161,123230,5,0,0:0:0:0:
104,120,123305,2,0,L|96:36,1,52.5
246,177,123455,2,0,L|274:252,1,52.5
85,284,123605,6,0,L|102:219,1,65.625
270,40,123755,2,0,L|239:124,1,65.625
179,279,123905,5,0,0:0:0:0:
32,175,124055,1,0,0:0:0:0:
274,251,124205,2,0,P|308:260|358:252,1,65.625
495,150,124355,2,0,P|467:134|419:130,1,65.625
361,326,124505,5,0,0:0:0:0:
412,346,124580,1,0,0:0:0:0:
455,332,124655,1,0,0:0:0:0:
466,294,124730,1,0,0:0:0:0:
458,262,124805,5,0,0:0:0:0:
435,247,124880,1,0,0:0:0:0:
416,252,124955,1,0,0:0:0:0:
407,262,125030,1,0,0:0:0:0:
412,273,125105,5,0,0:0:0:0:
486,121,125255,2,0,L|481:48,1,52.5
268,24,125405,2,0,P|236:49|243:136,1,105
344,187,125705,5,0,0:0:0:0:
169,33,125855,1,0,0:0:0:0:
112,202,126005,1,0,0:0:0:0:
393,126,126155,1,0,0:0:0:0:
96,113,126305,6,0,L|45:106,1,39.3750015020371
65,126,126455,2,0,L|105:132,1,39.3750015020371
191,258,126605,6,0,L|238:271,1,26.25
222,279,126755,2,0,L|197:273,1,26.25
326,89,126905,6,0,L|401:49,1,78.7500030040742
410,28,127055,2,0,L|341:66,1,78.7500030040742
339,243,127205,6,0,L|370:323,1,78.7500030040742
384,334,127355,2,0,L|355:260,1,78.7500030040742
168,139,127505,5,0,0:0:0:0:
310,161,127655,1,0,0:0:0:0:
168,139,127805,2,0,B|177:143|177:143|187:137|187:137|212:170|270:156|270:156|290:169|290:169|306:168|321:153,1,157.500006008148
408,239,128105,5,0,0:0:0:0:
240,279,128255,1,0,0:0:0:0:
408,239,128405,2,0,B|402:242|402:242|377:231|377:231|366:245|366:245|352:237|336:237|336:237|342:243|342:243|301:237|272:253|272:253|257:278|257:278|237:274|173:313,1,210
60,350,128705,5,0,0:0:0:0:
84,94,128855,1,0,0:0:0:0:
86,108,128930,1,0,0:0:0:0:
89,122,129005,1,0,0:0:0:0:
92,136,129080,1,0,0:0:0:0:
95,150,129155,1,0,0:0:0:0:
97,164,129230,1,0,0:0:0:0:
100,178,129305,5,0,0:0:0:0:
107,206,129455,1,0,0:0:0:0:
114,233,129605,1,0,0:0:0:0:
121,262,129755,1,0,0:0:0:0:
128,291,129905,6,0,B|136:319|136:319|162:284|169:241|149:188,1,157.500006008148
63,140,130205,2,0,P|51:93|102:-2,1,157.5
148,76,130505,6,0,B|167:78|167:78|214:38,1,52.5
262,0,130655,1,0,0:0:0:0:
231,171,130805,1,0,0:0:0:0:
88,133,130955,1,0,0:0:0:0:
333,145,131105,6,0,P|355:73|305:93,1,157.5
368,169,131405,1,0,0:0:0:0:
233,94,131555,1,0,0:0:0:0:
338,153,131705,6,0,P|374:133|297:124,1,210
433,187,132005,1,0,0:0:0:0:
213,123,132155,1,0,0:0:0:0:
316,243,132305,6,0,B|331:253|335:281|303:286|263:263|247:205|186:229,1,157.5
78,344,132605,2,0,P|167:346|210:288,1,157.5
4,243,132905,2,0,B|9:249|9:249|14:246|14:246|21:262|56:272,1,52.5
126,273,133055,1,0,0:0:0:0:
0,154,133205,2,0,P|67:156|118:202,1,105
229,270,133505,6,0,P|308:294|389:263,1,157.5
369,180,133805,2,0,P|299:182|268:261,1,157.5
409,250,134105,5,0,0:0:0:0:
418,237,134180,1,0,0:0:0:0:
420,216,134255,1,0,0:0:0:0:
413,190,134330,1,0,0:0:0:0:
390,168,134405,5,0,0:0:0:0:
353,164,134480,1,0,0:0:0:0:
316,143,134555,1,0,0:0:0:0:
289,103,134630,1,0,0:0:0:0:
287,50,134705,6,0,B|274:34|286:15|325:13|347:21|347:103|286:134|260:137|307:194,1,196.875
333,276,135005,2,0,P|339:215|240:215,1,157.5
256,315,135305,6,0,P|284:336|254:300,1,157.500006008148
180,317,135605,1,0,0:0:0:0:
392,279,135755,1,0,0:0:0:0:
220,191,135905,6,0,P|194:181|79:237,1,157.5
163,292,136205,2,0,P|264:313|318:283,1,157.5
250,183,136505,6,0,B|224:167|224:167|213:177|213:177|194:156|124:153|91:187,1,157.500006008148
346,308,136805,1,0,0:0:0:0:
291,98,136955,1,0,0:0:0:0:
269,222,137105,1,0,0:0:0:0:
182,249,137255,5,0,0:0:0:0:
391,88,137405,1,0,0:0:0:0:
283,91,137555,5,0,0:0:0:0:
274,239,137705,1,0,0:0:0:0:
154,259,137855,5,0,0:0:0:0:
416,94,138005,1,0,0:0:0:0:
233,33,138155,5,0,0:0:0:0:
194,191,138305,1,0,0:0:0:0:
182,202,138380,1,0,0:0:0:0:
167,208,138455,1,0,0:0:0:0:
151,210,138530,1,0,0:0:0:0:
135,207,138605,5,0,0:0:0:0:
168,228,138680,1,0,0:0:0:0:
207,223,138755,1,0,0:0:0:0:
240,202,138830,1,0,0:0:0:0:
272,117,138905,5,0,0:0:0:0:
308,86,138980,1,0,0:0:0:0:
354,76,139055,1,0,0:0:0:0:
400,85,139130,1,0,0:0:0:0:
440,172,139205,5,0,0:0:0:0:
428,222,139280,1,0,0:0:0:0:
416,273,139355,1,0,0:0:0:0:
405,324,139430,1,0,0:0:0:0:
336,366,139505,6,0,P|362:282|274:224,1,196.875
227,260,139805,2,0,L|396:231,1,131.25
198,155,140105,5,0,0:0:0:0:
133,274,140255,1,0,0:0:0:0:
280,160,140405,1,0,0:0:0:0:
99,143,140555,1,0,0:0:0:0:
232,315,140705,6,0,P|249:321|322:252,1,131.25
165,49,141005,2,0,B|145:67|145:67|129:198,1,131.25
232,315,141305,2,0,P|249:321|322:252,1,131.25
165,49,141605,5,0,0:0:0:0:
132,171,141755,1,0,0:0:0:0:
328,71,141905,6,0,B|363:35|418:24|472:35|484:83|452:108|427:96|423:87,1,196.875
308,49,142205,2,0,P|219:26|161:60,1,131.25
102,192,142505,5,0,0:0:0:0:
261,119,142655,1,0,0:0:0:0:
80,128,142805,1,0,0:0:0:0:
229,258,142955,1,0,0:0:0:0:
333,63,143105,6,0,B|341:51|360:51|360:51|365:71|362:117|329:151|292:160,1,131.25
125,323,143405,2,0,P|137:243|209:205,1,131.25
333,63,143705,2,0,B|341:51|360:51|360:51|365:71|362:117|329:151|292:160,1,131.25
125,323,144005,5,0,0:0:0:0:
123,314,144080,1,0,0:0:0:0:
122,289,144155,1,0,0:0:0:0:
132,253,144230,1,0,0:0:0:0:
173,213,144305,5,0,0:0:0:0:
363,246,144455,2,0,L|299:268,1,39.3750015020371
304,179,144605,1,0,0:0:0:0:
391,321,144755,1,0,0:0:0:0:
151,194,144905,5,0,0:0:0:0:
393,250,145055,2,0,L|333:255,1,52.5
338,163,145205,1,0,0:0:0:0:
372,338,145355,1,0,0:0:0:0:
142,152,145505,5,0,0:0:0:0:
420,254,145655,2,0,L|344:245,1,65.625
364,139,145805,1,0,0:0:0:0:
355,363,145955,1,0,0:0:0:0:
129,109,146105,5,0,0:0:0:0:
445,264,146255,2,0,L|364:227,1,78.7500030040742
379,114,146405,1,0,0:0:0:0:
327,370,146555,1,0,0:0:0:0:
181,170,146705,6,0,P|168:127|178:84,1,78.7500030040742
281,148,147005,1,0,0:0:0:0:
158,250,147155,2,0,L|85:289,1,78.7500030040742
56,194,147455,1,0,0:0:0:0:
246,288,147605,2,0,P|280:302|344:298,1,78.7500030040742
415,197,147905,5,0,0:0:0:0:
329,226,148055,1,0,0:0:0:0:
442,270,148205,1,0,0:0:0:0:
387,117,148355,2,0,L|355:35,2,78.7500030040742
256,27,148805,5,0,0:0:0:0:
418,142,148955,1,0,0:0:0:0:
171,92,149105,2,0,P|117:86|61:117,1,105
194,175,149405,5,0,0:0:0:0:
80,23,149555,1,0,0:0:0:0:
61,223,149705,2,0,P|61:263|125:360,1,157.5
52,355,150005,6,0,P|105:302|91:205,1,157.500006008148
207,321,150305,5,0,0:0:0:0:
324,231,150455,1,0,0:0:0:0:
204,206,150605,1,0,0:0:0:0:
391,302,150755,1,0,0:0:0:0:
389,127,150905,2,0,B|386:71|340:27|301:36|293:92|331:88,1,157.500006008148
424,99,151205,6,0,P|477:113|494:218,1,157.500006008148
301,208,151505,6,0,P|258:177|239:114,1,105
354,127,151805,1,0,0:0:0:0:
244,291,151955,1,0,0:0:0:0:
126,125,152105,2,0,P|74:71|-14:71,1,157.5
118,196,152405,6,0,P|167:222|162:152,1,157.5
117,292,152705,6,0,P|228:302|276:238,1,157.5
256,224,153005,1,0,0:0:0:0:
153,357,153155,1,0,0:0:0:0:
356,268,153305,2,0,L|465:225,1,105
310,251,153605,6,0,L|473:242,1,157.500006008148
263,189,153905,6,0,P|331:237|388:232,1,105
465,180,154205,1,0,0:0:0:0:
277,109,154355,1,0,0:0:0:0:
229,264,154505,2,0,B|198:384|198:384|177:322,1,157.5
154,255,154805,6,0,L|197:82,1,157.500006008148
71,120,155105,5,0,0:0:0:0:
77,288,155255,1,0,0:0:0:0:
248,162,155405,1,0,0:0:0:0:
20,181,155555,1,0,0:0:0:0:
148,330,155705,2,0,P|161:349|297:343,1,157.5
324,363,156005,6,0,P|239:364|232:285,1,157.500006008148
367,267,156305,6,0,P|423:228|423:136,1,157.5
395,116,156605,1,0,0:0:0:0:
263,168,156755,1,0,0:0:0:0:
367,267,156905,6,0,P|441:221|423:98,1,196.875
413,86,157205,1,0,0:0:0:0:
231,134,157355,1,0,0:0:0:0:
367,267,157505,6,0,P|442:237|462:88,1,236.250009012223
392,131,157805,6,0,P|364:146|298:144,2,87.5
262,36,158105,6,0,P|294:38|337:71,2,70
226,118,158405,5,0,0:0:0:0:
231,184,158505,1,0,0:0:0:0:
196,196,158605,1,0,0:0:0:0:
194,224,158705,1,0,0:0:0:0:
256,192,158723,12,0,159830,0:0:0:0:
385,130,159905,5,0,0:0:0:0:
351,242,160055,1,0,0:0:0:0:
295,86,160205,5,0,0:0:0:0:
366,323,160355,1,0,0:0:0:0:
278,36,160505,6,0,L|258:104,1,52.5
177,341,160655,2,0,L|191:282,1,52.5
84,109,160805,5,0,0:0:0:0:
88,128,160880,1,0,0:0:0:0:
110,152,160955,1,0,0:0:0:0:
173,175,161030,1,0,0:0:0:0:
260,164,161105,6,0,P|185:161|129:234,1,157.5
267,207,161405,6,0,P|338:170|334:93,1,157.500006008148
201,61,161705,6,0,L|220:159,1,78.7500030040742
420,247,162005,2,0,B|419:224|419:224|388:184|347:181,1,78.7500030040742
166,255,162305,6,0,B|151:258|146:266|146:297|186:305|232:294|266:254|264:216,1,157.5
206,174,162605,6,0,B|168:179|168:179|86:302,1,157.500006008148
294,339,162905,6,0,P|301:293|286:251,1,78.7500030040742
58,195,163205,2,0,L|87:278,1,78.7500030040742
237,98,163505,6,0,B|259:88|260:46|247:39|231:43|226:57|236:65,1,78.75
249,127,163805,6,0,B|257:152|257:152|322:172|370:126,1,131.25
472,260,164105,6,0,P|417:218|361:223,1,118.125004506111
445,342,164405,6,0,P|495:272|420:196,1,157.500006008148
299,316,164705,5,0,0:0:0:0:
119,302,164855,2,0,L|178:321,1,52.5
86,216,165005,5,0,0:0:0:0:
310,341,165155,1,0,0:0:0:0:
327,198,165305,5,0,0:0:0:0:
27,265,165455,1,0,0:0:0:0:
7,131,165605,5,0,0:0:0:0:
405,166,165755,1,0,0:0:0:0:
254,45,165905,6,0,P|197:16|129:38,1,105
182,157,166205,1,0,0:0:0:0:
356,81,166355,1,0,0:0:0:0:
136,88,166505,1,0,0:0:0:0:
164,298,166655,1,0,0:0:0:0:
277,176,166805,6,0,B|288:160|288:160|303:162|303:162|315:129|359:101,1,105
314,236,167105,2,0,P|280:264|301:374,1,157.5
321,328,167405,1,0,0:0:0:0:
191,197,167555,1,0,0:0:0:0:
73,306,167705,6,0,B|58:320|58:339|80:353|100:351|121:314|123:263|104:234,1,157.5
38,193,168005,2,0,P|10:127|53:68,1,105
116,24,168305,1,0,0:0:0:0:
229,122,168455,5,0,0:0:0:0:
236,147,168530,1,0,0:0:0:0:
243,172,168605,1,0,0:0:0:0:
200,28,168755,1,0,0:0:0:0:
271,256,168905,5,0,0:0:0:0:
340,167,169055,1,0,0:0:0:0:
176,210,169205,1,0,0:0:0:0:
406,269,169355,1,0,0:0:0:0:
175,127,169505,6,0,P|133:115|18:164,1,157.5
111,217,169805,2,0,B|132:229|132:229|168:196|219:194|265:212,1,157.5
278,293,170105,5,0,0:0:0:0:
265,302,170180,1,0,0:0:0:0:
244,306,170255,1,0,0:0:0:0:
218,300,170330,1,0,0:0:0:0:
195,278,170405,5,0,0:0:0:0:
177,245,170480,1,0,0:0:0:0:
148,214,170555,1,0,0:0:0:0:
106,191,170630,1,0,0:0:0:0:
53,189,170705,6,0,B|26:208|26:208|101:212|159:141,1,157.500006008148
227,50,171005,6,0,P|272:12|366:34,1,157.5
244,118,171305,2,0,P|183:74|135:105,1,105
198,192,171605,6,0,P|249:132|363:177,1,196.875
236,258,171905,2,0,P|182:212|115:250,1,131.25
181,336,172205,6,0,P|259:263|374:326,1,236.250009012223
236,384,172505,2,0,P|214:356|103:377,1,157.500006008148
318,355,172805,5,0,0:0:0:0:
147,241,172955,1,0,0:0:0:0:
320,145,173105,2,0,P|341:76|285:20,1,157.5
265,65,173405,2,0,L|226:203,1,105
299,331,173705,2,0,P|302:263|284:204,1,105
98,94,174005,2,0,P|97:144|173:185,1,105
370,127,174305,5,0,0:0:0:0:
207,251,174455,1,0,0:0:0:0:
394,223,174605,1,0,0:0:0:0:
168,52,174755,1,0,0:0:0:0:
406,62,174905,2,0,P|470:77|506:113,1,105
291,154,175205,2,0,P|224:122|206:95,1,105
388,32,175505,6,0,P|448:105|411:150,1,157.500006008148
266,117,175805,6,0,P|220:78|108:90,1,157.5
102,103,176105,1,0,0:0:0:0:
148,234,176255,1,0,0:0:0:0:
266,117,176405,6,0,P|291:70|448:92,1,196.875
451,83,176705,1,0,0:0:0:0:
399,249,176855,1,0,0:0:0:0:
266,117,177005,6,0,P|229:68|57:98,1,236.250009012223
50,106,177305,1,0,0:0:0:0:
270,258,177455,1,0,0:0:0:0:
143,163,177605,6,0,L|54:187,1,78.7500030040742
16,263,177755,6,0,L|79:274,1,52.5
148,330,177905,6,0,P|198:355|276:297,1,157.5
344,85,178355,1,0,0:0:0:0:
256,155,178505,2,0,L|232:248,1,78.7500030040742
360,165,178805,2,0,L|371:66,1,78.7500030040742
227,173,179105,6,0,P|219:242|356:243,1,236.250009012223
309,251,179630,1,0,0:0:0:0:
331,293,179705,2,0,B|341:308|341:308|394:319|426:298,1,78.7500030040742
439,210,180005,1,0,0:0:0:0:
266,171,180155,6,0,L|200:155,1,39.3750015020371
350,190,180305,1,0,0:0:0:0:
192,189,184805,6,0,L|121:168,1,52.5
152,253,185105,2,0,P|194:264|259:222,1,105
263,156,185555,1,0,0:0:0:0:
204,107,185705,2,0,L|111:82,1,78.75
107,44,186005,2,0,L|175:65,1,52.5
314,99,186305,5,0,0:0:0:0:
260,179,186455,1,0,0:0:0:0:
374,156,186605,1,0,0:0:0:0:
261,36,186755,1,0,0:0:0:0:
258,212,186905,6,0,L|255:268,1,52.5
210,294,187130,1,0,0:0:0:0:
211,266,187205,1,0,0:0:0:0:
214,123,187355,1,0,0:0:0:0:
356,229,187505,6,0,P|367:244|359:212,1,105
336,310,187955,1,0,0:0:0:0:
480,220,188105,2,0,L|470:131,1,78.75
439,117,188405,2,0,L|447:195,1,78.75
480,220,188705,2,0,L|470:131,1,78.75
439,117,189005,5,0,0:0:0:0:
448,195,189105,1,0,0:0:0:0:
462,272,189205,1,0,0:0:0:0:
377,259,189305,5,0,0:0:0:0:
367,204,189405,1,0,0:0:0:0:
360,150,189505,1,0,0:0:0:0:
285,177,189605,5,0,0:0:0:0:
289,216,189705,1,0,0:0:0:0:
296,254,189805,1,0,0:0:0:0:
214,226,189905,6,0,L|122:234,1,78.75
109,263,190205,1,0,0:0:0:0:
167,141,190355,1,0,0:0:0:0:
26,192,190505,2,0,P|9:206|39:198,1,78.75
41,166,190805,5,0,0:0:0:0:
36,299,190955,1,0,0:0:0:0:
146,226,191105,2,0,L|189:188,1,52.5
271,178,191405,5,0,0:0:0:0:
120,149,191555,1,0,0:0:0:0:
306,109,191705,2,0,P|323:109|381:142,1,78.75
348,165,192005,5,0,0:0:0:0:
268,100,192155,1,0,0:0:0:0:
411,68,192305,2,0,L|450:109,1,52.5
327,174,192605,5,0,0:0:0:0:
265,72,192755,1,0,0:0:0:0:
445,58,192905,2,0,L|474:117,1,62.9999980773926
304,166,193205,5,0,0:0:0:0:
277,33,193355,1,0,0:0:0:0:
487,72,193505,2,0,L|497:146,1,73.4999977569581
411,218,193805,5,0,0:0:0:0:
340,286,193905,1,0,0:0:0:0:
322,190,194005,1,0,0:0:0:0:
401,235,194105,5,0,0:0:0:0:
330,269,194205,1,0,0:0:0:0:
340,191,194305,1,0,0:0:0:0:
381,245,194405,5,0,0:0:0:0:
333,246,194505,1,0,0:0:0:0:
358,205,194605,1,0,0:0:0:0:
357,232,194705,5,0,0:0:0:0:
256,192,194723,12,0,196430,0:0:0:0:
129,180,196505,6,0,P|165:238|230:230,1,118.125004506111
184,84,196805,2,0,P|134:100|99:165,1,118.125004506111
244,218,197105,5,0,0:0:0:0:
266,211,197705,6,0,L|299:94,1,118.125004506111
403,83,198005,2,0,L|347:201,1,118.125004506111
231,223,198305,5,0,0:0:0:0:
205,237,198905,6,0,P|170:259|74:210,2,157.500006008148
295,128,199805,1,0,0:0:0:0:
127,165,200105,2,0,L|31:189,1,78.7500030040742
169,271,200405,2,0,L|257:268,1,78.7500030040742
128,138,200705,5,0,0:0:0:0:
169,301,200855,1,0,0:0:0:0:
109,83,201005,5,0,0:0:0:0:
198,347,201155,1,0,0:0:0:0:
118,20,201305,5,0,0:0:0:0:
122,34,201380,1,0,0:0:0:0:
128,52,201455,1,0,0:0:0:0:
136,78,201530,1,0,0:0:0:0:
148,115,201605,5,0,0:0:0:0:
164,163,201680,1,0,0:0:0:0:
182,219,201755,1,0,0:0:0:0:
205,286,201830,1,0,0:0:0:0:
234,355,201905,6,0,B|242:372|255:374|277:341|264:310|214:293|167:300|168:237,1,157.5
243,208,202205,6,0,P|267:294|197:345,1,157.500006008148
90,182,202505,6,0,L|120:109,1,78.7500030040742
350,208,202805,2,0,P|322:236|278:233,1,78.7500030040742
72,142,203105,6,0,L|190:18,1,157.5
206,81,203405,6,0,B|184:101|184:101|34:125,1,157.500006008148
271,25,203705,6,0,P|304:14|358:21,1,78.7500030040742
435,156,204005,2,0,L|353:141,1,78.7500030040742
247,266,204305,6,0,B|255:256|255:256|270:258|270:258|293:240|333:238,1,78.75
395,233,204605,6,0,B|380:240|380:240|362:232|362:232|321:245|265:235|230:210,1,131.25
128,81,204905,6,0,P|171:120|170:187,1,118.125004506111
158,229,205205,6,0,P|158:167|255:94,1,157.500006008148
423,169,205505,5,0,0:0:0:0:
224,71,205655,2,0,L|302:108,1,78.7500030040742
148,130,205805,5,0,0:0:0:0:
449,68,205955,1,0,0:0:0:0:
484,217,206105,5,0,0:0:0:0:
154,165,206255,1,0,0:0:0:0:
83,243,206405,5,0,0:0:0:0:
454,239,206555,1,0,0:0:0:0:
226,296,206705,6,0,P|188:308|115:265,1,105
207,156,207005,1,0,0:0:0:0:
334,280,207155,1,0,0:0:0:0:
146,210,207305,2,0,B|129:186|129:186|117:102,1,105
297,92,207605,1,0,0:0:0:0:
339,308,207755,1,0,0:0:0:0:
182,229,207905,6,0,P|101:200|109:102,1,157.5
129,119,208205,6,0,P|100:181|185:272,1,196.875
211,249,208505,1,0,0:0:0:0:
379,165,208655,1,0,0:0:0:0:
221,168,208805,1,0,0:0:0:0:
470,303,208955,1,0,0:0:0:0:
413,92,209105,1,0,0:0:0:0:
327,251,209255,6,0,L|358:193,1,52.5
373,318,209405,2,0,P|318:364|257:336,1,105
129,281,209705,1,0,0:0:0:0:
263,293,209855,1,0,0:0:0:0:
65,345,210005,1,0,0:0:0:0:
199,177,210155,1,0,0:0:0:0:
372,270,210305,6,0,P|411:273|466:178,1,157.5
341,80,210605,2,0,P|327:134|404:196,1,157.5
405,120,210905,5,0,0:0:0:0:
412,100,210980,1,0,0:0:0:0:
412,73,211055,1,0,0:0:0:0:
402,43,211130,1,0,0:0:0:0:
370,15,211205,5,0,0:0:0:0:
317,16,211280,1,0,0:0:0:0:
277,58,211355,1,0,0:0:0:0:
288,125,211430,1,0,0:0:0:0:
356,151,211505,6,0,B|381:166|411:119|363:78|294:88|264:137|229:183|170:171|181:119,1,236.250009012223
142,129,211805,6,0,P|220:145|248:219,1,157.5
162,285,212105,2,0,P|109:262|83:211,1,105
172,96,212405,6,0,P|236:129|260:248,1,196.875
121,298,212705,2,0,P|63:248|64:178,1,131.25
220,93,213005,6,0,P|284:167|250:313,1,236.250009012223
75,296,213305,2,0,P|27:232|65:145,1,157.500006008148
329,186,213605,5,0,0:0:0:0:
150,148,213755,1,0,0:0:0:0:
390,89,213905,6,0,B|428:108|428:108|285:116,1,157.500006008148
191,61,214205,2,0,P|226:58|291:153,1,157.5
247,129,214505,1,0,0:0:0:0:
408,35,214655,1,0,0:0:0:0:
390,263,214805,1,0,0:0:0:0:
210,132,214955,1,0,0:0:0:0:
437,202,215105,6,0,L|509:278,1,105
271,240,215405,2,0,L|252:137,1,105
425,177,215705,5,0,0:0:0:0:
450,330,215855,1,0,0:0:0:0:
246,268,216005,1,0,0:0:0:0:
288,74,216155,1,0,0:0:0:0:
358,326,216305,6,0,B|372:357|329:361|320:322|323:293|340:272|361:243|318:179,1,157.500006008148
231,197,216605,6,0,P|172:172|174:75,1,157.5
312,176,216905,2,0,B|316:192|316:192|311:212|311:212|322:245|317:293,1,105
200,202,217205,6,0,P|137:142|190:41,1,196.875
346,194,217505,2,0,B|349:212|349:212|340:232|340:232|346:279|330:329,1,131.25
165,198,217805,6,0,P|122:131|216:19,1,236.250009012223
376,208,218105,2,0,B|380:232|380:232|362:250|362:250|371:307|352:371,1,157.500006008148
209,98,218405,6,0,L|264:81,1,52.5
274,317,218555,2,0,L|211:320,1,52.5
248,171,218705,6,0,P|268:199|218:196,2,105
122,192,219605,1,0,0:0:0:0:
321,280,219905,6,0,P|363:211|329:130,1,157.5
333,184,220430,1,0,0:0:0:0:
376,169,220505,2,0,L|415:122,1,52.5
379,28,220805,6,0,L|326:92,1,78.7500030040742
137,124,221105,6,0,P|202:57|272:58,1,157.5
205,236,221405,6,0,P|131:244|74:103,1,196.875
297,158,221705,6,0,P|300:271|197:320,1,236.250009012223
208,150,222005,5,0,0:0:0:0:
393,244,222155,1,0,0:0:0:0:
342,81,222305,6,0,L|149:38,1,157.5
92,182,222605,6,0,L|302:149,1,196.875
405,298,222905,6,0,L|161:251,1,236.250009012223
43,359,223205,5,0,0:0:0:0:
226,343,223355,1,0,0:0:0:0:
84,196,223505,2,0,P|46:205|106:236,1,157.5
166,103,223805,2,0,P|191:78|173:133,1,157.5
46,95,224105,5,0,0:0:0:0:
247,223,224255,1,0,0:0:0:0:
113,286,224405,1,0,0:0:0:0:
276,112,224555,1,0,0:0:0:0:
299,294,224705,6,0,P|274:343|170:338,1,157.5
164,315,225005,6,0,P|236:348|345:274,1,196.875
358,287,225305,6,0,P|269:348|186:222,1,236.250009012223
217,269,225605,6,0,L|244:211,1,52.5
339,156,225755,6,0,L|342:234,1,65.625
400,52,225905,5,0,0:0:0:0:
203,78,226055,1,0,0:0:0:0:
436,127,226205,1,0,0:0:0:0:
242,4,226355,1,0,0:0:0:0:
198,197,226505,5,0,0:0:0:0:
185,227,226580,1,0,0:0:0:0:
172,257,226655,1,0,0:0:0:0:
159,287,226730,1,0,0:0:0:0:
90,310,226805,6,0,P|107:316|96:273,1,78.75
172,318,227105,5,0,0:0:0:0:
297,209,227255,1,0,0:0:0:0:
82,204,227405,1,0,0:0:0:0:
325,315,227555,1,0,0:0:0:0:
244,124,227705,6,0,L|236:55,1,52.5
398,233,227855,2,0,L|416:304,1,52.5
152,80,228005,6,0,P|124:41|106:26,1,52.5
92,36,228230,1,0,0:0:0:0:
152,80,228305,6,0,B|162:102|162:102|154:111|154:111|169:132|169:132|165:139|165:139|173:189|115:227,1,157.5
57,301,228605,6,0,B|67:277|67:277|91:284|91:284|120:243|189:222|256:288,1,196.875
256,301,228905,1,0,0:0:0:0:
238,166,229055,1,0,0:0:0:0:
155,356,229205,1,0,0:0:0:0:
379,332,229355,1,0,0:0:0:0:
242,156,229505,6,0,P|207:135|102:217,1,157.5
88,264,229805,6,0,P|158:193|111:101,1,196.875
57,27,230105,6,0,P|54:116|181:146,1,236.250009012223
210,105,230405,1,0,0:0:0:0:
201,244,230555,2,0,L|195:351,1,105
246,180,230855,6,0,L|240:257,1,52.5
251,80,231005,1,0,0:0:0:0:
256,192,231023,12,0,236705,0:0:0:0:
