osu file format v14

[General]
AudioFilename: audio.mp3
AudioLeadIn: 0
PreviewTime: 88708
Countdown: 0
SampleSet: Soft
StackLeniency: 0.7
Mode: 0
LetterboxInBreaks: 0
WidescreenStoryboard: 1

[Editor]
DistanceSpacing: 1.2
BeatDivisor: 4
GridSize: 4
TimelineZoom: 1.6

[Metadata]
Title:Nya-Nya-Nya ^w^
TitleUnicode:Nya-Nya-Nya ^ω^
Artist:MAYBE BABY
ArtistUnicode:МЭЙБИ БЭЙБИ
Creator:Astrolis
Version:Ha-Rd TwT
Source:
Tags:pop russian русский поп хайперпоп хайпер мэйбилэнд мэйбиленд мейбиленд мейбилэнд maybeland friendzone frendzona френдзона мейби бейби hyperpop electronic dance electro hyper edm nyan
BeatmapID:3768263
BeatmapSetID:1833756

[Difficulty]
HPDrainRate:4
CircleSize:3.5
OverallDifficulty:6
ApproachRate:7.5
SliderMultiplier:1.5
SliderTickRate:1

[Events]
//Background and Video events
0,0,"online_background_8993798efe195c9b69a3bcf9251defa0.jpg",0,0
//Break Periods
2,113366,124570
//Storyboard Layer 0 (Background)
//Storyboard Layer 1 (Fail)
//Storyboard Layer 2 (Pass)
//Storyboard Layer 3 (Foreground)
//Storyboard Layer 4 (Overlay)
//Storyboard Sound Samples

[TimingPoints]
3103,382.165605095541,4,2,1,50,1,0
3103,-125,4,2,1,50,0,0
7688,-125,4,2,1,50,0,0
9217,-111.111111111111,4,2,1,50,0,0
15332,-83.3333333333333,4,2,1,80,0,1
26797,-100,4,2,1,80,0,0
27179,-100,4,2,1,80,0,0
27561,-100,4,2,1,70,0,0
32147,-100,4,2,1,20,0,0
32243,-100,4,2,1,70,0,0
38262,-100,4,2,1,20,0,0
38357,-100,4,2,1,70,0,0
39790,-100,4,2,1,70,0,0
51255,-100,4,2,1,70,0,0
51446,-100,4,2,1,10,0,0
51638,-100,4,2,1,70,0,0
51924,-100,4,2,1,10,0,0
52020,-83.3333333333333,4,2,1,80,0,1
63485,-100,4,2,1,80,0,0
63771,-100,4,2,1,10,0,0
63867,-100,4,2,1,80,0,0
64153,-100,4,2,1,10,0,0
64249,-117.647058823529,4,2,1,60,0,0
65587,-117.647058823529,4,2,1,60,0,0
67306,-100,4,2,1,60,0,0
70364,-117.647058823529,4,2,1,60,0,0
73421,-100,4,2,1,60,0,0
74567,-117.647058823529,4,2,1,60,0,0
74950,-117.647058823529,4,2,1,60,0,0
76478,-100,4,2,1,60,0,0
87943,-100,4,2,1,60,0,0
88134,-100,4,2,1,10,0,0
88325,-100,4,2,1,60,0,0
88612,-100,4,2,1,10,0,0
88708,-83.3333333333333,4,2,1,80,0,1
100937,-83.3333333333333,4,2,1,80,0,1
112402,-100,4,2,1,80,0,0
112688,-100,4,2,1,10,0,0
112784,-100,4,2,1,60,0,0
113166,-100,4,2,1,60,0,0
115650,-100,4,2,1,10,0,0
115841,-100,4,2,1,50,0,0
121765,-100,4,2,1,10,0,0
121956,-100,4,2,1,50,0,0
125395,-100,4,2,1,50,0,0
134567,-100,4,2,1,50,0,0
135332,-100,4,2,1,50,0,0
136096,-100,4,2,1,50,0,0
136860,-117.647058823529,4,2,1,50,0,0
137243,-100,4,2,1,50,0,0

[Colours]
Combo1 : 210,172,209
Combo2 : 152,192,214

[HitObjects]
14,140,9217,6,0,P|57:154|145:178,1,134.999995880127,4|2,3:1|2:1,0:0:0:0:
205,240,9790,1,0,0:0:0:0:
205,240,9981,1,8,2:0:0:0:
274,78,10364,2,0,P|272:54|271:35,2,33.7499989700318,2|0|0,0:3|0:0|0:0,0:0:0:0:
332,142,10746,5,2,0:3:0:0:
332,142,10937,1,0,0:0:0:0:
394,204,11128,2,0,P|441:204|473:173,1,67.4999979400636,2|2,2:0|2:0,0:0:0:0:
498,116,11510,2,0,P|501:83|507:70,2,33.7499989700318,2|0|0,0:3|0:0|0:0,0:0:0:0:
411,102,11892,2,0,P|410:61|394:19,1,67.4999979400636,2|2,2:0|2:0,0:0:0:0:
327,15,12274,5,2,0:3:0:0:
327,15,12466,1,0,0:0:0:0:
264,77,12657,2,0,P|223:70|180:61,1,67.4999979400636,2|2,0:3|2:0,0:0:0:0:
119,24,13039,2,0,P|70:46|55:128,1,134.999995880127,8|2,2:0|0:3,0:0:0:0:
52,120,13517,1,0,0:0:0:0:
52,120,13612,1,0,0:0:0:0:
16,200,13803,5,2,2:0:0:0:
16,200,13994,1,2,2:0:0:0:
75,264,14185,2,0,P|146:254|213:246,2,134.999995880127,2|2|0,2:0|2:0|3:0,0:0:0:0:
12,326,15141,1,2,2:0:0:0:
118,374,15332,6,0,P|201:360|306:345,1,179.999994506836,4|0,3:0|3:0,0:0:0:0:
397,382,15905,1,2,2:0:0:0:
469,301,16096,2,0,P|452:279|388:273,1,89.9999972534181,0|0,3:0|0:0,0:0:0:0:
334,180,16478,2,0,P|317:202|253:208,1,89.9999972534181,0|0,3:0|0:0,0:0:0:0:
197,127,16860,5,0,3:0:0:0:
197,127,17052,1,2,2:0:0:0:
258,38,17243,1,0,3:0:0:0:
258,38,17434,1,2,2:0:0:0:
357,80,17625,2,0,P|403:72|456:67,2,89.9999972534181,0|2|0,3:0|2:0|3:0,0:0:0:0:
333,185,18198,1,0,0:0:0:0:
428,236,18389,6,0,P|503:220|511:126,1,179.999994506836,4|0,3:0|3:0,0:0:0:0:
457,36,18962,1,2,2:0:0:0:
359,83,19153,2,0,P|316:78|254:61,1,89.9999972534181,0|0,3:0|0:0,0:0:0:0:
190,139,19536,2,0,P|200:182|206:227,1,89.9999972534181,0|0,3:0|0:0,0:0:0:0:
227,337,19918,5,0,3:0:0:0:
227,337,20109,1,2,2:0:0:0:
127,377,20300,1,0,3:0:0:0:
127,377,20491,1,2,2:0:0:0:
40,312,20682,2,0,P|35:273|22:211,2,89.9999972534181,0|2|0,3:0|2:0|3:0,0:0:0:0:
120,240,21255,1,0,0:0:0:0:
69,144,21446,6,0,P|27:118|85:20,1,179.999994506836,4|0,3:0|3:0,0:0:0:0:
158,84,22020,1,2,2:0:0:0:
249,26,22211,2,0,P|265:84|269:125,1,89.9999972534181,0|0,3:0|0:0,0:0:0:0:
336,196,22593,2,0,P|320:254|316:295,1,89.9999972534181,0|0,3:0|0:0,0:0:0:0:
249,368,22975,5,0,3:0:0:0:
249,368,23166,1,2,2:0:0:0:
184,281,23357,1,0,3:0:0:0:
184,281,23548,1,2,2:0:0:0:
248,194,23739,2,0,P|319:191|352:203,2,89.9999972534181,0|2|0,3:0|2:0|3:0,0:0:0:0:
161,128,24313,1,0,0:0:0:0:
220,37,24504,6,0,P|301:48|416:57,1,179.999994506836,4|0,3:0|3:0,0:0:0:0:
501,21,25077,1,2,2:0:0:0:
509,128,25268,2,0,P|475:164|426:164,1,89.9999972534181,0|0,3:0|0:0,0:0:0:0:
353,236,25650,2,0,P|387:272|436:272,1,89.9999972534181,0|0,3:0|0:0,0:0:0:0:
488,362,26032,6,0,P|437:371|423:375,1,44.999998626709,0|0,3:0|0:0,0:0:0:0:
389,380,26224,1,2,2:0:0:0:
299,319,26415,6,0,P|248:310|234:306,1,44.999998626709,0|0,3:0|0:0,0:0:0:0:
200,301,26607,1,2,2:0:0:0:
134,361,26797,6,0,P|107:315|130:243,1,112.5,0|0,3:0|0:0,0:0:0:0:
117,259,27179,1,2,0:3:0:0:
193,210,27370,1,2,2:0:0:0:
139,137,27561,6,0,P|144:71|228:50,1,150,0|2,3:0|2:1,0:0:0:0:
272,114,28134,1,2,0:3:0:0:
272,114,28325,1,8,2:0:0:0:
16,200,28899,1,2,2:0:0:0:
210,12,29472,2,0,P|118:25|31:24,1,150,0|8,3:0|2:0,0:0:0:0:
16,200,30236,2,0,P|90:202|136:212,1,112.5,2|0,3:2|0:0,0:0:0:0:
127,209,30618,6,0,P|156:192|238:276,1,150,0|2,3:0|2:1,0:0:0:0:
167,299,31192,1,2,0:3:0:0:
167,299,31383,1,8,2:0:0:0:
319,202,31765,1,2,0:3:0:0:
319,202,31956,1,2,2:1:0:0:
124,14,32529,1,2,3:2:0:0:
124,14,32720,2,0,P|74:26|36:28,1,75,0|8,3:0|2:0,0:0:0:0:
64,116,33102,2,0,P|114:109|214:62,1,150,0|2,3:0|2:0,0:0:0:0:
279,18,33676,6,0,B|374:38|308:69|404:90,1,150,0|2,3:0|2:1,0:0:0:0:
478,37,34249,1,2,0:3:0:0:
478,37,34440,1,8,2:0:0:0:
239,164,35013,1,2,2:0:0:0:
482,281,35587,2,0,P|516:232|461:160,1,150,0|8,3:0|2:0,0:0:0:0:
317,253,36351,2,0,P|288:302|327:362,1,112.5,2|0,3:2|0:0,0:0:0:0:
307,349,36733,6,0,P|347:358|459:371,1,150,0|2,3:0|2:1,0:0:0:0:
502,295,37306,1,2,0:3:0:0:
502,295,37497,1,8,2:0:0:0:
368,173,37880,1,2,0:3:0:0:
368,173,38071,1,2,2:1:0:0:
154,337,38644,1,2,3:2:0:0:
154,337,38835,2,0,P|171:370|225:380,1,75,0|8,3:0|2:0,0:0:0:0:
237,299,39217,2,0,P|221:246|221:118,1,150,0|2,3:0|2:0,0:0:0:0:
204,62,39790,6,0,P|150:79|133:122,1,75,0|0,3:0|0:0,0:0:0:0:
74,153,40173,2,0,P|100:178|137:182,1,75,0|0,3:0|0:0,0:0:0:0:
220,217,40555,2,0,P|228:181|214:147,1,75,0|0,3:0|3:0,0:0:0:0:
214,147,40841,1,0,3:0:0:0:
214,147,40937,1,2,2:0:0:0:
287,94,41128,1,2,3:2:0:0:
349,158,41319,6,0,P|399:156|454:147,1,75,0|0,3:0|0:0,0:0:0:0:
473,77,41701,2,0,P|435:72|398:71,1,75,0|0,3:0|0:0,0:0:0:0:
332,11,42083,2,0,P|294:15|257:16,1,75,0|0,3:0|3:0,0:0:0:0:
257,16,42370,1,0,3:0:0:0:
257,16,42466,1,2,2:0:0:0:
190,76,42657,1,2,3:2:0:0:
117,22,42848,6,0,P|71:29|40:73,1,75,0|0,3:0|0:0,0:0:0:0:
56,137,43230,2,0,P|28:174|37:227,1,75,0|0,3:0|0:0,0:0:0:0:
92,264,43612,2,0,P|99:310|143:341,1,75,0|0,3:0|3:0,0:0:0:0:
117,330,43899,1,0,3:0:0:0:
117,330,43994,1,2,2:0:0:0:
202,299,44185,1,2,3:2:0:0:
255,371,44376,6,0,P|308:368|359:370,1,75,0|0,3:0|0:0,0:0:0:0:
369,287,44759,2,0,P|368:249|366:212,1,75,0|0,3:0|0:0,0:0:0:0:
313,139,45141,2,0,P|275:139|238:141,1,75,0|0,3:0|3:0,0:0:0:0:
238,141,45427,1,0,3:0:0:0:
238,141,45523,1,2,2:0:0:0:
178,208,45714,1,2,3:2:0:0:
118,140,45905,6,0,P|121:93|163:65,1,75,0|0,3:0|0:0,0:0:0:0:
227,61,46287,2,0,P|262:29|311:39,1,75,0|0,3:0|0:0,0:0:0:0:
365,74,46669,2,0,P|412:77|440:119,1,75,0|0,3:0|3:0,0:0:0:0:
431,94,46956,1,0,3:0:0:0:
431,94,47052,1,2,2:0:0:0:
374,165,47243,1,2,3:2:0:0:
420,242,47434,6,0,P|462:248|503:252,1,75,0|0,3:0|0:0,0:0:0:0:
490,341,47816,2,0,P|448:335|407:331,1,75,0|0,3:0|0:0,0:0:0:0:
330,360,48198,2,0,P|288:366|247:370,1,75,0|0,3:0|3:0,0:0:0:0:
255,369,48485,1,0,3:0:0:0:
255,369,48580,1,2,2:0:0:0:
189,308,48771,1,2,3:2:0:0:
261,255,48962,6,0,P|245:205|245:174,1,75,0|0,3:0|0:0,0:0:0:0:
156,159,49345,2,0,P|152:196|139:231,1,75,0|0,3:0|0:0,0:0:0:0:
71,290,49727,2,0,P|74:327|87:362,1,75,0|0,3:0|3:0,0:0:0:0:
87,362,50013,1,0,3:0:0:0:
87,362,50109,1,2,2:0:0:0:
161,311,50300,1,2,3:2:0:0:
134,225,50491,6,0,P|110:191|3:195,2,150,0|0|2,3:0|3:0|2:0,0:0:0:0:
106,46,51638,1,2,2:0:0:0:
319,15,52020,6,0,P|401:22|521:21,1,179.999994506836,4|0,3:0|3:0,0:0:0:0:
505,129,52593,1,2,2:0:0:0:
422,199,52784,2,0,P|400:166|394:112,1,89.9999972534181,0|0,3:0|0:0,0:0:0:0:
285,106,53166,2,0,P|280:150|256:188,1,89.9999972534181,0|0,3:0|0:0,0:0:0:0:
331,265,53548,5,0,3:0:0:0:
331,265,53739,1,2,2:0:0:0:
226,295,53931,1,0,3:0:0:0:
226,295,54122,1,2,2:0:0:0:
134,237,54313,2,0,P|117:197|131:148,2,89.9999972534181,0|2|0,3:0|2:0|3:0,0:0:0:0:
54,309,54886,1,0,0:0:0:0:
151,355,55077,6,0,P|217:349|336:358,1,179.999994506836,4|0,3:0|3:0,0:0:0:0:
436,376,55650,1,2,2:0:0:0:
506,293,55841,2,0,P|463:264|449:218,1,89.9999972534181,0|0,3:0|0:0,0:0:0:0:
457,121,56224,2,0,P|406:130|363:108,1,89.9999972534181,0|0,3:0|0:0,0:0:0:0:
314,207,56606,5,0,3:0:0:0:
314,207,56797,1,2,2:0:0:0:
258,114,56988,1,0,3:0:0:0:
258,114,57179,1,2,2:0:0:0:
327,31,57370,2,0,P|397:23|446:13,2,89.9999972534181,0|2|0,3:0|2:0|3:0,0:0:0:0:
221,7,57943,1,0,0:0:0:0:
145,84,58134,6,0,P|164:137|191:259,1,179.999994506836,4|0,3:0|3:0,0:0:0:0:
200,365,58708,1,2,2:0:0:0:
93,379,58899,2,0,P|46:360|36:309,1,89.9999972534181,0|0,3:0|0:0,0:0:0:0:
6,221,59281,2,0,P|53:202|63:151,1,89.9999972534181,0|0,3:0|0:0,0:0:0:0:
14,72,59663,5,0,3:0:0:0:
14,72,59854,1,2,2:0:0:0:
105,14,60045,1,0,3:0:0:0:
105,14,60236,1,2,2:0:0:0:
194,73,60427,2,0,P|168:114|147:163,2,89.9999972534181,0|2|0,3:0|2:0|3:0,0:0:0:0:
292,27,61001,1,0,0:0:0:0:
325,129,61192,6,0,P|364:171|482:145,1,179.999994506836,4|0,3:0|3:0,0:0:0:0:
506,49,61765,1,2,2:0:0:0:
405,9,61956,2,0,P|406:69|409:122,1,89.9999972534181,0|0,3:0|0:0,0:0:0:0:
363,197,62338,2,0,P|362:257|359:310,1,89.9999972534181,0|0,3:0|0:0,0:0:0:0:
425,373,62720,6,0,P|477:362|484:356,1,44.999998626709,0|0,3:0|0:0,0:0:0:0:
500,323,62911,1,2,2:0:0:0:
435,236,63102,6,0,P|383:247|376:253,1,44.999998626709,0|0,3:0|0:0,0:0:0:0:
360,286,63293,1,2,2:0:0:0:
317,365,63485,6,0,P|276:359|190:349,1,112.5,0|0,3:0|0:0,0:0:0:0:
205,350,63867,1,2,0:3:0:0:
120,380,64058,1,2,2:0:0:0:
43,332,64249,5,2,3:2:0:0:
43,332,64440,2,0,B|14:285|-5:223|108:183|106:268,1,191.250003647804,0|8,3:0|0:0,0:0:0:0:
14,44,65587,1,2,0:3:0:0:
213,157,66160,2,0,P|150:165|58:179,1,127.50000243187,2|8,3:2|0:0,0:0:0:0:
104,26,66924,2,0,P|167:18|221:8,1,95.6250018239022,2|0,3:2|0:0,0:0:0:0:
198,13,67306,6,0,P|245:16|270:53,1,75,8|2,3:1|0:0,0:0:0:0:
316,106,67688,2,0,P|363:102|388:65,1,75,8|0,3:1|3:0,0:0:0:0:
438,154,68071,2,0,P|493:137|499:27,1,150,8|8,3:1|3:1,0:0:0:0:
436,13,68644,1,2,0:0:0:0:
381,84,68835,5,8,3:1:0:0:
343,167,69026,1,2,3:2:0:0:
343,167,69217,2,0,P|305:157|251:66,1,150,8|8,3:1|3:1,0:0:0:0:
176,17,69790,2,0,P|130:26|103:62,1,75,2|8,0:0|3:1,0:0:0:0:
176,106,70173,1,2,0:0:0:0:
135,183,70364,5,2,3:2:0:0:
135,183,70555,2,0,B|73:131|-2:148|4:262|83:221,1,191.250003647804,0|8,3:0|0:0,0:0:0:0:
272,140,71701,1,2,0:3:0:0:
236,366,72274,2,0,P|198:352|163:266,1,127.50000243187,2|8,3:2|0:0,0:0:0:0:
266,166,73039,2,0,P|305:184|366:202,1,95.6250018239022,2|0,3:2|0:0,0:0:0:0:
355,199,73421,6,0,P|319:228|310:261,1,75,8|2,3:1|0:0,0:0:0:0:
344,337,73803,2,0,P|377:322|414:329,1,75,8|0,3:1|3:0,0:0:0:0:
480,267,74185,2,0,P|466:232|435:211,1,75,8|2,3:1|0:0,0:0:0:0:
387,152,74567,6,0,B|356:103|396:30|503:61|497:105|413:77,1,191.250003647804,8|2,3:1|3:2,0:0:0:0:
384,23,75332,2,0,B|308:62|255:42|255:42|299:43|320:4,1,191.250003647804,8|2,3:1|3:2,0:0:0:0:
284,173,76287,1,2,0:0:0:0:
214,230,76478,6,0,P|243:255|356:227,1,150,2|2,3:2|0:3,0:0:0:0:
430,208,77052,2,0,P|441:294|452:364,1,150,2|0,3:2|0:0,0:0:0:0:
363,377,77625,1,2,3:2:0:0:
363,377,77816,1,0,3:0:0:0:
288,326,78007,6,0,P|251:336|221:380,1,75
138,375,78389,1,2,3:2:0:0:
138,375,78580,2,0,P|107:343|104:292,1,75,2|8,3:2|0:0,0:0:0:0:
160,247,78962,2,0,P|177:184|206:99,1,150,2|2,3:2|0:0,0:0:0:0:
150,31,79536,5,2,3:2:0:0:
150,31,79727,2,0,P|87:17|36:58,1,112.5,2|2,3:2|3:2,0:0:0:0:
48,39,80109,2,0,P|16:79|49:167,1,150,2|0,3:2|3:0,0:0:0:0:
111,103,80682,1,2,3:2:0:0:
470,106,81446,5,2,3:2:0:0:
470,106,81638,2,0,P|478:63|487:28,1,75,2|8,3:2|0:0,0:0:0:0:
397,12,82020,1,2,3:2:0:0:
327,69,82211,1,2,3:2:0:0:
373,145,82402,1,2,3:2:0:0:
317,215,82593,6,0,P|292:251|351:327,1,150,2|2,3:2|0:3,0:0:0:0:
421,374,83166,1,2,3:2:0:0:
485,310,83357,1,2,0:3:0:0:
485,310,83453,1,2,0:3:0:0:
485,310,83548,2,0,L|491:258,1,37.5,2|2,0:3|0:3,0:0:0:0:
477,252,83739,2,0,P|475:173|456:75,1,150,2|0,3:2|0:0,0:0:0:0:
307,12,84504,5,2,3:2:0:0:
307,12,84695,2,0,P|324:47|422:27,1,150,0|2,3:0|0:0,0:0:0:0:
502,90,85268,1,2,3:2:0:0:
502,90,85364,1,0,3:0:0:0:
502,90,85459,2,0,P|496:119|491:151,1,37.5,2|0,3:2|0:0,0:0:0:0:
489,171,85650,1,0,3:0:0:0:
399,162,85841,6,0,P|332:191|276:172,1,112.5,2|0,3:2|0:0,0:0:0:0:
295,183,86224,2,0,P|246:167|192:169,1,75,2|0,3:2|0:0,0:0:0:0:
149,215,86606,1,0,3:0:0:0:
149,215,86797,2,0,P|88:200|59:110,1,150,2|0,3:2|0:0,0:0:0:0:
73,36,87370,1,2,0:3:0:0:
73,36,87561,6,0,L|131:28,4,37.5,2|2|2|2|2,0:0|0:0|0:0|0:0|0:0,0:0:0:0:
251,10,88325,1,2,0:0:0:0:
369,190,88708,6,0,P|393:126|406:1,1,179.999994506836,4|0,3:0|3:0,0:0:0:0:
497,74,89281,1,2,2:0:0:0:
497,181,89472,2,0,P|499:233|512:288,1,89.9999972534181,0|0,3:0|0:0,0:0:0:0:
429,346,89854,2,0,P|427:294|414:239,1,89.9999972534181,0|0,3:0|0:0,0:0:0:0:
316,223,90236,5,0,3:0:0:0:
316,223,90427,1,2,2:0:0:0:
328,330,90618,1,0,3:0:0:0:
328,330,90810,1,2,2:0:0:0:
230,375,91001,2,0,P|176:365|143:332,2,89.9999972534181,0|2|0,3:0|2:0|3:0,0:0:0:0:
226,267,91574,1,0,0:0:0:0:
120,244,91765,6,0,B|107:131|176:195|180:48,1,179.999994506836,4|0,3:0|3:0,0:0:0:0:
101,3,92338,1,2,2:0:0:0:
17,71,92529,2,0,P|-3:121|15:157,1,89.9999972534181,0|0,3:0|0:0,0:0:0:0:
43,254,92911,2,0,P|93:274|129:256,1,89.9999972534181,0|0,3:0|0:0,0:0:0:0:
205,188,93294,5,0,3:0:0:0:
205,188,93485,1,2,2:0:0:0:
310,165,93676,1,0,3:0:0:0:
310,165,93867,1,2,2:0:0:0:
399,226,94058,2,0,P|454:241|505:257,2,89.9999972534181,0|2|0,3:0|2:0|3:0,0:0:0:0:
395,118,94631,1,0,0:0:0:0:
491,69,94822,6,0,P|410:21|317:50,1,179.999994506836,4|0,3:0|3:0,0:0:0:0:
225,15,95395,1,2,2:0:0:0:
243,121,95587,2,0,P|202:110|140:108,1,89.9999972534181,0|0,3:0|0:0,0:0:0:0:
133,212,95969,2,0,P|174:223|236:225,1,89.9999972534181,0|0,3:0|0:0,0:0:0:0:
243,121,96351,5,0,3:0:0:0:
243,121,96542,1,2,2:0:0:0:
142,95,96733,1,0,3:0:0:0:
142,95,96924,1,2,2:0:0:0:
34,81,97115,2,0,P|22:39|44:-3,2,89.9999972534181,0|2|0,3:0|2:0|3:0,0:0:0:0:
13,187,97688,1,0,0:0:0:0:
98,254,97880,6,0,P|151:233|207:332,1,179.999994506836,4|0,3:0|3:0,0:0:0:0:
122,379,98453,1,2,2:0:0:0:
25,331,98644,2,0,P|16:283|-2:235,1,89.9999972534181,0|0,3:0|0:0,0:0:0:0:
108,228,99026,2,0,P|117:180|135:132,1,89.9999972534181,0|0,3:0|0:0,0:0:0:0:
126,33,99408,6,0,P|153:48|190:51,1,44.999998626709,0|0,3:0|0:0,0:0:0:0:
218,36,99599,1,2,2:0:0:0:
277,125,99790,6,0,P|304:110|341:107,1,44.999998626709,0|0,3:0|0:0,0:0:0:0:
369,122,99981,1,2,2:0:0:0:
435,36,100173,5,0,3:0:0:0:
435,36,100268,1,2,0:0:0:0:
435,36,100364,1,2,0:0:0:0:
511,112,100555,1,0,3:0:0:0:
455,204,100746,1,2,0:0:0:0:
347,208,100937,6,0,P|309:229|325:353,1,179.999994506836,4|0,3:0|3:0,0:0:0:0:
422,375,101510,1,2,2:0:0:0:
506,308,101701,2,0,P|509:272|483:223,1,89.9999972534181,0|0,3:0|0:0,0:0:0:0:
435,129,102083,2,0,P|432:93|458:44,1,89.9999972534181,0|0,3:0|0:0,0:0:0:0:
353,10,102466,5,0,3:0:0:0:
353,10,102657,1,2,2:0:0:0:
263,70,102848,1,0,3:0:0:0:
263,70,103039,1,2,2:0:0:0:
288,174,103230,2,0,P|248:205|206:204,2,89.9999972534181,0|2|0,3:0|2:0|3:0,0:0:0:0:
195,118,103803,1,0,0:0:0:0:
119,194,103994,6,0,P|119:253|233:296,1,179.999994506836,4|0,3:0|3:0,0:0:0:0:
319,270,104567,1,2,2:0:0:0:
369,365,104759,2,0,P|321:365|263:383,1,89.9999972534181,0|0,3:0|0:0,0:0:0:0:
173,365,105141,2,0,P|129:375|84:375,1,89.9999972534181,0|0,3:0|0:0,0:0:0:0:
30,281,105523,5,0,3:0:0:0:
30,281,105714,1,2,2:0:0:0:
130,241,105905,1,0,3:0:0:0:
130,241,106096,1,2,2:0:0:0:
225,190,106287,2,0,P|271:168|307:136,2,89.9999972534181,0|2|0,3:0|2:0|3:0,0:0:0:0:
131,135,106860,1,0,0:0:0:0:
35,187,107052,6,0,P|8:149|79:51,1,179.999994506836,4|0,3:0|3:0,0:0:0:0:
168,5,107625,1,2,2:0:0:0:
262,57,107816,2,0,P|308:78|354:83,1,89.9999972534181,0|0,3:0|0:0,0:0:0:0:
378,186,108198,2,0,P|333:192|293:212,1,89.9999972534181,0|0,3:0|0:0,0:0:0:0:
244,308,108580,5,0,3:0:0:0:
244,308,108771,1,2,2:0:0:0:
324,379,108962,1,0,3:0:0:0:
324,379,109153,1,2,2:0:0:0:
428,349,109345,2,0,P|491:367|511:388,2,89.9999972534181,0|2|0,3:0|2:0|3:0,0:0:0:0:
340,285,109918,1,0,0:0:0:0:
431,228,110109,6,0,P|506:217|509:109,1,179.999994506836,4|0,3:0|3:0,0:0:0:0:
476,28,110682,1,2,2:0:0:0:
382,81,110873,2,0,P|337:104|270:105,1,89.9999972534181,0|0,3:0|0:0,0:0:0:0:
225,188,111255,2,0,P|180:181|141:160,1,89.9999972534181,0|0,3:0|0:0,0:0:0:0:
51,98,111638,6,0,P|73:65|96:57,1,44.999998626709,0|0,3:0|0:0,0:0:0:0:
127,43,111829,1,2,2:0:0:0:
234,36,112020,6,0,P|267:57|275:81,1,44.999998626709,0|0,3:0|0:0,0:0:0:0:
298,108,112211,1,2,2:0:0:0:
317,194,112402,6,0,B|281:265|210:302|210:302|285:274|367:348,1,300,0|2,3:0|3:2,0:0:0:0:
469,370,125395,6,0,P|454:310|444:196,1,150,8|8,3:1|3:1,0:0:0:0:
421,140,125969,1,2,0:0:0:0:
421,140,126160,2,0,P|346:147|273:164,1,150,8|8,3:1|3:1,0:0:0:0:
266,344,126924,6,0,P|223:371|180:359,1,75,8|2,3:1|0:0,0:0:0:0:
139,303,127306,2,0,P|137:252|169:221,1,75,8|2,3:1|0:0,0:0:0:0:
237,213,127688,2,0,P|281:236|292:279,1,75,8|2,3:1|0:0,0:0:0:0:
266,344,128071,1,8,3:1:0:0:
361,191,128453,6,0,P|329:140|306:35,1,150,8|8,3:1|3:1,0:0:0:0:
233,21,129026,1,2,0:0:0:0:
233,21,129217,2,0,P|216:93|185:134,1,112.5,8|0,3:1|3:0,0:0:0:0:
195,124,129599,2,0,P|150:133|107:165,1,75,8|2,3:1|0:3,0:0:0:0:
53,202,129981,6,0,P|84:233|95:268,1,75,8|2,3:1|0:0,0:0:0:0:
164,318,130364,2,0,P|177:283|205:258,1,75,8|2,3:1|0:0,0:0:0:0:
268,194,130746,2,0,P|281:228|309:253,1,75,8|2,3:1|0:0,0:0:0:0:
263,331,131128,1,8,3:1:0:0:
437,373,131510,6,0,P|430:321|421:290,1,75,8|8,3:1|3:1,0:0:0:0:
490,238,131892,2,0,P|497:186|506:155,1,75,8|8,3:1|3:1,0:0:0:0:
438,101,132274,2,0,P|431:49|422:18,1,75,8|8,3:1|3:1,0:0:0:0:
334,28,132657,2,0,P|325:64|321:101,1,75,8|8,3:1|3:1,0:0:0:0:
243,147,133039,5,8,3:1:0:0:
243,147,133230,1,8,3:1:0:0:
320,193,133421,1,8,3:1:0:0:
320,193,133612,1,8,3:1:0:0:
312,282,133803,2,0,L|306:329,3,37.5,8|8|8|8,3:1|3:1|3:1|3:1,0:0:0:0:
302,342,134185,2,0,L|255:348,3,37.5,8|8|8|8,3:1|3:1|3:1|3:1,0:0:0:0:
228,373,134567,6,0,P|175:372|10:186,2,300,2|2|2,0:0|0:0|0:0,0:0:0:0:
205,285,136287,1,2,0:0:0:0:
131,233,136478,1,2,0:0:0:0:
131,233,136669,1,2,0:0:0:0:
198,170,136860,6,0,P|206:118|210:33,1,127.50000243187,2|2,0:0|0:0,0:0:0:0:
117,5,137434,1,2,0:0:0:0:
