osu file format v14

[General]
AudioFilename: audio.mp3
AudioLeadIn: 0
PreviewTime: 15834
Countdown: 0
SampleSet: Normal
StackLeniency: 0.7
Mode: 1
LetterboxInBreaks: 0
WidescreenStoryboard: 0

[Editor]
DistanceSpacing: 2.6
BeatDivisor: 4
GridSize: 32
TimelineZoom: 1.9

[Metadata]
Title:Yoshu Fukushu
TitleUnicode:予襲復讐
Artist:MAXIMUM THE HORMONE
ArtistUnicode:マキシマム ザ ホルモン
Creator:Nifty
Version:Pure Emotion
Source:
Tags:heavy alternative nu metal hardcore punk sky mimikajiru vap warner music japan
BeatmapID:1790903
BeatmapSetID:857146

[Difficulty]
HPDrainRate:5
CircleSize:2
OverallDifficulty:6
ApproachRate:10
SliderMultiplier:1.4
SliderTickRate:1

[Events]
//Background and Video events
0,0,"classicfart.jpg",0,-20
//Break Periods
2,72869,92358
//Storyboard Layer 0 (Background)
//Storyboard Layer 1 (Fail)
//Storyboard Layer 2 (Pass)
//Storyboard Layer 3 (Foreground)
//Storyboard Sound Samples

[TimingPoints]
1085,500,4,1,0,15,1,0
1085,-100,4,1,0,15,0,0
7085,491.803278688525,4,1,0,15,1,0
7085,-101.666666666667,4,1,0,15,0,0
9052,533.333333333333,4,1,0,15,1,0
9052,-93.7500000000001,4,1,0,15,0,0
9585,500,4,1,0,15,1,8
9585,-100,4,1,0,15,0,0
11085,500,4,1,0,15,1,0
11085,-100,4,1,0,15,0,0
13085,495.867768595041,4,1,0,15,1,0
13085,-100.833333333333,4,1,0,15,0,0
17051,535.714285714286,4,1,0,15,1,0
17051,-93.3333333333333,4,1,0,15,0,0
17586,500,4,1,0,15,1,8
17586,-100,4,1,0,15,0,0
19086,500,4,1,0,15,1,0
19086,-100,4,1,0,15,0,0
20086,487.80487804878,4,1,0,15,1,8
20086,-102.5,4,1,0,15,0,0
21061,495.867768595041,4,1,0,15,1,0
21061,-100.833333333333,4,1,0,15,0,0
23044,504.201680672269,4,1,0,15,1,0
23044,-99.1666666666667,4,1,0,15,0,0
25060,504.201680672269,4,1,0,15,1,0
25060,-99.1666666666667,4,1,0,15,0,0
27076,500,4,1,0,15,1,0
27076,-100,4,1,0,15,0,0
31576,506.329113924051,4,1,0,15,1,8
31576,-98.7499999999999,4,1,0,15,0,0
32335,500,4,1,0,15,1,8
32335,-100,4,1,0,15,0,0
33085,500,4,1,0,15,1,0
33085,-100,4,1,0,15,0,0
49085,500,4,1,0,80,1,8
49085,-100,4,1,0,80,0,8
49126,489.795918367347,4,1,0,80,1,1
49126,-78.1499202551832,4,1,0,80,0,1
56962,491.803278688525,4,1,0,80,1,1
56962,-77.9054916985953,4,1,0,80,0,1
60896,495.867768595041,4,1,0,80,1,1
60896,-77.4152271273191,4,1,0,80,0,1
63871,500,4,1,0,80,1,9
63871,-74.9354005167958,4,1,0,80,0,9
64621,-74.9354005167958,4,1,0,80,0,8
64886,500,4,1,0,80,1,0
64886,-76.9230769230769,4,1,0,80,0,0
65386,-76.9230769230769,4,1,0,80,0,1
68886,508.474576271186,4,1,0,80,1,1
68886,-75.6410256410256,4,1,0,80,0,1
70919,500,4,1,0,80,1,1
70919,-76.9230769230769,4,1,0,80,0,1
72669,-76.9230769230769,4,1,0,80,0,0
72911,526.315789473684,4,1,0,5,1,0
72911,-95,4,1,0,5,0,0
75016,512.820512820513,4,1,0,5,1,0
75016,-97.5,4,1,0,5,0,0
79094,495.867768595041,4,1,0,10,1,0
79094,-100.833333333333,4,1,0,10,0,0
81077,495.867768595041,4,1,0,10,1,8
81077,-100.833333333333,4,1,0,10,0,8
81101,512.820512820513,4,1,0,10,1,0
81101,-97.5,4,1,0,10,0,0
83152,504.201680672269,4,1,0,5,1,0
83152,-99.1666666666667,4,1,0,5,0,0
85168,512.820512820513,4,1,0,5,1,0
85168,-97.5,4,1,0,5,0,0
87219,512.820512820513,4,1,0,10,1,0
87219,-97.5,4,1,0,10,0,0
91321,495.867768595041,4,1,0,15,1,0
91321,-100.833333333333,4,1,0,15,0,0
92808,-90.9090909090909,4,1,0,15,0,0
93304,512.820512820513,4,1,0,25,1,0
93304,-88.8382687927104,4,1,0,25,0,0
94158,-75.4352030947773,4,1,0,35,0,0
95355,497.512437810945,4,1,0,80,1,0
95355,-67.0360110803323,4,1,0,80,0,0
96350,487.80487804878,4,1,0,80,1,8
96350,-68.4931506849315,4,1,0,80,0,8
96593,-72.508639404385,4,1,0,80,0,8
96837,-77.0242156431561,4,1,0,80,0,8
97081,-82.1396390291423,4,1,0,80,0,8
97325,515.021459227468,4,1,0,80,1,1
97325,-83.3333601573762,4,1,0,80,0,9
97840,502.092050209205,4,1,0,80,1,9
97840,-83.3333333333333,4,1,0,80,0,1
99346,502.092050209205,4,1,0,80,1,1
99346,-83.3333333333333,4,1,0,80,0,1
101348,500,4,1,0,80,1,1
101348,-83.3333333333333,4,1,0,80,0,1
109338,500,4,1,0,80,1,9
109338,-83.3333333333333,4,1,0,80,0,9
109352,500,4,1,0,80,1,1
109352,-83.3333333333333,4,1,0,80,0,1
112602,-80,4,1,0,80,0,1
112829,500,4,1,0,80,1,9
112829,-76.9230769230769,4,1,0,80,0,9
113079,-74.0740740740741,4,1,0,80,0,9
113321,461.538461538462,4,1,0,50,1,0
113321,-80,4,1,0,50,0,0
117167,-80,4,1,0,65,0,0
118859,441.176470588235,4,1,0,65,1,0
118859,-82.6446280991736,4,1,0,65,0,0
119753,434.782608695652,4,1,0,80,1,8
119753,-83.3333333333333,4,1,0,80,0,0
119861,-81.9672131147541,4,1,0,80,0,0
119970,-80.6451612903226,4,1,0,80,0,0
120079,-79.3650793650794,4,1,0,80,0,0
120187,-78.125,4,1,0,80,0,0
120296,-76.9230769230769,4,1,0,80,0,0
120405,-75.7575757575758,4,1,0,80,0,0
120513,-74.6268656716418,4,1,0,80,0,0
120613,454.545454545455,4,1,0,80,1,0
120613,-70.4225352112676,4,1,0,80,0,0
133340,454.545454545455,4,1,0,80,1,8
133340,-70.4225352112676,4,1,0,80,0,8
133353,454.545454545455,4,1,0,80,1,0
133353,-70.4225352112676,4,1,0,80,0,0
135171,495.867768595041,4,1,0,80,1,0
135171,-66.6666666666667,4,1,0,80,0,0
137154,491.803278688525,4,1,0,80,1,0
137154,-67.4033149171272,4,1,0,80,0,0
138137,-53.0896431679721,4,1,0,80,0,0
139121,495.867768595041,4,1,0,80,1,0
139121,-53.0896431679721,4,1,0,80,0,0
140112,-67.4033149171272,4,1,0,80,0,0
141104,533.333333333333,4,1,0,80,1,0
141104,-58.8235294117647,4,1,0,80,0,0
142173,250,4,1,0,80,1,0
142173,-125,4,1,0,80,0,0
143173,254.237288135593,4,1,0,80,1,0
143173,-99.159663865546,4,1,0,80,0,0
147240,252.100840336134,4,1,0,80,1,0
147240,-99.5815899581592,4,1,0,80,0,0
151273,245.901639344262,4,1,0,80,1,1
151273,-100.826446280992,4,1,0,80,0,1
155207,244.897959183673,4,1,0,80,1,1
155207,-101.030927835052,4,1,0,80,0,1
159125,521.739130434783,4,1,0,80,1,1
159125,-46.6531440162271,4,1,0,80,0,0
159646,-25,4,1,0,80,0,0
160168,-47.6190476190476,4,1,0,80,0,0
160690,-25,4,1,0,80,0,0
161211,-47.6190476190476,4,1,0,80,0,0
161733,-25,4,1,0,80,0,0
161994,-45.4545454545455,4,1,0,80,0,0
162255,480,4,1,0,80,1,9
162255,-47.6190476190476,4,1,0,80,0,9
163215,508.474576271186,4,1,0,80,1,0
163215,-45.4545454545455,4,1,0,80,0,0
163723,-25,4,1,0,80,0,0
164231,-47.6190476190476,4,1,0,80,0,0
164740,-25,4,1,0,80,0,0
165248,-47.6190476190476,4,1,0,80,0,0
165757,-25,4,1,0,80,0,0
166011,-45.4545454545455,4,1,0,80,0,0
166265,500,4,1,0,80,1,9
166265,-46.2962962962963,4,1,0,80,0,1
167282,508.474576271186,4,1,0,80,1,0
167282,-45.4545454545455,4,1,0,80,0,0
167790,-25,4,1,0,80,0,0
168298,-47.6190476190476,4,1,0,80,0,0
168807,-25,4,1,0,80,0,0
169315,-47.6190476190476,4,1,0,80,0,0
169824,-25,4,1,0,80,0,0
170078,-45.4545454545455,4,1,0,80,0,0
170350,500,4,1,0,80,1,9
170350,-46.2962962962963,4,1,0,80,0,1
171349,508.474576271186,4,1,0,80,1,0
171349,-45.4545454545455,4,1,0,80,0,0
171857,-25,4,1,0,80,0,0
172365,-47.6190476190476,4,1,0,80,0,0
172874,-25,4,1,0,80,0,0
173382,-47.6190476190476,4,1,0,80,0,0
173891,-25,4,1,0,80,0,0
174145,-45.4545454545455,4,1,0,80,0,0
174419,500,4,1,0,80,1,9
174419,-46.2962962962963,4,1,0,80,0,1
174585,-45.4545454545455,4,1,0,80,0,1
174752,-44.6428571428571,4,1,0,80,0,1
174919,-43.859649122807,4,1,0,80,0,1
175085,-43.1034482758621,4,1,0,80,0,1
175252,-42.3728813559322,4,1,0,80,0,1
175418,500,4,1,0,5,1,0
175418,-42.3728813559322,4,1,0,5,0,0
177418,-100,4,1,0,25,0,0
191418,495.867768595041,4,1,0,40,1,0
191418,-100.833333333333,4,1,0,40,0,0
193401,491.803278688525,4,1,0,40,1,0
193401,-101.666666666667,4,1,0,40,0,0
195368,500,4,1,0,40,1,0
195368,-100,4,1,0,40,0,0
197368,495.867768595041,4,1,0,40,1,0
197368,-100.833333333333,4,1,0,40,0,0
199351,504.201680672269,4,1,0,40,1,0
199351,-99.1666666666667,4,1,0,40,0,0
199855,-95.8378576788646,4,1,0,40,0,0
200191,-93.8338053173741,4,1,0,40,0,0
200359,-92.8628406557231,4,1,0,40,0,0
200863,-90.0668836678117,4,1,0,40,0,0
201199,-88.2946852780091,4,1,0,40,0,0
201367,500,4,1,0,40,1,0
201367,-88.1691892679934,4,1,0,40,0,0
201867,-85.6653236985258,4,1,0,40,0,0
202200,-84.0736184755027,4,1,0,40,0,0
202367,-83.2998115223756,4,1,0,40,0,0
202867,-81.0613634521333,4,1,0,40,0,0
203200,-79.6347240153123,4,1,0,40,0,0
203367,-78.9400711385555,4,1,0,40,0,0
203700,-77.5865583770382,4,1,0,40,0,0
203867,-76.9270302820626,4,1,0,40,0,0
204200,-75.641049860708,4,1,0,40,0,0
204367,-75.0140491937384,4,1,0,40,0,0
204533,-74.3973576885649,4,1,0,40,0,0
204700,-73.7907771600991,4,1,0,40,0,0
204867,-73.1939547209753,4,1,0,40,0,0
205033,-72.6067090668469,4,1,0,40,0,0
205200,-72.0288115246099,4,1,0,40,0,0
205367,500,4,1,0,40,1,8
205400,491.803278688525,4,1,0,70,1,0
205400,-71.4285714285714,4,1,0,70,0,0
207367,483.870967741935,4,1,0,80,1,1
207367,-55.5555555555556,4,1,0,80,0,1
210270,490.79754601227,4,1,0,80,1,9
210270,-55.6693989071038,4,1,0,80,0,1
211251,480,4,1,0,80,1,1
211251,-55.8659217877095,4,1,0,80,0,1
214611,-55.8659217877095,4,1,0,80,0,0
215091,495.867768595041,4,1,0,80,1,1
215091,-83.3333333333333,4,1,0,80,0,1
217074,483.870967741935,4,1,0,80,1,1
217074,-84.7457627118644,4,1,0,80,0,1
220944,480,4,1,0,80,1,1
220944,-85.4700854700855,4,1,0,80,0,1
221904,461.538461538462,4,1,0,80,1,9
221904,-86.9565217391304,4,1,0,80,0,9
222848,512.820512820513,4,1,0,40,1,0
222848,-97.5,4,1,0,40,0,0
224899,500,4,1,0,40,1,0
224899,-100,4,1,0,40,0,0
226867,504.201680672269,4,1,0,40,1,0
230899,495.867768595041,4,1,0,40,1,0
230899,-100.833333333333,4,1,0,40,0,0
232882,500,4,1,0,40,1,0
232882,-100,4,1,0,40,0,0
236882,495.867768595041,4,1,0,40,1,0
236882,-100.833333333333,4,1,0,40,0,0
238865,495.867768595041,4,1,0,40,1,8
238879,500,4,1,0,50,1,0
238879,-100,4,1,0,50,0,0
254839,487.80487804878,4,1,0,80,1,1
254839,-66.6666666666667,4,1,0,80,0,1
260692,483.870967741935,4,1,0,80,1,1
260692,-67.1140939597315,4,1,0,80,0,1
270208,-66.2251655629139,4,1,0,80,0,1
270369,483.870967741935,4,1,0,80,1,9
270369,-67.1140939597315,4,1,0,80,0,9
270384,495.867768595041,4,1,0,80,1,1
270384,-62.5,4,1,0,80,0,1
274185,-61.7283950617284,4,1,0,80,0,1
274350,487.80487804878,4,1,0,80,1,1
274350,-62.5,4,1,0,80,0,1
278089,-61.7283950617284,4,1,0,80,0,1
278252,-60.9756097560976,4,1,0,80,0,1
283293,-60.2409638554217,4,1,0,80,0,1
283455,-59.5238095238095,4,1,0,80,0,1
283618,-58.8235294117647,4,1,0,80,0,1
283780,-58.1395348837209,4,1,0,80,0,1
283943,-57.4712643678161,4,1,0,80,0,1
284106,-56.8181818181818,4,1,0,80,0,0
284187,-100,4,1,0,80,0,0
286057,491.803278688525,4,1,0,80,1,0

[HitObjects]
250,113,1585,5,8,0:0:0:0:
257,103,2335,1,0,0:0:0:0:
257,103,2585,1,8,0:0:0:0:
258,104,3585,1,8,0:0:0:0:
258,104,4335,1,0,0:0:0:0:
249,98,4585,1,0,0:0:0:0:
249,98,4835,1,8,0:0:0:0:
250,92,5585,1,8,0:0:0:0:
250,92,6335,1,0,0:0:0:0:
250,92,6585,1,8,0:0:0:0:
256,84,7576,1,8,0:0:0:0:
256,89,8314,1,0,0:0:0:0:
256,89,8560,1,0,0:0:0:0:
256,89,8806,1,8,0:0:0:0:
256,89,9052,1,0,0:0:0:0:
257,92,9585,1,8,0:0:0:0:
265,100,10335,1,0,0:0:0:0:
265,100,10585,1,8,0:0:0:0:
265,100,11085,1,0,0:0:0:0:
265,100,11585,1,8,0:0:0:0:
265,100,12335,1,0,0:0:0:0:
265,100,12585,1,0,0:0:0:0:
265,100,12835,1,8,0:0:0:0:
265,100,13085,1,0,0:0:0:0:
266,98,13580,1,8,0:0:0:0:
266,98,14324,1,0,0:0:0:0:
266,98,14572,1,8,0:0:0:0:
266,98,15068,1,0,0:0:0:0:
266,98,15564,1,8,0:0:0:0:
266,98,16308,1,0,0:0:0:0:
264,86,16556,1,0,0:0:0:0:
264,86,16804,1,8,0:0:0:0:
253,123,17051,5,0,0:0:0:0:
258,91,17585,1,8,0:0:0:0:
265,94,18335,1,0,0:0:0:0:
261,84,18585,1,8,0:0:0:0:
261,84,19085,1,0,0:0:0:0:
261,84,19585,1,8,0:0:0:0:
261,84,20085,1,8,0:0:0:0:
267,82,20573,1,0,0:0:0:0:
267,82,20817,1,8,0:0:0:0:
267,82,21061,1,0,0:0:0:0:
267,82,21308,1,0,0:0:0:0:
264,78,21556,1,8,0:0:0:0:
264,78,22300,1,0,0:0:0:0:
264,78,22548,1,8,0:0:0:0:
264,78,23044,1,0,0:0:0:0:
264,78,23548,1,8,0:0:0:0:
264,78,24304,1,0,0:0:0:0:
264,78,24556,1,0,0:0:0:0:
264,78,24808,1,8,0:0:0:0:
264,78,25060,1,0,0:0:0:0:
264,78,25564,1,8,0:0:0:0:
265,80,26320,1,0,0:0:0:0:
265,80,26572,1,8,0:0:0:0:
265,80,27076,1,0,0:0:0:0:
265,80,27576,1,8,0:0:0:0:
265,78,28076,1,8,0:0:0:0:
265,78,28326,1,0,0:0:0:0:
263,73,28576,1,8,0:0:0:0:
263,73,28826,1,8,0:0:0:0:
263,73,29076,1,0,0:0:0:0:
263,73,29326,1,0,0:0:0:0:
263,73,29576,1,8,0:0:0:0:
263,73,30326,1,0,0:0:0:0:
263,73,30576,1,8,0:0:0:0:
263,73,31076,1,0,0:0:0:0:
263,73,31576,1,8,0:0:0:0:
263,73,32335,1,0,0:0:0:0:
263,73,32585,1,0,0:0:0:0:
263,73,32835,1,8,0:0:0:0:
263,73,33085,1,0,0:0:0:0:
263,72,33585,1,8,0:0:0:0:
263,73,34085,1,0,0:0:0:0:
263,73,34335,1,0,0:0:0:0:
254,72,34585,1,8,0:0:0:0:
259,73,35085,1,0,0:0:0:0:
259,73,35585,1,8,0:0:0:0:
259,73,36085,1,0,0:0:0:0:
254,67,36335,1,0,0:0:0:0:
254,67,36585,1,8,0:0:0:0:
254,67,36835,1,8,0:0:0:0:
254,67,37085,1,0,0:0:0:0:
254,78,37335,1,0,0:0:0:0:
254,78,37585,1,8,0:0:0:0:
250,83,38335,1,0,0:0:0:0:
250,83,38585,1,8,0:0:0:0:
251,70,39085,1,0,0:0:0:0:
232,94,39585,1,8,0:0:0:0:
232,94,39835,1,0,0:0:0:0:
251,71,40085,1,0,0:0:0:0:
265,66,40335,1,0,0:0:0:0:
265,66,40585,1,8,0:0:0:0:
262,59,41085,1,0,0:0:0:0:
262,60,41585,1,8,0:0:0:0:
261,59,42335,1,0,0:0:0:0:
261,59,42585,1,8,0:0:0:0:
261,59,43085,1,0,0:0:0:0:
261,59,43585,1,8,0:0:0:0:
260,57,44085,1,0,0:0:0:0:
260,57,44335,1,8,0:0:0:0:
260,57,44585,1,0,0:0:0:0:
260,57,44835,1,8,0:0:0:0:
260,57,45085,1,0,0:0:0:0:
260,57,45335,1,0,0:0:0:0:
260,57,45585,1,8,0:0:0:0:
260,57,46335,1,0,0:0:0:0:
261,57,46585,1,8,0:0:0:0:
261,57,47085,1,0,0:0:0:0:
259,59,47585,1,8,0:0:0:0:
258,57,47835,1,0,0:0:0:0:
258,57,48085,1,0,0:0:0:0:
254,57,49126,1,4,0:0:0:0:
256,93,49615,1,8,0:0:0:0:
258,62,50105,1,4,0:0:0:0:
266,94,50350,1,0,0:0:0:0:
266,94,50595,1,8,0:0:0:0:
251,68,51085,1,4,0:0:0:0:
257,95,51574,1,8,0:0:0:0:
263,82,52064,1,12,0:0:0:0:
257,74,52309,1,8,0:0:0:0:
257,74,52554,1,0,0:0:0:0:
263,82,52799,1,8,0:0:0:0:
263,82,53044,1,4,0:0:0:0:
256,73,53534,1,8,0:0:0:0:
257,73,54023,1,4,0:0:0:0:
257,73,54268,1,0,0:0:0:0:
257,73,54513,1,8,0:0:0:0:
257,74,55003,1,4,0:0:0:0:
257,74,55493,1,8,0:0:0:0:
257,74,55983,1,12,0:0:0:0:
257,74,56228,1,0,0:0:0:0:
257,74,56472,1,8,0:0:0:0:
257,74,56717,1,8,0:0:0:0:
302,128,56962,5,4,0:0:0:0:
269,75,57453,1,8,0:0:0:0:
269,75,57945,1,4,0:0:0:0:
269,75,58191,1,0,0:0:0:0:
269,75,58437,1,8,0:0:0:0:
269,75,58929,1,4,0:0:0:0:
269,75,59421,1,8,0:0:0:0:
269,75,59912,1,12,0:0:0:0:
269,75,60158,1,8,0:0:0:0:
269,75,60404,1,0,0:0:0:0:
269,75,60650,1,8,0:0:0:0:
269,75,60896,1,4,0:0:0:0:
269,75,61391,1,8,0:0:0:0:
270,74,61887,1,4,0:0:0:0:
270,74,62135,1,0,0:0:0:0:
268,78,62383,1,8,0:0:0:0:
268,78,62879,1,4,0:0:0:0:
259,71,63375,1,8,0:0:0:0:
259,71,63871,1,12,0:0:0:0:
259,71,64121,1,0,0:0:0:0:
259,71,64371,1,8,0:0:0:0:
260,72,64621,1,8,0:0:0:0:
271,68,65386,1,12,0:0:0:0:
271,70,65886,1,4,0:0:0:0:
271,70,66136,1,0,0:0:0:0:
271,70,66386,1,8,0:0:0:0:
266,65,66886,1,4,0:0:0:0:
263,66,67386,1,8,0:0:0:0:
266,65,67886,1,12,0:0:0:0:
266,65,68136,1,8,0:0:0:0:
266,65,68386,1,0,0:0:0:0:
266,65,68636,1,8,0:0:0:0:
273,68,68886,1,4,0:0:0:0:
256,78,69394,1,8,0:0:0:0:
266,75,69902,1,4,0:0:0:0:
266,75,70157,1,0,0:0:0:0:
266,75,70411,1,8,0:0:0:0:
267,74,70919,1,4,0:0:0:0:
267,74,71419,1,8,0:0:0:0:
267,74,71919,1,12,0:0:0:0:
267,74,72169,1,8,0:0:0:0:
267,74,72419,1,0,0:0:0:0:
267,74,72669,1,8,0:0:0:0:
211,196,92808,6,0,L|239:181,5,25.6666674499512
189,204,93389,2,0,L|240:199,3,26.2649562887192
240,172,94244,2,0,L|273:156,10,30.9316237440425
162,205,95355,2,0,L|216:189,9,34.8071627100105
263,119,96350,5,8,0:0:0:0:
263,119,96593,1,8,0:0:0:0:
263,119,96837,1,8,0:0:0:0:
263,119,97081,1,8,0:0:0:0:
262,119,97325,1,4,0:0:0:0:
265,103,97840,1,8,0:0:0:0:
265,103,98342,1,4,0:0:0:0:
268,94,98593,1,0,0:0:0:0:
268,94,98844,1,8,0:0:0:0:
262,102,99346,1,4,0:0:0:0:
258,90,99848,1,8,0:0:0:0:
269,103,100350,1,12,0:0:0:0:
269,103,100601,1,0,0:0:0:0:
269,99,100852,1,8,0:0:0:0:
269,99,101103,1,8,0:0:0:0:
269,99,101348,1,4,0:0:0:0:
206,92,101848,1,8,0:0:0:0:
251,103,102348,1,4,0:0:0:0:
251,103,102598,1,0,0:0:0:0:
251,103,102848,1,8,0:0:0:0:
251,103,103348,1,4,0:0:0:0:
251,103,103848,1,8,0:0:0:0:
250,102,104348,1,12,0:0:0:0:
250,102,104598,1,0,0:0:0:0:
250,102,104848,1,8,0:0:0:0:
250,102,105098,1,8,0:0:0:0:
250,102,105348,1,4,0:0:0:0:
272,130,105848,1,8,0:0:0:0:
272,130,106348,1,4,0:0:0:0:
272,130,106598,1,0,0:0:0:0:
272,130,106848,1,8,0:0:0:0:
278,132,107348,1,4,0:0:0:0:
278,132,107848,1,8,0:0:0:0:
278,132,108348,1,12,0:0:0:0:
278,132,108598,1,8,0:0:0:0:
278,132,108848,1,8,0:0:0:0:
278,132,109098,1,8,0:0:0:0:
277,132,109352,1,4,0:0:0:0:
274,130,109852,1,8,0:0:0:0:
274,130,110352,1,4,0:0:0:0:
274,130,110602,1,0,0:0:0:0:
274,130,110852,1,8,0:0:0:0:
274,130,111352,1,4,0:0:0:0:
274,130,111852,1,8,0:0:0:0:
274,130,112352,1,12,0:0:0:0:
274,130,112602,1,0,0:0:0:0:
274,130,112829,1,8,0:0:0:0:
274,130,113079,1,8,0:0:0:0:
278,113,113321,1,4,0:0:0:0:
284,116,113782,1,0,0:0:0:0:
284,116,114244,1,0,0:0:0:0:
284,116,114705,1,0,0:0:0:0:
284,117,115167,1,0,0:0:0:0:
283,117,115628,1,0,0:0:0:0:
283,117,116090,1,0,0:0:0:0:
283,117,116551,1,0,0:0:0:0:
283,117,117013,1,0,0:0:0:0:
271,108,117244,1,8,0:0:0:0:
283,117,117474,1,0,0:0:0:0:
277,109,117590,1,0,0:0:0:0:
271,107,117705,1,8,0:0:0:0:
282,117,117936,1,0,0:0:0:0:
271,107,118167,1,8,0:0:0:0:
282,117,118397,1,0,0:0:0:0:
282,106,118513,1,0,0:0:0:0:
282,106,118628,1,8,0:0:0:0:
282,106,118744,1,8,0:0:0:0:
282,117,118859,1,0,0:0:0:0:
271,107,119079,1,8,0:0:0:0:
282,117,119300,1,0,0:0:0:0:
282,117,119410,1,0,0:0:0:0:
271,107,119520,1,8,0:0:0:0:
276,110,119753,1,8,0:0:0:0:
278,102,119861,1,8,0:0:0:0:
276,110,119970,1,8,0:0:0:0:
276,110,120079,1,8,0:0:0:0:
276,110,120187,1,8,0:0:0:0:
276,110,120296,1,8,0:0:0:0:
276,110,120405,1,8,0:0:0:0:
276,110,120513,1,8,0:0:0:0:
282,117,120613,1,4,0:0:0:0:
260,115,120840,1,8,0:0:0:0:
260,115,121067,1,8,0:0:0:0:
260,115,121294,1,0,0:0:0:0:
260,115,121408,1,8,0:0:0:0:
260,115,121635,1,8,0:0:0:0:
263,107,121863,1,0,0:0:0:0:
263,107,121976,1,8,0:0:0:0:
263,107,122090,1,8,0:0:0:0:
263,107,122203,1,0,0:0:0:0:
263,107,122317,1,8,0:0:0:0:
272,106,122582,1,8,0:0:0:0:
272,106,122772,1,0,0:0:0:0:
272,106,122885,1,8,0:0:0:0:
267,98,122999,1,0,0:0:0:0:
267,98,123113,1,0,0:0:0:0:
267,98,123226,1,8,0:0:0:0:
274,91,123491,1,8,0:0:0:0:
274,91,123681,1,0,0:0:0:0:
274,91,123794,1,8,0:0:0:0:
269,82,123908,1,0,0:0:0:0:
306,92,124022,1,8,0:0:0:0:
269,82,124135,1,8,0:0:0:0:
285,107,124249,1,0,0:0:0:0:
285,68,124476,1,8,0:0:0:0:
279,75,124703,1,8,0:0:0:0:
279,75,124931,1,0,0:0:0:0:
279,75,125044,1,8,0:0:0:0:
284,66,125272,1,0,0:0:0:0:
284,66,125385,1,8,0:0:0:0:
284,66,125499,1,0,0:0:0:0:
284,66,125613,1,8,0:0:0:0:
284,66,125726,1,0,0:0:0:0:
284,66,125840,1,0,0:0:0:0:
284,66,125953,1,8,0:0:0:0:
284,66,126181,1,8,0:0:0:0:
284,66,126408,1,0,0:0:0:0:
284,66,126522,1,8,0:0:0:0:
284,66,126749,1,0,0:0:0:0:
284,66,126863,1,8,0:0:0:0:
284,66,127090,1,8,0:0:0:0:
284,66,127317,1,8,0:0:0:0:
284,66,127431,1,0,0:0:0:0:
284,66,127658,1,8,0:0:0:0:
284,66,127772,1,8,0:0:0:0:
284,66,127885,1,4,0:0:0:0:
287,74,128113,1,8,0:0:0:0:
287,74,128340,1,8,0:0:0:0:
287,59,128567,1,0,0:0:0:0:
287,59,128681,1,8,0:0:0:0:
287,59,128908,1,0,0:0:0:0:
287,59,129135,1,0,0:0:0:0:
287,59,129249,1,8,0:0:0:0:
287,59,129476,1,0,0:0:0:0:
288,55,129931,1,8,0:0:0:0:
286,53,130158,1,8,0:0:0:0:
286,53,130385,1,0,0:0:0:0:
286,53,130499,1,8,0:0:0:0:
296,51,130726,1,0,0:0:0:0:
288,47,130840,1,0,0:0:0:0:
305,51,131067,1,8,0:0:0:0:
305,51,131181,1,0,0:0:0:0:
305,51,131294,1,8,0:0:0:0:
296,46,131408,1,8,0:0:0:0:
305,51,131522,1,0,0:0:0:0:
296,46,131635,1,0,0:0:0:0:
305,51,131749,1,8,0:0:0:0:
296,46,131863,1,0,0:0:0:0:
305,51,131976,1,8,0:0:0:0:
296,46,132090,1,0,0:0:0:0:
305,51,132203,1,8,0:0:0:0:
304,48,132544,1,0,0:0:0:0:
304,48,132658,1,8,0:0:0:0:
304,48,132772,1,0,0:0:0:0:
304,48,132885,1,8,0:0:0:0:
304,48,133113,1,0,0:0:0:0:
299,56,133353,1,8,0:0:0:0:
290,59,133580,1,0,0:0:0:0:
290,59,133807,1,8,0:0:0:0:
272,114,133921,1,0,0:0:0:0:
290,59,134035,1,0,0:0:0:0:
290,59,134148,1,8,0:0:0:0:
290,59,134262,1,8,0:0:0:0:
290,59,134489,1,0,0:0:0:0:
295,56,134716,1,8,0:0:0:0:
295,56,134830,1,8,0:0:0:0:
295,56,134944,1,0,0:0:0:0:
295,56,135171,1,4,0:0:0:0:
291,57,136162,1,4,0:0:0:0:
291,57,137154,1,4,0:0:0:0:
290,57,138137,1,4,0:0:0:0:
290,57,138260,1,8,0:0:0:0:
291,56,138506,1,8,0:0:0:0:
275,60,138752,1,8,0:0:0:0:
275,60,138998,1,8,0:0:0:0:
275,60,139121,1,4,0:0:0:0:
263,81,140112,1,4,0:0:0:0:
261,80,141104,1,4,0:0:0:0:
267,87,142037,1,0,0:0:0:0:
267,87,142104,1,0,0:0:0:0:
264,78,142173,1,8,0:0:0:0:
270,73,142298,1,8,0:0:0:0:
270,73,142548,1,8,0:0:0:0:
270,73,142673,1,8,0:0:0:0:
270,73,142798,1,0,0:0:0:0:
270,73,142860,1,0,0:0:0:0:
270,73,142923,1,8,0:0:0:0:
270,73,143173,1,0,0:0:0:0:
273,62,143427,1,8,0:0:0:0:
273,62,143554,1,0,0:0:0:0:
273,62,143681,1,8,0:0:0:0:
273,62,143808,1,8,0:0:0:0:
258,48,143935,1,0,0:0:0:0:
257,48,144062,1,0,0:0:0:0:
257,48,144189,1,8,0:0:0:0:
263,51,144317,1,0,0:0:0:0:
263,51,144444,1,8,0:0:0:0:
263,51,144571,1,0,0:0:0:0:
263,51,144698,1,8,0:0:0:0:
263,51,144825,1,0,0:0:0:0:
262,42,144952,1,8,0:0:0:0:
262,42,145079,1,8,0:0:0:0:
262,49,145206,1,0,0:0:0:0:
273,67,145334,1,8,0:0:0:0:
261,49,145461,1,0,0:0:0:0:
271,56,145588,1,0,0:0:0:0:
261,49,145715,1,8,0:0:0:0:
261,49,145842,1,0,0:0:0:0:
261,49,145969,1,8,0:0:0:0:
261,49,146096,1,8,0:0:0:0:
261,49,146223,1,0,0:0:0:0:
263,93,146350,1,8,0:0:0:0:
250,97,146605,1,0,0:0:0:0:
261,54,146732,1,12,0:0:0:0:
247,96,146986,1,8,0:0:0:0:
247,96,147113,1,8,0:0:0:0:
261,54,147240,1,0,0:0:0:0:
264,75,147492,1,8,0:0:0:0:
264,75,147618,1,8,0:0:0:0:
264,75,147744,1,0,0:0:0:0:
264,75,147870,1,0,0:0:0:0:
264,75,147996,1,8,0:0:0:0:
264,75,148122,1,0,0:0:0:0:
264,75,148248,1,8,0:0:0:0:
264,75,148374,1,8,0:0:0:0:
264,75,148500,1,0,0:0:0:0:
275,80,148626,1,8,0:0:0:0:
275,80,148752,1,0,0:0:0:0:
275,80,148878,1,0,0:0:0:0:
275,80,149004,1,8,0:0:0:0:
275,80,149130,1,8,0:0:0:0:
275,80,149256,1,0,0:0:0:0:
275,80,149382,1,8,0:0:0:0:
275,80,149508,1,0,0:0:0:0:
275,80,149634,1,0,0:0:0:0:
275,80,149761,1,8,0:0:0:0:
275,80,149887,1,0,0:0:0:0:
275,80,150013,1,8,0:0:0:0:
275,80,150139,1,0,0:0:0:0:
271,72,150265,1,8,0:0:0:0:
271,72,150391,1,0,0:0:0:0:
273,71,150643,1,0,0:0:0:0:
273,71,150769,1,12,0:0:0:0:
275,69,151147,1,8,0:0:0:0:
275,69,151273,1,4,0:0:0:0:
284,62,151395,1,8,0:0:0:0:
275,69,151518,1,0,0:0:0:0:
275,69,151580,1,0,0:0:0:0:
275,69,151641,1,8,0:0:0:0:
275,69,151764,1,0,0:0:0:0:
284,63,151887,1,8,0:0:0:0:
276,78,151949,1,8,0:0:0:0:
284,63,152010,1,0,0:0:0:0:
284,63,152133,1,8,0:0:0:0:
281,78,152256,1,0,0:0:0:0:
277,74,152318,1,0,0:0:0:0:
281,78,152379,1,8,0:0:0:0:
281,78,152441,1,8,0:0:0:0:
281,78,152502,1,0,0:0:0:0:
281,78,152625,1,8,0:0:0:0:
281,78,152748,1,0,0:0:0:0:
281,78,152809,1,8,0:0:0:0:
281,78,152871,1,0,0:0:0:0:
281,78,152994,1,8,0:0:0:0:
283,69,153117,1,0,0:0:0:0:
283,69,153240,1,8,0:0:0:0:
283,69,153301,1,0,0:0:0:0:
276,59,153363,1,8,0:0:0:0:
283,69,153424,1,8,0:0:0:0:
274,62,153486,1,0,0:0:0:0:
276,57,153609,1,8,0:0:0:0:
276,57,153732,1,0,0:0:0:0:
276,57,153793,1,8,0:0:0:0:
276,57,153854,1,0,0:0:0:0:
276,57,153916,1,0,0:0:0:0:
276,57,153977,1,8,0:0:0:0:
282,69,154100,1,8,0:0:0:0:
276,53,154223,1,4,0:0:0:0:
266,75,154346,1,8,0:0:0:0:
276,53,154469,1,4,0:0:0:0:
266,75,154592,1,8,0:0:0:0:
276,53,154715,1,4,0:0:0:0:
271,60,154838,1,8,0:0:0:0:
271,60,155084,1,8,0:0:0:0:
264,68,155207,1,4,0:0:0:0:
271,60,155329,1,8,0:0:0:0:
273,73,155451,1,0,0:0:0:0:
272,72,155513,1,0,0:0:0:0:
273,73,155574,1,8,0:0:0:0:
272,72,155696,1,0,0:0:0:0:
258,74,155819,1,8,0:0:0:0:
255,86,155880,1,8,0:0:0:0:
258,74,155941,1,0,0:0:0:0:
258,74,156064,1,8,0:0:0:0:
258,74,156186,1,0,0:0:0:0:
265,67,156247,1,0,0:0:0:0:
264,82,156309,1,8,0:0:0:0:
265,67,156370,1,8,0:0:0:0:
264,82,156431,1,0,0:0:0:0:
264,82,156553,1,8,0:0:0:0:
256,79,156676,1,0,0:0:0:0:
257,70,156737,1,8,0:0:0:0:
257,70,156798,1,0,0:0:0:0:
256,79,156921,1,8,0:0:0:0:
256,79,157043,1,8,0:0:0:0:
256,79,157166,1,0,0:0:0:0:
260,67,157227,1,8,0:0:0:0:
260,67,157288,1,0,0:0:0:0:
260,67,157349,1,0,0:0:0:0:
260,67,157411,1,8,0:0:0:0:
256,79,157533,1,8,0:0:0:0:
256,79,157655,1,0,0:0:0:0:
256,79,157778,1,8,0:0:0:0:
256,79,157839,1,0,0:0:0:0:
256,79,157900,1,8,0:0:0:0:
256,79,158023,1,0,0:0:0:0:
256,79,158145,1,8,0:0:0:0:
248,78,158268,1,0,0:0:0:0:
248,78,158329,1,0,0:0:0:0:
248,78,158390,1,0,0:0:0:0:
217,56,158513,1,0,0:0:0:0:
256,69,158635,1,8,0:0:0:0:
256,69,158758,1,0,0:0:0:0:
256,69,158819,1,0,0:0:0:0:
256,69,158880,1,8,0:0:0:0:
256,69,159002,1,8,0:0:0:0:
249,74,159125,1,0,0:0:0:0:
256,76,159646,1,12,0:0:0:0:
256,76,160168,1,0,0:0:0:0:
256,76,160690,1,12,0:0:0:0:
249,75,161211,1,0,0:0:0:0:
249,75,161733,1,12,0:0:0:0:
291,147,162081,1,0,0:0:0:0:
280,149,162255,1,12,0:0:0:0:
288,140,162415,1,12,0:0:0:0:
288,140,162575,1,12,0:0:0:0:
288,140,162735,1,12,0:0:0:0:
286,124,162895,1,12,0:0:0:0:
286,124,163055,1,12,0:0:0:0:
286,143,163215,1,0,0:0:0:0:
277,117,163723,1,12,0:0:0:0:
277,117,164231,1,0,0:0:0:0:
277,117,164740,1,12,0:0:0:0:
282,122,165248,1,0,0:0:0:0:
285,122,165757,1,12,0:0:0:0:
278,107,166096,1,0,0:0:0:0:
262,108,166265,1,12,0:0:0:0:
274,108,166431,1,12,0:0:0:0:
274,108,166598,1,12,0:0:0:0:
274,108,166765,1,12,0:0:0:0:
274,108,166931,1,12,0:0:0:0:
274,108,167098,1,12,0:0:0:0:
274,108,167282,1,0,0:0:0:0:
275,107,167791,1,12,0:0:0:0:
271,106,168299,1,0,0:0:0:0:
270,106,168808,1,12,0:0:0:0:
267,108,169316,1,0,0:0:0:0:
266,108,169825,1,12,0:0:0:0:
266,108,170164,1,0,0:0:0:0:
266,108,170351,1,12,0:0:0:0:
266,108,170516,1,12,0:0:0:0:
266,108,170683,1,12,0:0:0:0:
266,108,170850,1,12,0:0:0:0:
266,108,171016,1,12,0:0:0:0:
266,108,171183,1,12,0:0:0:0:
266,108,171350,1,0,0:0:0:0:
266,108,171857,1,12,0:0:0:0:
266,108,172365,1,0,0:0:0:0:
266,108,172874,1,12,0:0:0:0:
266,108,173382,1,0,0:0:0:0:
267,108,173891,1,12,0:0:0:0:
267,108,174272,1,0,0:0:0:0:
267,108,174419,1,12,0:0:0:0:
267,108,174585,1,12,0:0:0:0:
267,108,174752,1,12,0:0:0:0:
267,108,174919,1,12,0:0:0:0:
267,108,175085,1,12,0:0:0:0:
267,108,175252,1,12,0:0:0:0:
269,130,178251,1,8,0:0:0:0:
281,134,178418,1,0,0:0:0:0:
286,137,178751,1,0,0:0:0:0:
286,137,178918,1,8,0:0:0:0:
284,137,179251,1,0,0:0:0:0:
284,137,179418,1,8,0:0:0:0:
278,135,179918,1,0,0:0:0:0:
278,136,182751,1,8,0:0:0:0:
278,136,182918,1,8,0:0:0:0:
277,136,183251,1,0,0:0:0:0:
277,136,183418,1,8,0:0:0:0:
279,119,184418,1,8,0:0:0:0:
274,122,185418,1,8,0:0:0:0:
272,112,185751,1,0,0:0:0:0:
272,112,185918,1,8,0:0:0:0:
261,94,186251,1,8,0:0:0:0:
261,94,186418,1,0,0:0:0:0:
263,98,186918,1,0,0:0:0:0:
263,98,187251,1,0,0:0:0:0:
263,98,187418,1,8,0:0:0:0:
272,95,189251,1,0,0:0:0:0:
272,95,189418,1,8,0:0:0:0:
272,95,189918,1,8,0:0:0:0:
272,95,190251,1,8,0:0:0:0:
272,95,190418,1,0,0:0:0:0:
267,95,190918,1,0,0:0:0:0:
267,95,191251,1,0,0:0:0:0:
269,147,191418,5,8,0:0:0:0:
246,102,191913,1,0,0:0:0:0:
269,86,192244,1,8,0:0:0:0:
251,101,192409,1,0,0:0:0:0:
251,101,192905,1,0,0:0:0:0:
251,99,193236,1,0,0:0:0:0:
300,162,193401,1,0,0:0:0:0:
279,110,193892,1,0,0:0:0:0:
275,106,194220,1,8,0:0:0:0:
275,106,194384,1,0,0:0:0:0:
280,103,194876,1,8,0:0:0:0:
278,103,195204,1,8,0:0:0:0:
290,162,195368,1,0,0:0:0:0:
276,103,195868,1,8,0:0:0:0:
276,103,196201,1,8,0:0:0:0:
276,103,196368,1,0,0:0:0:0:
269,97,196868,1,0,0:0:0:0:
269,97,197201,1,0,0:0:0:0:
268,123,197368,1,0,0:0:0:0:
266,93,197863,1,0,0:0:0:0:
266,93,198194,1,8,0:0:0:0:
266,93,198359,1,0,0:0:0:0:
266,93,198690,1,8,0:0:0:0:
266,93,198855,1,0,0:0:0:0:
267,88,199186,1,0,0:0:0:0:
267,88,199351,1,8,0:0:0:0:
271,88,199855,1,0,0:0:0:0:
271,88,200191,1,0,0:0:0:0:
271,88,200359,1,8,0:0:0:0:
271,88,200863,1,0,0:0:0:0:
271,88,201199,1,0,0:0:0:0:
271,88,201367,1,8,0:0:0:0:
269,89,201867,1,8,0:0:0:0:
266,91,202200,1,8,0:0:0:0:
266,91,202367,1,0,0:0:0:0:
282,88,202867,1,0,0:0:0:0:
283,88,203200,1,8,0:0:0:0:
271,112,203367,1,0,0:0:0:0:
274,84,203700,1,8,0:0:0:0:
274,84,203867,1,8,0:0:0:0:
273,90,204200,1,0,0:0:0:0:
273,90,204367,1,8,0:0:0:0:
273,90,204533,1,8,0:0:0:0:
273,90,204700,1,0,0:0:0:0:
273,90,204867,1,8,0:0:0:0:
273,90,205033,1,8,0:0:0:0:
273,90,205200,1,8,0:0:0:0:
265,92,205400,1,0,0:0:0:0:
294,148,207367,1,8,0:0:0:0:
297,131,207447,1,0,0:0:0:0:
296,131,207528,1,0,0:0:0:0:
297,131,207608,1,0,0:0:0:0:
301,123,207689,1,0,0:0:0:0:
300,124,207770,1,0,0:0:0:0:
301,123,207850,1,12,0:0:0:0:
301,123,208012,1,12,0:0:0:0:
301,123,208173,1,12,0:0:0:0:
327,129,208334,1,8,0:0:0:0:
310,117,208415,1,0,0:0:0:0:
310,117,208496,1,0,0:0:0:0:
310,117,208576,1,0,0:0:0:0:
310,117,208657,1,0,0:0:0:0:
305,105,208737,1,0,0:0:0:0:
305,105,208818,1,12,0:0:0:0:
305,105,208979,1,12,0:0:0:0:
305,105,209141,1,12,0:0:0:0:
305,105,209302,1,8,0:0:0:0:
305,105,209383,1,0,0:0:0:0:
305,105,209463,1,0,0:0:0:0:
305,105,209544,1,0,0:0:0:0:
305,105,209625,1,0,0:0:0:0:
305,105,209705,1,0,0:0:0:0:
307,97,209786,1,12,0:0:0:0:
302,115,209947,1,12,0:0:0:0:
302,115,210108,1,12,0:0:0:0:
257,108,210270,1,0,0:0:0:0:
283,98,210433,1,8,0:0:0:0:
283,98,210597,1,0,0:0:0:0:
283,98,210760,1,8,0:0:0:0:
283,98,210924,1,8,0:0:0:0:
283,98,211087,1,8,0:0:0:0:
280,94,211251,1,8,0:0:0:0:
280,94,211331,1,0,0:0:0:0:
280,94,211411,1,0,0:0:0:0:
280,94,211491,1,8,0:0:0:0:
280,94,211571,1,0,0:0:0:0:
280,94,211651,1,0,0:0:0:0:
280,94,211731,1,12,0:0:0:0:
280,94,211891,1,12,0:0:0:0:
280,94,212051,1,12,0:0:0:0:
280,94,212211,1,8,0:0:0:0:
280,94,212291,1,0,0:0:0:0:
280,94,212371,1,0,0:0:0:0:
280,94,212451,1,8,0:0:0:0:
285,89,212531,1,0,0:0:0:0:
285,89,212611,1,0,0:0:0:0:
285,89,212691,1,12,0:0:0:0:
285,89,212851,1,12,0:0:0:0:
285,89,213011,1,12,0:0:0:0:
285,89,213171,1,8,0:0:0:0:
285,89,213251,1,0,0:0:0:0:
285,89,213331,1,0,0:0:0:0:
285,89,213411,1,8,0:0:0:0:
285,89,213491,1,0,0:0:0:0:
285,89,213571,1,0,0:0:0:0:
285,89,213651,1,12,0:0:0:0:
285,89,213811,1,12,0:0:0:0:
285,89,213971,1,12,0:0:0:0:
285,89,214131,1,0,0:0:0:0:
285,89,214291,1,8,0:0:0:0:
285,89,214451,1,0,0:0:0:0:
293,88,214611,1,12,0:0:0:0:
293,88,215091,1,4,0:0:0:0:
284,80,215421,1,0,0:0:0:0:
278,85,215586,1,8,0:0:0:0:
278,85,215752,1,8,0:0:0:0:
278,85,215917,1,8,0:0:0:0:
266,46,216082,1,4,0:0:0:0:
286,78,216248,1,0,0:0:0:0:
286,78,216413,1,0,0:0:0:0:
286,78,216578,1,8,0:0:0:0:
286,78,216743,1,8,0:0:0:0:
286,78,216909,1,8,0:0:0:0:
286,78,217074,1,4,0:0:0:0:
276,78,217235,1,0,0:0:0:0:
276,78,217396,1,0,0:0:0:0:
273,71,217557,1,8,0:0:0:0:
273,71,217719,1,8,0:0:0:0:
273,71,217880,1,8,0:0:0:0:
273,71,218041,1,4,0:0:0:0:
281,70,218203,1,8,0:0:0:0:
281,70,218364,1,0,0:0:0:0:
281,70,218525,1,8,0:0:0:0:
281,70,218686,1,8,0:0:0:0:
281,70,218848,1,8,0:0:0:0:
234,103,219009,1,0,0:0:0:0:
234,103,219090,1,0,0:0:0:0:
234,103,219170,1,0,0:0:0:0:
280,69,219332,1,0,0:0:0:0:
280,69,219493,1,8,0:0:0:0:
280,69,219654,1,8,0:0:0:0:
280,69,219815,1,8,0:0:0:0:
272,88,219977,1,0,0:0:0:0:
272,88,220057,1,0,0:0:0:0:
272,88,220138,1,0,0:0:0:0:
272,88,220299,1,0,0:0:0:0:
272,88,220461,1,8,0:0:0:0:
272,88,220622,1,8,0:0:0:0:
272,88,220783,1,8,0:0:0:0:
272,88,220944,1,0,0:0:0:0:
272,88,221024,1,0,0:0:0:0:
272,88,221104,1,0,0:0:0:0:
272,88,221264,1,0,0:0:0:0:
272,88,221424,1,8,0:0:0:0:
272,88,221584,1,8,0:0:0:0:
279,86,221744,1,8,0:0:0:0:
262,87,221904,1,4,0:0:0:0:
262,87,222057,1,8,0:0:0:0:
262,87,222211,1,0,0:0:0:0:
262,87,222365,1,8,0:0:0:0:
262,87,222519,1,8,0:0:0:0:
262,87,222673,1,8,0:0:0:0:
258,117,225732,1,8,0:0:0:0:
258,117,225899,1,0,0:0:0:0:
257,112,226232,1,8,0:0:0:0:
249,117,226399,1,0,0:0:0:0:
250,117,226649,1,0,0:0:0:0:
250,117,226867,1,8,0:0:0:0:
228,88,227371,1,0,0:0:0:0:
256,96,230228,1,8,0:0:0:0:
261,103,230396,1,8,0:0:0:0:
261,103,230732,1,0,0:0:0:0:
261,103,230899,1,8,0:0:0:0:
265,101,231725,1,0,0:0:0:0:
265,101,231890,1,8,0:0:0:0:
260,116,232717,1,8,0:0:0:0:
242,138,232882,1,0,0:0:0:0:
262,130,233382,1,0,0:0:0:0:
261,127,233882,1,8,0:0:0:0:
261,127,234382,1,8,0:0:0:0:
261,127,234715,1,8,0:0:0:0:
266,114,234882,1,0,0:0:0:0:
271,132,236715,1,0,0:0:0:0:
286,145,236882,1,8,0:0:0:0:
277,143,237212,1,0,0:0:0:0:
277,143,237377,1,0,0:0:0:0:
276,144,237708,1,0,0:0:0:0:
276,144,237873,1,8,0:0:0:0:
276,144,238369,1,8,0:0:0:0:
276,144,238700,1,8,0:0:0:0:
261,154,238879,1,0,0:0:0:0:
273,151,239212,1,8,0:0:0:0:
263,150,239379,1,0,0:0:0:0:
261,149,239879,1,0,0:0:0:0:
276,142,240212,1,8,0:0:0:0:
261,149,240379,1,0,0:0:0:0:
261,149,240879,1,0,0:0:0:0:
277,156,241212,1,8,0:0:0:0:
268,136,241379,1,0,0:0:0:0:
274,146,241712,1,0,0:0:0:0:
267,137,241879,1,0,0:0:0:0:
265,127,242379,1,8,0:0:0:0:
265,127,242712,1,8,0:0:0:0:
266,138,242879,1,0,0:0:0:0:
275,132,243379,1,8,0:0:0:0:
268,135,243879,1,0,0:0:0:0:
268,135,244212,1,0,0:0:0:0:
268,135,244379,1,8,0:0:0:0:
268,135,244879,1,0,0:0:0:0:
268,135,245379,1,8,0:0:0:0:
273,146,245712,1,0,0:0:0:0:
268,135,245879,1,0,0:0:0:0:
263,121,246212,1,8,0:0:0:0:
267,135,246379,1,0,0:0:0:0:
267,135,246545,1,0,0:0:0:0:
266,125,246712,1,8,0:0:0:0:
253,132,246879,1,0,0:0:0:0:
268,121,247379,1,8,0:0:0:0:
267,113,247712,1,8,0:0:0:0:
268,121,247879,1,0,0:0:0:0:
268,123,248379,1,8,0:0:0:0:
266,132,248712,1,0,0:0:0:0:
266,132,248879,1,8,0:0:0:0:
259,123,249379,1,8,0:0:0:0:
263,122,249879,1,0,0:0:0:0:
257,122,250379,1,0,0:0:0:0:
263,120,250712,1,8,0:0:0:0:
210,142,250879,1,0,0:0:0:0:
254,122,251212,1,0,0:0:0:0:
229,137,251379,1,0,0:0:0:0:
246,128,251712,1,0,0:0:0:0:
246,128,251879,1,8,0:0:0:0:
246,129,252212,1,8,0:0:0:0:
246,129,252379,1,8,0:0:0:0:
245,129,252712,1,0,0:0:0:0:
232,133,252879,1,8,0:0:0:0:
276,137,254839,1,12,0:0:0:0:
289,101,255001,1,0,0:0:0:0:
285,127,255164,1,0,0:0:0:0:
277,126,255326,1,8,0:0:0:0:
277,126,255489,1,0,0:0:0:0:
295,117,255652,1,0,0:0:0:0:
295,117,255814,1,8,0:0:0:0:
288,121,255977,1,8,0:0:0:0:
288,121,256139,1,0,0:0:0:0:
288,121,256302,1,8,0:0:0:0:
288,121,256465,1,0,0:0:0:0:
288,121,256627,1,0,0:0:0:0:
288,121,256790,1,8,0:0:0:0:
283,126,256952,1,0,0:0:0:0:
283,126,257115,1,0,0:0:0:0:
283,126,257278,1,8,0:0:0:0:
283,126,257440,1,0,0:0:0:0:
283,126,257603,1,0,0:0:0:0:
283,126,257765,1,8,0:0:0:0:
283,126,257928,1,8,0:0:0:0:
283,126,258091,1,0,0:0:0:0:
283,126,258253,1,8,0:0:0:0:
283,126,258578,1,0,0:0:0:0:
283,126,258741,1,12,0:0:0:0:
283,126,258904,1,0,0:0:0:0:
283,126,259066,1,0,0:0:0:0:
283,126,259229,1,8,0:0:0:0:
283,126,259391,1,0,0:0:0:0:
283,126,259554,1,0,0:0:0:0:
283,126,259717,1,8,0:0:0:0:
283,126,259879,1,8,0:0:0:0:
283,126,260042,1,0,0:0:0:0:
283,126,260204,1,8,0:0:0:0:
283,126,260367,1,0,0:0:0:0:
283,126,260530,1,8,0:0:0:0:
281,110,260692,1,0,0:0:0:0:
282,123,260853,1,0,0:0:0:0:
282,123,261014,1,8,0:0:0:0:
281,110,261175,1,0,0:0:0:0:
281,110,261337,1,0,0:0:0:0:
281,110,261498,1,8,0:0:0:0:
281,110,261659,1,8,0:0:0:0:
281,110,261821,1,0,0:0:0:0:
281,110,261982,1,0,0:0:0:0:
281,110,262143,1,8,0:0:0:0:
281,110,262466,1,0,0:0:0:0:
281,110,262627,1,12,0:0:0:0:
273,109,262788,1,8,0:0:0:0:
273,109,262950,1,0,0:0:0:0:
280,112,263111,1,8,0:0:0:0:
280,112,263272,1,0,0:0:0:0:
280,112,263433,1,8,0:0:0:0:
264,137,263595,1,0,0:0:0:0:
279,111,263756,1,0,0:0:0:0:
279,111,263917,1,8,0:0:0:0:
262,136,264079,1,0,0:0:0:0:
279,110,264240,1,8,0:0:0:0:
279,110,264401,1,8,0:0:0:0:
262,136,264562,1,0,0:0:0:0:
277,113,264724,1,8,0:0:0:0:
277,113,264885,1,0,0:0:0:0:
277,113,265046,1,8,0:0:0:0:
277,113,265208,1,0,0:0:0:0:
277,113,265369,1,0,0:0:0:0:
277,113,265530,1,8,0:0:0:0:
277,113,265692,1,8,0:0:0:0:
277,113,265853,1,0,0:0:0:0:
277,113,266014,1,8,0:0:0:0:
277,113,266337,1,0,0:0:0:0:
277,113,266498,1,12,0:0:0:0:
278,123,266659,1,8,0:0:0:0:
278,123,266821,1,0,0:0:0:0:
272,113,266982,1,8,0:0:0:0:
272,113,267143,1,0,0:0:0:0:
272,113,267304,1,8,0:0:0:0:
272,113,267466,1,8,0:0:0:0:
272,113,267627,1,0,0:0:0:0:
272,113,267788,1,8,0:0:0:0:
284,138,267950,1,0,0:0:0:0:
267,108,268111,1,8,0:0:0:0:
267,108,268272,1,0,0:0:0:0:
267,108,268433,1,8,0:0:0:0:
267,108,268595,1,8,0:0:0:0:
267,108,268756,1,0,0:0:0:0:
267,108,268917,1,8,0:0:0:0:
267,108,269079,1,8,0:0:0:0:
267,108,269240,1,0,0:0:0:0:
267,108,269401,1,8,0:0:0:0:
267,108,269562,1,8,0:0:0:0:
267,108,269724,1,8,0:0:0:0:
282,137,269885,1,8,0:0:0:0:
267,108,270046,1,8,0:0:0:0:
276,124,270208,1,0,0:0:0:0:
274,122,270384,1,8,0:0:0:0:
272,138,270466,1,8,0:0:0:0:
277,124,270549,1,0,0:0:0:0:
277,124,270714,1,0,0:0:0:0:
277,124,270879,1,8,0:0:0:0:
280,132,271045,1,8,0:0:0:0:
280,132,271210,1,0,0:0:0:0:
280,132,271375,1,8,0:0:0:0:
280,132,271541,1,0,0:0:0:0:
280,132,271706,1,0,0:0:0:0:
280,132,271871,1,8,0:0:0:0:
280,132,272036,1,8,0:0:0:0:
280,132,272202,1,0,0:0:0:0:
280,132,272367,1,8,0:0:0:0:
280,132,272532,1,0,0:0:0:0:
280,132,272698,1,0,0:0:0:0:
280,132,272863,1,8,0:0:0:0:
280,132,273193,1,8,0:0:0:0:
280,132,273359,1,8,0:0:0:0:
280,132,273441,1,8,0:0:0:0:
280,132,273524,1,0,0:0:0:0:
280,132,273689,1,8,0:0:0:0:
280,132,273855,1,8,0:0:0:0:
280,132,273937,1,0,0:0:0:0:
280,132,274020,1,0,0:0:0:0:
280,132,274185,1,8,0:0:0:0:
275,129,274350,1,8,0:0:0:0:
282,117,274431,1,8,0:0:0:0:
281,130,274512,1,0,0:0:0:0:
281,130,274675,1,0,0:0:0:0:
281,130,274837,1,8,0:0:0:0:
281,130,275000,1,0,0:0:0:0:
281,130,275163,1,0,0:0:0:0:
284,117,275325,1,8,0:0:0:0:
284,117,275406,1,8,0:0:0:0:
281,130,275488,1,8,0:0:0:0:
281,130,275650,1,0,0:0:0:0:
281,130,275813,1,8,0:0:0:0:
281,130,275976,1,0,0:0:0:0:
281,130,276138,1,0,0:0:0:0:
259,114,276301,1,8,0:0:0:0:
278,119,276382,1,0,0:0:0:0:
278,119,276463,1,0,0:0:0:0:
281,120,276626,1,0,0:0:0:0:
281,120,276789,1,8,0:0:0:0:
281,120,276951,1,0,0:0:0:0:
281,120,277114,1,0,0:0:0:0:
281,120,277276,1,8,0:0:0:0:
281,120,277602,1,8,0:0:0:0:
286,104,277683,1,0,0:0:0:0:
281,120,277764,1,8,0:0:0:0:
281,120,277927,1,0,0:0:0:0:
281,120,278089,1,8,0:0:0:0:
286,104,278171,1,8,0:0:0:0:
228,117,278252,1,8,0:0:0:0:
263,97,278415,1,0,0:0:0:0:
274,112,278577,1,0,0:0:0:0:
263,98,278740,1,8,0:0:0:0:
264,88,278902,1,0,0:0:0:0:
261,94,279065,1,8,0:0:0:0:
286,104,279146,1,0,0:0:0:0:
266,87,279228,1,8,0:0:0:0:
261,94,279390,1,0,0:0:0:0:
262,97,279553,1,0,0:0:0:0:
262,97,279715,1,8,0:0:0:0:
262,97,279878,1,0,0:0:0:0:
262,97,280041,1,8,0:0:0:0:
286,104,280122,1,8,0:0:0:0:
262,97,280203,1,8,0:0:0:0:
262,97,280366,1,0,0:0:0:0:
262,97,280528,1,0,0:0:0:0:
262,97,280691,1,8,0:0:0:0:
284,105,280772,1,8,0:0:0:0:
262,97,280854,1,0,0:0:0:0:
262,97,281016,1,8,0:0:0:0:
262,97,281179,1,8,0:0:0:0:
281,104,281260,1,0,0:0:0:0:
262,97,281341,1,0,0:0:0:0:
262,97,281504,1,0,0:0:0:0:
262,97,281667,1,8,0:0:0:0:
256,89,281992,1,8,0:0:0:0:
279,95,282073,1,0,0:0:0:0:
271,87,282154,1,8,0:0:0:0:
271,87,282317,1,0,0:0:0:0:
271,87,282480,1,0,0:0:0:0:
271,87,282642,1,8,0:0:0:0:
271,87,282805,1,0,0:0:0:0:
271,87,282967,1,0,0:0:0:0:
267,93,283130,1,8,0:0:0:0:
272,78,283293,1,8,0:0:0:0:
272,78,283455,1,8,0:0:0:0:
272,78,283618,1,8,0:0:0:0:
272,78,283780,1,8,0:0:0:0:
272,78,283943,1,8,0:0:0:0:
247,119,284106,1,12,0:0:0:0:
