osu file format v14

[General]
AudioFilename: audio.ogg
AudioLeadIn: 0
PreviewTime:65497
Countdown: 0
SampleSet: Drum
StackLeniency: 0.7
Mode: 3
LetterboxInBreaks: 0
WidescreenStoryboard: 1
SpecialStyle: 0

[Editor]
Bookmarks: 12790,18751,30673,42595
DistanceSpacing: 0.8
BeatDivisor: 12
GridSize: 4
TimelineZoom: 2.599999

[Metadata]
Title:What's up, people?! (TV Size)
TitleUnicode:What's up, people?! (TV Size)
Artist:MAXIMUM THE HORMONE
ArtistUnicode:マキシマム ザ ホルモン
Creator:Shad0wStar
Version:Asteria's Advanced
Source:DEATH NOTE
Tags:デスノート VPCC-81558 Bu-ikikaesu Buiikikaesu ぶっ生き返す opening 2 two whats iijunkiex nightskii asteria_ metal screamo rock j-rock jrock guitar japanese anime ost Revive to Death
BeatmapID:4027020
BeatmapSetID:1944345

[Difficulty]
HPDrainRate:7.3
CircleSize:4
OverallDifficulty:7.3
ApproachRate:5
SliderMultiplier:1.4
SliderTickRate:1

[Events]
//Background and Video events
0,0,"png_20220206_190323_0000-1.png",0,0
Video,-316,"opening2.mp4"
//Break Periods
//Storyboard Layer 0 (Background)
//Storyboard Layer 1 (Fail)
//Storyboard Layer 2 (Pass)
//Storyboard Layer 3 (Foreground)
//Storyboard Layer 4 (Overlay)
//Storyboard Sound Samples
Sample,8030,0,"snaer.wav",70
Sample,8775,0,"snaer.wav",70
Sample,9521,0,"snaer.wav",70
Sample,10266,0,"snaer.wav",70
Sample,11011,0,"snaer.wav",70
Sample,11756,0,"snaer.wav",70
Sample,12408,0,"ride.wav",70
Sample,13991,0,"snaer.wav",70
Sample,14736,0,"snaer.wav",70
Sample,15481,0,"snaer.wav",70
Sample,16227,0,"snaer.wav",70
Sample,16972,0,"snaer.wav",70
Sample,17717,0,"snaer.wav",70
Sample,18369,0,"ride.wav",70
Sample,18741,0,"CrashL.wav",70
Sample,25075,0,"snare2.wav",70
Sample,25820,0,"snare2.wav",70
Sample,26565,0,"snare2.wav",70
Sample,27310,0,"snare2.wav",70
Sample,28055,0,"ride.wav",70
Sample,28055,0,"snare2.wav",70
Sample,28800,0,"ride.wav",70
Sample,28800,0,"snare2.wav",70
Sample,29545,0,"ride.wav",70
Sample,29545,0,"snare2.wav",70
Sample,31874,0,"snaer.wav",70
Sample,32619,0,"snaer.wav",70
Sample,33364,0,"snaer.wav",70
Sample,34109,0,"snaer.wav",70
Sample,34854,0,"snaer.wav",70
Sample,35599,0,"snaer.wav",70
Sample,36251,0,"ride.wav",70
Sample,37835,0,"snaer.wav",70
Sample,38580,0,"snaer.wav",70
Sample,39325,0,"snaer.wav",70
Sample,40070,0,"snaer.wav",70
Sample,40815,0,"snaer.wav",70
Sample,41560,0,"snaer.wav",70
Sample,42212,0,"ride.wav",70
Sample,48546,0,"snaer.wav",20
Sample,48546,0,"Tom3.wav",70
Sample,51526,0,"snaer.wav",40
Sample,51526,0,"Tom3.wav",70
Sample,54507,0,"Tom3.wav",70
Sample,54507,0,"ride.wav",70
Sample,54879,0,"ride.wav",70
Sample,55252,0,"ride.wav",70
Sample,55624,0,"ride.wav",70
Sample,55997,0,"ride.wav",70
Sample,56369,0,"ride.wav",70
Sample,56742,0,"ride.wav",70
Sample,57114,0,"ride.wav",70
Sample,57487,0,"Tom3.wav",70
Sample,57487,0,"ride.wav",70
Sample,57860,0,"ride.wav",70
Sample,58232,0,"ride.wav",70
Sample,58605,0,"ride.wav",70
Sample,58977,0,"ride.wav",70
Sample,59350,0,"ride.wav",70
Sample,59722,0,"ride.wav",70
Sample,60095,0,"ride.wav",70
Sample,60467,0,"Tom3.wav",70
Sample,60467,0,"ride.wav",70
Sample,60840,0,"ride.wav",70
Sample,61213,0,"ride.wav",70
Sample,61585,0,"ride.wav",70
Sample,61958,0,"ride.wav",70
Sample,62330,0,"ride.wav",70
Sample,62703,0,"ride.wav",70
Sample,63075,0,"ride.wav",70
Sample,63448,0,"Tom3.wav",70
Sample,63448,0,"ride.wav",70
Sample,63820,0,"ride.wav",70
Sample,64193,0,"ride.wav",70
Sample,64566,0,"ride.wav",70
Sample,64938,0,"snaer.wav",80
Sample,64938,0,"ride.wav",70
Sample,65311,0,"snaer.wav",80
Sample,65311,0,"ride.wav",70
Sample,65683,0,"Tom3.wav",70
Sample,66446,0,"ride.wav",70
Sample,66938,0,"ride.wav",70
Sample,67430,0,"ride.wav",70
Sample,67676,0,"CrashL.wav",70
Sample,68414,0,"ride.wav",70
Sample,68905,0,"ride.wav",70
Sample,69397,0,"ride.wav",70
Sample,69643,0,"CrashL.wav",70
Sample,70381,0,"ride.wav",70
Sample,70873,0,"ride.wav",70
Sample,71364,0,"ride.wav",70
Sample,71610,0,"CrashL.wav",70
Sample,72348,0,"ride.wav",70
Sample,72840,0,"ride.wav",70

[TimingPoints]
279,372.555107109593,4,3,1,100,1,0
279,-100,4,3,1,100,0,0
6820,372.555107109593,4,3,1,100,1,0
6820,-100,4,3,1,100,0,1
18741,-100,4,3,1,100,0,0
66201,245.901639344262,4,3,1,100,1,0
66201,-151.515151515152,4,3,1,100,0,1
78741,-151.515151515152,4,3,1,100,0,0

[HitObjects]
320,192,279,1,0,0:0:0:70:kick.wav
448,192,279,1,0,0:0:0:70:Tom3.wav
64,192,465,1,0,0:0:0:70:kick.wav
192,192,465,1,0,0:0:0:70:Tom3.wav
320,192,651,1,0,0:0:0:70:kick.wav
448,192,651,1,0,0:0:0:70:Tom3.wav
64,192,837,1,0,0:0:0:0:
192,192,1024,1,0,0:0:0:0:
448,192,1210,1,0,0:0:0:0:
320,192,1396,1,0,0:0:0:0:
192,192,1769,1,0,0:0:0:0:
64,192,2141,1,0,0:0:0:0:
448,192,2328,1,0,0:0:0:0:
320,192,2514,1,0,0:0:0:0:
192,192,2700,1,0,0:0:0:0:
64,192,2886,1,0,0:0:0:0:
192,192,3259,1,0,0:0:0:70:Tom3.wav
64,192,3259,1,0,0:0:0:70:kick.wav
320,192,3445,1,0,0:0:0:70:kick.wav
448,192,3445,1,0,0:0:0:70:Tom3.wav
64,192,3631,1,0,0:0:0:70:kick.wav
192,192,3631,1,0,0:0:0:70:Tom3.wav
448,192,3818,1,0,0:0:0:0:
320,192,4004,1,0,0:0:0:0:
64,192,4190,1,0,0:0:0:0:
192,192,4377,1,0,0:0:0:0:
320,192,4749,1,0,0:0:0:0:
448,192,5122,1,0,0:0:0:0:
64,192,5308,1,0,0:0:0:0:
192,192,5494,1,0,0:0:0:0:
320,192,5681,1,0,0:0:0:0:
448,192,5867,1,0,0:0:0:0:
64,192,6053,128,0,6239:0:0:0:0:
448,192,6239,128,0,6426:0:0:0:0:
192,192,6820,1,0,0:0:0:70:kick.wav
320,192,6820,1,0,0:0:0:70:CrashL.wav
192,192,7006,1,0,0:0:0:70:kick.wav
64,192,7192,1,0,0:0:0:70:snaer.wav
448,192,7192,1,0,0:0:0:70:ride.wav
192,192,7471,1,0,0:0:0:70:snaer.wav
320,192,7565,1,0,0:0:0:70:kick.wav
320,192,7751,1,0,0:0:0:70:kick.wav
64,192,7937,1,0,0:0:0:70:snaer.wav
192,192,7937,1,0,0:0:0:70:ride.wav
320,192,8030,1,0,0:0:0:70:kick.wav
448,192,8217,1,0,0:0:0:70:snaer.wav
192,192,8310,1,0,0:0:0:70:kick.wav
192,192,8496,1,0,0:0:0:70:kick.wav
64,192,8682,1,0,0:0:0:70:snaer.wav
448,192,8682,1,0,0:0:0:70:ride.wav
320,192,8775,1,0,0:0:0:70:kick.wav
192,192,8962,1,0,0:0:0:70:snaer.wav
448,192,9055,1,0,0:0:0:70:kick.wav
448,192,9241,1,0,0:0:0:70:kick.wav
192,192,9427,1,0,0:0:0:70:ride.wav
64,192,9427,1,0,0:0:0:70:snaer.wav
320,192,9521,1,0,0:0:0:70:kick.wav
448,192,9707,1,0,0:0:0:70:snaer.wav
64,192,9800,1,0,0:0:0:70:kick.wav
64,192,9986,1,0,0:0:0:70:kick.wav
192,192,10172,1,0,0:0:0:70:snaer.wav
448,192,10172,1,0,0:0:0:70:ride.wav
320,192,10266,1,0,0:0:0:70:kick.wav
64,192,10452,1,0,0:0:0:70:snaer.wav
448,192,10545,1,0,0:0:0:70:kick.wav
448,192,10731,1,0,0:0:0:70:kick.wav
192,192,10918,1,0,0:0:0:70:snaer.wav
320,192,10918,1,0,0:0:0:70:ride.wav
64,192,11011,1,0,0:0:0:70:kick.wav
448,192,11197,1,0,0:0:0:70:snaer.wav
320,192,11290,1,0,0:0:0:70:kick.wav
320,192,11476,1,0,0:0:0:70:kick.wav
448,192,11663,1,0,0:0:0:70:ride.wav
64,192,11663,1,0,0:0:0:70:snaer.wav
192,192,11756,1,0,0:0:0:70:kick.wav
320,192,11942,1,0,0:0:0:70:snaer.wav
64,192,12035,1,0,0:0:0:70:kick.wav
64,192,12222,1,0,0:0:0:70:kick.wav
320,192,12408,1,0,0:0:0:70:kick.wav
448,192,12408,1,0,0:0:0:70:snaer.wav
64,192,12594,1,0,0:0:0:70:snaer.wav
448,192,12687,1,0,0:0:0:70:snaer.wav
320,192,12780,1,0,0:0:0:70:CrashL.wav
192,192,12780,1,0,0:0:0:70:kick.wav
320,192,12967,1,0,0:0:0:70:kick.wav
64,192,13153,1,0,0:0:0:70:snaer.wav
448,192,13153,1,0,0:0:0:70:ride.wav
320,192,13432,1,0,0:0:0:70:snaer.wav
192,192,13525,1,0,0:0:0:70:kick.wav
192,192,13712,1,0,0:0:0:70:kick.wav
448,192,13898,1,0,0:0:0:70:ride.wav
320,192,13898,1,0,0:0:0:70:snaer.wav
192,192,13991,1,0,0:0:0:70:kick.wav
64,192,14177,1,0,0:0:0:70:snaer.wav
320,192,14271,1,0,0:0:0:70:kick.wav
320,192,14457,1,0,0:0:0:70:kick.wav
64,192,14643,1,0,0:0:0:70:snaer.wav
448,192,14643,1,0,0:0:0:70:ride.wav
192,192,14736,1,0,0:0:0:70:kick.wav
320,192,14923,1,0,0:0:0:70:snaer.wav
64,192,15016,1,0,0:0:0:70:kick.wav
64,192,15202,1,0,0:0:0:70:kick.wav
320,192,15388,1,0,0:0:0:70:snaer.wav
448,192,15388,1,0,0:0:0:70:ride.wav
192,192,15481,1,0,0:0:0:70:kick.wav
64,192,15668,1,0,0:0:0:70:snaer.wav
448,192,15761,1,0,0:0:0:70:kick.wav
448,192,15947,1,0,0:0:0:70:kick.wav
320,192,16133,1,0,0:0:0:70:ride.wav
64,192,16133,1,0,0:0:0:70:snaer.wav
192,192,16227,1,0,0:0:0:70:kick.wav
448,192,16413,1,0,0:0:0:70:snaer.wav
64,192,16506,1,0,0:0:0:70:kick.wav
64,192,16692,1,0,0:0:0:70:kick.wav
192,192,16878,1,0,0:0:0:70:snaer.wav
320,192,16878,1,0,0:0:0:70:ride.wav
448,192,16972,1,0,0:0:0:70:kick.wav
64,192,17158,1,0,0:0:0:70:snaer.wav
192,192,17251,1,0,0:0:0:70:kick.wav
192,192,17437,1,0,0:0:0:70:kick.wav
64,192,17624,1,0,0:0:0:70:snaer.wav
448,192,17624,1,0,0:0:0:70:ride.wav
320,192,17717,1,0,0:0:0:70:kick.wav
192,192,17903,1,0,0:0:0:70:snaer.wav
448,192,17996,1,0,0:0:0:70:kick.wav
448,192,18182,1,0,0:0:0:70:kick.wav
192,192,18369,1,0,0:0:0:70:snaer.wav
64,192,18369,1,0,0:0:0:70:kick.wav
192,192,18741,1,0,0:0:0:70:kick.wav
64,192,18788,1,0,0:0:0:0:
320,192,18928,1,0,0:0:0:0:
448,192,18974,1,0,0:0:0:0:
192,192,19114,1,0,0:0:0:70:kick.wav
192,192,19393,1,0,0:0:0:0:
448,192,19486,1,0,0:0:0:70:kick.wav
320,192,19533,1,0,0:0:0:0:
64,192,19673,1,0,0:0:0:0:
192,192,19719,1,0,0:0:0:0:
320,192,19859,1,0,0:0:0:70:kick.wav
320,192,20138,1,0,0:0:0:0:
192,192,20231,1,0,0:0:0:70:kick.wav
64,192,20278,1,0,0:0:0:0:
448,192,20418,1,0,0:0:0:0:
320,192,20464,1,0,0:0:0:0:
192,192,20604,1,0,0:0:0:70:kick.wav
192,192,20883,1,0,0:0:0:0:
320,192,20977,1,0,0:0:0:70:kick.wav
320,192,21163,1,0,0:0:0:0:
448,192,21349,128,0,21535:0:0:0:70:kick.wav
64,192,21535,128,0,21722:0:0:0:0:
320,192,21722,1,0,0:0:0:70:kick.wav
448,192,21768,1,0,0:0:0:0:
192,192,21908,1,0,0:0:0:0:
64,192,21955,1,0,0:0:0:0:
320,192,22094,1,0,0:0:0:70:kick.wav
320,192,22374,1,0,0:0:0:0:
64,192,22467,1,0,0:0:0:70:kick.wav
192,192,22513,1,0,0:0:0:0:
448,192,22653,1,0,0:0:0:0:
320,192,22700,1,0,0:0:0:0:
192,192,22839,1,0,0:0:0:70:kick.wav
192,192,23119,1,0,0:0:0:0:
320,192,23212,1,0,0:0:0:70:kick.wav
448,192,23258,1,0,0:0:0:0:
64,192,23398,1,0,0:0:0:0:
192,192,23445,1,0,0:0:0:0:
320,192,23584,1,0,0:0:0:70:kick.wav
320,192,23864,1,0,0:0:0:0:
192,192,23957,1,0,0:0:0:70:kick.wav
192,192,24143,1,0,0:0:0:0:
64,192,24330,128,0,24516:0:0:0:70:kick.wav
448,192,24516,128,0,24702:0:0:0:0:
320,192,24609,1,0,0:0:0:0:
64,192,24702,1,0,0:0:0:70:kick.wav
192,192,24749,1,0,0:0:0:0:
448,192,24888,1,0,0:0:0:0:
320,192,24935,1,0,0:0:0:0:
64,192,25075,1,0,0:0:0:70:Tom3.wav
192,192,25261,1,0,0:0:0:0:
64,192,25354,1,0,0:0:0:0:
448,192,25447,1,0,0:0:0:70:kick.wav
320,192,25494,1,0,0:0:0:0:
64,192,25634,1,0,0:0:0:0:
192,192,25680,1,0,0:0:0:0:
448,192,25820,1,0,0:0:0:70:Tom3.wav
320,192,26006,1,0,0:0:0:0:
448,192,26099,1,0,0:0:0:0:
192,192,26192,1,0,0:0:0:70:kick.wav
64,192,26239,1,0,0:0:0:0:
320,192,26332,1,0,0:0:0:0:
448,192,26379,1,0,0:0:0:0:
192,192,26565,1,0,0:0:0:70:Tom3.wav
64,192,26751,1,0,0:0:0:0:
192,192,26844,1,0,0:0:0:0:
320,192,26937,1,0,0:0:0:70:kick.wav
320,192,27124,1,0,0:0:0:0:
448,192,27310,128,0,27496:0:0:0:70:Tom3.wav
64,192,27496,128,0,27683:0:0:0:0:
192,192,27589,1,0,0:0:0:0:
448,192,27683,1,0,0:0:0:70:kick.wav
320,192,27729,1,0,0:0:0:0:
64,192,27869,1,0,0:0:0:0:
192,192,27915,1,0,0:0:0:0:
448,192,28055,1,0,0:0:0:70:Tom3.wav
320,192,28241,1,0,0:0:0:0:
448,192,28335,1,0,0:0:0:0:
64,192,28428,1,0,0:0:0:70:kick.wav
192,192,28474,1,0,0:0:0:0:
448,192,28614,1,0,0:0:0:0:
320,192,28661,1,0,0:0:0:0:
64,192,28800,1,0,0:0:0:70:Tom3.wav
192,192,28987,1,0,0:0:0:0:
64,192,29080,1,0,0:0:0:0:
320,192,29173,1,0,0:0:0:70:kick.wav
448,192,29219,1,0,0:0:0:0:
192,192,29313,1,0,0:0:0:0:
64,192,29359,1,0,0:0:0:0:
320,192,29545,1,0,0:0:0:70:Tom3.wav
448,192,29732,1,0,0:0:0:0:
320,192,29825,1,0,0:0:0:0:
192,192,29918,1,0,0:0:0:70:kick.wav
192,192,30104,1,0,0:0:0:0:
64,192,30290,1,0,0:0:0:70:kick.wav
448,192,30290,1,0,0:0:0:70:Tom3.wav
192,192,30663,1,0,0:0:0:70:kick.wav
320,192,30663,1,0,0:0:0:70:CrashL.wav
192,192,30849,1,0,0:0:0:70:kick.wav
448,192,31036,1,0,0:0:0:70:ride.wav
64,192,31036,1,0,0:0:0:70:snaer.wav
192,192,31315,1,0,0:0:0:70:snaer.wav
320,192,31408,1,0,0:0:0:70:kick.wav
320,192,31594,1,0,0:0:0:70:kick.wav
64,192,31781,1,0,0:0:0:70:snaer.wav
192,192,31781,1,0,0:0:0:70:ride.wav
320,192,31874,1,0,0:0:0:70:kick.wav
448,192,32060,1,0,0:0:0:70:snaer.wav
192,192,32153,1,0,0:0:0:70:kick.wav
192,192,32340,1,0,0:0:0:70:kick.wav
64,192,32526,1,0,0:0:0:70:snaer.wav
448,192,32526,1,0,0:0:0:70:ride.wav
320,192,32619,1,0,0:0:0:70:kick.wav
192,192,32805,1,0,0:0:0:70:snaer.wav
448,192,32898,1,0,0:0:0:70:kick.wav
448,192,33085,1,0,0:0:0:70:kick.wav
192,192,33271,1,0,0:0:0:70:ride.wav
64,192,33271,1,0,0:0:0:70:snaer.wav
320,192,33364,1,0,0:0:0:70:kick.wav
448,192,33550,1,0,0:0:0:70:snaer.wav
64,192,33643,1,0,0:0:0:70:kick.wav
64,192,33830,1,0,0:0:0:70:kick.wav
192,192,34016,1,0,0:0:0:70:snaer.wav
448,192,34016,1,0,0:0:0:70:ride.wav
320,192,34109,1,0,0:0:0:70:kick.wav
64,192,34295,1,0,0:0:0:70:snaer.wav
448,192,34389,1,0,0:0:0:70:kick.wav
448,192,34575,1,0,0:0:0:70:kick.wav
192,192,34761,1,0,0:0:0:70:snaer.wav
320,192,34761,1,0,0:0:0:70:ride.wav
64,192,34854,1,0,0:0:0:70:kick.wav
448,192,35041,1,0,0:0:0:70:snaer.wav
320,192,35134,1,0,0:0:0:70:kick.wav
64,192,35320,1,0,0:0:0:70:kick.wav
192,192,35413,1,0,0:0:0:0:
448,192,35506,1,0,0:0:0:70:ride.wav
320,192,35506,1,0,0:0:0:70:snaer.wav
64,192,35599,1,0,0:0:0:70:kick.wav
320,192,35693,1,0,0:0:0:0:
192,192,35786,1,0,0:0:0:70:snaer.wav
448,192,35879,128,0,36158:0:0:0:70:kick.wav
320,192,36158,1,0,0:0:0:70:kick.wav
64,192,36251,128,0,36624:0:0:0:70:kick.wav
192,192,36251,1,0,0:0:0:70:snaer.wav
448,192,36624,1,0,0:0:0:70:CrashL.wav
320,192,36624,1,0,0:0:0:70:kick.wav
320,192,36810,1,0,0:0:0:70:kick.wav
64,192,36996,1,0,0:0:0:70:snaer.wav
448,192,36996,1,0,0:0:0:70:ride.wav
320,192,37276,1,0,0:0:0:70:snaer.wav
192,192,37369,1,0,0:0:0:70:kick.wav
192,192,37555,1,0,0:0:0:70:kick.wav
320,192,37742,1,0,0:0:0:70:snaer.wav
448,192,37742,1,0,0:0:0:70:ride.wav
192,192,37835,1,0,0:0:0:70:kick.wav
64,192,38021,1,0,0:0:0:70:snaer.wav
320,192,38114,1,0,0:0:0:70:kick.wav
320,192,38300,1,0,0:0:0:70:kick.wav
64,192,38487,1,0,0:0:0:70:snaer.wav
448,192,38487,1,0,0:0:0:70:ride.wav
192,192,38580,1,0,0:0:0:70:kick.wav
320,192,38766,1,0,0:0:0:70:snaer.wav
64,192,38859,1,0,0:0:0:70:kick.wav
64,192,39046,1,0,0:0:0:70:kick.wav
320,192,39232,1,0,0:0:0:70:snaer.wav
448,192,39232,1,0,0:0:0:70:ride.wav
192,192,39325,1,0,0:0:0:70:kick.wav
64,192,39511,1,0,0:0:0:70:snaer.wav
448,192,39604,1,0,0:0:0:70:kick.wav
448,192,39791,1,0,0:0:0:70:kick.wav
64,192,39977,1,0,0:0:0:70:snaer.wav
320,192,39977,1,0,0:0:0:70:ride.wav
192,192,40070,1,0,0:0:0:70:kick.wav
448,192,40256,1,0,0:0:0:70:snaer.wav
64,192,40349,1,0,0:0:0:70:kick.wav
64,192,40536,1,0,0:0:0:70:kick.wav
192,192,40722,1,0,0:0:0:70:snaer.wav
320,192,40722,1,0,0:0:0:70:ride.wav
448,192,40815,1,0,0:0:0:70:kick.wav
64,192,41001,1,0,0:0:0:70:snaer.wav
192,192,41095,1,0,0:0:0:70:kick.wav
192,192,41281,1,0,0:0:0:70:kick.wav
64,192,41467,1,0,0:0:0:70:snaer.wav
448,192,41467,1,0,0:0:0:70:ride.wav
320,192,41560,1,0,0:0:0:70:kick.wav
192,192,41747,1,0,0:0:0:70:snaer.wav
448,192,41840,1,0,0:0:0:70:kick.wav
448,192,42026,1,0,0:0:0:70:kick.wav
64,192,42212,1,0,0:0:0:70:kick.wav
320,192,42212,1,0,0:0:0:70:snaer.wav
192,192,42305,1,0,0:0:0:70:snaer.wav
320,192,42492,1,0,0:0:0:70:snaer.wav
64,192,42585,1,0,0:0:0:70:kick.wav
192,192,42585,1,0,0:0:0:70:Tom3.wav
320,192,42957,1,0,0:0:0:0:
64,192,43144,1,0,0:0:0:0:
448,192,43330,1,0,0:0:0:0:
320,192,43516,1,0,0:0:0:0:
192,192,43702,1,0,0:0:0:0:
192,192,43889,1,0,0:0:0:0:
448,192,44261,1,0,0:0:0:0:
64,192,44448,1,0,0:0:0:0:
64,192,44634,1,0,0:0:0:0:
448,192,44820,1,0,0:0:0:0:
320,192,45006,1,0,0:0:0:0:
192,192,45193,1,0,0:0:0:0:
192,192,45379,1,0,0:0:0:0:
320,192,45565,1,0,0:0:0:0:
320,192,45938,1,0,0:0:0:0:
64,192,46124,1,0,0:0:0:0:
448,192,46310,1,0,0:0:0:0:
320,192,46497,1,0,0:0:0:0:
192,192,46683,1,0,0:0:0:0:
192,192,46869,1,0,0:0:0:0:
448,192,47242,1,0,0:0:0:0:
64,192,47428,1,0,0:0:0:0:
64,192,47614,1,0,0:0:0:0:
448,192,47801,1,0,0:0:0:0:
320,192,47987,1,0,0:0:0:0:
192,192,48173,1,0,0:0:0:0:
192,192,48359,1,0,0:0:0:0:
320,192,48546,128,0,48732:0:0:0:70:kick.wav
320,192,48918,128,0,49105:0:0:0:20:snaer.wav
64,192,49105,128,0,49291:0:0:0:20:snaer.wav
448,192,49291,128,0,49477:0:0:0:20:snaer.wav
320,192,49477,128,0,49663:0:0:0:20:snaer.wav
192,192,49663,128,0,49756:0:0:0:20:snaer.wav
192,192,49850,128,0,50036:0:0:0:20:snaer.wav
448,192,50222,128,0,50408:0:0:0:20:snaer.wav
64,192,50408,128,0,50502:0:0:0:20:snaer.wav
64,192,50595,128,0,50781:0:0:0:20:snaer.wav
448,192,50781,128,0,50967:0:0:0:20:snaer.wav
320,192,50967,128,0,51154:0:0:0:20:snaer.wav
192,192,51154,128,0,51247:0:0:0:20:snaer.wav
192,192,51340,128,0,51526:0:0:0:20:snaer.wav
320,192,51526,128,0,51712:0:0:0:70:kick.wav
320,192,51899,128,0,52085:0:0:0:40:snaer.wav
64,192,52085,128,0,52271:0:0:0:40:snaer.wav
448,192,52271,128,0,52458:0:0:0:40:snaer.wav
320,192,52458,128,0,52644:0:0:0:40:snaer.wav
192,192,52644,128,0,52737:0:0:0:40:snaer.wav
192,192,52830,128,0,53016:0:0:0:40:snaer.wav
448,192,53203,128,0,53389:0:0:0:40:snaer.wav
64,192,53389,128,0,53482:0:0:0:40:snaer.wav
64,192,53575,128,0,53761:0:0:0:40:snaer.wav
448,192,53761,128,0,53948:0:0:0:40:snaer.wav
320,192,53948,128,0,54134:0:0:0:40:snaer.wav
192,192,54134,128,0,54227:0:0:0:40:snaer.wav
192,192,54320,128,0,54507:0:0:0:40:snaer.wav
320,192,54507,128,0,54693:0:0:0:70:kick.wav
448,192,54507,1,0,0:0:0:50:snaer.wav
320,192,54879,128,0,55065:0:0:0:70:kick.wav
448,192,54879,1,0,0:0:0:50:snaer.wav
448,192,55252,128,0,55438:0:0:0:50:snaer.wav
64,192,55252,1,0,0:0:0:70:kick.wav
320,192,55438,128,0,55624:0:0:0:50:snaer.wav
192,192,55624,128,0,55717:0:0:0:70:kick.wav
448,192,55624,1,0,0:0:0:50:snaer.wav
192,192,55810,128,0,55997:0:0:0:50:snaer.wav
64,192,55997,1,0,0:0:0:70:kick.wav
320,192,55997,1,0,0:0:0:50:snaer.wav
448,192,56183,128,0,56369:0:0:0:50:snaer.wav
320,192,56369,1,0,0:0:0:50:snaer.wav
64,192,56369,128,0,56462:0:0:0:70:kick.wav
64,192,56556,128,0,56742:0:0:0:50:snaer.wav
192,192,56742,1,0,0:0:0:70:kick.wav
448,192,56742,128,0,56928:0:0:0:50:snaer.wav
320,192,56928,128,0,57114:0:0:0:50:snaer.wav
64,192,57114,1,0,0:0:0:70:kick.wav
192,192,57114,128,0,57208:0:0:0:50:snaer.wav
192,192,57301,128,0,57487:0:0:0:50:snaer.wav
448,192,57487,1,0,0:0:0:60:snaer.wav
320,192,57487,128,0,57673:0:0:0:70:kick.wav
320,192,57860,128,0,58046:0:0:0:70:kick.wav
448,192,57860,1,0,0:0:0:60:snaer.wav
64,192,58232,1,0,0:0:0:70:kick.wav
448,192,58232,128,0,58418:0:0:0:60:snaer.wav
320,192,58418,128,0,58605:0:0:0:60:snaer.wav
192,192,58605,128,0,58698:0:0:0:70:kick.wav
448,192,58605,1,0,0:0:0:60:snaer.wav
192,192,58791,128,0,58977:0:0:0:60:snaer.wav
320,192,58977,1,0,0:0:0:60:snaer.wav
64,192,58977,1,0,0:0:0:70:kick.wav
448,192,59163,128,0,59350:0:0:0:60:snaer.wav
64,192,59350,128,0,59443:0:0:0:70:kick.wav
320,192,59350,1,0,0:0:0:60:snaer.wav
64,192,59536,128,0,59722:0:0:0:60:snaer.wav
192,192,59722,1,0,0:0:0:70:kick.wav
448,192,59722,128,0,59909:0:0:0:60:snaer.wav
320,192,59909,128,0,60095:0:0:0:60:snaer.wav
192,192,60095,128,0,60188:0:0:0:60:snaer.wav
64,192,60095,1,0,0:0:0:70:kick.wav
192,192,60281,128,0,60467:0:0:0:60:snaer.wav
320,192,60467,128,0,60654:0:0:0:70:kick.wav
448,192,60467,1,0,0:0:0:70:snaer.wav
192,192,60654,1,0,0:0:0:70:snaer.wav
320,192,60840,128,0,61026:0:0:0:70:kick.wav
448,192,60840,1,0,0:0:0:70:snaer.wav
192,192,61026,1,0,0:0:0:70:snaer.wav
64,192,61213,1,0,0:0:0:70:kick.wav
448,192,61213,128,0,61399:0:0:0:70:snaer.wav
320,192,61399,128,0,61585:0:0:0:70:snaer.wav
192,192,61585,128,0,61678:0:0:0:70:kick.wav
448,192,61585,1,0,0:0:0:70:snaer.wav
192,192,61771,128,0,61958:0:0:0:70:snaer.wav
64,192,61958,1,0,0:0:0:70:kick.wav
320,192,61958,1,0,0:0:0:70:snaer.wav
448,192,62144,128,0,62330:0:0:0:70:snaer.wav
320,192,62330,1,0,0:0:0:70:snaer.wav
64,192,62330,128,0,62423:0:0:0:70:kick.wav
64,192,62516,128,0,62703:0:0:0:70:snaer.wav
192,192,62703,1,0,0:0:0:70:kick.wav
448,192,62703,128,0,62889:0:0:0:70:snaer.wav
320,192,62889,128,0,63075:0:0:0:70:snaer.wav
64,192,63075,1,0,0:0:0:70:kick.wav
192,192,63075,128,0,63168:0:0:0:70:snaer.wav
192,192,63262,128,0,63448:0:0:0:70:snaer.wav
448,192,63448,128,0,63634:0:0:0:80:snaer.wav
320,192,63448,128,0,63634:0:0:0:70:kick.wav
192,192,63634,1,0,0:0:0:80:snaer.wav
320,192,63820,128,0,64007:0:0:0:70:kick.wav
448,192,63820,128,0,64007:0:0:0:80:snaer.wav
192,192,64007,1,0,0:0:0:80:snaer.wav
64,192,64193,128,0,64379:0:0:0:70:kick.wav
448,192,64193,128,0,64379:0:0:0:80:snaer.wav
320,192,64379,128,0,64472:0:0:0:0:
192,192,64379,128,0,64472:0:0:0:80:snaer.wav
448,192,64566,128,0,64752:0:0:0:80:snaer.wav
320,192,64566,128,0,64752:0:0:0:70:kick.wav
64,192,64752,128,0,64938:0:0:0:80:snaer.wav
192,192,64752,128,0,64938:0:0:0:0:
448,192,64938,1,0,0:0:0:70:kick.wav
320,192,65031,1,0,0:0:0:80:snaer.wav
64,192,65124,1,0,0:0:0:80:snaer.wav
192,192,65218,1,0,0:0:0:80:snaer.wav
448,192,65311,1,0,0:0:0:70:kick.wav
320,192,65404,1,0,0:0:0:80:snaer.wav
64,192,65497,1,0,0:0:0:80:snaer.wav
192,192,65590,1,0,0:0:0:80:snaer.wav
448,192,65683,1,0,0:0:0:70:kick.wav
320,192,65730,1,0,0:0:0:0:
64,192,65823,1,0,0:0:0:0:
192,192,65869,1,0,0:0:0:0:
448,192,65963,1,0,0:0:0:0:
320,192,66009,1,0,0:0:0:0:
192,192,66201,1,0,0:0:0:70:CrashL.wav
64,192,66201,1,0,0:0:0:70:kick.wav
320,192,66323,1,0,0:0:0:100:snaer.wav
192,192,66446,1,0,0:0:0:70:kick.wav
64,192,66569,1,0,0:0:0:100:snaer.wav
320,192,66692,1,0,0:0:0:70:kick.wav
448,192,66692,1,0,0:0:0:70:ride.wav
192,192,66815,1,0,0:0:0:100:snaer.wav
320,192,66938,1,0,0:0:0:70:kick.wav
448,192,67061,1,0,0:0:0:100:snaer.wav
192,192,67184,1,0,0:0:0:70:ride.wav
64,192,67184,1,0,0:0:0:70:kick.wav
320,192,67307,1,0,0:0:0:100:snaer.wav
192,192,67430,1,0,0:0:0:70:kick.wav
64,192,67553,1,0,0:0:0:100:snaer.wav
448,192,67676,1,0,0:0:0:70:kick.wav
320,192,67707,1,0,0:0:0:0:
64,192,67830,1,0,0:0:0:0:
192,192,67860,1,0,0:0:0:0:
448,192,67983,1,0,0:0:0:0:
320,192,68014,1,0,0:0:0:0:
64,192,68168,1,0,0:0:0:70:kick.wav
192,192,68168,1,0,0:0:0:70:ride.wav
448,192,68291,1,0,0:0:0:100:snaer.wav
64,192,68414,1,0,0:0:0:70:kick.wav
192,192,68537,1,0,0:0:0:100:snaer.wav
320,192,68660,1,0,0:0:0:70:kick.wav
448,192,68660,1,0,0:0:0:70:ride.wav
64,192,68782,1,0,0:0:0:100:snaer.wav
448,192,68905,1,0,0:0:0:70:kick.wav
320,192,69028,1,0,0:0:0:100:snaer.wav
64,192,69151,1,0,0:0:0:70:kick.wav
192,192,69151,1,0,0:0:0:70:ride.wav
448,192,69274,1,0,0:0:0:100:snaer.wav
64,192,69397,1,0,0:0:0:70:kick.wav
192,192,69520,1,0,0:0:0:100:snaer.wav
448,192,69643,1,0,0:0:0:70:kick.wav
320,192,69674,1,0,0:0:0:0:
64,192,69797,1,0,0:0:0:0:
192,192,69828,1,0,0:0:0:0:
448,192,69951,1,0,0:0:0:0:
320,192,69981,1,0,0:0:0:0:
64,192,70135,1,0,0:0:0:70:kick.wav
192,192,70135,1,0,0:0:0:70:ride.wav
320,192,70258,1,0,0:0:0:100:snaer.wav
192,192,70381,1,0,0:0:0:70:kick.wav
64,192,70504,1,0,0:0:0:100:snaer.wav
320,192,70627,1,0,0:0:0:70:kick.wav
448,192,70627,1,0,0:0:0:70:ride.wav
192,192,70750,1,0,0:0:0:100:snaer.wav
320,192,70873,1,0,0:0:0:70:kick.wav
448,192,70996,1,0,0:0:0:100:snaer.wav
64,192,71119,1,0,0:0:0:70:kick.wav
192,192,71119,1,0,0:0:0:70:ride.wav
320,192,71241,1,0,0:0:0:100:snaer.wav
192,192,71364,1,0,0:0:0:70:kick.wav
64,192,71487,1,0,0:0:0:100:snaer.wav
448,192,71610,1,0,0:0:0:70:kick.wav
320,192,71641,1,0,0:0:0:0:
64,192,71764,1,0,0:0:0:0:
192,192,71795,1,0,0:0:0:0:
448,192,71918,1,0,0:0:0:0:
320,192,71948,1,0,0:0:0:0:
192,192,72102,1,0,0:0:0:70:ride.wav
64,192,72102,1,0,0:0:0:70:kick.wav
448,192,72225,1,0,0:0:0:100:snaer.wav
192,192,72348,1,0,0:0:0:70:kick.wav
64,192,72471,1,0,0:0:0:100:snaer.wav
320,192,72594,1,0,0:0:0:70:kick.wav
448,192,72594,1,0,0:0:0:70:ride.wav
64,192,72717,1,0,0:0:0:100:snaer.wav
320,192,72840,1,0,0:0:0:70:kick.wav
448,192,72963,1,0,0:0:0:100:snaer.wav
192,192,73086,1,0,0:0:0:40:CrashL.wav
64,192,73086,1,0,0:0:0:100:snaer.wav
192,192,73209,1,0,0:0:0:100:snaer.wav
320,192,73209,1,0,0:0:0:40:CrashL.wav
320,192,73373,1,0,0:0:0:100:snaer.wav
448,192,73373,1,0,0:0:0:40:CrashL.wav
64,192,73516,128,0,74069:0:0:0:100:snaer.wav
448,192,73516,128,0,74069:0:0:0:40:CrashL.wav
192,192,74069,1,0,0:0:0:70:kick.wav
448,192,74131,1,0,0:0:0:70:CrashL.wav
320,192,74131,1,0,0:0:0:100:snaer.wav
64,192,75176,1,0,0:0:0:70:kick.wav
192,192,75176,1,0,0:0:0:70:CrashL.wav
320,192,75545,1,0,0:0:0:70:kick.wav
192,192,75627,1,0,0:0:0:100:snaer.wav
448,192,75627,1,0,0:0:0:70:CrashL.wav
320,192,75840,1,0,0:0:0:70:CrashL.wav
64,192,75840,1,0,0:0:0:100:snaer.wav
448,192,76200,1,0,0:0:0:70:CrashL.wav
320,192,76200,1,0,0:0:0:100:snaer.wav
192,192,76754,1,0,0:0:0:70:kick.wav
320,192,76754,1,0,0:0:0:70:CrashL.wav
320,192,77102,1,0,0:0:0:0:
448,192,77102,1,0,0:0:0:0:
192,192,77389,1,0,0:0:0:0:
64,192,77410,1,0,0:0:0:100:snaer.wav
320,192,77410,1,0,0:0:0:70:CrashL.wav
320,192,77696,1,0,0:0:0:100:snaer.wav
448,192,77696,1,0,0:0:0:70:CrashL.wav
192,192,77758,1,0,0:0:0:0:
320,192,78004,1,0,0:0:0:70:kick.wav
64,192,78065,1,0,0:0:0:100:snaer.wav
192,192,78065,1,0,0:0:0:70:CrashL.wav
64,192,78762,1,0,0:0:0:70:kick.wav
192,192,78762,1,0,0:0:0:70:CrashL.wav
320,192,79233,1,0,0:0:0:0:
448,192,79315,128,0,79787:0:0:0:0:
64,192,79787,1,0,0:0:0:0:
