osu file format v14

[General]
AudioFilename: audio.mp3
AudioLeadIn: 0
PreviewTime: 64089
Countdown: 0
SampleSet: None
StackLeniency: 0.4
Mode: 0
LetterboxInBreaks: 0
WidescreenStoryboard: 1

[Editor]
DistanceSpacing: 1
BeatDivisor: 4
GridSize: 32
TimelineZoom: 2.899999

[Metadata]
Title:HAWATARI NIOKU CENTI (TV Size)
TitleUnicode:刃渡り2億センチ (TV Size)
Artist:MAXIMUM THE HORMONE
ArtistUnicode:マキシマム ザ ホルモン
Creator:Renumi
Version:NORMAL
Source:チェンソーマン
Tags:CHAINSAW MAN csm anime japanese rock metal jrock ending third 3 ed 3rd mappa chainsawman 2-oku
BeatmapID:3989074
BeatmapSetID:1873285

[Difficulty]
HPDrainRate:3
CircleSize:3.3
OverallDifficulty:4
ApproachRate:5
SliderMultiplier:1.05
SliderTickRate:1

[Events]
//Background and Video events
0,0,"sadf.jpg",0,0
Video,-75,"BGA.mp4"
//Break Periods
2,51586,56475
//Storyboard Layer 0 (Background)
//Storyboard Layer 1 (Fail)
//Storyboard Layer 2 (Pass)
//Storyboard Layer 3 (Foreground)
//Storyboard Layer 4 (Overlay)
//Storyboard Sound Samples

[TimingPoints]
198,404.721753794266,4,2,1,45,1,0
1007,393.44262295082,4,2,1,45,1,0
1793,400,4,2,1,45,1,0
2593,398.671096345515,4,2,1,45,1,0
3390,394.736842105263,4,2,1,45,1,0
4179,409.556313993174,4,2,1,45,1,0
4998,397.350993377483,4,2,1,45,1,0
6190,379.746835443038,4,2,1,45,1,0
6569,400,4,2,1,70,1,0
18769,-100,4,1,1,80,0,0
19169,421.052631578947,4,1,1,80,1,0
19379,400,4,1,1,75,1,0
25779,401.808136614766,4,1,1,75,1,0
28993,363.636363636364,4,1,1,80,1,0
29356,413.793103448276,4,1,1,80,1,0
29769,326.086956521739,4,1,1,80,1,0
30095,344.827586206897,4,1,1,80,1,0
30439,348.837209302326,4,1,1,80,1,0
30787,288.461538461538,4,1,1,80,1,0
31363,162.162162162162,4,1,1,80,1,0
31363,-200,4,1,1,80,0,0
31849,153.846153846154,4,1,1,90,1,0
31849,-200,4,1,1,90,0,1
40925,-200,4,1,1,90,0,0
41695,-200,4,1,1,90,0,1
45849,-200,4,1,1,90,0,0
46618,-200,4,1,1,90,0,1
50925,-200,4,1,1,80,0,1
51541,410.958904109589,4,1,1,50,1,0
58116,-100,4,2,1,60,0,0
63047,178.571428571429,4,1,1,80,1,0
63047,-200,4,1,1,80,0,0
63404,193.548387096774,4,1,1,80,1,0
63404,-200,4,1,1,80,0,0
63791,191.693290734824,4,1,1,80,1,0
64174,218.181818181818,4,2,1,70,1,0
64392,206.896551724138,4,2,1,70,1,0
64598,203.735144312394,4,1,1,90,1,1
64598,-200,4,1,1,90,0,1
67450,209.059233449477,4,1,1,90,1,1
67450,-200,4,1,1,90,0,1
67868,206.185567010309,4,1,1,90,1,1
67868,-200,4,1,1,90,0,1
69517,196.72131147541,4,1,1,90,1,1
69517,-200,4,1,1,90,0,1
69910,207.612456747405,4,1,1,90,1,1
69910,-200,4,1,1,90,0,1
70325,207.612456747405,4,1,1,90,1,1
70325,-200,4,1,1,90,0,1
71155,204.081632653061,4,1,1,90,1,1
71155,-205.338809034908,4,1,1,90,0,1
71359,212.765957446809,4,1,1,90,1,1
71359,-200,4,1,1,90,0,1
71997,214.285714285714,4,1,1,90,1,1
71997,-200,4,1,1,90,0,1
72854,213.523131672598,4,1,1,90,1,1
72854,-200,4,1,1,90,0,1
73708,206.896551724138,4,1,1,90,1,1
73708,-200,4,1,1,90,0,1
74121,220.588235294118,4,1,1,90,1,1
74121,-200,4,1,1,90,0,1
74562,218.978102189781,4,1,1,90,1,0
74562,-200,4,1,1,90,0,0
75437,215.827338129496,4,1,1,80,1,0
75437,-200,4,1,1,80,0,0
76300,223.880597014925,4,1,1,80,1,0
76300,-200,4,1,1,80,0,0
77195,218.579234972678,4,1,1,80,1,0
77195,-200,4,1,1,80,0,0
77850,236.220472440945,4,1,1,80,1,0
77850,-200,4,1,1,80,0,0
78086,215.05376344086,4,1,1,80,1,0
78086,-200,4,1,1,80,0,0
78946,226.415094339623,4,1,1,80,1,0
78946,-200,4,1,1,80,0,0
79398,-200,4,1,1,80,0,0
79851,223.463687150838,4,1,1,80,1,0
79851,-200,4,1,1,80,0,0
80744,211.267605633803,4,1,1,80,1,0
80744,-200,4,1,1,80,0,0
80955,230.769230769231,4,1,1,80,1,0
80955,-200,4,1,1,80,0,0
81185,222.222222222222,4,1,1,80,1,0
81629,218.978102189781,4,1,1,85,1,0
81629,-200,4,1,1,50,0,0
83380,219.78021978022,4,1,1,60,1,0
83380,-200,4,1,1,60,0,0
85138,-200,4,1,1,70,0,0
86456,223.880597014925,4,1,1,70,1,0
86456,-200,4,1,1,70,0,0
86903,214.285714285714,4,1,1,85,1,0
86903,-200,4,1,1,85,0,0
87331,216.216216216216,4,1,1,85,1,0
87331,-200,4,1,1,85,0,0
87763,217.785843920145,4,1,1,95,1,0
87763,-200,4,1,1,95,0,0
88198,-200,4,1,1,95,0,0

[Colours]
Combo1 : 199,165,123
Combo2 : 223,122,129
Combo3 : 231,136,113
Combo4 : 139,239,206

[HitObjects]
69,9,6569,54,0,L|100:111,1,105,2|2,3:2|3:2,1:0:0:0:
45,199,7369,1,2,3:2:0:0:
90,293,7769,1,2,3:2:0:0:
188,257,8169,2,0,P|233:263|291:274,1,105,2|2,3:2|3:2,1:0:0:0:
382,327,8969,2,0,L|436:313,2,52.5,0|2|0,3:0|0:3|3:0,0:0:0:0:
372,222,9769,6,0,L|349:116,1,105,2|2,3:2|3:2,1:0:0:0:
284,36,10569,1,2,3:2:0:0:
192,87,10969,1,2,3:2:0:0:
83,66,11369,2,0,P|52:97|16:148,1,105,2|2,3:2|3:2,1:0:0:0:
9,251,12169,2,0,P|25:271|47:294,1,52.5,0|2,3:0|0:3,0:0:0:0:
75,332,12569,2,0,L|143:313,1,52.5,0|2,3:0|0:3,0:0:0:0:
151,271,12969,6,0,P|196:282|261:309,1,105,2|2,3:2|3:2,1:0:0:0:
332,369,13769,1,2,3:2:0:0:
418,309,14169,1,2,3:2:0:0:
404,195,14569,2,0,P|358:202|303:219,1,105,2|2,3:2|3:2,1:0:0:0:
209,170,15369,2,0,L|229:115,2,52.5,0|2|0,3:0|0:3|3:0,0:0:0:0:
117,222,16169,6,0,L|90:120,1,105,2|2,3:2|3:2,1:0:0:0:
118,19,16969,1,2,3:2:0:0:
223,19,17369,2,0,L|276:32,1,52.5,2|0,3:2|0:0,0:0:0:0:
454,216,18769,6,0,L|446:273,2,52.5,2|2|2,3:0|3:0|3:0,0:0:0:0:
426,171,19379,6,0,L|308:144,1,105,0|2,1:0|3:2,1:0:0:0:
218,151,20179,2,0,P|196:125|174:96,1,52.5,2|0,3:2|1:0,0:0:0:0:
166,60,20579,1,10,3:2:0:0:
68,98,20979,2,0,L|38:214,1,105,2|2,3:2|3:2,1:0:0:0:
9,241,21579,1,2,1:3:0:0:
60,332,21979,2,0,B|99:325|99:325|168:323,1,105,2|2,1:3|1:3,0:0:0:0:
206,291,22579,6,0,P|257:305|308:320,1,105,2|2,3:2|3:2,1:0:0:0:
392,381,23379,2,0,L|446:367,1,52.5,2|0,3:2|1:0,0:0:0:0:
481,332,23779,1,10,3:2:0:0:
451,231,24179,2,0,P|465:180|480:129,1,105,2|2,3:2|3:2,1:0:0:0:
487,81,24779,1,2,1:3:0:0:
487,81,24979,1,0,3:0:0:0:
383,62,25379,2,0,L|324:47,1,52.5,8|8,3:2|1:2,0:0:0:0:
285,24,25779,6,0,P|211:38|163:58,1,105,6|2,3:2|3:2,1:0:0:0:
137,74,26381,2,0,P|106:138|138:224,1,157.5,4|14,3:2|3:2,1:0:0:0:
199,296,27386,6,0,B|253:273|253:273|314:261,1,105,6|2,3:2|3:2,1:0:0:0:
345,283,27988,2,0,B|358:230|358:230|392:168,1,105,4|8,1:2|1:2,1:0:0:0:
411,142,28591,2,0,L|478:130,2,52.63103125,0|2|0,3:0|1:3|1:0,0:0:0:0:
411,142,31363,6,0,L|421:85,2,52.5,0|0|0,3:0|3:0|3:0,1:0:0:0:
365,175,31849,6,0,B|290:158|290:158|197:178,2,157.5,0|0|0,3:0|3:0|3:0,1:0:0:0:
436,251,33079,2,0,P|381:272|331:289,1,105,0|8,3:0|1:0,1:0:0:0:
285,298,33541,2,0,L|182:282,1,105,0|8,3:0|1:0,0:0:0:0:
136,254,34002,1,2,3:0:0:0:
44,306,34310,6,0,P|32:257|28:196,1,105,0|8,3:0|1:0,1:0:0:0:
7,155,34772,2,0,P|38:113|95:62,1,105,0|0,3:0|1:0,1:0:0:0:
100,30,35233,1,0,3:0:0:0:
203,48,35541,2,0,L|210:111,1,52.5,8|10,3:1|1:0,0:0:0:0:
186,148,35849,1,8,1:0:0:0:
276,201,36156,2,0,L|269:264,1,52.5,8|8,1:0|1:0,1:0:0:0:
270,306,36464,1,2,3:0:0:0:
353,370,36772,6,0,B|431:346|431:346|516:358,2,157.5,0|2|0,3:0|3:1|3:0,1:0:0:0:
248,359,38002,2,0,L|143:342,1,105,2|8,3:1|1:0,1:0:0:0:
93,356,38464,2,0,P|64:331|18:265,1,105,2|8,1:0|1:0,1:0:0:0:
29,225,38925,1,0,3:0:0:0:
113,159,39233,6,0,B|123:83|123:83|99:5,1,157.5,2|2,3:1|3:1,1:0:0:0:
204,13,40002,2,0,P|240:31|271:105,1,105,2|2,1:0|1:0,1:0:0:0:
251,135,40464,2,0,L|358:118,1,105,2|8,3:1|1:0,1:0:0:0:
403,137,40925,1,0,1:0:0:0:
264,357,41695,6,0,L|155:381,1,105,2|8,3:2|1:0,1:0:0:0:
110,367,42156,2,0,B|81:305|81:305|96:207,1,157.5,6|0,3:2|3:0,1:0:0:0:
177,151,42925,2,0,P|229:155|278:176,1,105,2|8,3:2|1:0,1:0:0:0:
359,241,43541,1,2,1:2:0:0:
454,197,43849,1,2,3:2:0:0:
452,91,44156,6,0,L|425:37,1,52.5,2|2,3:2|1:2,1:0:0:0:
388,10,44464,2,0,B|341:27|341:27|282:36,1,105,0|2,0:0|1:2,0:0:0:0:
186,2,45079,1,0,3:0:0:0:
101,64,45387,2,0,L|112:184,1,105,2|8,3:2|1:0,1:0:0:0:
78,210,45849,1,6,3:2:0:0:
314,325,46618,6,0,B|353:293|353:293|414:268,1,105,2|8,3:2|1:0,1:0:0:0:
449,247,47079,2,0,B|392:221|392:221|294:205,1,157.5,6|0,3:2|3:0,1:0:0:0:
200,243,47849,1,2,3:2:0:0:
131,163,48156,1,8,1:0:0:0:
207,91,48464,2,0,B|261:80|261:80|319:81,1,105,2|2,1:2|3:2,0:0:0:0:
407,121,49079,6,0,L|388:182,1,52.5,2|2,3:2|1:2,1:0:0:0:
340,185,49387,2,0,L|362:295,1,105,0|2,0:0|3:2,0:0:0:0:
297,372,50002,1,0,3:0:0:0:
215,306,50310,2,0,B|168:294|168:294|101:296,1,105,2|8,3:2|1:0,1:0:0:0:
63,316,50772,1,6,3:2:0:0:
63,316,50925,2,0,L|56:260,1,52.5,0|8,1:0|1:0,0:0:0:0:
30,217,51233,2,0,L|44:160,1,52.5,0|8,1:0|1:0,0:0:0:0:
186,89,58116,6,0,B|232:73|232:73|405:68,1,210,4|2,2:0|2:0,1:0:0:0:
457,151,59349,1,2,2:0:0:0:
386,228,59760,2,0,B|351:224|351:224|277:202,2,105,2|2|2,2:0|2:0|2:0,1:0:0:0:
205,335,61404,2,0,B|90:372|117:319|-2:357,1,210,2|2,2:0|2:0,1:0:0:0:
37,259,62636,1,2,2:0:0:0:
0,168,63047,6,0,P|45:129|56:122,1,52.5,2|0,2:0|1:2,0:0:0:0:
86,109,63404,2,0,P|117:99|150:93,1,52.5,0|0,1:2|1:2,0:0:0:0:
189,96,63791,1,0,1:2:0:0:
468,118,64598,6,0,L|464:175,1,52.5,6|0,3:2|0:0,0:0:0:0:
428,208,65005,2,0,L|438:266,1,52.5,2|0,3:2|0:0,0:0:0:0:
424,310,65412,2,0,L|316:299,1,105,6|2,3:2|3:2,1:0:0:0:
219,267,66227,2,0,B|181:271|181:271|162:283|162:283|115:293,2,105,6|0|4,3:2|3:0|3:2,0:0:0:0:
298,201,67450,1,2,3:2:0:0:
259,105,67868,6,0,B|201:98,1,52.5,6|0,3:2|0:0,0:0:0:0:
164,70,68280,2,0,B|111:80,1,52.5,2|0,3:2|0:0,0:0:0:0:
62,100,68692,2,0,B|45:132|45:132|44:162|44:162|32:200,1,105,6|2,3:2|3:2,1:0:0:0:
34,302,69517,2,0,P|80:324|134:312,1,105,6|0,3:2|3:0,0:0:0:0:
223,263,70325,2,0,L|287:256,1,52.5,4|8,3:2|1:2,1:0:0:0:
317,225,70740,1,2,3:2:0:0:
421,242,71155,6,0,L|412:128,1,104.265736045839,6|2,3:2|3:2,1:0:0:0:
387,91,71784,1,8,1:2:0:0:
342,63,71997,2,0,L|237:70,1,105,6|2,3:2|0:2,1:0:0:0:
132,91,72854,2,0,P|117:125|112:143,1,52.5,6|8,3:2|1:2,1:0:0:0:
70,168,73281,2,0,P|78:193|89:217,1,52.5,2|10,3:2|1:2,0:0:0:0:
133,248,73709,1,6,3:2:0:0:
204,315,74121,1,0,3:0:0:0:
305,291,74562,6,0,B|350:243|408:223|408:223|418:177|402:134,1,210,6|6,3:2|3:2,0:0:0:0:
201,133,76300,2,0,L|182:22,1,105,6|6,3:2|3:2,1:0:0:0:
288,28,77195,2,0,L|298:85,1,52.5,6|8,3:2|1:2,1:0:0:0:
333,116,77632,2,0,L|324:175,1,52.5,8|2,3:2|3:0,1:0:0:0:
345,222,78086,6,0,L|400:237,1,52.5,2|2,3:2|3:2,0:0:0:0:
272,333,78946,2,0,L|161:350,1,105,2|6,3:2|1:2,0:0:0:0:
76,298,79850,1,6,3:2:0:0:
65,193,80297,1,6,3:2:0:0:
176,181,80744,1,2,2:0:0:0:
176,181,80955,2,0,L|170:120,1,52.5,2|2,3:0|3:0,0:0:0:0:
274,103,81629,6,0,P|310:141|345:191,1,105,2|0,3:2|2:0,1:0:0:0:
366,231,82285,1,2,2:0:0:0:
366,231,82504,2,0,L|478:216,1,105,8|8,2:0|2:0,0:0:0:0:
464,320,83380,2,0,L|360:334,1,105,8|8,1:2|1:2,1:0:0:0:
264,287,84259,2,0,L|157:274,1,105,8|8,1:2|1:2,0:0:0:0:
157,169,85138,6,0,P|196:176|217:183,1,52.5,12|2,1:2|1:2,1:0:0:0:
258,196,85577,2,0,L|316:184,1,52.5,8|2,1:2|1:2,1:0:0:0:
362,173,86017,2,0,L|475:188,1,105,8|8,1:2|1:2,0:0:0:0:
506,85,86903,2,0,P|498:42|492:21,1,52.5,12|2,1:2|1:2,0:0:0:0:
446,23,87331,2,0,P|426:38|401:62,1,52.5,8|2,1:2|1:2,0:0:0:0:
360,82,87763,2,0,L|308:70,1,52.5,8|2,1:2|1:2,0:0:0:0:
261,47,88198,2,0,L|207:56,1,52.5,8|2,1:2|1:2,0:0:0:0:
