osu file format v14

[General]
AudioFilename: audio.mp3
AudioLeadIn: 0
PreviewTime: 64089
Countdown: 0
SampleSet: None
StackLeniency: 0.7
Mode: 0
LetterboxInBreaks: 0
WidescreenStoryboard: 1

[Editor]
DistanceSpacing: 1.6
BeatDivisor: 4
GridSize: 32
TimelineZoom: 2.899999

[Metadata]
Title:HAWATARI NIOKU CENTI (TV Size)
TitleUnicode:刃渡り2億センチ (TV Size)
Artist:MAXIMUM THE HORMONE
ArtistUnicode:マキシマム ザ ホルモン
Creator:Renumi
Version:INSANE
Source:チェンソーマン
Tags:CHAINSAW MAN csm anime japanese rock metal jrock ending third 3 ed 3rd mappa chainsawman 2-oku
BeatmapID:3989073
BeatmapSetID:1873285

[Difficulty]
HPDrainRate:6
CircleSize:4
OverallDifficulty:7
ApproachRate:9
SliderMultiplier:1.4
SliderTickRate:1

[Events]
//Background and Video events
0,0,"sadf.jpg",0,0
Video,-75,"BGA.mp4"
//Break Periods
2,51663,56475
//Storyboard Layer 0 (Background)
//Storyboard Layer 1 (Fail)
//Storyboard Layer 2 (Pass)
//Storyboard Layer 3 (Foreground)
//Storyboard Layer 4 (Overlay)
//Storyboard Sound Samples

[TimingPoints]
198,404.721753794266,4,2,1,45,1,0
1007,393.44262295082,4,2,1,45,1,0
1793,400,4,2,1,45,1,0
2593,398.671096345515,4,2,1,45,1,0
3390,394.736842105263,4,2,1,45,1,0
4179,409.556313993174,4,2,1,45,1,0
4998,397.350993377483,4,2,1,45,1,0
6190,379.746835443038,4,2,1,45,1,0
6569,400,4,2,1,70,1,0
6569,-125,4,2,1,70,0,0
18769,-100,4,1,1,80,0,0
19169,421.052631578947,4,1,1,80,1,0
19379,400,4,1,1,75,1,0
25779,401.808136614766,4,1,1,75,1,0
28993,363.636363636364,4,1,1,80,1,0
29356,413.793103448276,4,1,1,80,1,0
29769,326.086956521739,4,1,1,80,1,0
30095,344.827586206897,4,1,1,80,1,0
30439,348.837209302326,4,1,1,80,1,0
30787,288.461538461538,4,1,1,80,1,0
31363,162.162162162162,4,1,1,80,1,0
31849,153.846153846154,4,1,1,90,1,0
31849,-181.818181818182,4,1,1,90,0,1
40925,-181.818181818182,4,1,1,90,0,0
41695,-181.818181818182,4,1,1,90,0,1
45849,-181.818181818182,4,1,1,90,0,0
46618,-181.818181818182,4,1,1,90,0,1
50925,-181.818181818182,4,1,1,80,0,1
51541,410.958904109589,4,1,1,50,1,0
58116,-166.666666666667,4,2,1,60,0,0
63047,178.571428571429,4,1,1,80,1,0
63047,-200,4,1,1,80,0,0
63404,193.548387096774,4,1,1,80,1,0
63404,-200,4,1,1,80,0,0
63791,191.693290734824,4,1,1,80,1,0
64174,218.181818181818,4,2,1,70,1,0
64174,-285.714285714286,4,2,1,70,0,0
64392,206.896551724138,4,2,1,70,1,0
64598,203.735144312394,4,1,1,90,1,1
64699,-142.857142857143,4,1,1,90,0,1
67450,209.059233449477,4,1,1,90,1,1
67450,-142.857142857143,4,1,1,90,0,1
67868,206.185567010309,4,1,1,90,1,1
67868,-142.857142857143,4,1,1,90,0,1
69517,196.72131147541,4,1,1,90,1,1
69517,-142.857142857143,4,1,1,90,0,1
69910,207.612456747405,4,1,1,90,1,1
69910,-142.857142857143,4,1,1,90,0,1
70325,207.612456747405,4,1,1,90,1,1
70325,-142.857142857143,4,1,1,90,0,1
71155,204.081632653061,4,1,1,90,1,1
71155,-143.574297188755,4,1,1,90,0,1
71359,212.765957446809,4,1,1,90,1,1
71359,-111.111111111111,4,1,1,90,0,1
71997,214.285714285714,4,1,1,90,1,1
71997,-142.857142857143,4,1,1,90,0,1
72854,213.523131672598,4,1,1,90,1,1
72854,-142.857142857143,4,1,1,90,0,1
73708,206.896551724138,4,1,1,90,1,1
73708,-142.857142857143,4,1,1,90,0,1
74121,220.588235294118,4,1,1,90,1,1
74121,-142.857142857143,4,1,1,90,0,1
74562,218.978102189781,4,1,1,90,1,0
75437,215.827338129496,4,1,1,80,1,0
76300,223.880597014925,4,1,1,80,1,0
76300,-333.333333333333,4,1,1,80,0,0
77195,218.579234972678,4,1,1,80,1,0
77195,-142.857142857143,4,1,1,80,0,0
77850,236.220472440945,4,1,1,80,1,0
77850,-142.857142857143,4,1,1,80,0,0
78086,215.05376344086,4,1,1,80,1,0
78946,226.415094339623,4,1,1,80,1,0
79398,-333.333333333333,4,1,1,80,0,0
79851,223.463687150838,4,1,1,80,1,0
79851,-333.333333333333,4,1,1,80,0,0
80744,211.267605633803,4,1,1,80,1,0
80955,230.769230769231,4,1,1,80,1,0
81185,222.222222222222,4,1,1,80,1,0
81629,218.978102189781,4,1,1,85,1,0
81629,-285.714285714286,4,1,1,50,0,0
83380,219.78021978022,4,1,1,60,1,0
83380,-285.714285714286,4,1,1,60,0,0
85138,-250,4,1,1,70,0,0
86456,223.880597014925,4,1,1,70,1,0
86903,214.285714285714,4,1,1,85,1,0
86903,-285.714285714286,4,1,1,85,0,0
87331,216.216216216216,4,1,1,85,1,0
87331,-285.714285714286,4,1,1,85,0,0
87763,217.785843920145,4,1,1,95,1,0
87763,-285.714285714286,4,1,1,95,0,0

[Colours]
Combo1 : 199,165,123
Combo2 : 223,122,129
Combo3 : 231,136,113
Combo4 : 139,239,206

[HitObjects]
233,142,6569,54,0,P|205:120|118:88,1,112,2|2,3:2|3:2,1:0:0:0:
134,90,7169,1,2,0:3:0:0:
55,117,7369,2,0,L|43:191,1,56,2|2,3:2|0:3,0:0:0:0:
141,256,7769,2,0,L|126:182,1,56,2|2,3:2|0:3,0:0:0:0:
220,221,8169,2,0,L|345:197,1,112,2|2,3:2|3:2,1:0:0:0:
418,171,8769,1,2,0:3:0:0:
478,229,8969,2,0,P|486:258|491:298,2,56,0|2|0,3:0|0:3|3:0,0:0:0:0:
418,171,9569,1,2,0:3:0:0:
418,171,9769,6,0,P|371:167|300:120,1,112,2|2,3:2|3:2,1:0:0:0:
314,136,10369,1,2,0:3:0:0:
250,80,10569,2,0,L|178:97,1,56,2|2,3:2|0:3,0:0:0:0:
56,33,10969,2,0,L|123:48,1,56,2|2,3:2|0:3,0:0:0:0:
107,140,11369,2,0,B|98:252,1,112,2|2,3:2|3:2,1:0:0:0:
47,326,11969,1,2,0:3:0:0:
128,364,12169,2,0,P|180:354|205:347,2,56,0|2|0,3:0|0:3|3:0,0:0:0:0:
169,229,12769,1,2,0:3:0:0:
169,229,12969,6,0,P|220:240|261:259,1,84,2|0,3:2|0:0,1:0:0:0:
288,268,13369,2,0,L|275:201,1,56,2|2,3:2|0:3,1:0:0:0:
338,109,13769,1,2,3:2:0:0:
367,215,13969,1,2,0:3:0:0:
427,131,14169,2,0,L|490:113,1,56,2|0,3:2|0:0,1:0:0:0:
331,85,14569,2,0,B|262:74,1,56,2|0,3:2|0:0,1:0:0:0:
165,106,14969,2,0,P|148:132|117:212,1,112,2|0,3:2|3:0,1:0:0:0:
62,276,15569,1,2,0:3:0:0:
130,338,15769,2,0,P|163:334|206:319,1,56,0|2,3:0|0:3,0:0:0:0:
281,251,16169,6,0,P|330:260|409:283,1,112,2|2,3:2|3:2,1:0:0:0:
389,276,16769,1,2,0:3:0:0:
482,198,16969,1,2,3:2:0:0:
496,310,17169,1,0,0:0:0:0:
373,258,17369,1,2,3:2:0:0:
490,182,17569,1,0,0:0:0:0:
490,182,18769,5,2,3:0:0:0:
349,177,18969,1,2,3:0:0:0:
456,87,19169,1,2,3:0:0:0:
322,67,19379,6,0,P|282:82|209:131,1,105,0|2,1:0|1:3,1:0:0:0:
198,142,19779,2,0,L|99:136,1,70,2|2,3:2|1:3,1:0:0:0:
39,223,20179,1,2,3:2:0:0:
126,318,20379,1,0,1:0:0:0:
126,318,20479,1,2,1:3:0:0:
126,318,20579,2,0,P|170:327|203:340,1,70,10|0,3:2|1:0,1:0:0:0:
233,360,20879,1,8,1:0:0:0:
233,360,20979,6,0,L|350:345,1,105,2|2,3:2|1:3,1:0:0:0:
404,293,21379,2,0,L|411:217,1,70,2|2,3:2|1:3,1:0:0:0:
406,70,21779,1,0,3:0:0:0:
321,159,21979,1,2,1:3:0:0:
321,159,22079,1,0,1:0:0:0:
321,159,22179,1,0,3:0:0:0:
231,83,22379,1,2,1:3:0:0:
231,72,22479,1,2,1:3:0:0:
231,59,22579,6,0,P|167:45|105:40,1,105,2|2,3:2|1:3,1:0:0:0:
85,45,22979,2,0,P|44:71|17:96,1,70,2|2,3:2|1:3,1:0:0:0:
133,148,23379,1,2,3:2:0:0:
27,219,23579,1,0,1:0:0:0:
27,219,23679,1,0,0:0:0:0:
27,219,23779,2,0,P|64:240|105:259,1,70,10|0,3:2|1:0,0:0:0:0:
123,283,24079,1,8,1:0:0:0:
123,283,24179,6,0,P|151:238|197:200,1,105,2|2,3:2|1:3,1:0:0:0:
231,195,24579,1,2,3:2:0:0:
379,205,24779,1,2,1:3:0:0:
273,276,24979,1,0,3:0:0:0:
327,148,25179,1,2,1:3:0:0:
327,148,25279,1,0,1:0:0:0:
327,148,25379,2,0,L|334:104,1,35,8|8,3:2|1:2,0:0:0:0:
249,98,25579,2,0,L|239:53,1,35,8|8,1:2|1:2,0:0:0:0:
158,29,25779,6,0,L|143:116,1,70,6|0,3:2|1:0,1:0:0:0:
117,128,26080,1,2,1:3:0:0:
117,128,26180,1,2,3:2:0:0:
162,237,26381,2,0,B|115:228|115:228|80:237|80:237|24:226,1,140,4|2,3:2|1:2,1:0:0:0:
0,359,26984,1,14,3:2:0:0:
149,350,27185,1,2,1:3:0:0:
149,350,27285,1,2,1:3:0:0:
149,350,27386,6,0,P|195:326|257:318,1,105,6|2,3:2|1:3,1:0:0:0:
288,326,27788,1,2,3:2:0:0:
441,281,27988,2,0,P|398:254|304:222,1,140,4|8,1:2|1:2,1:0:0:0:
183,207,28591,2,0,L|193:163,1,35,0|0,3:0|1:0,0:0:0:0:
259,101,28792,2,0,L|244:66,2,35.1747083333333,2|2|0,1:3|1:3|1:0,0:0:0:0:
236,77,31363,1,0,3:0:0:0:
311,136,31525,1,0,3:0:0:0:
235,183,31687,1,0,3:0:0:0:
167,133,31849,6,0,P|130:125|72:120,1,77,0|2,3:0|1:0,1:0:0:0:
50,138,32079,1,0,1:0:0:0:
50,138,32156,1,8,1:0:0:0:
121,258,32310,2,0,P|159:250|217:245,1,77,0|2,3:0|1:0,1:0:0:0:
245,262,32541,1,0,1:0:0:0:
245,262,32618,1,8,1:0:0:0:
339,326,32772,1,0,3:0:0:0:
374,220,32925,1,0,1:0:0:0:
469,319,33079,6,0,L|455:231,1,77,0|2,3:0|1:3,1:0:0:0:
488,208,33310,1,2,1:3:0:0:
488,208,33387,1,8,1:0:0:0:
396,78,33541,2,0,L|385:163,1,77,0|2,3:0|1:0,0:0:0:0:
355,182,33772,1,0,1:0:0:0:
355,182,33849,2,0,L|274:164,2,77,8|2|2,1:0|3:0|1:0,0:0:0:0:
291,287,34310,6,0,P|221:299|191:306,1,77,0|2,3:0|1:0,1:0:0:0:
180,319,34541,1,0,1:0:0:0:
180,319,34618,1,8,1:0:0:0:
69,386,34772,2,0,P|61:318|54:288,1,77,0|10,3:0|1:0,1:0:0:0:
41,277,35002,1,0,1:0:0:0:
41,277,35079,1,0,1:0:0:0:
118,208,35233,1,0,3:0:0:0:
0,183,35387,1,2,1:0:0:0:
130,104,35541,6,0,L|183:90,3,38.5,8|8|10|0,3:1|1:0|1:0|1:0,0:0:0:0:
202,62,35849,2,0,P|246:74|286:96,1,77,8|0,1:0|3:0,1:0:0:0:
307,126,36079,1,0,1:0:0:0:
307,126,36156,2,0,L|357:108,1,38.5,8|0,1:0|1:0,1:0:0:0:
415,38,36310,2,0,L|469:51,1,38.5,8|0,1:0|1:0,1:0:0:0:
491,153,36464,1,2,3:0:0:0:
491,153,36541,1,0,1:0:0:0:
491,153,36618,2,0,L|477:212,1,38.5,8|8,1:0|1:0,1:0:0:0:
379,244,36772,6,0,P|355:270|322:316,1,77,0|0,3:0|1:0,1:0:0:0:
310,345,37002,2,0,L|332:390,1,38.5,2|8,1:0|1:0,0:0:0:0:
214,272,37233,2,0,P|179:264|125:258,1,77,2|0,3:1|1:0,1:0:0:0:
92,263,37464,2,0,L|62:308,1,38.5,0|8,1:0|1:0,0:0:0:0:
19,201,37695,1,0,3:0:0:0:
36,64,37849,1,0,1:0:0:0:
129,134,38002,6,0,L|221:119,1,77,2|0,3:1|1:0,1:0:0:0:
241,92,38233,2,0,L|297:104,1,38.5,2|8,1:0|1:0,0:0:0:0:
381,30,38464,2,0,L|395:127,1,77,2|2,1:0|3:0,1:0:0:0:
421,143,38695,2,0,L|409:197,1,38.5,2|8,1:3|1:0,0:0:0:0:
263,278,38925,2,0,P|292:241|327:216,1,77,0|0,3:0|1:0,0:0:0:0:
487,330,39233,6,0,L|394:321,1,77,2|0,3:1|1:0,1:0:0:0:
367,302,39464,2,0,L|306:323,1,38.5,2|8,1:0|1:0,0:0:0:0:
248,245,39695,2,0,L|155:253,1,77,2|0,3:1|1:0,1:0:0:0:
130,275,39925,2,0,L|73:264,2,38.5,0|2|0,1:0|1:0|1:0,0:0:0:0:
217,361,40156,2,0,L|274:352,2,38.5,0|0|2,3:0|0:0|1:0,0:0:0:0:
63,294,40464,6,0,P|67:260|77:207,1,77,2|0,3:1|1:0,1:0:0:0:
149,159,40695,2,0,P|144:125|133:72,1,77,2|0,1:0|1:0,0:0:0:0:
78,18,40925,1,0,1:0:0:0:
78,18,41695,6,0,P|132:26|177:39,1,77,2|2,3:2|1:2,1:0:0:0:
193,54,41925,1,0,1:0:0:0:
193,54,42002,1,8,1:0:0:0:
347,88,42156,2,0,P|289:111|209:165,1,154,6|2,3:2|1:0,1:0:0:0:
85,240,42618,1,0,3:0:0:0:
101,125,42772,1,0,1:0:0:0:
182,227,42925,6,0,L|192:323,1,77,2|2,3:2|1:2,1:0:0:0:
179,351,43156,1,0,1:0:0:0:
179,351,43233,1,8,1:0:0:0:
278,266,43387,1,2,3:2:0:0:
385,313,43541,1,2,1:2:0:0:
295,384,43695,1,0,1:0:0:0:
263,237,43849,2,0,L|276:144,1,77,2|6,3:2|1:2,0:0:0:0:
295,121,44079,1,0,0:0:0:0:
295,121,44156,6,0,P|286:77|276:37,1,77,2|2,3:2|1:2,1:0:0:0:
231,41,44387,2,0,P|182:61|128:20,1,115.5,2|2,1:0|3:2,1:0:0:0:
26,61,44772,1,2,1:2:0:0:
112,191,44925,1,2,1:0:0:0:
3,137,45079,1,0,3:0:0:0:
159,100,45233,1,0,1:0:0:0:
138,221,45387,6,0,L|126:310,1,77,2|2,3:2|1:2,1:0:0:0:
149,344,45618,1,0,1:0:0:0:
149,344,45695,1,8,1:0:0:0:
275,254,45849,1,6,3:2:0:0:
275,254,46618,6,0,P|331:245|366:243,1,77,2|2,3:2|1:2,1:0:0:0:
398,262,46849,1,0,1:0:0:0:
398,262,46925,1,8,1:0:0:0:
462,133,47079,2,0,B|428:116|428:116|301:99,1,154,6|2,3:2|1:0,1:0:0:0:
191,78,47541,1,0,3:0:0:0:
311,22,47695,1,0,1:0:0:0:
237,152,47849,6,0,P|175:167|142:169,1,77,2|2,3:2|1:2,1:0:0:0:
119,165,48079,1,0,1:0:0:0:
119,165,48156,1,8,1:0:0:0:
28,101,48310,1,2,3:2:0:0:
90,268,48464,1,2,1:2:0:0:
0,197,48618,1,0,1:0:0:0:
116,254,48772,2,0,P|158:286|184:315,1,77,2|6,3:2|1:2,1:0:0:0:
206,344,49002,1,0,1:0:0:0:
206,344,49079,6,0,L|289:328,1,77,2|2,3:2|1:2,1:0:0:0:
327,339,49310,2,0,P|355:302|431:278,1,115.5,2|2,1:0|3:2,1:0:0:0:
474,181,49695,1,2,3:2:0:0:
502,293,49849,1,2,1:0:0:0:
375,138,50002,1,0,3:0:0:0:
329,235,50156,1,0,1:0:0:0:
238,126,50310,6,0,L|216:32,1,77,2|2,3:2|1:2,1:0:0:0:
195,17,50541,1,0,1:0:0:0:
195,17,50618,1,8,1:0:0:0:
94,96,50772,1,6,3:2:0:0:
164,192,50925,6,0,L|148:242,1,38.5,0|2,1:0|1:3,0:0:0:0:
69,289,51079,2,0,L|82:345,1,38.5,8|8,1:0|1:0,0:0:0:0:
169,359,51233,2,0,L|209:352,3,38.5,0|8|8|8,1:0|1:0|1:0|1:2,0:0:0:0:
417,108,58116,6,0,P|380:98|328:92,1,83.9999999999998,4|2,2:0|2:0,1:0:0:0:
269,171,58732,1,0,0:0:0:0:
196,109,58938,2,0,P|222:51|237:23,1,83.9999999999998,2|2,2:0|2:0,1:0:0:0:
114,184,59760,2,0,L|15:194,1,83.9999999999998,2|2,2:0|2:0,1:0:0:0:
71,83,60376,1,0,0:0:0:0:
143,158,60582,2,0,L|155:207,1,41.9999999999999,2|0,2:0|0:0,0:0:0:0:
246,204,60993,2,0,L|234:258,1,41.9999999999999
327,343,61404,6,0,L|420:361,1,83.9999999999998,2|2,2:0|2:0,1:0:0:0:
493,317,62020,1,0,0:0:0:0:
425,252,62225,2,0,L|417:195,1,41.9999999999999,2|0,2:0|0:0,1:0:0:0:
353,98,62636,2,0,L|341:172,1,62.9999999999999,2|0,2:0|2:0,1:0:0:0:
306,193,63047,6,0,L|256:204,3,35,2|0|0|0,2:0|1:2|1:2|1:2,0:0:0:0:
190,167,63404,2,0,L|144:157,3,35,0|0|0|0,1:2|1:2|1:2|1:2,0:0:0:0:
71,193,63791,1,0,1:2:0:0:
71,193,64174,2,0,P|60:214|47:243,1,48.9999985046387,2|2,2:0|2:0,1:0:0:0:
180,357,64598,5,6,3:2:0:0:
180,357,64699,2,0,P|167:308|145:264,1,97.9999999999999,10|8,1:2|1:2,1:0:0:0:
71,193,65005,1,2,3:2:0:0:
71,193,65107,2,0,P|84:144|106:100,1,97.9999999999999,10|8,1:2|1:2,1:0:0:0:
185,37,65412,2,0,P|207:79|212:100,1,48.9999999999999,6|8,3:2|1:2,1:0:0:0:
287,150,65616,2,0,L|338:127,1,48.9999999999999,2|8,1:2|1:2,1:0:0:0:
427,127,65820,2,0,L|478:152,2,48.9999999999999,2|8|2,3:2|1:2|3:2,1:0:0:0:
255,93,66227,5,6,3:2:0:0:
255,93,66329,2,0,B|240:139|240:139|229:206,1,97.9999999999999,8|8,1:2|1:2,1:0:0:0:
156,249,66635,1,0,3:0:0:0:
156,249,66737,2,0,B|171:295|171:295|182:362,1,97.9999999999999,8|8,1:2|1:2,1:0:0:0:
275,362,67042,1,4,3:2:0:0:
275,362,67144,2,0,P|318:345|376:365,1,97.9999999999999,8|8,1:2|1:2,1:0:0:0:
472,365,67450,2,0,L|478:301,1,48.9999999999999,2|8,3:2|1:2,1:0:0:0:
369,214,67659,2,0,L|379:281,1,48.9999999999999,2|8,1:2|1:2,1:0:0:0:
470,221,67868,5,6,3:2:0:0:
470,221,67971,2,0,L|455:119,1,97.9999999999999,10|8,1:2|1:2,1:0:0:0:
373,74,68280,1,2,3:2:0:0:
373,74,68383,2,0,P|327:99|282:133,1,97.9999999999999,10|8,1:2|1:2,1:0:0:0:
243,215,68692,2,0,P|194:191|182:188,1,48.9999999999999,6|8,3:2|1:2,1:0:0:0:
97,206,68898,2,0,P|62:234|52:245,1,48.9999999999999,2|8,1:2|1:2,1:0:0:0:
157,285,69105,2,0,L|165:344,2,48.9999999999999,2|8|2,3:2|1:2|3:2,1:0:0:0:
34,91,69517,5,6,3:2:0:0:
34,91,69615,2,0,P|81:99|140:113,1,97.9999999999999,8|8,1:2|1:2,1:0:0:0:
204,175,69910,1,0,3:0:0:0:
204,175,70013,2,0,P|251:163|300:155,1,97.9999999999999,8|8,1:2|1:2,1:0:0:0:
399,117,70325,2,0,P|408:143|423:180,1,48.9999999999999,4|0,3:2|1:0,1:0:0:0:
437,266,70532,1,8,1:2:0:0:
437,266,70636,1,8,1:2:0:0:
437,266,70740,2,0,L|374:255,1,48.9999999999999,2|8,3:2|1:2,0:0:0:0:
270,252,70947,2,0,P|259:278|249:300,1,48.9999999999999,10|8,1:2|1:2,0:0:0:0:
147,375,71155,6,0,L|137:277,1,97.9999999999999,6|8,3:2|1:2,1:0:0:0:
161,132,71571,1,2,3:2:0:0:
161,132,71678,1,0,3:0:0:0:
161,132,71784,1,8,1:2:0:0:
17,179,71997,2,0,P|25:128|36:79,1,97.9999999999999,6|8,3:2|1:2,1:0:0:0:
66,41,72318,1,0,3:0:0:0:
66,41,72425,2,0,L|49:-14,2,48.9999999999999,2|0|10,0:2|3:0|1:2,0:0:0:0:
189,148,72854,6,0,P|236:137|283:124,1,97.9999999999999,6|8,3:2|1:2,1:0:0:0:
236,285,73281,1,2,3:2:0:0:
236,285,73387,1,0,3:0:0:0:
236,285,73494,1,10,1:2:0:0:
428,224,73708,2,0,L|332:202,1,97.9999970092774,6|8,3:2|3:2,1:0:0:0:
289,210,74018,1,8,1:2:0:0:
289,210,74121,2,0,L|275:264,1,49,0|0,3:0|3:0,0:0:0:0:
196,321,74341,6,0,L|210:375,2,48.9999985046387,2|2|6,3:0|3:0|3:2,0:0:0:0:
316,63,75437,1,6,3:2:0:0:
256,192,76300,6,0,P|217:183|173:165,1,83.9999974365235,6|6,3:2|3:2,1:0:0:0:
176,166,77195,2,0,P|154:217|124:260,1,97.9999999999999,6|8,3:2|1:2,1:0:0:0:
101,291,77522,1,8,1:2:0:0:
101,291,77632,2,0,L|39:275,1,48.9999985046387,8|8,3:2|1:2,1:0:0:0:
227,269,77850,2,0,L|249:317,1,48.9999985046387,2|0,3:0|0:0,0:0:0:0:
148,384,78086,5,2,3:2:0:0:
270,188,78301,1,2,3:2:0:0:
296,384,78946,5,2,3:2:0:0:
127,172,79398,1,6,1:2:0:0:
326,252,79851,2,0,L|414:238,1,83.9999974365235,6|6,3:2|3:2,1:0:0:0:
408,238,80744,5,2,2:0:0:0:
302,322,80955,1,2,3:0:0:0:
344,143,81185,1,2,3:0:0:0:
344,143,81629,6,0,P|349:120|357:76,1,49,2|2,3:2|2:0,1:0:0:0:
448,197,82066,2,0,P|453:229|461:262,1,49,0|2,2:0|2:0,1:0:0:0:
345,260,82504,2,0,P|304:219|301:215,1,49,8|2,2:0|2:2,0:0:0:0:
280,108,82942,2,0,P|259:140|246:156,1,49,8|2,2:0|2:0,0:0:0:0:
134,245,83380,5,8,1:2:0:0:
128,130,83599,1,2,1:2:0:0:
227,232,83819,2,0,L|240:295,1,49,8|2,1:2|1:2,1:0:0:0:
343,367,84259,1,8,1:2:0:0:
363,236,84478,1,2,1:2:0:0:
275,300,84698,2,0,L|222:318,1,49,8|2,1:2|1:2,0:0:0:0:
57,254,85138,5,12,1:2:0:0:
163,349,85358,1,2,1:2:0:0:
73,331,85577,1,8,1:2:0:0:
181,250,85797,1,2,1:2:0:0:
45,245,86017,5,8,1:2:0:0:
175,355,86237,1,2,1:2:0:0:
57,348,86456,1,8,1:2:0:0:
202,244,86679,1,2,1:2:0:0:
36,164,86903,6,0,L|48:104,1,49,12|2,1:2|1:2,0:0:0:0:
177,8,87331,2,0,L|186:56,1,49,8|2,1:2|1:2,0:0:0:0:
292,236,87763,2,0,L|339:204,1,49,8|2,1:2|1:2,0:0:0:0:
466,33,88198,2,0,L|513:50,1,49,8|2,1:2|1:2,0:0:0:0:
