osu file format v14

[General]
AudioFilename: audio.mp3
AudioLeadIn: 0
PreviewTime: 64089
Countdown: 0
SampleSet: None
StackLeniency: 0.4
Mode: 0
LetterboxInBreaks: 0
WidescreenStoryboard: 1

[Editor]
DistanceSpacing: 1.4
BeatDivisor: 4
GridSize: 32
TimelineZoom: 2.899999

[Metadata]
Title:HAWATARI NIOKU CENTI (TV Size)
TitleUnicode:刃渡り2億センチ (TV Size)
Artist:MAXIMUM THE HORMONE
ArtistUnicode:マキシマム ザ ホルモン
Creator:Renumi
Version:HARD
Source:チェンソーマン
Tags:CHAINSAW MAN csm anime japanese rock metal jrock ending third 3 ed 3rd mappa chainsawman 2-oku
BeatmapID:3989072
BeatmapSetID:1873285

[Difficulty]
HPDrainRate:5
CircleSize:3.5
OverallDifficulty:6
ApproachRate:8
SliderMultiplier:1.26
SliderTickRate:1

[Events]
//Background and Video events
0,0,"sadf.jpg",0,0
Video,-75,"BGA.mp4"
//Break Periods
2,51663,56475
//Storyboard Layer 0 (Background)
//Storyboard Layer 1 (Fail)
//Storyboard Layer 2 (Pass)
//Storyboard Layer 3 (Foreground)
//Storyboard Layer 4 (Overlay)
//Storyboard Sound Samples

[TimingPoints]
198,404.721753794266,4,2,1,45,1,0
1007,393.44262295082,4,2,1,45,1,0
1793,400,4,2,1,45,1,0
2593,398.671096345515,4,2,1,45,1,0
3390,394.736842105263,4,2,1,45,1,0
4179,409.556313993174,4,2,1,45,1,0
4998,397.350993377483,4,2,1,45,1,0
6190,379.746835443038,4,2,1,45,1,0
6569,400,4,2,1,70,1,0
6569,-125,4,2,1,70,0,0
18769,-100,4,1,1,80,0,0
19169,421.052631578947,4,1,1,80,1,0
19379,400,4,1,1,75,1,0
25779,401.808136614766,4,1,1,75,1,0
28993,363.636363636364,4,1,1,80,1,0
29356,413.793103448276,4,1,1,80,1,0
29769,326.086956521739,4,1,1,80,1,0
30095,344.827586206897,4,1,1,80,1,0
30439,348.837209302326,4,1,1,80,1,0
30787,288.461538461538,4,1,1,80,1,0
31363,162.162162162162,4,1,1,80,1,0
31363,-200,4,1,1,80,0,0
31849,153.846153846154,4,1,1,90,1,0
31849,-200,4,1,1,90,0,1
40925,-181.818181818182,4,1,1,90,0,0
41695,-200,4,1,1,90,0,1
45849,-181.818181818182,4,1,1,90,0,0
46618,-200,4,1,1,90,0,1
50925,-200,4,1,1,80,0,1
51541,410.958904109589,4,1,1,50,1,0
58116,-125,4,2,1,60,0,0
63047,178.571428571429,4,1,1,80,1,0
63047,-200,4,1,1,80,0,0
63404,193.548387096774,4,1,1,80,1,0
63404,-200,4,1,1,80,0,0
63791,191.693290734824,4,1,1,80,1,0
64174,218.181818181818,4,2,1,70,1,0
64174,-285.714285714286,4,2,1,70,0,0
64392,206.896551724138,4,2,1,70,1,0
64598,203.735144312394,4,1,1,90,1,1
64699,-166.666666666667,4,1,1,90,0,1
67450,209.059233449477,4,1,1,90,1,1
67450,-166.666666666667,4,1,1,90,0,1
67868,206.185567010309,4,1,1,90,1,1
67868,-166.666666666667,4,1,1,90,0,1
69517,196.72131147541,4,1,1,90,1,1
69517,-166.666666666667,4,1,1,90,0,1
69910,207.612456747405,4,1,1,90,1,1
69910,-166.666666666667,4,1,1,90,0,1
70325,207.612456747405,4,1,1,90,1,1
70325,-166.666666666667,4,1,1,90,0,1
71155,204.081632653061,4,1,1,90,1,1
71155,-167.643610785463,4,1,1,90,0,1
71359,212.765957446809,4,1,1,90,1,1
71359,-111.111111111111,4,1,1,90,0,1
71997,214.285714285714,4,1,1,90,1,1
71997,-166.666666666667,4,1,1,90,0,1
72854,213.523131672598,4,1,1,90,1,1
72854,-166.666666666667,4,1,1,90,0,1
73708,206.896551724138,4,1,1,90,1,1
73708,-166.666666666667,4,1,1,90,0,1
74121,220.588235294118,4,1,1,90,1,1
74121,-166.666666666667,4,1,1,90,0,1
74562,218.978102189781,4,1,1,90,1,0
75437,215.827338129496,4,1,1,80,1,0
76300,223.880597014925,4,1,1,80,1,0
76300,-166.666666666667,4,1,1,80,0,0
77195,218.579234972678,4,1,1,80,1,0
77195,-166.666666666667,4,1,1,80,0,0
77850,236.220472440945,4,1,1,80,1,0
77850,-142.857142857143,4,1,1,80,0,0
78086,215.05376344086,4,1,1,80,1,0
78946,226.415094339623,4,1,1,80,1,0
79398,-333.333333333333,4,1,1,80,0,0
79851,223.463687150838,4,1,1,80,1,0
79851,-333.333333333333,4,1,1,80,0,0
80744,211.267605633803,4,1,1,80,1,0
80955,230.769230769231,4,1,1,80,1,0
80955,-166.666666666667,4,1,1,80,0,0
81185,222.222222222222,4,1,1,80,1,0
81629,218.978102189781,4,1,1,85,1,0
81629,-200,4,1,1,50,0,0
83380,219.78021978022,4,1,1,60,1,0
83380,-200,4,1,1,60,0,0
85138,-200,4,1,1,70,0,0
86456,223.880597014925,4,1,1,70,1,0
86456,-200,4,1,1,70,0,0
86903,214.285714285714,4,1,1,85,1,0
86903,-285.714285714286,4,1,1,85,0,0
87331,216.216216216216,4,1,1,85,1,0
87331,-200,4,1,1,85,0,0
87763,217.785843920145,4,1,1,95,1,0
87763,-285.714285714286,4,1,1,95,0,0
88198,-200,4,1,1,95,0,0

[Colours]
Combo1 : 199,165,123
Combo2 : 223,122,129
Combo3 : 231,136,113
Combo4 : 139,239,206

[HitObjects]
424,46,6569,54,0,L|310:75,1,100.8,2|2,3:2|3:2,1:0:0:0:
326,70,7369,1,2,3:2:0:0:
238,45,7569,1,2,0:3:0:0:
189,121,7769,2,0,P|161:115|125:105,1,50.4,2|2,3:2|0:3,0:0:0:0:
49,121,8169,2,0,L|27:237,1,100.8,2|2,3:2|3:2,1:0:0:0:
175,357,8969,2,0,L|163:299,2,50.4,0|2|0,3:0|0:3|3:0,0:0:0:0:
265,332,9569,1,2,0:3:0:0:
265,332,9769,6,0,P|312:309|368:297,1,100.8,2|2,3:2|3:2,1:0:0:0:
359,298,10569,1,2,3:2:0:0:
447,320,10769,1,2,0:3:0:0:
500,246,10969,2,0,B|491:181,1,50.4,2|2,3:2|0:3,0:0:0:0:
426,133,11369,2,0,L|446:29,1,100.8,2|2,3:2|3:2,1:0:0:0:
354,36,11969,1,2,0:3:0:0:
354,36,12169,2,0,L|344:90,1,50.4,0|2,3:0|0:3,0:0:0:0:
263,149,12569,2,0,L|245:78,1,50.4,0|2,3:0|0:3,0:0:0:0:
170,143,12969,6,0,P|126:128|57:114,1,100.8,2|2,3:2|3:2,1:0:0:0:
73,116,13769,1,2,3:2:0:0:
20,189,13969,1,2,0:3:0:0:
74,261,14169,1,2,3:2:0:0:
160,233,14369,1,0,0:0:0:0:
248,252,14569,2,0,P|277:288|305:341,1,100.8,2|2,3:2|3:2,1:0:0:0:
389,377,15169,1,0,0:0:0:0:
389,377,15369,2,0,L|448:371,1,50.4,0|2,3:0|0:3,0:0:0:0:
462,284,15769,2,0,L|533:274,1,50.4,0|2,3:0|0:3,0:0:0:0:
397,204,16169,6,0,P|346:190|288:178,1,100.8,2|2,3:2|3:2,1:0:0:0:
209,198,16769,1,2,0:3:0:0:
209,198,16969,2,0,L|188:135,1,50.4,2|0,3:2|0:0,0:0:0:0:
110,111,17369,2,0,L|95:166,1,50.4,2|0,3:2|0:0,0:0:0:0:
492,195,18769,5,2,3:0:0:0:
430,115,18969,1,2,3:0:0:0:
332,140,19169,1,2,3:0:0:0:
319,240,19379,6,0,L|216:215,1,94.5,0|2,1:0|1:3,1:0:0:0:
189,182,19779,2,0,P|154:191|105:213,1,63,2|2,3:2|1:3,1:0:0:0:
29,202,20179,1,2,3:2:0:0:
33,101,20379,2,0,L|18:56,2,31.5,0|2|10,1:0|1:3|3:2,0:0:0:0:
29,202,20779,1,0,1:0:0:0:
29,202,20979,6,0,P|15:246|2:298,1,94.5,2|2,3:2|1:3,1:0:0:0:
28,336,21379,2,0,P|88:353|146:377,1,126,2|0,3:2|3:0,1:0:0:0:
245,353,21979,2,0,L|258:406,2,31.5,2|0|0,1:3|1:0|3:0,0:0:0:0:
179,275,22379,1,2,1:3:0:0:
269,230,22579,6,0,L|287:118,1,94.5,2|2,3:2|1:3,1:0:0:0:
326,109,22979,2,0,L|314:40,1,63,2|2,3:2|1:3,1:0:0:0:
222,7,23379,1,2,3:2:0:0:
125,36,23579,2,0,L|68:47,2,31.5,0|0|10,1:0|0:0|3:2,0:0:0:0:
192,111,23979,1,0,1:0:0:0:
192,111,24179,6,0,P|240:122|302:143,1,94.5,2|2,3:2|1:3,1:0:0:0:
317,172,24579,1,2,3:2:0:0:
414,143,24779,1,2,1:3:0:0:
478,219,24979,2,0,P|447:256|413:283,1,63,0|2,3:0|1:3,0:0:0:0:
404,304,25279,1,0,1:0:0:0:
404,304,25379,2,0,L|422:354,2,31.5,8|8|8,3:2|1:2|1:2,0:0:0:0:
304,287,25779,6,0,B|264:268|264:268|198:252,1,94.5,6|2,3:2|1:3,1:0:0:0:
164,257,26180,1,2,3:2:0:0:
61,258,26381,2,0,B|72:211|72:211|72:186|72:186|84:126,1,126,4|2,3:2|1:2,1:0:0:0:
74,33,26984,1,14,3:2:0:0:
170,1,27185,1,2,1:3:0:0:
229,82,27386,6,0,B|268:74|268:74|337:50,1,94.5,6|2,3:2|1:3,1:0:0:0:
368,40,27788,1,2,3:2:0:0:
457,85,27988,2,0,B|428:120|428:120|398:222,1,126,4|8,1:2|1:2,1:0:0:0:
329,263,28591,1,0,3:0:0:0:
396,337,28792,2,0,L|412:378,2,31.6572375,2|2|0,1:3|1:3|1:0,0:0:0:0:
418,163,31363,6,0,L|428:95,2,63,0|0|0,3:0|3:0|3:0,1:0:0:0:
400,270,31849,6,0,L|264:241,1,126,0|8,3:0|1:0,1:0:0:0:
179,216,32310,2,0,L|50:241,1,126,0|8,3:0|1:0,1:0:0:0:
3,152,32772,2,0,L|21:85,1,63,0|0,3:0|1:0,0:0:0:0:
99,29,33079,6,0,P|144:66|228:48,1,126,0|8,3:0|1:0,1:0:0:0:
299,16,33541,2,0,P|331:15|375:43,1,63,0|2,3:0|1:0,0:0:0:0:
402,54,33772,2,0,L|463:46,1,31.5,0|8,1:0|1:0,0:0:0:0:
494,130,34002,2,0,L|421:139,1,63,2|2,3:0|1:0,0:0:0:0:
330,146,34310,6,0,B|312:180|312:180|307:210|307:210|277:265,1,126,0|8,3:0|1:0,1:0:0:0:
355,327,34772,2,0,P|406:370|468:335,1,126,0|0,3:0|1:0,1:0:0:0:
462,251,35233,2,0,P|453:220|443:190,1,63,0|2,3:0|1:0,1:0:0:0:
429,90,35541,6,0,L|476:101,2,31.5,8|8|10,3:1|1:0|1:0,0:0:0:0:
340,39,35849,2,0,L|315:1,2,31.5,8|0|0,1:0|1:0|3:0,1:0:0:0:
330,146,36156,2,0,L|289:285,1,126,8|2,1:0|3:0,1:0:0:0:
111,353,36772,6,0,L|87:248,1,94.5,0|2,3:0|1:0,1:0:0:0:
54,224,37079,1,8,1:0:0:0:
107,138,37233,2,0,B|125:86|125:86|123:78|123:78|132:50|144:4,1,126,2|8,3:1|1:0,1:0:0:0:
241,8,37695,2,0,P|257:64|259:82,1,63,0|0,3:0|1:0,0:0:0:0:
305,157,38002,6,0,B|407:139,1,94.5,2|2,3:1|1:0,1:0:0:0:
440,168,38310,1,8,1:0:0:0:
451,268,38464,2,0,B|435:267|407:261|407:261|386:264|386:264|307:251,1,126,2|8,1:0|1:0,1:0:0:0:
254,325,38925,1,0,3:0:0:0:
171,140,39233,6,0,L|63:129,1,94.5,2|2,3:1|1:0,1:0:0:0:
44,169,39541,1,8,1:0:0:0:
122,232,39695,2,0,L|108:310,1,63,2|0,3:1|1:0,1:0:0:0:
182,365,40002,2,0,B|207:325|207:325|212:309|212:309|230:289|259:261,1,126,2|2,1:0|1:0,1:0:0:0:
356,261,40464,6,0,L|472:269,1,94.5,2|2,3:1|1:0,1:0:0:0:
448,101,40925,1,0,1:0:0:0:
448,101,41695,6,0,B|405:96|405:96|373:82|373:82|314:72,1,126,2|8,3:2|1:0,1:0:0:0:
226,57,42156,2,0,B|172:77|172:77|84:67,1,126,6|2,3:2|1:0,1:0:0:0:
15,114,42618,1,0,3:0:0:0:
15,114,42772,1,0,1:0:0:0:
77,194,42925,6,0,L|100:327,1,126,2|8,3:2|1:0,1:0:0:0:
190,360,43387,1,2,3:2:0:0:
277,310,43541,2,0,P|272:278|262:238,1,63,2|0,1:2|1:0,0:0:0:0:
198,172,43849,2,0,P|203:140|213:100,1,63,2|6,3:2|1:2,0:0:0:0:
295,55,44156,6,0,L|402:68,2,94.5,2|2|2,3:2|1:0|3:2,1:0:0:0:
203,11,44772,1,2,1:2:0:0:
203,11,44925,1,2,1:0:0:0:
125,75,45079,2,0,L|62:61,1,63,0|0,3:0|1:0,0:0:0:0:
13,149,45387,6,0,B|66:157|66:157|101:172|101:172|120:174|142:184,1,126,2|8,3:2|1:0,1:0:0:0:
243,201,45849,1,6,3:2:0:0:
243,201,46618,6,0,B|262:206|288:207|288:207|323:223|377:237,1,126,2|8,3:2|1:0,1:0:0:0:
440,299,47079,2,0,B|465:269|465:269|454:250|454:250|452:222|465:158,1,126,6|2,3:2|1:0,1:0:0:0:
492,91,47541,1,0,3:0:0:0:
492,91,47695,1,0,1:0:0:0:
409,33,47849,6,0,L|264:12,1,126,2|8,3:2|1:0,1:0:0:0:
192,61,48310,1,2,3:2:0:0:
91,58,48464,2,0,P|80:98|86:133,1,63,2|0,1:2|1:0,0:0:0:0:
163,178,48772,2,0,P|163:209|153:239,1,63,2|6,3:2|1:2,1:0:0:0:
100,325,49079,6,0,L|218:316,1,94.5,2|2,3:2|1:0,1:0:0:0:
330,317,49541,1,2,3:2:0:0:
360,220,49695,2,0,B|285:212,1,63,2|2,3:2|1:0,0:0:0:0:
245,126,50002,2,0,L|320:118,1,63,0|0,3:0|1:0,0:0:0:0:
403,85,50310,6,0,B|420:110|420:110|443:121|443:121|461:146|488:177,1,126,2|8,3:2|1:0,1:0:0:0:
465,274,50772,1,6,3:2:0:0:
366,296,50925,2,0,L|322:313,3,31.5,0|2|8|8,1:0|1:3|1:0|1:0,0:0:0:0:
298,341,51233,2,0,L|256:312,3,31.5,0|8|8|8,1:0|1:0|1:0|1:2,0:0:0:0:
381,115,58116,6,0,P|367:157|354:216,1,100.8,4|2,2:0|2:0,1:0:0:0:
389,286,58732,1,0,0:0:0:0:
342,353,58938,1,2,2:0:0:0:
342,353,59349,1,2,2:0:0:0:
342,353,59760,2,0,P|295:341|241:334,1,100.8,2|2,2:0|2:0,1:0:0:0:
169,367,60376,1,0,0:0:0:0:
91,342,60582,2,0,L|21:356,2,50.4,2|0|0,2:0|0:0|0:0,0:0:0:0:
91,342,61404,6,0,P|112:293|130:238,1,100.8,2|2,2:0|2:0,1:0:0:0:
161,174,62020,1,0,0:0:0:0:
143,95,62225,2,0,L|130:34,1,50.4,2|0,2:0|0:0,1:0:0:0:
246,118,62636,2,0,L|256:68,1,50.4,2|0,2:0|0:0,1:0:0:0:
305,193,63047,6,0,L|343:206,2,31.5,2|0|0,2:0|1:2|1:2,0:0:0:0:
213,235,63404,2,0,L|165:245,2,31.5,0|0|0,1:2|1:2|1:2,0:0:0:0:
295,293,63791,1,0,1:2:0:0:
295,293,64175,2,0,P|321:302|347:313,1,44.0999986541748,2|2,2:0|2:0,1:0:0:0:
447,361,64598,5,6,3:2:0:0:
464,311,64699,2,0,P|451:262|421:193,1,113.4,10|2,1:2|3:2,1:0:0:0:
389,167,65107,2,0,P|402:118|428:43,1,113.399996539307,10|6,1:2|3:2,1:0:0:0:
326,12,65616,1,2,1:2:0:0:
221,24,65820,2,0,L|173:16,2,37.7999999999999,2|8|2,3:2|1:2|3:2,1:0:0:0:
265,121,66227,5,6,3:2:0:0:
241,168,66329,2,0,B|209:209|209:209|149:248,1,113.4,8|0,1:2|3:0,1:0:0:0:
105,236,66737,2,0,B|120:282|120:282|131:360,1,113.399996539307,8|4,1:2|3:2,1:0:0:0:
174,373,67144,2,0,P|234:351|286:375,1,113.4,8|2,1:2|3:2,1:0:0:0:
383,362,67659,1,2,1:2:0:0:
412,260,67868,5,6,3:2:0:0:
378,219,67971,2,0,L|359:105,1,113.4,10|2,1:2|3:2,1:0:0:0:
322,68,68383,2,0,L|208:87,1,113.767916539307,10|6,1:2|3:2,1:0:0:0:
104,87,68898,1,2,1:2:0:0:
26,158,69105,2,0,L|11:201,2,37.7999999999999,2|8|2,3:2|1:2|3:2,1:0:0:0:
130,182,69517,5,6,3:2:0:0:
175,208,69615,2,0,L|194:320,1,113.4,8|0,1:2|3:0,1:0:0:0:
222,363,70013,2,0,L|343:342,1,113.399996539307,8|4,1:2|3:2,1:0:0:0:
396,258,70532,2,0,L|442:266,1,37.7999999999999,8|8,1:2|1:2,0:0:0:0:
484,252,70740,2,0,P|498:272|512:294,2,37.7999999999999,2|8|10,3:2|1:2|1:2,0:0:0:0:
441,157,71155,6,0,L|450:73,1,75.5999999999999,6|8,3:2|1:2,1:0:0:0:
353,36,71571,1,2,3:2:0:0:
353,36,71678,1,0,3:0:0:0:
353,36,71784,1,8,1:2:0:0:
263,88,71997,2,0,B|179:77,1,75.5999999999998,6|8,3:2|1:2,1:0:0:0:
83,61,72425,2,0,L|45:67,2,37.7999999999999,2|0|10,0:2|3:0|1:2,0:0:0:0:
118,154,72854,5,6,3:2:0:0:
139,257,73067,1,8,1:2:0:0:
45,307,73281,1,2,3:2:0:0:
45,307,73387,1,0,3:0:0:0:
45,307,73494,1,10,1:2:0:0:
150,279,73708,2,0,B|231:262,1,75.5999976928712,6|8,3:2|3:2,1:0:0:0:
274,279,74018,1,8,1:2:0:0:
318,300,74121,2,0,L|332:351,2,37.9763988464356,0|0|2,3:0|3:0|3:0,0:0:0:0:
320,162,74562,5,6,3:2:0:0:
320,162,75437,1,6,3:2:0:0:
320,162,76300,6,0,L|338:8,1,151.199995385742,6|6,3:2|3:2,1:0:0:0:
149,103,77195,2,0,L|161:190,1,75.5999999999998,6|8,3:2|1:2,1:0:0:0:
126,219,77522,2,0,L|81:209,2,38.1464988464356,8|8|8,1:2|3:2|1:2,0:0:0:0:
129,279,77850,1,2,3:0:0:0:
227,346,78086,5,2,3:2:0:0:
331,293,78301,1,2,3:2:0:0:
331,293,78946,1,2,3:2:0:0:
332,81,79398,1,6,1:2:0:0:
440,176,79851,5,6,3:2:0:0:
241,192,80297,1,6,3:2:0:0:
350,73,80744,1,2,2:0:0:0:
350,73,80955,2,0,L|342:153,1,75.5999976928712,2|2,3:0|3:0,0:0:0:0:
342,148,81629,6,0,P|303:143|261:140,1,63,2|2,3:2|2:0,1:0:0:0:
209,194,82066,2,0,P|214:226|225:279,1,63,0|2,2:0|2:0,1:0:0:0:
157,318,82504,2,0,P|122:281|113:273,1,63,8|2,2:0|2:2,0:0:0:0:
40,222,82942,2,0,P|58:177|73:149,1,63,8|2,2:0|2:0,0:0:0:0:
150,133,83380,5,8,1:2:0:0:
150,133,83599,1,2,1:2:0:0:
209,194,83819,2,0,L|288:179,1,63,8|2,1:2|1:2,1:0:0:0:
354,212,84259,1,8,1:2:0:0:
354,212,84478,1,2,1:2:0:0:
429,257,84698,2,0,P|440:289|453:334,1,63,8|2,1:2|1:2,0:0:0:0:
337,328,85138,6,0,L|257:318,1,63,12|2,1:2|1:2,1:0:0:0:
156,243,85577,2,0,L|236:233,1,63,8|2,1:2|1:2,1:0:0:0:
181,359,86017,2,0,L|101:349,1,63,8|2,1:2|1:2,0:0:0:0:
0,274,86456,2,0,L|80:264,1,63,8|2,1:2|1:2,0:0:0:0:
134,214,86903,5,12,1:2:0:0:
131,125,87117,1,2,1:2:0:0:
211,89,87331,2,0,P|243:101|276:116,1,63,8|2,1:2|1:2,0:0:0:0:
346,155,87763,1,8,1:2:0:0:
343,244,87980,1,2,1:2:0:0:
423,280,88198,2,0,P|455:268|488:253,1,63,8|2,1:2|1:2,0:0:0:0:
