osu file format v14

[General]
AudioFilename: audio.mp3
AudioLeadIn: 0
PreviewTime: 64089
Countdown: 0
SampleSet: Soft
StackLeniency: 0.7
Mode: 0
LetterboxInBreaks: 0
WidescreenStoryboard: 1

[Editor]
DistanceSpacing: 1.6
BeatDivisor: 4
GridSize: 32
TimelineZoom: 2.899999

[Metadata]
Title:HAWATARI NIOKU CENTI (TV Size)
TitleUnicode:刃渡り2億センチ (TV Size)
Artist:MAXIMUM THE HORMONE
ArtistUnicode:マキシマム ザ ホルモン
Creator:Renumi
Version:EXTRA
Source:チェンソーマン
Tags:CHAINSAW MAN csm anime japanese rock metal jrock ending third 3 ed 3rd mappa chainsawman 2-oku
BeatmapID:3977102
BeatmapSetID:1873285

[Difficulty]
HPDrainRate:6
CircleSize:4.3
OverallDifficulty:8
ApproachRate:9.2
SliderMultiplier:1.6
SliderTickRate:1

[Events]
//Background and Video events
0,0,"sadf.jpg",0,0
Video,-75,"BGA.mp4"
//Break Periods
2,51664,56475
//Storyboard Layer 0 (Background)
//Storyboard Layer 1 (Fail)
//Storyboard Layer 2 (Pass)
//Storyboard Layer 3 (Foreground)
//Storyboard Layer 4 (Overlay)
//Storyboard Sound Samples

[TimingPoints]
198,404.721753794266,4,2,1,45,1,0
1007,393.44262295082,4,2,1,45,1,0
1793,400,4,2,1,45,1,0
2593,398.671096345515,4,2,1,45,1,0
3390,394.736842105263,4,2,1,45,1,0
4179,409.556313993174,4,2,1,45,1,0
4998,397.350993377483,4,2,1,45,1,0
6190,379.746835443038,4,2,1,45,1,0
6569,400,4,2,1,70,1,0
18769,-100,4,1,1,80,0,0
19169,421.052631578947,4,1,1,80,1,0
19379,400,4,1,1,75,1,0
19379,-83.3333333333333,4,1,1,75,0,0
25779,401.808136614766,4,1,1,75,1,0
25779,-71.4285714285709,4,1,1,75,0,0
28993,363.636363636364,4,1,1,80,1,0
29356,413.793103448276,4,1,1,80,1,0
29769,326.086956521739,4,1,1,80,1,0
30095,344.827586206897,4,1,1,80,1,0
30439,348.837209302326,4,1,1,80,1,0
30787,288.461538461538,4,1,1,80,1,0
31363,162.162162162162,4,1,1,80,1,0
31363,-142.857142857143,4,1,1,80,0,8
31849,153.846153846154,4,1,1,90,1,0
31849,-142.857142857143,4,1,1,90,0,1
36156,-200,4,1,1,90,0,1
36772,-142.857142857143,4,1,1,90,0,1
40925,-142.857142857143,4,1,1,90,0,0
41695,-142.857142857143,4,1,1,90,0,1
45849,-142.857142857143,4,1,1,90,0,0
46618,-142.857142857143,4,1,1,90,0,1
50925,-142.857142857143,4,1,1,80,0,1
51541,410.958904109589,4,2,2,50,1,0
58116,-142.857142857143,4,2,1,60,0,0
63047,178.571428571429,4,1,1,80,1,0
63404,193.548387096774,4,1,1,80,1,0
63791,191.693290734824,4,1,1,80,1,0
64174,218.181818181818,4,1,1,70,1,0
64174,-250.000000000001,4,2,1,70,0,0
64392,206.896551724138,4,2,1,70,1,0
64392,-250,4,2,1,70,0,0
64598,203.735144312394,4,1,1,90,1,1
64699,-111.111111111111,4,1,1,90,0,1
67450,209.059233449477,4,1,1,90,1,1
67450,-111.111111111111,4,1,1,90,0,1
67868,206.185567010309,4,1,1,90,1,1
67868,-111.111111111111,4,1,1,90,0,1
68692,-111.111111111111,4,1,1,90,0,1
69517,196.72131147541,4,1,1,90,1,1
69517,-111.111111111111,4,1,1,90,0,1
69910,207.612456747405,4,1,1,90,1,1
69910,-111.111111111111,4,1,1,90,0,1
70325,207.612456747405,4,1,1,90,1,1
70325,-111.111111111111,4,1,1,90,0,1
71155,204.081632653061,4,1,1,90,1,1
71155,-111.544461778471,4,1,1,90,0,1
71359,212.765957446809,4,1,1,90,1,1
71359,-111.111111111111,4,1,1,90,0,1
71997,214.285714285714,4,1,1,90,1,1
71997,-111.111111111111,4,1,1,90,0,1
72854,213.523131672598,4,1,1,90,1,1
72854,-111.111111111111,4,1,1,90,0,1
73708,206.896551724138,4,1,1,90,1,1
73708,-111.111111111111,4,1,1,90,0,1
74121,220.588235294118,4,1,1,90,1,1
74562,218.978102189781,4,1,1,90,1,0
75437,215.827338129496,4,1,1,80,1,0
76300,223.880597014925,4,1,1,80,1,0
76300,-333.333333333333,4,1,1,80,0,0
77195,218.579234972678,4,1,1,80,1,0
77195,-125,4,1,1,80,0,0
77850,236.220472440945,4,1,1,80,1,0
78086,215.05376344086,4,1,1,80,1,0
78946,226.415094339623,4,1,1,80,1,0
79398,-333.333333333333,4,1,1,80,0,0
79851,223.463687150838,4,1,1,80,1,0
79851,-333.333333333333,4,1,1,80,0,0
80744,211.267605633803,4,1,1,80,1,0
80955,230.769230769231,4,1,1,80,1,0
81185,222.222222222222,4,1,1,80,1,0
81629,218.978102189781,4,1,1,85,1,0
81629,-250,4,1,1,50,0,0
83380,219.78021978022,4,1,1,60,1,0
83380,-250,4,1,1,60,0,0
85138,-250,4,1,1,70,0,0
86456,223.880597014925,4,1,1,70,1,0
86903,214.285714285714,4,1,1,85,1,0
87331,216.216216216216,4,1,1,85,1,0
87763,217.785843920145,4,1,1,95,1,0
88497,-125,4,1,1,5,0,0

[Colours]
Combo1 : 199,165,123
Combo2 : 223,122,129
Combo3 : 231,136,113
Combo4 : 139,239,206

[HitObjects]
12,191,6569,54,0,P|35:122|52:47,1,120,2|0,3:2|0:0,1:0:0:0:
69,54,6969,2,0,P|89:111|108:154,1,80,2|2,3:2|0:3,1:0:0:0:
194,212,7369,1,2,3:2:0:0:
194,212,7569,1,2,0:3:0:0:
204,109,7769,1,2,3:2:0:0:
73,202,7969,1,2,0:3:0:0:
205,298,8169,6,0,L|339:277,1,120,2|0,3:2|0:0,1:0:0:0:
352,265,8569,2,0,L|457:283,1,80,2|2,3:2|0:3,1:0:0:0:
500,198,8969,1,0,3:0:0:0:
445,109,9169,1,2,0:3:0:0:
347,145,9369,1,0,3:0:0:0:
242,139,9569,1,2,0:3:0:0:
113,81,9769,6,0,P|73:139|42:197,1,120,2|0,3:2|0:0,1:0:0:0:
8,216,10169,2,0,L|29:322,1,80,2|2,3:2|0:3,1:0:0:0:
204,244,10569,1,2,3:2:0:0:
204,244,10769,1,2,0:3:0:0:
285,183,10969,1,2,3:2:0:0:
305,340,11169,1,2,0:3:0:0:
186,265,11369,6,0,B|165:128,1,120,2|0,3:2|0:0,1:0:0:0:
194,101,11769,2,0,P|214:54|228:10,1,80,2|2,3:2|0:3,1:0:0:0:
325,8,12169,1,0,3:0:0:0:
400,79,12369,1,2,0:3:0:0:
305,123,12569,1,0,3:0:0:0:
298,226,12769,1,2,0:3:0:0:
426,343,12969,6,0,L|532:359,1,80,2|0,3:2|0:0,1:0:0:0:
247,295,13369,2,0,L|167:314,1,80,2|2,3:2|0:3,1:0:0:0:
408,200,13769,1,2,3:2:0:0:
366,299,13969,1,2,0:3:0:0:
235,178,14169,2,0,L|248:92,1,80,2|0,3:2|0:0,1:0:0:0:
74,237,14569,6,0,L|85:335,1,80,2|0,3:2|0:0,1:0:0:0:
122,121,14969,2,0,L|23:111,1,80,2|0,3:2|0:0,1:0:0:0:
162,211,15369,1,0,3:0:0:0:
257,252,15569,1,2,0:3:0:0:
267,148,15769,1,0,3:0:0:0:
367,176,15969,1,2,0:3:0:0:
474,42,16169,6,0,L|321:52,1,120,2|0,3:2|0:0,1:0:0:0:
311,20,16569,2,0,P|235:43|210:52,1,80,2|2,3:2|0:3,1:0:0:0:
65,195,16969,1,2,3:2:0:0:
39,53,17169,1,0,0:0:0:0:
190,202,17369,1,2,3:2:0:0:
200,14,17569,1,0,0:0:0:0:
264,339,18769,5,2,3:0:0:0:
298,31,18969,1,2,3:0:0:0:
383,301,19169,1,2,3:0:0:0:
277,158,19379,6,0,B|247:162|220:157|220:157|177:168|116:161,1,143.999995605469,0|2,1:0|1:3,1:0:0:0:
45,159,19779,2,0,L|110:146,1,47.9999985351563,2|0,3:2|1:0,1:0:0:0:
209,258,19979,2,0,L|218:193,1,47.9999985351563,2|0,1:3|1:0,1:0:0:0:
192,71,20179,1,2,3:2:0:0:
383,152,20379,1,0,1:0:0:0:
404,160,20479,1,2,1:3:0:0:
427,169,20579,2,0,L|444:288,1,96.0000000000008,10|0,3:2|1:0,1:0:0:0:
377,326,20879,1,8,1:0:0:0:
360,340,20979,6,0,L|250:334,1,96.0000000000008,2|0,3:2|1:0,1:0:0:0:
198,280,21279,1,2,1:3:0:0:
177,285,21379,2,0,L|161:354,1,48.0000000000004,2|0,3:2|1:0,1:0:0:0:
261,168,21579,2,0,L|277:239,1,48.0000000000004,2|0,1:3|1:0,1:0:0:0:
121,118,21779,1,0,3:0:0:0:
451,83,21979,1,2,1:3:0:0:
451,83,22079,1,0,1:0:0:0:
451,83,22179,1,0,3:0:0:0:
301,290,22379,1,2,1:3:0:0:
301,290,22479,1,2,1:3:0:0:
301,290,22579,6,0,L|179:274,1,96.0000000000008,2|0,3:2|1:0,1:0:0:0:
207,202,22879,1,2,1:3:0:0:
132,116,22979,2,0,P|172:141|208:173,1,96.0000000000008,2|2,3:2|1:3,1:0:0:0:
350,366,23379,1,2,3:2:0:0:
350,366,23579,1,0,1:0:0:0:
386,134,23779,1,10,3:2:0:0:
472,287,23979,1,0,1:0:0:0:
473,277,24079,1,8,1:0:0:0:
475,267,24179,6,0,L|373:247,1,96.0000000000008,2|0,3:2|1:0,1:0:0:0:
278,215,24479,1,2,1:3:0:0:
220,253,24579,2,0,L|282:242,1,48.0000000000004,2|0,3:2|1:0,1:0:0:0:
442,155,24779,2,0,L|373:145,1,48.0000000000004,2|0,1:3|1:0,1:0:0:0:
328,44,24979,1,0,3:0:0:0:
341,306,25179,1,2,1:3:0:0:
341,306,25279,1,0,1:0:0:0:
341,306,25379,1,8,3:2:0:0:
303,347,25479,1,8,1:2:0:0:
247,349,25579,1,8,1:2:0:0:
209,307,25679,1,8,1:2:0:0:
153,305,25779,6,0,L|19:315,1,112.000000000001,6|0,3:2|1:0,1:0:0:0:
14,288,26080,2,0,L|27:217,1,56.0000000000004,2|2,1:3|3:2,1:0:0:0:
277,241,26381,2,0,L|241:106,1,112.000000000001,4|2,3:2|1:2,1:0:0:0:
144,233,26783,1,2,1:2:0:0:
229,46,26984,1,14,3:2:0:0:
301,310,27185,1,2,1:3:0:0:
300,317,27285,1,2,1:3:0:0:
299,323,27386,6,0,B|463:312,1,112.000000000001,6|0,3:2|1:0,1:0:0:0:
456,299,27687,2,0,L|486:380,1,56.0000000000004,2|2,1:3|3:2,1:0:0:0:
236,216,27988,2,0,P|181:151|108:139,1,112.000000000001,4|0,1:2|3:0,1:0:0:0:
0,353,28390,2,0,P|48:346|78:337,1,56.0000000000004,8|0,1:2|1:0,1:0:0:0:
122,294,28591,1,0,3:0:0:0:
119,283,28692,1,0,1:0:0:0:
116,272,28792,1,2,1:3:0:0:
113,261,28893,1,2,1:3:0:0:
110,250,28993,1,0,1:0:0:0:
137,48,31363,6,0,P|184:80|199:96,1,55.9999982910157,0|0,3:0|2:0,1:0:0:0:
167,231,31525,2,0,P|202:179|218:167,1,56,0|0,3:0|2:0,1:0:0:0:
281,134,31687,2,0,P|343:138|361:146,1,56,0|0,3:0|2:0,1:0:0:0:
437,179,31849,6,0,L|451:298,1,111.999996582031,0|2,3:0|1:0,1:0:0:0:
419,363,32079,1,0,1:0:0:0:
418,375,32156,1,8,1:0:0:0:
252,315,32310,2,0,L|267:191,1,112,0|2,3:0|1:0,1:0:0:0:
225,123,32541,1,0,1:0:0:0:
229,115,32618,1,8,1:0:0:0:
164,219,32772,1,0,3:0:0:0:
136,64,32925,1,0,1:0:0:0:
0,173,33079,6,0,P|44:173|106:144,1,112,0|2,3:0|1:3,1:0:0:0:
199,129,33310,1,2,1:3:0:0:
211,134,33387,2,0,P|236:155|262:187,1,56,8|0,1:0|1:0,1:0:0:0:
275,279,33541,1,0,3:0:0:0:
455,126,33695,1,2,1:0:0:0:
455,126,33772,1,0,1:0:0:0:
455,126,33849,1,8,1:0:0:0:
340,213,34002,1,2,3:0:0:0:
396,45,34156,1,2,1:0:0:0:
438,215,34310,6,0,L|459:356,1,112,0|2,3:0|1:0,1:0:0:0:
382,369,34541,1,0,1:0:0:0:
387,380,34618,1,8,1:0:0:0:
209,217,34772,2,0,P|127:189|75:195,1,112,0|10,3:0|1:0,1:0:0:0:
38,231,35002,1,0,1:0:0:0:
33,239,35079,1,0,1:0:0:0:
276,326,35233,2,0,L|286:252,1,56,0|0,3:0|1:0,1:0:0:0:
293,96,35387,2,0,L|319:188,1,56,2|0,1:0|1:0,1:0:0:0:
377,248,35541,5,8,3:1:0:0:
404,245,35618,1,8,1:0:0:0:
432,243,35695,2,0,L|505:231,1,56,10|0,1:0|1:0,1:0:0:0:
428,125,35849,2,0,L|384:168,1,56,8|0,1:0|1:0,1:0:0:0:
325,338,36002,1,0,3:0:0:0:
325,338,36079,1,0,1:0:0:0:
307,344,36156,2,0,L|293:294,1,40,8|0,1:0|1:0,1:0:0:0:
263,164,36310,2,0,L|250:217,1,40,8|0,1:0|1:0,1:0:0:0:
175,263,36464,1,2,3:0:0:0:
175,263,36541,1,0,1:0:0:0:
158,273,36618,2,0,L|103:264,1,40,8|8,1:0|1:0,1:0:0:0:
0,131,36772,6,0,L|117:118,1,112,0|0,3:0|1:0,1:0:0:0:
186,41,37002,1,2,1:0:0:0:
204,42,37079,2,0,P|222:71|231:90,1,56,8|0,1:0|1:0,1:0:0:0:
411,196,37233,2,0,P|359:171|296:171,1,112,2|0,3:1|1:0,1:0:0:0:
226,211,37464,1,0,1:0:0:0:
218,225,37541,2,0,L|206:280,1,56,8|0,1:0|1:0,1:0:0:0:
326,359,37695,1,0,3:0:0:0:
353,355,37772,1,2,1:0:0:0:
381,351,37849,1,0,1:0:0:0:
409,347,37925,1,0,1:0:0:0:
436,344,38002,6,0,L|446:216,1,112,2|0,3:1|1:0,1:0:0:0:
419,113,38233,1,2,1:0:0:0:
394,104,38310,2,0,L|369:199,1,56,8|0,1:0|1:0,1:0:0:0:
270,272,38464,2,0,L|289:143,1,112,2|2,1:0|3:0,1:0:0:0:
275,69,38695,1,2,1:3:0:0:
253,60,38772,2,0,P|225:64|184:75,1,56,8|0,1:0|1:0,1:0:0:0:
81,76,38925,1,0,3:0:0:0:
243,205,39079,1,0,1:0:0:0:
124,161,39233,6,0,P|48:199|6:249,1,112,2|0,3:1|1:0,1:0:0:0:
0,301,39464,1,2,1:0:0:0:
1,316,39541,2,0,P|30:329|60:336,1,56,8|0,1:0|1:0,1:0:0:0:
192,281,39695,2,0,P|238:250|291:233,1,112,2|0,3:1|1:0,1:0:0:0:
392,260,39925,1,0,1:0:0:0:
401,270,40002,2,0,L|413:330,1,56,2|0,1:0|1:0,1:0:0:0:
448,182,40156,1,0,3:0:0:0:
492,357,40310,1,2,1:0:0:0:
300,282,40464,6,0,L|316:156,1,112,2|0,3:1|1:0,1:0:0:0:
252,62,40695,1,2,1:0:0:0:
265,55,40772,2,0,L|235:121,1,56,8|0,1:0|1:0,1:0:0:0:
119,330,40925,1,0,1:0:0:0:
103,343,41695,6,0,L|213:314,1,112,2|2,3:2|1:2,1:0:0:0:
313,301,41925,1,0,1:0:0:0:
339,307,42002,1,8,1:0:0:0:
153,241,42156,2,0,P|120:182|180:97,1,168,6|0,3:2|1:0,1:0:0:0:
212,95,42464,2,0,P|224:122|239:174,1,56,2|0,1:0|1:0,1:0:0:0:
351,179,42618,2,0,P|357:151|360:124,1,56,0|0,3:0|1:0,1:0:0:0:
468,218,42772,2,0,P|450:241|413:280,1,56,0|0,1:0|1:0,1:0:0:0:
349,351,42925,6,0,P|265:330|218:332,1,112,2|2,3:2|1:2,1:0:0:0:
199,335,43156,1,0,1:0:0:0:
164,346,43233,1,8,1:0:0:0:
31,282,43387,1,2,3:2:0:0:
231,237,43541,1,2,1:2:0:0:
31,142,43695,1,0,1:0:0:0:
132,275,43849,1,2,3:2:0:0:
97,52,44002,1,6,1:2:0:0:
248,187,44156,6,0,P|264:225|289:308,1,112,2|2,3:2|1:2,1:0:0:0:
287,336,44387,2,0,B|350:321|350:321|385:293|385:293|447:283,1,168,2|2,1:0|3:2,1:0:0:0:
404,41,44772,1,2,1:2:0:0:
352,264,44925,1,2,1:0:0:0:
221,97,45079,1,0,3:0:0:0:
476,134,45233,1,0,1:0:0:0:
194,110,45387,6,0,L|60:102,1,112,2|2,3:2|1:2,1:0:0:0:
18,191,45618,1,0,1:0:0:0:
0,213,45695,2,0,L|76:196,1,56,8|0,1:0|1:0,1:0:0:0:
328,146,45849,1,6,3:2:0:0:
346,116,46618,6,0,B|357:144|357:144|369:243,1,111.999996582031,2|2,3:2|1:2,1:0:0:0:
359,310,46849,1,0,1:0:0:0:
331,308,46925,2,0,P|311:324|289:347,1,55.9999982910157,8|0,1:0|1:0,1:0:0:0:
210,384,47079,2,0,P|164:359|44:336,1,167.999994873047,6|0,3:2|1:0,1:0:0:0:
9,346,47387,2,0,L|24:279,1,55.9999982910157,2|0,1:0|1:0,1:0:0:0:
83,130,47541,2,0,L|101:198,1,55.9999982910157,0|0,3:0|1:0,1:0:0:0:
197,273,47695,2,0,L|270:257,1,55.9999982910157,0|0,1:0|1:0,1:0:0:0:
375,177,47849,6,0,L|495:189,1,111.999996582031,2|2,3:2|1:2,1:0:0:0:
485,197,48079,1,0,1:0:0:0:
484,206,48156,1,8,1:0:0:0:
357,263,48310,1,2,3:2:0:0:
293,77,48464,1,2,1:2:0:0:
437,56,48618,1,0,1:0:0:0:
298,170,48772,2,0,L|221:163,1,55.9999982910157,2|0,3:2|1:0,1:0:0:0:
130,107,48925,2,0,P|76:124|55:132,1,55.9999982910157,6|0,1:2|1:0,1:0:0:0:
0,215,49079,6,0,P|66:236|102:267,1,111.999996582031,2|2,3:2|1:2,1:0:0:0:
113,299,49310,2,0,B|166:284|166:284|215:288|215:288|293:261,1,167.999994873047,2|2,1:0|3:2,1:0:0:0:
326,126,49695,1,2,3:2:0:0:
326,126,49772,1,0,1:0:0:0:
326,126,49849,1,2,1:0:0:0:
443,217,50002,1,0,3:0:0:0:
428,49,50156,1,0,1:0:0:0:
346,238,50310,6,0,P|334:300|330:357,1,111.999996582031,2|2,3:2|1:2,1:0:0:0:
450,358,50541,1,0,1:0:0:0:
467,356,50618,2,0,L|456:294,1,55.9999982910157,8|0,1:0|1:0,1:0:0:0:
313,241,50772,2,0,L|336:167,1,55.9999982910157,6|0,3:2|1:0,1:0:0:0:
442,162,50925,1,0,1:0:0:0:
438,136,51002,1,2,1:3:0:0:
434,110,51079,1,8,1:0:0:0:
430,84,51156,1,8,1:0:0:0:
408,69,51233,1,0,1:0:0:0:
409,56,51310,1,8,1:0:0:0:
411,43,51387,1,8,1:0:0:0:
413,30,51464,1,8,1:2:0:0:
258,116,58116,6,0,P|214:147|152:117,1,112,4|2,2:0|2:0,1:0:0:0:
81,85,58732,1,0,0:0:0:0:
30,157,58938,2,0,P|0:202|-9:218,1,55.9999999999999,2|0,2:0|0:0,1:0:0:0:
124,265,59349,2,0,P|109:241|93:218,1,55.9999999999999,2|0,2:0|0:0,1:0:0:0:
72,345,59760,2,0,L|192:331,1,112,2|2,2:0|2:0,1:0:0:0:
249,260,60376,1,0,0:0:0:0:
340,368,60582,1,2,2:0:0:0:
393,318,60787,1,0,0:0:0:0:
355,255,60993,1,0,0:0:0:0:
361,182,61198,1,0,0:0:0:0:
474,92,61404,6,0,P|497:141|512:212,1,112,2|2,2:0|2:0,1:0:0:0:
434,230,62020,1,0,0:0:0:0:
361,182,62225,2,0,L|283:173,1,55.9999999999999,2|0,2:0|0:0,1:0:0:0:
199,109,62636,2,0,L|188:20,1,83.9999999999999,2|0,2:0|2:0,1:0:0:0:
212,0,63047,5,2,2:0:0:0:
240,29,63136,1,0,1:2:0:0:
253,69,63225,1,0,1:2:0:0:
247,111,63314,1,0,1:2:0:0:
218,140,63404,1,0,1:2:0:0:
204,181,63500,1,0,1:2:0:0:
210,222,63597,1,0,1:2:0:0:
227,260,63694,1,0,1:2:0:0:
260,286,63791,1,0,1:2:0:0:
260,286,64174,6,0,L|305:275,1,32,2|0,2:0|0:0,1:0:0:0:
355,154,64392,2,0,L|387:160,1,32,2|0,2:0|0:0,1:0:0:0:
410,301,64598,5,6,3:2:0:0:
512,282,64699,2,0,L|360:270,1,144,10|8,1:2|1:2,1:0:0:0:
275,322,65005,1,2,3:2:0:0:
192,251,65107,2,0,L|219:94,1,144,10|8,1:2|1:2,1:0:0:0:
335,13,65412,2,0,L|353:99,1,72.0000000000001,6|8,3:2|1:2,1:0:0:0:
447,147,65616,2,0,P|489:125|544:114,1,72.0000000000001,2|8,1:2|1:2,1:0:0:0:
362,220,65820,2,0,P|327:208|295:191,1,72.0000000000001,2|8,3:2|1:2,1:0:0:0:
216,109,66024,2,0,P|182:125|139:150,1,71.9999978027344,2|8,3:2|1:2,1:0:0:0:
64,362,66227,5,6,3:2:0:0:
49,269,66329,2,0,L|193:250,1,144,8|8,1:2|1:2,1:0:0:0:
269,318,66635,1,0,3:0:0:0:
340,236,66737,2,0,P|269:224|198:216,1,144,8|8,1:2|1:2,1:0:0:0:
101,229,67042,1,4,3:2:0:0:
17,176,67144,2,0,P|-14:116|23:45,1,144,8|8,1:2|1:2,1:0:0:0:
126,4,67450,2,0,P|132:37|135:100,1,72.0000000000001,2|8,3:2|1:2,1:0:0:0:
235,138,67659,2,0,P|273:121|327:110,1,72.0000000000001,2|8,1:2|1:2,1:0:0:0:
488,115,67868,5,6,3:2:0:0:
394,161,67971,2,0,P|367:199|396:300,1,144,10|8,1:2|1:2,1:0:0:0:
271,304,68280,1,2,3:2:0:0:
438,369,68383,2,0,B|391:349|391:349|275:333,1,144,10|8,1:2|1:2,1:0:0:0:
159,279,68692,2,0,P|143:311|119:353,1,72.0000000000001,6|8,3:2|1:2,1:0:0:0:
298,222,68898,2,0,P|285:188|273:155,1,72.0000000000001,2|8,1:2|1:2,1:0:0:0:
124,159,69105,2,0,P|108:191|84:233,1,72.0000000000001,2|8,3:2|1:2,1:0:0:0:
215,48,69311,2,0,P|183:41|135:32,1,72.0000000000001,2|8,3:2|1:2,1:0:0:0:
29,271,69517,5,6,3:2:0:0:
0,185,69615,2,0,P|56:144|144:180,1,144,8|8,1:2|1:2,1:0:0:0:
164,298,69910,1,0,3:0:0:0:
267,229,70013,2,0,L|291:59,1,144,8|8,1:2|1:2,1:0:0:0:
428,152,70325,2,0,P|448:209|458:251,1,72.0000000000001,4|0,3:2|1:0,1:0:0:0:
393,353,70532,1,8,1:2:0:0:
356,318,70636,1,8,1:2:0:0:
307,307,70740,1,2,3:2:0:0:
260,323,70844,1,8,1:2:0:0:
223,357,70947,1,10,1:2:0:0:
174,368,71051,1,8,1:2:0:0:
127,352,71155,6,0,L|149:263,1,71.7202782203115,6|0,3:2|1:0,1:0:0:0:
242,190,71359,2,0,L|216:36,1,143.44055944056,8|2,1:2|3:2,1:0:0:0:
121,0,71678,1,0,3:0:0:0:
28,52,71784,2,0,L|3:136,1,71.7202797202798,8|0,1:2|1:0,1:0:0:0:
41,222,71997,2,0,P|100:265|169:225,1,144,6|8,3:2|1:2,1:0:0:0:
230,153,72318,1,0,3:0:0:0:
300,252,72425,1,2,0:2:0:0:
300,252,72532,1,0,3:0:0:0:
300,252,72639,2,0,L|392:245,1,72.0000000000001,10|0,1:2|1:0,1:0:0:0:
469,128,72854,6,0,P|434:120|385:114,1,72.0000000000001,6|0,3:2|1:0,1:0:0:0:
218,113,73067,2,0,P|238:82|268:40,1,72.0000000000001,8|0,1:2|1:0,1:0:0:0:
366,195,73281,1,2,3:2:0:0:
298,279,73387,1,0,3:0:0:0:
195,210,73494,2,0,L|281:189,1,71.9999978027344,10|0,1:2|1:0,1:0:0:0:
402,315,73708,6,0,P|336:310|250:352,1,143.999995605469,6|8,3:2|3:2,1:0:0:0:
187,381,74018,1,8,1:2:0:0:
187,381,74121,1,0,3:0:0:0:
166,378,74231,1,0,3:0:0:0:
146,375,74341,1,2,3:0:0:0:
125,373,74451,1,2,3:0:0:0:
105,370,74562,5,6,3:2:0:0:
105,370,75437,1,6,3:2:0:0:
105,370,76300,2,0,P|94:324|83:293,1,72.0000000000001,6|0,3:2|2:0,1:0:0:0:
0,253,76747,2,0,P|42:264|80:270,1,72.0000000000001,6|0,3:2|2:0,1:0:0:0:
183,252,77195,6,0,L|261:214,1,64,6|0,3:2|2:0,1:0:0:0:
323,47,77413,2,0,P|294:93|280:125,1,64,8|8,1:2|1:2,1:0:0:0:
355,191,77632,2,0,P|375:216|407:249,1,64,8|8,3:2|1:2,1:0:0:0:
430,37,77850,1,2,3:0:0:0:
430,37,78086,5,2,3:2:0:0:
390,331,78301,1,2,3:2:0:0:
251,72,78946,5,2,3:2:0:0:
251,72,79398,2,0,L|172:64,1,72.0000000000001,6|0,1:2|2:0,1:0:0:0:
96,131,79851,6,0,P|117:101|139:71,1,72.0000000000001,6|0,3:2|2:0,1:0:0:0:
261,152,80297,2,0,P|282:181|303:212,1,72.0000000000001,6|0,3:2|2:0,1:0:0:0:
158,241,80744,1,2,2:0:0:0:
288,49,80955,1,2,3:0:0:0:
401,157,81185,1,2,3:0:0:0:
401,157,81629,6,0,L|396:232,1,64,2|2,3:2|2:0,1:0:0:0:
272,100,82066,2,0,L|281:189,1,64,0|2,2:0|2:0,1:0:0:0:
299,315,82504,1,8,2:0:0:0:
305,194,82723,1,2,2:2:0:0:
208,309,82942,1,8,2:0:0:0:
369,249,83161,1,2,2:0:0:0:
232,259,83380,6,0,L|151:269,1,64,8|2,1:2|1:2,1:0:0:0:
8,168,83819,2,0,P|40:173|97:185,1,64,8|2,1:2|1:2,1:0:0:0:
245,98,84259,1,8,1:2:0:0:
86,147,84478,1,2,1:2:0:0:
158,29,84698,1,8,1:2:0:0:
226,199,84918,1,2,1:2:0:0:
146,8,85138,6,0,L|225:-3,1,64,12|2,1:2|1:2,1:0:0:0:
473,139,85577,2,0,L|393:128,1,64,8|2,1:2|1:2,1:0:0:0:
238,288,86017,1,8,1:2:0:0:
444,250,86237,1,2,1:2:0:0:
145,225,86456,1,8,1:2:0:0:
412,167,86679,1,2,1:2:0:0:
367,324,86903,5,12,1:2:0:0:
254,64,87117,1,2,1:2:0:0:
264,313,87331,1,8,1:2:0:0:
374,75,87547,1,2,1:2:0:0:
354,340,87763,1,8,1:2:0:0:
233,39,87980,1,2,1:2:0:0:
249,334,88198,1,8,1:2:0:0:
442,0,88416,2,0,L|451:62,1,60,2|0,1:2|0:0,0:0:0:0:
