osu file format v14

[General]
AudioFilename: audio.ogg
AudioLeadIn: 0
PreviewTime: 64098
Countdown: 0
SampleSet: Soft
StackLeniency: 0.7
Mode: 3
LetterboxInBreaks: 0
SpecialStyle: 0
WidescreenStoryboard: 1

[Editor]
Bookmarks: 46638
DistanceSpacing: 0.1
BeatDivisor: 4
GridSize: 32
TimelineZoom: 2.0856

[Metadata]
Title:HAWATARI NIOKU CENTI (TV Size)
TitleUnicode:刃渡り2億センチ (TV Size)
Artist:MAXIMUM THE HORMONE
ArtistUnicode:マキシマム ザ ホルモン
Creator:Akasha-
Version:Easy
Source:チェンソーマン
Tags:Chainsaw Man Heavy Metal Rock JRock J-Rock Breakcore Japanese Anime Ending ED Three 3 Warner Music Japan 2-Oku 2 Two Hundred Million Centimeter 200000000cm Long Blades Kuo Kyoka
BeatmapID:3854344
BeatmapSetID:1873157

[Difficulty]
HPDrainRate:6.5
CircleSize:4
OverallDifficulty:6.5
ApproachRate:5
SliderMultiplier:1.4
SliderTickRate:1

[Events]
//Background and Video events
0,0,"93232432_p0.jpg",0,0
Video,-75,"BGA.mp4"
//Break Periods
//Storyboard Layer 0 (Background)
//Storyboard Layer 1 (Fail)
//Storyboard Layer 2 (Pass)
//Storyboard Layer 3 (Foreground)
//Storyboard Layer 4 (Overlay)
//Storyboard Sound Samples
Sample,51254,0,"break.wav",50
Sample,78327,0,"cym_short.wav",60
Sample,81635,0,"drumecho.wav",20

[TimingPoints]
197,400,4,2,1,15,1,0
17797,-100,4,2,1,5,0,0
18797,-100,4,2,1,60,0,0
28997,-100,4,2,1,30,0,0
29797,333.333333333333,4,2,1,30,1,0
29797,-120.481927710843,4,2,1,30,0,0
31130,545.454545454544,4,2,1,30,1,0
31130,-73.5294117647059,4,2,1,30,0,0
31402,307.692307692308,4,2,1,60,1,8
31402,-129.87012987013,4,2,1,60,0,0
31863,307.692307692307,4,2,1,60,1,0
31863,-129.87012987013,4,2,1,60,0,0
50939,315.78947368421,4,2,1,60,1,0
50939,-126.582278481013,4,2,1,60,0,0
51570,410.958904109589,4,2,1,20,1,0
51570,-97.0873786407767,4,2,1,20,0,0
63076,361.44578313253,4,2,1,60,1,0
63076,-111.111111111111,4,2,1,60,0,0
63798,400,4,2,1,60,1,0
64598,205.479452054795,4,2,1,60,1,1
64598,-196.078431372549,4,2,1,60,0,1
70556,-196.078431372549,4,2,1,60,0,0
71173,212.765957446809,4,2,1,60,1,0
71173,-188.679245283019,4,2,1,60,0,0
71385,-188.679245283019,4,2,1,60,0,1
74577,220.588235294118,4,2,1,60,1,1
74577,-181.818181818182,4,2,1,60,0,1
81635,-181.818181818182,4,2,1,60,0,0
85165,218.978102189781,4,2,1,60,1,0
85165,-181.818181818182,4,2,1,60,0,0

[HitObjects]
192,192,197,5,0,0:0:0:0:
448,192,397,1,0,0:0:0:0:
320,192,597,1,0,0:0:0:0:
320,192,1197,1,0,0:0:0:0:
192,192,1797,1,0,0:0:0:0:
448,192,1997,1,0,0:0:0:0:
320,192,2197,1,0,0:0:0:0:
64,192,2797,1,0,0:0:0:0:
192,192,3397,1,0,0:0:0:0:
448,192,3597,1,0,0:0:0:0:
320,192,3797,1,0,0:0:0:0:
320,192,4397,1,0,0:0:0:0:
192,192,4997,1,0,0:0:0:0:
448,192,5197,1,0,0:0:0:0:
320,192,5397,1,0,0:0:0:0:
64,192,5997,1,0,0:0:0:0:
448,192,6597,1,0,0:0:0:30:tom1.wav
448,192,6997,1,0,0:0:0:0:
192,192,7397,1,0,0:0:0:0:
64,192,7597,1,0,0:0:0:30:tom1.wav
192,192,7797,1,0,0:0:0:30:tom1.wav
320,192,8197,1,0,0:0:0:30:tom1.wav
320,192,8597,1,0,0:0:0:0:
448,192,9797,1,0,0:0:0:30:tom1.wav
448,192,10197,1,0,0:0:0:0:
192,192,10597,1,0,0:0:0:0:
64,192,10797,1,0,0:0:0:30:tom1.wav
192,192,10997,1,0,0:0:0:30:tom1.wav
320,192,11397,1,0,0:0:0:30:tom1.wav
320,192,11797,1,0,0:0:0:0:
64,192,12997,1,0,0:0:0:30:tom1.wav
64,192,13397,1,0,0:0:0:0:
320,192,13797,1,0,0:0:0:0:
448,192,13997,1,0,0:0:0:30:tom1.wav
320,192,14197,1,0,0:0:0:30:tom1.wav
192,192,14597,1,0,0:0:0:30:tom1.wav
192,192,14997,1,0,0:0:0:0:
64,192,16197,1,0,0:0:0:30:tom1.wav
64,192,16597,1,0,0:0:0:0:
320,192,16997,1,0,0:0:0:0:
448,192,17197,1,0,0:0:0:30:tom1.wav
320,192,17397,1,0,0:0:0:30:tom1.wav
192,192,17797,1,0,0:0:0:0:
192,192,18197,1,0,0:0:0:0:
448,192,18797,1,0,0:0:0:45:barrel.wav
320,192,18997,1,0,0:0:0:45:barrel.wav
192,192,19197,1,0,0:0:0:45:barrel.wav
64,192,19397,1,0,0:0:0:60:kick.wav
448,192,19397,1,0,0:0:0:60:cymbal.wav
448,192,19797,1,0,0:0:0:60:kick.wav
192,192,20197,1,0,0:0:0:60:kick.wav
320,192,20397,1,0,0:0:0:60:tom.wav
192,192,20597,1,0,0:0:0:50:snare.wav
448,192,20797,1,0,0:0:0:60:kick.wav
64,192,20997,1,0,0:0:0:60:kick.wav
64,192,21397,1,0,0:0:0:60:kick.wav
320,192,21797,1,0,0:0:0:60:kick.wav
192,192,22197,1,0,0:0:0:60:kick.wav
64,192,22597,1,0,0:0:0:60:kick.wav
64,192,22997,1,0,0:0:0:60:kick.wav
320,192,23397,1,0,0:0:0:60:kick.wav
192,192,23597,1,0,0:0:0:60:tom.wav
320,192,23797,1,0,0:0:0:50:snare.wav
64,192,23997,1,0,0:0:0:60:kick.wav
448,192,24197,1,0,0:0:0:60:kick.wav
448,192,24597,1,0,0:0:0:60:kick.wav
192,192,24997,1,0,0:0:0:60:kick.wav
320,192,25397,1,0,0:0:0:50:snare.wav
192,192,25597,1,0,0:0:0:50:snare.wav
64,192,25797,1,0,0:0:0:60:kick.wav
448,192,25797,1,0,0:0:0:60:cymbal.wav
64,192,26397,1,0,0:0:0:60:kick.wav
192,192,26397,1,0,0:0:0:60:cym_short.wav
64,192,26797,1,0,0:0:0:60:tom.wav
192,192,26997,1,0,0:0:0:50:snare.wav
64,192,27197,1,0,0:0:0:60:kick.wav
320,192,27397,1,0,0:0:0:60:kick.wav
448,192,27397,1,0,0:0:0:60:cymbal.wav
320,192,27997,1,0,0:0:0:60:kick.wav
448,192,27997,1,0,0:0:0:60:cym_short.wav
448,192,28397,1,0,0:0:0:50:snare.wav
320,192,28597,1,0,0:0:0:60:kick.wav
192,192,28797,1,0,0:0:0:60:kick.wav
64,192,28997,1,0,0:0:0:60:kick.wav
448,192,28997,1,0,0:0:0:60:cym_short.wav
64,192,31402,1,0,0:0:0:45:barrel.wav
192,192,31555,1,0,0:0:0:45:barrel.wav
448,192,31709,1,0,0:0:0:45:barrel.wav
64,192,31863,1,0,0:0:0:60:drumsnare.wav
320,192,31863,1,0,0:0:0:100:push_scratch.wav
64,192,32324,1,0,0:0:0:60:drumsnare.wav
320,192,32324,1,0,0:0:0:0:
64,192,32786,1,0,0:0:0:60:drumsnare.wav
320,192,32786,1,0,0:0:0:0:
192,192,33093,1,0,0:0:0:60:drumsnare.wav
448,192,33093,1,0,0:0:0:0:
192,192,33555,1,0,0:0:0:60:drumsnare.wav
448,192,33555,1,0,0:0:0:0:
64,192,33862,1,0,0:0:0:60:break.wav
320,192,34016,1,0,0:0:0:60:drumsnare.wav
448,192,34170,1,0,0:0:0:60:drumsnare.wav
64,192,34324,1,0,0:0:0:60:drumsnare.wav
192,192,34324,1,0,0:0:0:0:
64,192,34786,1,0,0:0:0:60:drumsnare.wav
192,192,34786,1,0,0:0:0:0:
64,192,35247,1,0,0:0:0:60:drumsnare.wav
192,192,35247,1,0,0:0:0:0:
64,192,35555,1,0,0:0:0:60:drumsnare.wav
320,192,35709,1,0,0:0:0:60:break.wav
192,192,35862,1,0,0:0:0:60:break.wav
448,192,36016,1,0,0:0:0:60:drumsnare.wav
320,192,36170,1,0,0:0:0:60:break.wav
320,192,36478,1,0,0:0:0:0:
64,192,36786,1,0,0:0:0:60:drumsnare.wav
192,192,36786,1,0,0:0:0:0:
192,192,37247,1,0,0:0:0:60:drumsnare.wav
320,192,37247,1,0,0:0:0:0:
320,192,37709,1,0,0:0:0:60:drumsnare.wav
448,192,37709,1,0,0:0:0:0:
64,192,38016,1,0,0:0:0:60:drumsnare.wav
192,192,38016,1,0,0:0:0:0:
64,192,38478,1,0,0:0:0:60:drumsnare.wav
448,192,38478,1,0,0:0:0:0:
192,192,38786,1,0,0:0:0:60:break.wav
320,192,38939,1,0,0:0:0:60:drumsnare.wav
448,192,39093,1,0,0:0:0:0:
64,192,39247,1,0,0:0:0:60:drumsnare.wav
192,192,39247,1,0,0:0:0:0:
192,192,39709,1,0,0:0:0:60:drumsnare.wav
320,192,39709,1,0,0:0:0:0:
320,192,40170,1,0,0:0:0:60:drumsnare.wav
448,192,40170,1,0,0:0:0:0:
448,192,40478,1,0,0:0:0:60:drumsnare.wav
192,192,40632,1,0,0:0:0:0:
320,192,40786,1,0,0:0:0:0:
64,192,40939,1,0,0:0:0:0:
64,192,41709,1,0,0:0:0:60:drumsnare.wav
192,192,41709,1,0,0:0:0:100:push_scratch.wav
448,192,41862,1,0,0:0:0:0:
320,192,42170,1,0,0:0:0:60:drumsnare.wav
448,192,42170,1,0,0:0:0:0:
64,192,42478,1,0,0:0:0:60:break.wav
192,192,42632,1,0,0:0:0:60:drumsnare.wav
320,192,42786,1,0,0:0:0:0:
448,192,42939,1,0,0:0:0:60:drumsnare.wav
192,192,43247,1,0,0:0:0:60:break.wav
320,192,43555,1,0,0:0:0:0:
64,192,43862,1,0,0:0:0:60:drumsnare.wav
192,192,44170,1,0,0:0:0:60:drumsnare.wav
448,192,44324,1,0,0:0:0:60:break.wav
320,192,44632,1,0,0:0:0:60:drumsnare.wav
64,192,44786,1,0,0:0:0:0:
192,192,45093,1,0,0:0:0:60:drumsnare.wav
320,192,45401,1,0,0:0:0:60:drumsnare.wav
448,192,45709,1,0,0:0:0:60:drumsnare.wav
64,192,45862,1,0,0:0:0:60:drumkick.wav
192,192,45862,1,0,0:0:0:0:
320,192,46632,1,0,0:0:0:60:drumsnare.wav
448,192,46632,1,0,0:0:0:100:push_scratch.wav
64,192,46786,1,0,0:0:0:0:
64,192,47093,1,0,0:0:0:60:drumsnare.wav
192,192,47093,1,0,0:0:0:0:
448,192,47401,1,0,0:0:0:60:break.wav
320,192,47555,1,0,0:0:0:60:drumsnare.wav
192,192,47709,1,0,0:0:0:0:
64,192,47862,1,0,0:0:0:60:drumsnare.wav
320,192,48170,1,0,0:0:0:60:break.wav
192,192,48478,1,0,0:0:0:0:
448,192,48786,1,0,0:0:0:60:drumsnare.wav
320,192,49093,1,0,0:0:0:60:drumsnare.wav
64,192,49247,1,0,0:0:0:60:break.wav
192,192,49555,1,0,0:0:0:60:drumsnare.wav
448,192,49709,1,0,0:0:0:0:
320,192,50016,1,0,0:0:0:60:drumsnare.wav
192,192,50324,1,0,0:0:0:60:drumsnare.wav
64,192,50632,1,0,0:0:0:60:drumsnare.wav
320,192,50786,1,0,0:0:0:60:drumkick.wav
448,192,50786,1,0,0:0:0:0:
448,192,51254,1,0,0:0:0:60:drumsnare.wav
64,192,51570,1,0,0:0:0:30:chime.wav
192,192,51980,1,0,0:0:0:0:
320,192,52391,1,0,0:0:0:0:
448,192,52802,1,0,0:0:0:0:
192,192,53213,1,0,0:0:0:30:chime.wav
320,192,53624,1,0,0:0:0:0:
192,192,54035,1,0,0:0:0:0:
64,192,54446,1,0,0:0:0:0:
320,192,54857,1,0,0:0:0:30:chime.wav
448,192,55268,1,0,0:0:0:0:
64,192,55679,1,0,0:0:0:0:
192,192,56090,1,0,0:0:0:0:
448,192,56501,1,0,0:0:0:30:chime.wav
64,192,58145,1,0,0:0:0:30:chime.wav
192,192,58556,1,0,0:0:0:0:
320,192,58967,1,0,0:0:0:0:
448,192,59378,1,0,0:0:0:0:
192,192,59789,1,0,0:0:0:30:chime.wav
64,192,60200,1,0,0:0:0:0:
320,192,60611,1,0,0:0:0:0:
448,192,61433,1,0,0:0:0:30:chime.wav
192,192,61843,1,0,0:0:0:0:
64,192,62254,1,0,0:0:0:0:
448,192,62665,1,0,0:0:0:0:
320,192,63076,1,0,0:0:0:60:snare.wav
448,192,63256,1,0,0:0:0:60:snare.wav
192,192,63437,1,0,0:0:0:60:snare.wav
320,192,63618,1,0,0:0:0:60:snare.wav
64,192,63798,1,0,0:0:0:60:snare.wav
64,192,64598,1,0,0:0:0:60:kick.wav
192,192,64598,1,0,0:0:0:60:cymbal.wav
320,192,64803,1,0,0:0:0:0:
192,192,65008,1,0,0:0:0:60:kick.wav
320,192,65419,1,0,0:0:0:60:kick.wav
192,192,65625,1,0,0:0:0:0:
64,192,65830,1,0,0:0:0:60:kick.wav
192,192,66036,1,0,0:0:0:60:kick.wav
320,192,66241,1,0,0:0:0:60:kick.wav
320,192,66652,1,0,0:0:0:60:kick.wav
448,192,67063,1,0,0:0:0:60:kick.wav
192,192,67474,1,0,0:0:0:60:kick.wav
64,192,67680,1,0,0:0:0:60:kick.wav
320,192,67885,1,0,0:0:0:60:kick.wav
192,192,68091,1,0,0:0:0:0:
448,192,68296,1,0,0:0:0:60:kick.wav
192,192,68707,1,0,0:0:0:60:kick.wav
64,192,68913,1,0,0:0:0:0:
192,192,69118,1,0,0:0:0:60:kick.wav
320,192,69324,1,0,0:0:0:60:kick.wav
448,192,69529,1,0,0:0:0:60:kick.wav
448,192,69940,1,0,0:0:0:60:kick.wav
192,192,70351,1,0,0:0:0:60:kick.wav
64,192,70762,1,0,0:0:0:50:snare.wav
192,192,70967,1,0,0:0:0:50:snare.wav
320,192,71173,1,0,0:0:0:60:kick.wav
64,192,71385,1,0,0:0:0:50:snare.wav
448,192,71385,1,0,0:0:0:60:cymbal.wav
192,192,71598,1,0,0:0:0:60:kick.wav
320,192,71811,1,0,0:0:0:50:snare.wav
64,192,72024,1,0,0:0:0:60:kick.wav
192,192,72449,1,0,0:0:0:0:
448,192,72662,1,0,0:0:0:50:snare.wav
320,192,72875,1,0,0:0:0:60:kick.wav
192,192,73087,1,0,0:0:0:50:snare.wav
64,192,73300,1,0,0:0:0:60:kick.wav
448,192,73513,1,0,0:0:0:50:snare.wav
192,192,73726,1,0,0:0:0:60:kick.wav
64,192,73726,1,0,0:0:0:60:cymbal.wav
320,192,74151,1,0,0:0:0:50:snare.wav
64,192,74577,1,0,0:0:0:60:kick.wav
448,192,74577,1,0,0:0:0:60:cym_short.wav
192,192,74797,1,0,0:0:0:0:
320,192,75018,1,0,0:0:0:0:
320,192,75459,1,0,0:0:0:60:kick.wav
448,192,75459,1,0,0:0:0:60:cym_short.wav
64,192,75900,1,0,0:0:0:0:
64,192,76341,1,0,0:0:0:60:kick.wav
192,192,76341,1,0,0:0:0:60:cym_short.wav
320,192,76782,1,0,0:0:0:60:kick.wav
448,192,76782,1,0,0:0:0:60:cym_short.wav
64,192,77224,1,0,0:0:0:60:kick.wav
448,192,77224,1,0,0:0:0:60:cym_short.wav
192,192,77444,1,0,0:0:0:50:snare.wav
64,192,77665,1,0,0:0:0:50:snare.wav
320,192,77885,1,0,0:0:0:60:tom.wav
64,192,78106,1,0,0:0:0:60:kick.wav
192,192,78106,1,0,0:0:0:60:cym_short.wav
448,192,78327,1,0,0:0:0:60:kick.wav
320,192,78988,1,0,0:0:0:60:kick.wav
448,192,78988,1,0,0:0:0:60:cym_short.wav
64,192,79429,1,0,0:0:0:0:
64,192,79871,1,0,0:0:0:60:kick.wav
192,192,79871,1,0,0:0:0:60:cym_short.wav
320,192,80312,1,0,0:0:0:60:kick.wav
448,192,80312,1,0,0:0:0:60:cym_short.wav
448,192,80753,1,0,0:0:0:0:
64,192,80974,1,0,0:0:0:50:snare.wav
64,192,81194,1,0,0:0:0:50:snare.wav
448,192,81194,1,0,0:0:0:0:
320,192,81635,1,0,0:0:0:60:kick.wav
448,192,81635,1,0,0:0:0:60:cymbal.wav
64,192,81856,1,0,0:0:0:20:drumecho.wav
320,192,82077,1,0,0:0:0:20:drumecho.wav
192,192,82518,1,0,0:0:0:30:drumecho.wav
320,192,82738,1,0,0:0:0:30:drumecho.wav
448,192,82959,1,0,0:0:0:30:drumecho.wav
320,192,83400,1,0,0:0:0:40:drumecho.wav
448,192,83400,1,0,0:0:0:0:
64,192,83621,1,0,0:0:0:40:drumecho.wav
192,192,83841,1,0,0:0:0:40:drumecho.wav
448,192,84282,1,0,0:0:0:50:drumecho.wav
192,192,84503,1,0,0:0:0:50:drumecho.wav
320,192,84724,1,0,0:0:0:50:drumecho.wav
320,192,85165,1,0,0:0:0:60:drumecho.wav
448,192,85165,1,0,0:0:0:0:
64,192,85602,1,0,0:0:0:60:drumecho.wav
192,192,85602,1,0,0:0:0:0:
320,192,86040,1,0,0:0:0:60:drumecho.wav
448,192,86040,1,0,0:0:0:0:
64,192,86478,1,0,0:0:0:60:drumecho.wav
192,192,86478,1,0,0:0:0:0:
320,192,86916,1,0,0:0:0:60:drumecho.wav
448,192,86916,1,0,0:0:0:0:
64,192,87354,1,0,0:0:0:60:drumecho.wav
192,192,87354,1,0,0:0:0:0:
320,192,87792,1,0,0:0:0:60:drumecho.wav
448,192,87792,1,0,0:0:0:0:
64,192,88230,1,0,0:0:0:60:drumecho.wav
192,192,88230,1,0,0:0:0:0:
320,192,88668,1,0,0:0:0:0:
