osu file format v14

[General]
AudioFilename: audio.mp3
AudioLeadIn: 0
PreviewTime: 474
Countdown: 1
SampleSet: None
StackLeniency: 0.7
Mode: 0
LetterboxInBreaks: 0
WidescreenStoryboard: 1

[Editor]
Bookmarks: 16288,23616,30834,45695
DistanceSpacing: 1.9
BeatDivisor: 4
GridSize: 4
TimelineZoom: 1.5

[Metadata]
Title:ChuChu Lovely MuriMuri MuraMura...
TitleUnicode:ChuChu Lovely MuriMuri MuraMura...
Artist:MAXIMUM THE HORMONE
ArtistUnicode:MAXIMUM THE HORMONE
Creator:bloggle
Version:Hard
Source:
Tags:
BeatmapID:2067918
BeatmapSetID:852640

[Difficulty]
HPDrainRate:4
CircleSize:3.4
OverallDifficulty:6
ApproachRate:7
SliderMultiplier:0.999999999999999
SliderTickRate:1

[Events]
//Background and Video events
0,0,"big_1476040694_image.jpg",0,0
//Break Periods
2,31034,36445
//Storyboard Layer 0 (Background)
//Storyboard Layer 1 (Fail)
//Storyboard Layer 2 (Pass)
//Storyboard Layer 3 (Foreground)
//Storyboard Sound Samples

[TimingPoints]
1405,232.558139534884,4,3,1,70,1,0
16288,229.007633587786,4,3,1,70,1,0
23616,225.563909774436,4,3,1,70,1,0
30834,232.558139534884,4,3,1,70,1,0
45695,230.769230769231,4,3,1,70,1,0
53099,235.294117647059,4,3,1,70,1,0
56863,232.558139534884,4,3,1,70,1,1
58723,227.272727272727,4,3,1,70,1,0
59633,221.40221402214,4,3,1,70,1,0
60516,232.558139534884,4,3,1,70,1,0

[Colours]
Combo1 : 255,128,192
Combo2 : 247,250,103
Combo3 : 98,169,255
Combo4 : 254,114,117

[HitObjects]
161,138,1404,6,0,P|152:67|131:45,1,99.9999999999999
111,234,1870,2,0,P|143:247|181:243,3,50
253,203,2335,2,0,L|261:303,1,99.9999999999999
365,282,2684,2,0,L|356:382,1,99.9999999999999
455,349,3032,2,0,P|468:317|464:279,2,50
512,179,3498,6,0,B|460:177|460:177|423:140,2,99.9999999999999
493,39,4195,2,0,P|501:78|499:92,2,50
400,15,4544,2,0,B|366:48|366:48|314:50,1,99.9999999999999
299,145,4893,2,0,P|324:144|339:167,1,50
342,181,5125,6,0,L|351:290,1,99.9999999999999
167,335,5591,2,0,L|161:397,3,50
69,361,6056,2,0,P|70:321|28:272,1,99.9999999999999
2,185,6405,2,0,P|1:145|43:96,1,99.9999999999999
95,173,6753,2,0,L|144:177,2,50
317,124,7218,6,0,B|235:116|235:116|206:142,2,99.9999999999999
380,241,7916,2,0,L|385:182,2,50,0|0|0,2:0|2:0|2:0,2:0:0:0:
422,326,8265,2,0,B|408:337|408:337|326:330,1,99.9999999999999
243,283,8614,2,0,P|245:251|258:242,1,50
271,236,8846,6,0,P|285:203|263:134,1,99.9999999999999
97,55,9311,2,0,P|95:94|103:113,3,50
17,156,9777,2,0,L|26:261,1,99.9999999999999
113,290,10125,2,0,L|103:184,1,99.9999999999999
187,143,10474,2,0,P|214:132|247:131,2,50
370,212,10939,6,0,B|398:171|398:171|456:177,2,99.9999999999999
461,315,11637,2,0,P|450:281|451:265,2,50
383,371,11986,2,0,B|355:330|355:330|297:336,1,99.9999999999999
249,257,12335,2,0,P|268:249|267:219,1,50
255,216,12567,6,0,L|141:206,1,99.9999999999999
48,364,13032,2,0,L|43:309,3,50
8,224,13498,2,0,P|20:185|0:127,1,99.9999999999999
93,104,13846,2,0,P|81:65|101:7,1,99.9999999999999
220,50,14195,2,0,L|224:0,2,50
331,150,14660,6,0,B|341:111|341:111|320:48,2,99.9999999999999
431,210,15358,6,0,P|406:257|406:308,1,99.9999999999999
277,303,15707,2,0,P|330:301|374:275,1,99.9999999999999
331,150,16056,6,0,P|324:192|333:214,1,50
426,194,16288,2,0,B|501:187|501:187|524:159,1,99.9999999999999
509,68,16631,2,0,B|434:75|434:75|411:103,1,99.9999999999999
327,52,16975,2,0,P|303:46|306:20,1,50
317,22,17204,6,0,P|332:74|310:120,1,99.9999999999999
228,164,17547,2,0,P|213:216|235:262,1,99.9999999999999
225,350,17891,2,0,L|296:357,1,50
282,342,18120,6,0,B|333:352|333:352|383:320,1,99.9999999999999
467,292,18463,2,0,B|477:343|477:343|445:393,1,99.9999999999999
392,227,18807,2,0,P|396:197|411:175,1,50
501,150,19036,5,0,0:0:0:0:
497,130,19150,1,0,0:0:0:0:
487,112,19265,2,0,P|462:93|436:88,1,50
286,45,19494,1,0,0:0:0:0:
290,65,19608,1,0,0:0:0:0:
300,83,19723,2,0,P|324:101|350:106,1,50
302,192,19952,6,0,P|280:219|271:283,1,99.9999999999999
188,328,20295,2,0,P|175:295|124:255,1,99.9999999999999
30,251,20639,2,0,P|13:238|31:210,1,50
102,164,20868,6,0,P|122:135|124:111,1,50
38,77,21097,2,0,P|23:96|16:120,1,50
123,26,21326,2,0,B|155:19|155:19|179:44,3,50
224,107,21784,6,0,B|280:86|280:86|325:93,1,99.9999999999999
383,162,22127,2,0,B|327:183|327:183|282:176,1,99.9999999999999
290,272,22471,2,0,L|295:330,1,50
372,377,22700,2,0,P|396:372|429:376,3,50
504,334,23158,6,0,L|508:279,1,50
445,206,23387,2,0,L|440:151,1,50
420,56,23616,6,0,B|447:52|447:52|475:61,1,50
346,125,23841,2,0,B|319:129|319:129|291:120,1,50
189,141,24067,2,0,B|185:114|185:114|194:86,3,50
257,216,24518,6,0,P|263:245|252:279,1,50
171,347,24743,2,0,P|167:322|173:298,1,50
326,327,24969,2,0,P|317:350|299:368,3,50
401,243,25420,6,0,L|352:240,1,50
512,234,25646,2,0,L|476:199,1,50
356,139,25871,2,0,L|405:142,3,50
512,18,26322,6,0,B|504:97|504:97|488:110,2,99.9999999999999
476,199,26999,1,0,0:0:0:0:
271,371,27225,6,0,P|295:371|320:366,1,50
454,316,27450,2,0,P|412:311|388:316,1,50
316,269,27676,6,0,L|320:218,3,50
265,135,28127,6,0,B|258:110|258:110|267:75,1,50
364,82,28352,2,0,B|369:105|369:105|362:130,1,50
441,22,28578,6,0,P|478:21|497:12,3,50
511,114,29029,6,0,L|506:169,1,50
416,264,29255,2,0,L|421:209,1,50
491,330,29480,2,0,B|511:311|511:311|512:288,3,50
399,362,29931,5,0,0:0:0:0:
370,354,30044,1,0,0:0:0:0:
341,346,30157,1,0,0:0:0:0:
312,338,30270,1,0,0:0:0:0:
249,267,30382,6,0,P|205:295|203:306,1,50
119,249,30608,2,0,P|116:196|108:189,1,50
36,162,30834,1,0,0:0:0:0:
330,174,37345,6,0,B|345:69|345:69|378:110,2,150
288,292,38275,6,0,P|249:276|218:219,1,99.9999999999999
101,283,38740,2,0,P|102:231|146:188,2,99.9999999999999
197,118,39438,6,0,P|205:138|226:111,2,50
110,78,39787,2,0,L|-4:93,1,99.9999999999999
47,179,40136,6,0,P|54:210|41:242,1,50
3,309,40368,2,0,P|-4:340|9:372,1,50
93,337,40601,2,0,B|144:326|144:326|198:346,1,99.9999999999999
337,283,41066,6,0,P|301:280|256:229,1,99.9999999999999
157,156,41415,2,0,P|172:188|150:253,1,99.9999999999999
188,342,41764,6,0,P|204:326|215:347,1,50
220,358,41996,2,0,L|321:366,1,99.9999999999999
436,274,42461,2,0,L|334:282,1,99.9999999999999
466,153,42927,6,0,B|432:143|432:143|372:184,1,99.9999999999999
363,179,43275,2,0,B|309:142|309:142|275:152,1,99.9999999999999
199,209,43624,2,0,P|179:188|190:185,2,50
268,369,44089,5,0,0:0:0:0:
121,289,44322,1,0,0:0:0:0:
13,361,44554,1,0,0:0:0:0:
3,192,44787,2,0,P|7:229|17:250,1,50
157,115,45136,5,0,0:0:0:0:
334,200,45368,2,0,L|403:206,2,50
253,250,45695,6,0,L|261:358,1,99.9999999999999
449,303,46156,2,0,L|398:298,3,50
383,204,46618,2,0,P|369:154|382:107,1,99.9999999999999
480,94,46964,2,0,P|494:44|481:-3,1,99.9999999999999
388,16,47310,2,0,P|363:14|340:24,2,50
272,165,47771,6,0,B|240:129|240:129|183:128,2,99.9999999999999
186,267,48464,2,0,P|197:239|195:215,2,50
244,342,48810,2,0,B|276:306|276:306|333:305,1,99.9999999999999
374,221,49156,2,0,P|358:205|377:193,1,50
384,194,49387,6,0,P|436:208|480:189,1,99.9999999999999
365,24,49848,6,0,P|394:17|418:20,3,50
426,113,50310,2,0,L|326:104,1,99.9999999999999
255,40,50656,2,0,L|155:48,1,99.9999999999999
74,99,51002,2,0,P|63:69|45:48,2,50
162,253,51464,6,0,B|147:214|160:174|160:174|148:151,2,99.9999999999999
294,206,52156,2,0,B|252:206|252:206|231:227,2,50
368,265,52502,2,0,P|395:244|462:241,1,99.9999999999999
485,148,52848,2,0,P|507:122|511:84,1,50
394,49,53099,6,0,P|372:75|368:113,1,50
272,91,53334,2,0,P|262:67|245:50,1,50
195,150,53569,5,0,0:0:0:0:
175,145,53687,1,0,0:0:0:0:
155,140,53804,1,0,0:0:0:0:
135,135,53922,1,0,0:0:0:0:
106,99,54040,6,0,P|96:55|96:47,3,50
0,172,54510,2,0,P|10:128|10:120,3,50
102,228,54981,1,0,0:0:0:0:
6,345,55216,6,0,L|68:350,1,50
146,319,55451,2,0,L|208:313,1,50
322,380,55687,2,0,L|272:375,1,50
421,372,55922,6,0,P|412:335|396:320,2,50
499,290,56275,6,0,B|490:254|490:254|517:175,1,99.9999999999999
418,169,56628,2,0,B|426:150|426:150|413:109,1,50
281,154,56863,6,0,P|310:146|331:150,1,50
345,281,57095,2,0,P|316:289|295:285,1,50
203,232,57328,5,0,0:0:0:0:
205,251,57444,1,0,0:0:0:0:
207,269,57560,1,0,0:0:0:0:
209,288,57676,1,0,0:0:0:0:
180,329,57793,6,0,P|127:343|86:328,2,99.9999999999999
268,363,58374,2,0,L|337:356,1,50
387,293,58607,2,0,L|456:299,1,50
499,137,58950,6,0,P|485:181|501:234,2,99.9999999999999
386,88,59633,5,0,0:0:0:0:
346,94,59743,1,0,0:0:0:0:
306,101,59854,1,0,0:0:0:0:
266,108,59965,1,0,0:0:0:0:
215,76,60075,6,0,P|186:76|157:69,1,50
90,132,60297,2,0,P|75:106|67:78,2,50
