osu file format v14

[General]
AudioFilename: audio.mp3
AudioLeadIn: 0
PreviewTime: 474
Countdown: 1
SampleSet: Drum
StackLeniency: 0.7
Mode: 0
LetterboxInBreaks: 0
WidescreenStoryboard: 0

[Editor]
Bookmarks: 16288,23616,30834,45695
DistanceSpacing: 0.4
BeatDivisor: 4
GridSize: 4
TimelineZoom: 1.5

[Metadata]
Title:ChuChu Lovely MuriMuri MuraMura...
TitleUnicode:ChuChu Lovely MuriMuri MuraMura...
Artist:MAXIMUM THE HORMONE
ArtistUnicode:MAXIMUM THE HORMONE
Creator:bloggle
Version:Gang Related
Source:
Tags:
BeatmapID:1782121
BeatmapSetID:852640

[Difficulty]
HPDrainRate:5
CircleSize:3.9
OverallDifficulty:9.2
ApproachRate:9.8
SliderMultiplier:2.16
SliderTickRate:1

[Events]
//Background and Video events
0,0,"big_1476040694_image.jpg",0,0
//Break Periods
//Storyboard Layer 0 (Background)
//Storyboard Layer 1 (Fail)
//Storyboard Layer 2 (Pass)
//Storyboard Layer 3 (Foreground)
//Storyboard Layer 4 (Overlay)
//Storyboard Sound Samples

[TimingPoints]
1405,232.558139534884,4,3,1,70,1,0
1405,-86.2068965517241,4,3,1,70,0,0
3498,-116.279069767442,4,3,1,70,0,0
5125,-86.2068965517242,4,3,1,70,0,0
7218,-116.279069767442,4,3,1,70,0,0
8846,-86.2068965517242,4,3,1,70,0,0
10939,-116.279069767442,4,3,1,70,0,0
12567,-86.2068965517242,4,3,1,70,0,0
14660,-116.279069767442,4,3,1,70,0,0
16288,229.007633587786,4,3,1,70,1,0
16288,-178.571428571429,4,3,1,70,0,0
23616,225.563909774436,4,3,1,70,1,0
23616,-79.3650793650794,4,3,1,70,0,1
30834,232.558139534884,4,3,1,70,1,0
30834,-86.2068965517241,4,3,1,70,0,0
38275,231.658139534884,4,3,1,70,1,0
38275,-86.2068965517241,4,3,1,70,0,0
45695,230.769230769231,4,3,1,70,1,0
45695,-86.2068965517241,4,3,1,70,0,0
47771,-116.279069767442,4,3,1,70,0,0
49387,-86.2068965517242,4,3,1,70,0,0
51464,-116.279069767442,4,3,1,70,0,0
53099,235.294117647059,4,3,1,70,1,0
53099,-79.3650793650794,4,3,1,70,0,1
56863,232.558139534884,4,3,1,70,1,1
56863,-73.5294117647059,4,3,1,70,0,1
58723,227.272727272727,4,3,1,70,1,0
58723,-79.3650793650794,4,3,1,70,0,0
59633,221.40221402214,4,3,1,70,1,0
60516,232.558139534884,4,3,1,70,1,0

[Colours]
Combo1 : 255,128,192
Combo2 : 247,250,103
Combo3 : 98,169,255
Combo4 : 254,114,117

[HitObjects]
31,45,1404,6,0,L|150:34,1,108,0|0,2:0|2:0,2:0:0:0:
283,136,1637,2,0,L|150:124,1,125.280003823242,0|0,2:0|2:0,2:0:0:0:
337,226,1870,5,0,0:0:0:0:
445,208,1986,1,0,0:0:0:0:
335,205,2102,5,0,0:0:0:0:
443,223,2218,1,0,0:0:0:0:
230,234,2335,2,0,P|178:254|117:304,1,125.280003823242
336,244,2567,5,0,0:0:0:0:
134,218,2684,2,0,P|111:268|103:347,1,125.280003823242
335,261,2916,5,0,0:0:0:0:
411,120,3032,2,0,P|391:68|341:6,1,125.280003823242
504,186,3265,1,0,0:0:0:0:
512,194,3498,6,0,L|503:294,1,92.8800014172364
348,228,3730,2,0,L|356:328,1,92.8800014172364
219,193,3963,2,0,L|210:293,1,92.8800014172364
75,195,4195,6,0,P|64:144|37:106,2,92.8800014172364
239,291,4544,2,0,L|222:102,1,185.760002834473
431,194,4893,2,0,P|381:209|334:205,1,92.8800014172364
110,348,5125,6,0,L|98:215,1,125.280003823242,0|0,2:0|2:0,2:0:0:0:
201,96,5358,2,0,L|189:229,1,125.280003823242,0|0,2:0|2:0,2:0:0:0:
344,110,5591,5,0,0:0:0:0:
326,2,5707,1,0,0:0:0:0:
323,112,5823,5,0,0:0:0:0:
341,4,5939,1,0,0:0:0:0:
352,217,6056,2,0,P|372:269|422:330,1,125.280003823242
362,111,6288,5,0,0:0:0:0:
336,313,6405,2,0,P|386:336|465:344,1,125.280003823242
226,303,6637,5,0,0:0:0:0:
271,149,6753,2,0,P|321:126|401:117,1,125.280003823242
159,130,6986,1,0,0:0:0:0:
151,122,7218,6,0,L|160:22,1,92.8800014172364
11,138,7451,2,0,L|2:38,1,92.8800014172364
98,242,7684,2,0,L|89:342,1,92.8800014172364
225,236,7916,6,0,P|276:247|314:274,2,92.8800014172364
416,271,8265,2,0,P|363:281|276:381,1,185.760002834473
500,324,8614,2,0,L|491:224,1,92.8800014172364
512,73,8846,6,0,L|363:60,1,125.280003823242,0|0,2:0|2:0,2:0:0:0:
260,164,9079,2,0,L|393:152,1,125.280003823242,0|0,2:0|2:0,2:0:0:0:
177,246,9311,5,0,0:0:0:0:
69,228,9427,1,0,0:0:0:0:
179,225,9543,5,0,0:0:0:0:
71,243,9659,1,0,0:0:0:0:
284,254,9776,2,0,P|336:274|397:324,1,125.280003823242
178,264,10008,5,0,0:0:0:0:
380,238,10125,2,0,P|403:288|411:367,1,125.280003823242
180,289,10358,5,0,0:0:0:0:
104,148,10474,2,0,P|124:96|174:34,1,125.280003823242
11,214,10707,1,0,0:0:0:0:
3,206,10939,6,0,L|12:106,1,92.8800014172364
133,245,11172,2,0,L|142:345,1,92.8800014172364
261,202,11405,2,0,L|270:102,1,92.8800014172364
386,265,11637,6,0,P|361:311|357:357,2,92.8800014172364
512,163,11986,2,0,P|459:153|372:53,1,185.760002834473
236,214,12335,2,0,P|282:189|328:185,1,92.8800014172364
121,287,12567,6,0,L|132:159,1,125.280003823242,0|0,2:0|2:0,2:0:0:0:
30,35,12800,2,0,L|42:168,1,125.280003823242,0|0,2:0|2:0,2:0:0:0:
246,28,13032,5,0,0:0:0:0:
138,10,13148,1,0,0:0:0:0:
248,7,13264,5,0,0:0:0:0:
140,25,13380,1,0,0:0:0:0:
353,36,13497,2,0,P|405:56|466:106,1,125.280003823242
247,46,13729,5,0,0:0:0:0:
449,20,13846,2,0,P|472:70|480:149,1,125.280003823242
248,69,14079,5,0,0:0:0:0:
172,210,14195,2,0,P|192:262|242:324,1,125.280003823242
79,144,14428,1,0,0:0:0:0:
71,152,14660,6,0,L|80:252,1,92.8800014172364
269,228,14893,2,0,L|278:128,1,92.8800014172364
447,244,15125,2,0,L|456:344,1,92.8800014172364
467,45,15358,5,0,0:0:0:0:
426,150,15474,1,0,0:0:0:0:
309,0,15591,5,0,0:0:0:0:
350,105,15707,1,0,0:0:0:0:
166,20,15823,5,0,0:0:0:0:
271,61,15939,1,0,0:0:0:0:
244,190,16056,5,0,0:0:0:0:
349,149,16172,1,0,0:0:0:0:
174,271,16288,6,0,P|231:281|297:331,1,120.960001476563
284,326,16631,1,0,0:0:0:0:
86,161,16860,5,0,0:0:0:0:
170,120,16975,2,0,L|163:42,1,60.4800007382813
173,260,17204,6,0,P|230:270|296:320,1,120.960001476563
283,315,17547,1,0,0:0:0:0:
85,150,17776,5,0,0:0:0:0:
169,109,17891,2,0,L|162:31,1,60.4800007382813
172,249,18120,6,0,P|229:259|295:309,1,120.960001476563
282,304,18463,1,0,0:0:0:0:
84,139,18692,5,0,0:0:0:0:
168,98,18807,2,0,L|161:20,1,60.4800007382813
338,57,19036,6,0,P|310:75|291:107,1,60.4800007382813
374,162,19265,2,0,P|375:195|393:227,1,60.4800007382813
446,383,19494,6,0,P|418:365|399:333,1,60.4800007382813
482,278,19723,2,0,P|483:244|501:212,1,60.4800007382813
303,295,19952,6,0,L|179:284,1,120.960001476563
177,295,20295,1,0,0:0:0:0:
25,123,20525,5,0,0:0:0:0:
109,164,20639,2,0,P|132:139|142:103,1,60.4800007382813
263,29,20868,6,0,P|279:58|279:95,1,60.4800007382813
370,136,21097,2,0,P|352:164|320:183,1,60.4800007382813
348,281,21326,2,0,P|314:280|282:262,3,60.4800007382813
181,293,21784,6,0,P|183:244|234:183,1,120.960001476563
143,86,22127,2,0,P|186:63|264:76,1,120.960001476563
49,157,22471,2,0,L|42:78,1,60.4800007382813
108,225,22700,5,0,0:0:0:0:
87,338,22814,1,0,0:0:0:0:
9,294,22929,5,0,0:0:0:0:
99,351,23043,1,0,0:0:0:0:
190,239,23158,5,0,0:0:0:0:
247,329,23272,1,0,0:0:0:0:
165,213,23387,5,0,0:0:0:0:
107,304,23501,1,0,0:0:0:0:
297,178,23616,6,0,P|334:160|376:154,1,68.0399979235841
464,130,23728,2,0,B|299:78|375:212|176:149,1,272.159991694336
23,166,24067,6,0,L|29:97,1,68.0399979235841
101,19,24179,2,0,B|55:73|55:73|67:285,1,272.159991694336
251,344,24518,6,0,P|212:357|178:382,1,68.0399979235841
335,384,24631,2,0,P|366:320|320:130,1,272.159991694336
199,174,24969,5,0,0:0:0:0:
218,61,25082,1,0,0:0:0:0:
220,176,25194,5,0,0:0:0:0:
201,63,25307,1,0,0:0:0:0:
189,287,25421,6,0,P|152:269|110:263,1,68.0399979235841
22,239,25533,2,0,B|187:187|111:321|310:258,1,272.159991694336
463,275,25872,6,0,L|457:206,1,68.0399979235841
385,128,25984,2,0,B|431:182|431:182|419:394,1,272.159991694336
236,353,26322,5,0,0:0:0:0:
391,312,26435,1,0,0:0:0:0:
226,282,26548,5,0,0:0:0:0:
381,323,26661,1,0,0:0:0:0:
290,202,26773,6,0,P|190:191|126:280,1,204.119993770752
128,281,26999,6,0,P|176:369|285:370,1,204.119993770752
281,367,27225,6,0,P|318:349|360:343,1,68.0399979235841
445,384,27337,2,0,P|476:320|430:130,1,272.159991694336
280,0,27676,6,0,P|317:18|359:24,1,68.0399979235841
447,48,27788,2,0,B|282:100|358:-34|159:29,1,272.159991694336
49,108,28127,6,0,L|55:177,1,68.0399979235841
127,255,28239,2,0,B|81:201|81:201|93:-11,1,272.159991694336
289,161,28578,5,0,0:0:0:0:
176,142,28691,1,0,0:0:0:0:
291,140,28803,5,0,0:0:0:0:
178,159,28916,1,0,0:0:0:0:
365,56,29029,6,0,P|326:43|292:18,1,68.0399979235841
449,16,29142,2,0,P|480:80|434:270,1,272.159991694336
397,379,29480,6,0,P|360:361|318:355,1,68.0399979235841
230,331,29593,2,0,B|395:279|319:413|518:350,1,272.159991694336
146,384,29931,5,0,0:0:0:0:
436,267,30044,1,0,0:0:0:0:
112,165,30157,5,0,0:0:0:0:
302,222,30270,1,0,0:0:0:0:
24,202,30382,6,0,B|-5:120|54:138|20:55,1,136.079995847168
206,131,30608,2,0,B|235:213|176:195|210:278,1,136.079995847168
313,46,30834,5,0,0:0:0:0:
322,44,31299,1,0,0:0:0:0:
329,48,31764,1,0,0:0:0:0:
331,55,32229,1,0,0:0:0:0:
331,55,32694,6,0,B|269:46|269:46|205:77,1,125.280003823242
138,181,32927,2,0,B|77:190|77:190|12:159,1,125.280003823242
177,299,33624,5,0,0:0:0:0:
184,305,33973,1,0,0:0:0:0:
191,307,34322,1,0,0:0:0:0:
199,309,34554,6,0,B|256:316|256:316|325:287,1,125.280003823242
392,183,34787,2,0,B|455:176|455:176|518:205,1,125.280003823242
462,318,35020,1,0,0:0:0:0:
455,322,35485,1,0,0:0:0:0:
453,329,35950,1,0,0:0:0:0:
453,329,36415,6,0,B|394:335|394:335|327:307,1,125.280003823242
260,203,36647,2,0,B|198:194|198:194|134:225,1,125.280003823242
0,191,37345,5,0,0:0:0:0:
7,185,37694,1,0,0:0:0:0:
14,183,38043,1,0,0:0:0:0:
23,183,38275,6,0,B|81:195|81:195|160:169,1,125.280003823242
195,59,38506,2,0,B|137:47|137:47|58:73,1,125.280003823242
278,171,38738,5,0,0:0:0:0:
401,197,38854,1,0,0:0:0:0:
214,284,38969,5,0,0:0:0:0:
337,258,39085,1,0,0:0:0:0:
426,100,39201,5,0,0:0:0:0:
303,126,39317,1,0,0:0:0:0:
490,213,39433,5,0,0:0:0:0:
367,187,39549,1,0,0:0:0:0:
490,184,39664,5,0,0:0:0:0:
367,210,39780,2,0,B|326:172|326:172|119:204,1,250.560007646485
16,304,40128,6,0,P|14:216|48:178,1,125.280003823242
133,201,40359,2,0,P|135:289|101:327,1,125.280003823242
97,114,40591,5,0,0:0:0:0:
49,22,40707,1,0,0:0:0:0:
264,213,40823,5,0,0:0:0:0:
299,118,40939,1,0,0:0:0:0:
424,130,41054,6,0,L|284:117,1,125.280003823242
250,298,41286,5,0,0:0:0:0:
341,256,41402,1,0,0:0:0:0:
167,249,41518,6,0,P|97:251|39:275,1,125.280003823242
398,344,41749,2,0,P|431:282|439:220,1,125.280003823242
386,25,41981,6,0,B|364:85|364:85|390:146,1,125.280003823242
489,140,42213,2,0,B|513:83|513:83|491:23,1,125.280003823242
264,50,42444,6,0,P|201:54|134:40,1,125.280003823242
25,189,42676,5,0,0:0:0:0:
115,141,42792,1,0,0:0:0:0:
271,258,42908,5,0,0:0:0:0:
180,216,43024,1,0,0:0:0:0:
284,58,43139,5,0,0:0:0:0:
262,156,43255,1,0,0:0:0:0:
91,255,43371,5,0,0:0:0:0:
368,219,43487,2,0,B|460:177|442:258|548:183|548:183|513:231,1,250.560007646485
260,382,43834,6,0,L|272:240,1,125.280003823242
180,216,44066,2,0,L|167:74,1,125.280003823242
279,39,44298,2,0,L|266:181,1,125.280003823242
85,177,44529,1,0,0:0:0:0:
309,119,44645,5,0,0:0:0:0:
195,287,44761,2,0,P|142:271|78:224,1,125.280003823242
90,296,45096,6,0,P|63:247|51:168,1,125.280003823242
140,73,45329,5,0,0:0:0:0:
195,287,45445,1,0,0:0:0:0:
423,15,45561,1,0,0:0:0:0:
257,79,45695,6,0,L|133:91,1,125.280003823242,0|0,2:0|2:0,2:0:0:0:
260,170,45925,2,0,L|385:182,1,125.280003823242,0|0,2:0|2:0,2:0:0:0:
144,271,46156,5,0,0:0:0:0:
36,253,46272,1,0,0:0:0:0:
146,250,46388,5,0,0:0:0:0:
38,268,46502,1,0,0:0:0:0:
251,279,46618,2,0,P|303:299|364:349,1,125.280003823242
145,289,46848,5,0,0:0:0:0:
347,263,46964,2,0,P|370:313|378:392,1,125.280003823242
144,320,47195,5,0,2:0:0:0:
190,166,47311,2,0,P|240:143|320:134,1,125.280003823242,0|0,2:0|2:0,2:0:0:0:
78,147,47541,1,0,2:0:0:0:
70,139,47771,6,0,L|79:39,1,92.8800014172364
234,105,48002,2,0,L|225:5,1,92.8800014172364
363,140,48233,2,0,L|372:40,1,92.8800014172364
479,270,48464,6,0,P|490:219|517:181,2,92.8800014172364
312,368,48810,2,0,L|501:351,1,185.760002834473
249,310,49156,2,0,P|198:321|160:348,1,92.8800014172364
11,353,49387,6,0,L|-1:220,1,125.280003823242,0|0,2:0|2:0,2:0:0:0:
102,101,49617,2,0,L|89:248,1,125.280003823242,0|0,2:0|2:0,2:0:0:0:
276,111,49848,5,0,0:0:0:0:
294,2,49964,1,0,0:0:0:0:
297,111,50080,5,0,0:0:0:0:
279,4,50194,1,0,0:0:0:0:
268,216,50310,2,0,P|248:266|197:328,1,125.280003823242
257,110,50540,5,0,0:0:0:0:
284,312,50656,2,0,P|233:333|154:342,1,125.280003823242
241,110,50887,5,0,2:0:0:0:
87,156,51003,2,0,P|64:206|55:286,1,125.280003823242,0|0,2:0|2:0,2:0:0:0:
68,44,51233,1,0,2:0:0:0:
36,70,51464,6,0,L|136:79,1,92.8800014172364
243,23,51695,2,0,L|343:14,1,92.8800014172364
420,108,51925,2,0,L|520:117,1,92.8800014172364
376,236,52156,6,0,P|365:287|338:325,2,92.8800014172364
255,314,52502,2,0,P|165:311|86:255,1,185.760002834473
33,111,52848,2,0,P|8:149|0:195,1,92.8800014172364
193,59,53099,6,0,B|229:43|229:43|335:59,1,136.079995847168
381,176,53334,2,0,B|417:192|417:192|523:176,1,136.079995847168
425,26,53569,5,0,0:0:0:0:
498,266,53687,1,0,0:0:0:0:
316,44,53804,5,0,0:0:0:0:
243,284,53922,1,0,0:0:0:0:
404,24,54040,5,0,0:0:0:0:
382,21,54275,5,0,0:0:0:0:
198,73,54393,1,0,0:0:0:0:
461,193,54510,5,0,0:0:0:0:
277,141,54628,1,0,0:0:0:0:
512,0,54746,5,0,0:0:0:0:
345,93,54864,1,0,0:0:0:0:
472,292,54981,5,0,0:0:0:0:
482,304,55216,6,0,B|446:320|446:320|340:304,1,136.079995847168
294,187,55451,2,0,B|258:171|258:171|152:187,1,136.079995847168
52,275,55687,2,0,B|36:239|36:239|52:133,1,136.079995847168,0|0,3:0|3:0,3:0:0:0:
168,74,55922,5,0,0:0:0:0:
351,42,56040,1,0,0:0:0:0:
171,45,56157,5,0,0:0:0:0:
354,77,56275,2,0,B|406:242|272:166|335:365,1,272.159991694336
512,194,56628,2,0,P|434:234|402:274,1,136.079995847168
202,384,56863,6,0,B|186:348|186:348|202:240,1,146.880000896484
318,163,57095,2,0,B|334:127|334:127|318:19,1,146.880000896484
128,113,57328,5,0,0:0:0:0:
411,47,57444,1,0,0:0:0:0:
67,47,57560,5,0,0:0:0:0:
423,206,57676,1,0,0:0:0:0:
60,166,57793,5,0,0:0:0:0:
65,178,58025,5,0,0:0:0:0:
143,3,58143,1,0,0:0:0:0:
298,249,58258,5,0,0:0:0:0:
220,74,58374,1,0,0:0:0:0:
43,367,58490,5,0,0:0:0:0:
137,161,58608,1,0,0:0:0:0:
251,384,58723,5,0,0:0:0:0:
263,20,58950,6,0,P|296:81|306:152,1,136.079995847168
189,205,59177,2,0,P|156:266|146:337,1,136.079995847168
335,384,59404,2,0,P|302:323|292:252,1,136.079995847168
446,149,59633,5,0,0:0:0:0:
163,99,59743,1,0,0:0:0:0:
445,110,59854,5,0,0:0:0:0:
154,128,59964,1,0,0:0:0:0:
348,25,60075,5,0,0:0:0:0:
410,285,60186,1,0,0:0:0:0:
511,50,60297,5,0,0:0:0:0:
442,365,60408,1,0,0:0:0:0:
228,10,60516,5,0,0:0:0:0:
