osu file format v14

[General]
AudioFilename: censored.mp3
AudioLeadIn: 0
PreviewTime: 45720
Countdown: 0
SampleSet: Soft
StackLeniency: 0.7
Mode: 0
LetterboxInBreaks: 0
CountdownOffset: 1
WidescreenStoryboard: 1

[Editor]
Bookmarks: 38489
DistanceSpacing: 4.6
BeatDivisor: 4
GridSize: 32
TimelineZoom: 1.9

[Metadata]
Title:ChuChu Lovely MuniMuni MuraMura PrinPrin Boron Nururu ReroRero (Chiptune Cover)
TitleUnicode:チューチュー ラブリー ムニムニ ムラムラ プリンプリン ボロン ヌルル レロレロ (Chiptune Cover)
Artist:MAXIMUM THE HORMONE
ArtistUnicode:マキシマム ザ ホルモン
Creator:Sotarks
Version:Reform's Extreme
Source:
Tags:ぶっ生き返す Bu-ikikaesu armin a_r_m_i_n reform kujinn kowari snownino_ ren derandom otaku cut version short instrumental electronic bitboymusic bitboy ayyri eiri- trynna yasuho
BeatmapID:2328680
BeatmapSetID:1114770

[Difficulty]
HPDrainRate:5
CircleSize:3.6
OverallDifficulty:9.5
ApproachRate:9.7
SliderMultiplier:1.82
SliderTickRate:1

[Events]
//Background and Video events
0,0,"bg.jpg",0,0
//Break Periods
//Storyboard Layer 0 (Background)
//Storyboard Layer 1 (Fail)
//Storyboard Layer 2 (Pass)
//Storyboard Layer 3 (Foreground)
//Storyboard Layer 4 (Overlay)
//Storyboard Sound Samples

[TimingPoints]
1470,230.769230769231,4,2,22,62,1,0
16239,-90.9090909090909,4,2,22,52,0,0
23623,-90.9090909090909,4,2,22,72,0,0
23739,-83.3333333333333,4,2,22,72,0,0
31008,-83.3333333333333,4,2,22,42,0,0
32854,-200,4,2,22,42,0,0
33777,-250,4,2,22,42,0,0
36546,-200,4,2,22,42,0,0
37470,-250,4,2,22,42,0,0
38046,-250,4,2,22,42,0,0
38393,-133.333333333333,4,2,22,52,0,0
45546,-133.333333333333,4,2,22,52,0,0
45777,-100,4,2,22,62,0,0
53162,-83.3333333333333,4,2,22,72,0,1
60546,-83.3333333333333,4,2,22,62,0,0
61008,-83.3333333333333,4,2,22,42,0,0

[Colours]
Combo1 : 34,255,189
Combo2 : 255,128,128
Combo3 : 0,163,191
Combo4 : 15,135,255

[HitObjects]
41,124,1470,6,0,P|85:148|137:151,1,91.3033333333334,2|0,1:2|2:0,0:0:0:0:
307,36,1700,2,0,P|262:41|222:64,1,91.3033333333334,10|0,2:0|2:0,0:0:0:0:
179,223,1931,1,2,1:2:0:0:
116,61,2046,1,2,1:2:0:0:
259,174,2162,2,0,P|298:196|347:199,1,91.3033333333334,10|2,2:0|2:0,0:0:0:0:
502,64,2393,6,0,P|477:123|462:270,1,182.606666666667,2|10,1:2|2:0,0:0:0:0:
259,174,2739,2,0,P|291:258|303:355,1,182.606666666667,2|2,1:2|1:2,0:0:0:0:
436,169,3085,1,10,2:0:0:0:
302,83,3200,1,2,2:0:0:0:
362,260,3316,6,0,P|400:283|446:286,1,91.3033333333334,2|0,1:2|0:0,0:0:0:0:
224,159,3546,2,0,P|179:163|127:194,1,91.3033333333334,10|0,2:0|2:0,0:0:0:0:
351,150,3777,2,0,P|364:91|381:44,1,91.3033333333334,2|0,1:2|1:2,0:0:0:0:
206,245,4008,2,0,P|221:292|232:341,1,91.3033333333334,10|0,2:0|2:0,0:0:0:0:
87,83,4239,6,0,P|71:130|60:179,1,91.3033333333334,2|2,1:2|2:0,0:0:0:0:
132,290,4470,1,10,2:0:0:0:
253,25,4585,2,0,P|272:81|291:230,1,182.606666666667,2|2,1:2|1:2,0:0:0:0:
386,100,4931,2,0,P|427:71|490:74,1,91.3033333333334,10|2,2:0|2:0,0:0:0:0:
307,296,5162,6,0,P|257:293|217:259,1,91.3033333333334,2|0,1:2|2:0,0:0:0:0:
420,189,5393,2,0,P|469:191|511:217,1,91.3033333333334,10|0,2:0|2:0,0:0:0:0:
288,203,5623,1,2,1:2:0:0:
420,326,5739,1,2,1:2:0:0:
302,177,5854,2,0,P|293:118|282:58,1,91.3033333333334,10|2,2:0|2:0,0:0:0:0:
116,321,6085,6,0,P|126:245|136:123,1,182.606666666667,2|10,1:2|2:0,0:0:0:0:
352,362,6431,2,0,P|342:286|332:164,1,182.606666666667,2|2,1:2|1:2,0:0:0:0:
203,327,6777,1,10,2:0:0:0:
236,149,6893,1,2,2:0:0:0:
373,353,7008,6,0,P|363:296|358:243,1,91.3033333333334,2|0,1:2|0:0,0:0:0:0:
481,82,7239,2,0,P|434:117|372:119,1,91.3033333333334,10|0,2:0|2:0,0:0:0:0:
203,155,7470,2,0,P|251:164|289:195,1,91.3033333333334,2|0,1:2|1:2,0:0:0:0:
452,289,7700,2,0,P|461:225|474:181,1,91.3033333333334,10|0,2:0|2:0,0:0:0:0:
242,30,7931,6,0,P|254:78|260:128,1,91.3033333333334,2|2,1:2|2:0,0:0:0:0:
415,41,8162,1,10,2:0:0:0:
294,254,8277,2,0,B|247:227|185:259|223:261|165:309|87:258,1,182.606666666667,2|2,1:2|1:2,0:0:0:0:
75,60,8623,2,0,P|63:108|57:158,1,91.3033333333334,10|2,2:0|2:0,0:0:0:0:
367,148,8854,6,0,P|415:169|464:171,1,91.3033333333334,2|0,1:2|2:0,0:0:0:0:
267,320,9085,2,0,P|315:299|364:297,1,91.3033333333334,10|0,2:0|2:0,0:0:0:0:
157,134,9316,1,2,1:2:0:0:
309,212,9431,1,2,1:2:0:0:
157,356,9546,2,0,P|135:301|145:250,1,91.3033333333334,10|2,2:0|2:0,0:0:0:0:
297,53,9777,6,0,P|246:83|112:86,1,182.606666666667,2|10,1:2|2:0,0:0:0:0:
359,252,10123,2,0,P|277:212|187:214,1,182.606666666667,2|2,1:2|1:2,0:0:0:0:
434,100,10470,1,10,2:0:0:0:
303,27,10585,1,2,2:0:0:0:
408,190,10700,6,0,P|460:192|509:163,1,91.3033333333334,2|0,1:2|0:0,0:0:0:0:
202,234,10931,2,0,P|221:284|225:343,1,91.3033333333334,10|0,2:0|2:0,0:0:0:0:
304,139,11162,2,0,P|309:89|327:42,1,91.3033333333334,2|0,1:2|1:2,0:0:0:0:
409,276,11393,2,0,P|367:306|312:305,1,91.3033333333334,10|0,2:0|2:0,0:0:0:0:
123,125,11623,6,0,P|172:127|212:156,1,91.3033333333334,2|2,1:2|2:0,0:0:0:0:
134,269,11854,1,10,2:0:0:0:
330,163,11970,2,0,P|309:217|285:375,1,182.606666666667,2|2,1:2|1:2,0:0:0:0:
98,134,12316,2,0,P|120:189|129:254,1,91.3033333333334,10|2,2:0|2:0,0:0:0:0:
214,46,12546,6,0,P|249:25|304:28,1,91.3033333333334,2|0,1:2|2:0,0:0:0:0:
412,220,12777,2,0,P|367:221|327:199,1,91.3033333333334,10|0,2:0|2:0,0:0:0:0:
407,41,13008,1,2,1:2:0:0:
268,113,13123,1,2,1:2:0:0:
471,166,13239,2,0,P|483:108|502:52,1,91.3033333333334,10|2,2:0|2:0,0:0:0:0:
251,144,13470,6,0,P|274:207|300:352,1,182.606666666667,2|10,1:2|2:0,0:0:0:0:
161,30,13816,2,0,P|138:93|112:238,1,182.606666666667,2|2,1:2|1:2,0:0:0:0:
0,88,14162,1,10,2:0:0:0:
62,276,14277,1,2,2:0:0:0:
170,98,14393,6,0,P|220:90|266:69,1,91.3033333333334,2|0,1:2|0:0,0:0:0:0:
342,285,14623,2,0,P|300:265|243:258,1,91.3033333333334,10|0,2:0|2:0,0:0:0:0:
371,99,14854,2,0,P|396:146|389:205,1,91.3033333333334,2|0,1:2|1:2,0:0:0:0:
181,332,15085,2,0,P|156:285|163:226,1,91.3033333333334,10|0,2:0|2:0,0:0:0:0:
236,80,15316,5,8,1:2:0:0:
305,255,15431,1,0,1:0:0:0:
306,29,15546,1,8,2:0:0:0:
233,210,15662,1,0,1:0:0:0:
116,57,15777,1,8,1:2:0:0:
161,283,15893,1,0,1:0:0:0:
236,80,16008,1,8,2:0:0:0:
108,226,16123,1,0,1:0:0:0:
12,62,16239,6,0,B|125:41|68:150|222:152,1,200.867339442953,10|8,1:3|2:0,0:0:0:0:
317,46,16585,1,0,0:0:0:0:
300,254,16700,2,0,P|264:280|197:278,1,101.30120305481,0|0,1:0|1:0,0:0:0:0:
394,121,16931,2,0,P|443:121|484:149,1,100.433669721476,8|0,0:0|0:0,0:0:0:0:
230,209,17162,6,0,P|223:128|198:-18,1,200.867339442953,10|8,1:3|0:0,0:0:0:0:
369,256,17508,2,0,P|378:200|390:133,1,100.433669721476,0|0,0:0|1:0,0:0:0:0:
135,328,17739,2,0,P|126:272|114:205,1,100.433669721476,0|8,1:0|0:0,0:0:0:0:
299,369,17970,1,0,0:0:0:0:
207,131,18085,6,0,P|147:111|29:201,1,200.867339442953,10|8,1:3|0:0,0:0:0:0:
236,265,18431,2,0,P|274:252|345:243,1,100.433669721476,0|0,0:0|1:0,0:0:0:0:
229,42,18662,2,0,P|191:29|120:20,1,100.433669721476,0|8,1:0|0:0,0:0:0:0:
136,211,18893,1,0,0:0:0:0:
337,45,19008,5,10,1:3:0:0:
174,132,19123,1,0,1:0:0:0:
354,278,19239,2,0,P|362:226|379:157,1,100.433669721476,8|6,0:0|0:3,0:0:0:0:
192,39,19470,1,0,1:0:0:0:
269,225,19585,1,0,1:0:0:0:
429,65,19700,2,0,P|385:42|312:57,1,101.30120305481,10|0,0:0|0:0,0:0:0:0:
112,277,19931,6,0,B|226:250|191:345|324:319,1,200.867339442953,10|8,1:3|0:0,0:0:0:0:
231,125,20277,2,0,P|249:178|264:243,1,101.30120305481,0|0,0:0|1:0,0:0:0:0:
375,133,20508,1,0,1:0:0:0:
162,25,20623,2,0,P|144:78|129:143,1,101.30120305481,8|0,0:0|0:0,0:0:0:0:
314,49,20854,6,0,P|370:36|408:16,1,101.30120305481,10|0,1:3|0:0,0:0:0:0:
176,238,21085,2,0,P|131:215|82:205,1,100.433669721476,8|0,0:0|0:0,0:0:0:0:
374,176,21316,1,0,1:0:0:0:
182,119,21431,1,0,1:0:0:0:
371,164,21546,1,8,0:0:0:0:
179,107,21662,1,0,0:0:0:0:
320,273,21777,6,0,P|446:257|478:168,1,200.867339442953,10|8,1:3|0:0,0:0:0:0:
318,61,22123,2,0,P|298:115|285:178,1,101.30120305481,0|0,0:0|1:0,0:0:0:0:
114,53,22354,1,0,1:0:0:0:
194,239,22470,2,0,P|214:293|227:356,1,100.433669721476,8|0,0:0|0:0,0:0:0:0:
209,95,22700,5,10,1:2:0:0:
112,279,22816,1,0,1:0:0:0:
185,23,22931,1,8,2:0:0:0:
274,238,23046,1,0,1:0:0:0:
135,112,23162,1,8,1:2:0:0:
220,311,23277,1,0,1:0:0:0:
289,53,23393,1,8,2:0:0:0:
195,218,23508,1,0,1:0:0:0:
94,33,23623,5,2,1:2:0:0:
284,157,23739,2,0,B|404:153|340:73|484:68,1,219.127993334961,10|8,2:0|2:0,0:0:0:0:
427,272,24085,5,2,1:2:0:0:
289,53,24200,2,0,P|203:72|201:206,1,219.127993334961,10|8,2:0|2:0,0:0:0:0:
443,170,24546,5,2,1:2:0:0:
294,327,24662,2,0,B|174:323|238:243|94:238,1,219.127993334961,10|8,2:0|2:0,0:0:0:0:
275,172,25008,5,2,1:2:0:0:
398,372,25123,2,0,P|389:306|421:154,1,219.127993334961,10|8,2:0|2:0,0:0:0:0:
507,257,25470,5,2,1:2:0:0:
382,61,25585,2,0,B|301:74|301:74|273:111|273:111|170:129,1,219.127993334961,10|8,2:0|2:0,0:0:0:0:
312,253,25931,5,2,1:2:0:0:
81,76,26046,2,0,P|118:171|133:301,1,219.127993334961,10|8,2:0|2:0,0:0:0:0:
252,103,26393,6,0,P|282:77|369:83,1,109.563996667481,6|8,1:2|2:0,0:0:0:0:
146,287,26623,2,0,P|88:292|40:260,1,109.563996667481,0|8,1:2|2:0,0:0:0:0:
310,160,26854,1,0,1:2:0:0:
219,338,26970,1,8,2:0:0:0:
137,158,27085,1,0,1:2:0:0:
320,258,27200,1,8,2:0:0:0:
81,304,27316,5,2,1:2:0:0:
266,58,27431,2,0,P|237:119|219:272,1,219.127993334961,10|8,2:0|2:0,0:0:0:0:
92,61,27777,5,2,1:2:0:0:
331,234,27893,2,0,P|386:249|465:118,1,219.127993334961,10|8,2:0|2:0,0:0:0:0:
361,51,28239,5,2,1:2:0:0:
198,224,28354,2,0,B|95:256|117:130|-23:185,1,219.127993334961,10|8,2:0|2:0,0:0:0:0:
261,78,28700,5,2,1:2:0:0:
150,327,28816,2,0,P|140:241|114:99,1,219.127993334961,10|8,2:0|2:0,0:0:0:0:
306,272,29162,5,2,1:2:0:0:
174,53,29277,2,0,P|90:39|32:167,1,219.127993334961,10|8,2:0|2:0,0:0:0:0:
297,106,29623,5,2,1:2:0:0:
10,241,29739,2,0,B|116:213|82:310|218:287,1,219.127993334961,10|8,2:0|2:0,0:0:0:0:
388,170,30085,5,14,2:0:0:0:
286,329,30200,1,0,1:0:0:0:
174,154,30316,1,8,2:0:0:0:
354,245,30431,1,0,1:0:0:0:
169,315,30546,1,8,2:0:0:0:
240,68,30662,1,0,1:0:0:0:
336,284,30777,1,8,1:2:0:0:
336,284,31008,5,10,2:0:0:0:
347,301,31470,5,2,1:2:0:0:
355,316,31931,5,2,1:2:0:0:
363,333,32393,5,0,1:2:0:0:
363,333,32854,6,0,L|299:321,1,45.6516666666667,10|0,2:0|0:0,0:0:0:0:
222,276,33085,2,0,L|177:284,1,45.6516666666667,10|0,2:0|0:0,0:0:0:0:
65,348,33316,5,2,1:2:0:0:
65,348,33777,6,0,L|55:263,1,73.3581333333334,0|0,1:2|0:0,0:0:0:0:
31,205,34123,1,0,2:0:0:0:
31,205,34239,2,0,L|42:120,1,73.0426666666667,0|0,1:0|2:0,0:0:0:0:
59,34,34700,5,10,2:0:0:0:
389,167,34931,1,10,2:0:0:0:
155,261,35162,5,2,1:2:0:0:
147,277,35623,5,2,1:2:0:0:
142,290,36085,5,0,1:2:0:0:
134,308,36546,6,0,L|198:299,1,45.6516666666667,10|0,2:0|0:0,0:0:0:0:
262,362,36777,2,0,L|310:369,1,45.6516666666667,10|0,2:0|0:0,0:0:0:0:
379,294,37008,5,2,1:2:0:0:
379,294,37470,6,0,L|365:207,1,73.0426666666667,0|0,1:2|0:0,0:0:0:0:
356,150,37816,1,0,2:0:0:0:
356,150,37931,2,0,L|370:69,1,73.3581333333334,0|0,1:0|2:0,0:0:0:0:
267,18,38393,6,0,B|230:33|191:27,1,68.250002603531,2|0,1:2|2:0,0:0:0:0:
125,91,38623,2,0,P|88:76|49:82,1,69.0690026035311,2|0,1:2|2:0,0:0:0:0:
80,170,38854,2,0,P|92:213|99:263,1,69.0690026035311,10|0,2:0|2:0,0:0:0:0:
212,175,39085,2,0,P|218:141|228:108,1,69.0690026035311,2|8,2:0|2:0,0:0:0:0:
302,284,39316,6,0,P|341:314|381:319,1,68.4775026035311,2|8,1:2|2:0,0:0:0:0:
468,259,39546,1,2,1:2:0:0:
378,183,39662,2,0,P|372:133|367:95,1,68.4775026035311,2|8,2:0|2:0,0:0:0:0:
504,59,39893,2,0,P|499:92|495:126,1,68.4775026035311,2|0,1:2|2:0,0:0:0:0:
399,17,40123,1,10,2:0:0:0:
318,112,40239,6,0,P|275:111|233:84,1,68.4775026035311,2|0,1:2|2:0,0:0:0:0:
192,18,40470,2,0,P|149:19|107:46,1,68.4775026035311,2|0,1:2|2:0,0:0:0:0:
41,107,40700,2,0,P|33:52|26:14,1,68.4775026035311,10|0,2:0|2:0,0:0:0:0:
179,113,40931,2,0,P|173:146|168:180,1,68.4775026035311,2|8,1:2|2:0,0:0:0:0:
66,248,41162,6,0,P|31:262|-1:261,2,68.4775026035311,2|8|0,1:2|2:0|1:2,0:0:0:0:
161,346,41508,2,0,P|194:346|226:359,2,68.4775026035311,2|8|0,1:2|2:0|1:2,0:0:0:0:
298,286,41854,2,0,P|311:248|314:207,1,68.4775026035311,2|8,2:0|2:0,0:0:0:0:
142,152,42085,6,0,P|146:185|158:217,1,68.4775026035311,2|0,1:2|2:0,0:0:0:0:
318,93,42316,2,0,P|268:79|231:61,1,68.4775026035311,2|0,1:2|2:0,0:0:0:0:
249,240,42546,2,0,P|280:227|313:219,1,68.4775026035311,10|0,2:0|2:0,0:0:0:0:
149,89,42777,2,0,P|137:121|132:154,1,68.4775026035311,2|8,2:0|2:0,0:0:0:0:
18,286,43008,6,0,P|13:252|1:220,1,68.4775026035311,2|8,1:2|2:0,0:0:0:0:
45,101,43239,1,2,1:2:0:0:
130,354,43354,2,0,P|134:320|146:288,1,68.4775026035311,2|8,2:0|2:0,0:0:0:0:
258,190,43585,2,0,P|269:222|274:255,1,68.4775026035311,2|0,1:2|2:0,0:0:0:0:
350,134,43816,1,10,2:0:0:0:
151,212,43931,6,0,P|110:204|75:183,1,68.4775026035311,2|0,1:2|2:0,0:0:0:0:
247,367,44162,2,0,P|277:352|311:346,1,68.4775026035311,2|0,1:2|2:0,0:0:0:0:
236,176,44393,1,10,2:0:0:0:
166,297,44508,1,0,2:0:0:0:
84,170,44623,2,0,P|77:125|66:80,1,68.4775026035311,2|8,1:2|2:0,0:0:0:0:
74,320,44854,5,8,2:0:0:0:
148,53,44970,1,8,2:0:0:0:
162,41,45200,6,0,P|188:32|234:33,1,68.4775026035311,8|0,2:0|0:0,0:0:0:0:
398,244,45431,1,8,2:0:0:0:
167,142,45546,1,8,2:0:0:0:
402,42,45662,1,8,2:0:0:0:
261,301,45777,6,0,P|249:247|264:189,1,91.3033333333334,2|0,1:2|2:0,0:0:0:0:
489,90,46008,2,0,P|501:144|486:198,1,91.3033333333334,10|0,2:0|2:0,0:0:0:0:
303,73,46239,1,2,1:2:0:0:
352,242,46354,1,2,1:2:0:0:
211,124,46470,2,0,P|167:98|105:107,1,91.3033333333334,10|2,2:0|2:0,0:0:0:0:
133,362,46700,6,0,P|169:323|317:340,1,182.606666666667,2|10,1:2|2:0,0:0:0:0:
487,197,47046,2,0,P|451:158|304:180,1,182.606666666667,2|2,1:2|1:2,0:0:0:0:
283,348,47393,1,10,2:0:0:0:
407,244,47508,1,2,2:0:0:0:
172,151,47623,6,0,P|192:213|203:266,1,91.3033333333334,2|0,1:2|0:0,0:0:0:0:
238,37,47854,2,0,P|283:10|358:25,1,91.3033333333334,10|0,2:0|2:0,0:0:0:0:
110,207,48085,2,0,P|60:206|25:184,1,91.3033333333334,2|0,1:2|1:2,0:0:0:0:
348,105,48316,2,0,P|328:167|317:221,1,91.3033333333334,10|0,2:0|2:0,0:0:0:0:
151,50,48546,6,0,P|101:24|45:39,1,91.3033333333334,2|2,1:2|2:0,0:0:0:0:
306,16,48777,1,10,2:0:0:0:
90,123,48893,2,0,P|110:179|133:338,1,182.606666666667,2|2,1:2|1:2,0:0:0:0:
309,145,49239,1,10,2:0:0:0:
241,310,49354,1,2,2:0:0:0:
218,43,49470,6,0,P|192:108|187:164,1,91.3033333333334,2|0,1:2|2:0,0:0:0:0:
45,287,49700,2,0,P|35:237|16:198,1,91.3033333333334,10|0,2:0|2:0,0:0:0:0:
212,248,49931,1,2,1:2:0:0:
99,96,50046,1,2,1:2:0:0:
213,270,50162,2,0,P|267:275|325:238,1,91.3033333333334,10|2,2:0|2:0,0:0:0:0:
392,42,50393,6,0,P|312:31|254:144,1,182.606666666667,2|10,1:2|2:0,0:0:0:0:
453,297,50739,2,0,P|461:226|497:97,1,182.606666666667,2|2,1:2|1:2,0:0:0:0:
278,283,51085,1,10,2:0:0:0:
352,128,51200,1,2,2:0:0:0:
361,350,51316,6,0,P|308:378|254:373,1,91.3033333333334,2|0,1:2|0:0,0:0:0:0:
122,126,51546,2,0,P|171:128|209:150,1,91.3033333333334,10|0,2:0|2:0,0:0:0:0:
138,360,51777,1,2,1:2:0:0:
73,199,51893,1,0,1:2:0:0:
261,301,52008,2,0,P|271:236|287:181,1,91.3033333333334,10|0,2:0|2:0,0:0:0:0:
38,94,52239,6,0,P|49:142|56:187,1,91.3033333333334,2|2,1:2|1:2,0:0:0:0:
274,48,52470,1,10,2:0:0:0:
167,265,52585,2,0,B|55:252|124:353|-33:332,1,182.606666666667,2|2,1:2|1:2,0:0:0:0:
187,134,52931,2,0,P|238:139|275:176,1,91.3033333333334,10|2,2:0|2:0,0:0:0:0:
446,341,53162,6,0,P|453:286|465:233,1,109.563996667481,10|0,2:0|2:0,0:0:0:0:
343,25,53393,2,0,P|355:78|360:135,1,109.563996667481,10|0,2:0|2:0,0:0:0:0:
213,298,53623,5,10,2:0:0:0:
275,91,53739,1,2,1:2:0:0:
258,367,53854,5,10,2:0:0:0:
189,146,53970,1,2,1:2:0:0:
138,341,54085,6,0,P|89:364|30:359,1,109.563996667481,10|0,2:0|2:0,0:0:0:0:
309,182,54316,2,0,P|362:178|411:201,1,109.563996667481,10|2,2:0|2:0,0:0:0:0:
67,200,54546,5,8,2:0:0:0:
341,270,54662,1,2,1:2:0:0:
43,167,54777,5,10,2:0:0:0:
320,97,54893,1,2,1:2:0:0:
190,338,55008,6,0,P|180:272|157:211,1,109.563996667481,10|0,2:0|0:0,0:0:0:0:
424,62,55239,2,0,P|407:114|400:168,1,109.563996667481,10|0,2:0|2:0,0:0:0:0:
168,98,55470,6,0,P|224:60|287:70,1,109.563996667481,10|0,2:0|1:2,0:0:0:0:
386,315,55700,2,0,P|332:311|290:277,1,109.563996667481,10|0,2:0|1:2,0:0:0:0:
432,105,55931,5,10,2:0:0:0:
166,209,56046,1,2,2:0:0:0:
479,253,56162,5,10,2:0:0:0:
232,146,56277,1,2,2:0:0:0:
390,344,56393,5,8,2:0:0:0:
310,64,56508,1,2,1:2:0:0:
255,361,56623,5,10,2:0:0:0:
330,103,56739,1,2,1:2:0:0:
131,363,56854,6,0,P|120:295|100:238,1,109.563996667481,10|0,2:0|2:0,0:0:0:0:
310,64,57085,2,0,P|296:112|287:172,1,109.563996667481,10|0,2:0|2:0,0:0:0:0:
131,53,57316,5,10,2:0:0:0:
216,295,57431,1,2,1:2:0:0:
226,3,57546,5,10,2:0:0:0:
140,229,57662,1,2,1:2:0:0:
317,46,57777,6,0,P|367:35|428:16,1,109.563996667481,10|0,2:0|2:0,0:0:0:0:
105,153,58008,2,0,P|57:138|-9:124,1,109.563996667481,10|2,2:0|2:0,0:0:0:0:
386,156,58239,5,8,2:0:0:0:
133,81,58354,1,2,1:2:0:0:
380,183,58470,5,10,2:0:0:0:
110,250,58585,1,2,1:2:0:0:
371,349,58700,6,0,P|416:330|494:328,1,109.563996667481,10|0,2:0|0:0,0:0:0:0:
231,160,58931,2,0,P|186:141|108:139,1,109.563996667481,10|0,2:0|2:0,0:0:0:0:
463,61,59162,6,0,P|446:121|441:177,1,109.563996667481,10|0,2:0|1:2,0:0:0:0:
185,349,59393,2,0,P|178:299|160:238,1,109.563996667481,10|0,2:0|1:2,0:0:0:0:
319,44,59623,5,10,2:0:0:0:
319,44,59854,5,10,2:0:0:0:
238,271,59970,1,10,2:0:0:0:
178,72,60085,1,8,2:0:0:0:
330,347,60200,1,10,2:0:0:0:
256,26,60316,1,10,2:0:0:0:
156,358,60431,1,10,2:0:0:0:
252,0,60546,5,2,2:0:0:0:
