osu file format v14

[General]
AudioFilename: audio.mp3
AudioLeadIn: 0
PreviewTime: 18863
Countdown: 1
SampleSet: Soft
StackLeniency: 0.7
Mode: 0
LetterboxInBreaks: 0
WidescreenStoryboard: 0

[Editor]
Bookmarks: 18611,57343,73821,97497
DistanceSpacing: 1
BeatDivisor: 4
GridSize: 16
TimelineZoom: 1

[Metadata]
Title:A-L-I-E-N
TitleUnicode:え・い・り・あ・ん
Artist:MAXIMUM THE HORMONE
ArtistUnicode:マキシマム ザ ホルモン
Creator:Metronome
Version:NORMAL
Source:
Tags:予襲復讐 yoshū fukushū yoshu fukushu makishimamu za horumon alien sky records ダイスケはん ナヲ マキシマムザ亮君 上ちゃん daisuke-han nao maximum the ryo-kun
BeatmapID:1401940
BeatmapSetID:662260

[Difficulty]
HPDrainRate:3
CircleSize:3.5
OverallDifficulty:4
ApproachRate:4
SliderMultiplier:1
SliderTickRate:1

[Events]
//Background and Video events
0,0,"Konachan.com+-+181663+cola_(gotouryouta)+original+robot+ruins+scenic+stars.jpg",0,0
//Break Periods
2,49577,55850
//Storyboard Layer 0 (Background)
//Storyboard Layer 1 (Fail)
//Storyboard Layer 2 (Pass)
//Storyboard Layer 3 (Foreground)
//Storyboard Sound Samples

[TimingPoints]
1000,540.540540540541,4,2,22,30,1,0
2243,500,4,2,22,30,1,0
3036,540.540540540541,4,2,22,30,1,0
4292,495.867768595041,4,2,22,30,1,0
5035,506.329113924051,4,2,22,30,1,0
8313,506.329113924051,4,2,22,30,1,0
9072,540.540540540541,4,2,22,30,1,0
10328,500,4,2,22,30,1,0
11133,540.540540540541,4,2,22,30,1,0
12340,506.329113924051,4,2,22,30,1,0
13099,506.329113924051,4,2,22,30,1,0
15158,506.329113924051,4,2,22,30,1,0
17942,-100,4,2,1,5,0,0
18611,504.201680672269,4,2,22,60,1,0
19133,504.201680672269,4,2,22,60,1,0
20133,504.201680672269,4,2,22,60,1,0
21141,504.201680672269,4,2,22,60,1,0
21634,506.329113924051,4,2,22,60,1,0
23152,504.201680672269,4,2,22,60,1,0
25668,504.201680672269,4,2,22,60,1,0
26681,504.201680672269,4,2,22,60,1,0
27185,504.201680672269,4,2,22,60,1,0
27712,500,4,2,22,60,1,0
29221,504.201680672269,4,2,22,60,1,0
29715,504.201680672269,4,2,22,60,1,0
31227,504.201680672269,4,2,22,60,1,0
33243,500,4,2,22,60,1,0
34750,491.803278688525,4,2,22,60,1,0
35241,504.201680672269,4,2,22,60,1,0
35760,504.201680672269,4,2,22,60,1,0
36249,504.201680672269,4,2,22,60,1,0
37257,504.201680672269,4,2,22,60,1,0
38791,504.201680672269,4,2,22,60,1,0
39295,504.201680672269,4,2,22,60,1,0
39295,-90.9090909090909,4,2,1,60,0,0
42320,491.803278688525,4,2,22,60,1,0
43303,504.201680672269,4,2,22,60,1,0
43569,504.201680672269,4,2,22,60,1,0
43821,504.201680672269,4,2,22,60,1,0
45333,504.201680672269,4,2,22,60,1,0
47349,-100,4,2,1,45,0,0
48393,504.201680672269,4,2,22,45,1,0
49377,497.92531120332,4,2,22,60,1,0
57343,497.92531120332,4,2,22,45,1,0
60338,497.92531120332,4,2,22,45,1,0
61333,498.960498960499,4,2,22,45,1,0
65324,500,4,2,22,60,1,0
73324,497.512437810945,4,2,22,70,1,0
73821,-90.9090909090909,4,3,1,70,0,0
78299,494.233937397035,4,2,22,70,1,0
79287,494.233937397035,4,2,22,70,1,0
81264,512.820512820513,4,2,22,70,1,0
81776,497.512437810945,4,2,22,70,1,0
83268,497.512437810945,4,2,22,70,1,0
88243,483.870967741935,4,2,22,70,1,0
88968,540.540540540541,4,2,22,70,1,0
89238,491.803278688525,4,3,22,70,1,0
91205,480,4,2,22,70,1,0
93622,487.80487804878,4,3,22,70,1,0
95085,480,4,3,22,70,1,0
96045,468.75,4,3,22,70,1,0
96513,447.761194029851,4,3,22,70,1,0
97002,495.867768595041,4,2,22,70,1,0
99473,513.918629550321,4,2,22,50,1,0
100500,508.474576271186,4,2,22,50,1,0
101019,507.399577167019,4,2,22,70,1,0
101506,507.399577167019,4,2,22,70,1,0
102794,507.399577167019,4,2,22,70,1,0
103530,500,4,2,22,70,1,0
104794,500,4,2,22,70,1,0
105045,500,4,2,22,70,1,0
105529,500,4,2,22,70,1,0
107045,495.867768595041,4,2,22,70,1,0
108036,491.803278688525,4,2,22,80,1,0
108527,527.240773286468,4,2,22,90,1,0
109054,783.87311707145,4,2,22,90,1,0
109054,-133.333333333333,4,3,1,70,0,0
109249,-166.666666666667,4,3,1,25,0,0
113757,-166.666666666667,4,3,1,50,0,0
114541,-166.666666666667,4,3,1,40,0,0
115324,-166.666666666667,4,3,1,30,0,0
118460,-166.666666666667,4,3,1,20,0,0
121595,-166.666666666667,4,3,1,10,0,0
124731,-166.666666666667,4,3,1,5,0,0

[Colours]
Combo1 : 192,192,192
Combo2 : 192,192,192

[HitObjects]
70,276,1000,6,0,P|127:315|213:288,1,150,2|0,2:0|0:0,0:0:0:0:
146,232,2243,2,0,L|127:166,1,50
52,122,3036,6,0,P|109:83|195:109,1,150,2|0,2:0|0:0,0:0:0:0:
267,96,4292,2,2,P|273:128|292:159,1,50
352,224,5035,6,0,B|454:205|505:297|505:297|438:363|357:369|318:304|318:304|285:368|224:352,1,500,2|0,0:0|0:0,0:0:0:0:
74,325,8313,2,2,P|81:292|100:261,1,50
132,184,9072,6,0,P|180:127|253:101,1,150,2|0,0:0|0:0,0:0:0:0:
250,211,10328,2,2,P|243:243|222:263,1,50
162,329,11133,6,0,B|87:327|87:327|21:287,1,150,2|0,0:0|0:0,0:0:0:0:
2,188,12340,2,2,P|8:155|27:124,1,50
88,74,13099,2,0,B|137:24|218:16|218:16|174:67|160:108|160:108|205:98|260:121,1,350,2|0,0:0|0:0,0:0:0:0:
256,192,15158,12,0,17942,0:0:0:0:
66,248,18611,5,8,0:0:0:0:
148,325,19133,2,0,P|191:341|244:333,1,100,4|8,3:1|0:0,0:0:0:0:
351,325,20133,2,0,P|359:348|358:372,2,50,8|0|8,3:0|3:0|0:0,0:0:0:0:
283,238,21141,1,8,3:0:0:0:
198,172,21634,1,8,0:0:0:0:
186,281,22140,1,8,3:0:0:0:
283,238,22646,1,8,0:0:0:0:
289,127,23152,6,0,P|260:92|211:71,1,100,8|8,3:0|0:0,0:0:0:0:
102,54,24160,2,0,P|112:24|126:5,2,50,8|0|8,3:0|3:0|0:0,0:0:0:0:
147,154,25168,1,8,3:0:0:0:
255,159,25668,1,8,0:0:0:0:
197,252,26172,1,8,3:0:0:0:
87,244,26676,1,8,0:0:0:0:
134,344,27185,6,0,P|180:367|237:358,1,100,4|8,3:1|0:0,0:0:0:0:
325,316,28212,2,0,P|333:339|332:363,2,50,8|0|8,3:0|3:0|0:0,0:0:0:0:
234,261,29212,1,8,3:0:0:0:
122,240,29715,1,8,0:0:0:0:
152,339,30219,1,8,3:0:0:0:
234,261,30723,1,8,0:0:0:0:
197,162,31227,6,0,P|165:130|113:114,1,100,8|8,3:0|0:0,0:0:0:0:
12,109,32235,2,0,P|18:78|30:57,2,50,8|0|8,3:0|3:0|0:0,0:0:0:0:
59,204,33243,1,8,3:0:0:0:
167,198,33743,1,8,0:0:0:0:
119,296,34243,1,8,3:0:0:0:
230,282,34751,1,8,0:0:0:0:
317,221,35241,6,0,P|278:187|222:177,1,100,4|8,3:1|0:0,0:0:0:0:
126,192,36249,2,0,P|125:167|136:134,1,50,8|0,3:0|3:0,0:0:0:0:
184,80,36753,1,0,0:0:0:0:
197,271,37257,1,8,3:0:0:0:
298,324,37761,1,8,0:0:0:0:
298,220,38265,1,8,3:0:0:0:
197,271,38769,1,8,0:0:0:0:
94,317,39295,6,0,B|79:266|79:266|104:201,1,110.000003356934,8|8,3:0|0:0,0:0:0:0:
163,135,40303,2,0,B|142:121|142:121|109:118,1,55.0000016784668,8|0,3:0|3:0,0:0:0:0:
23,116,40807,1,8,3:0:0:0:
56,220,41311,1,8,3:0:0:0:
145,283,41816,1,8,0:0:0:0:
159,181,42320,2,4,L|148:116,2,50,4|4|4,3:0|3:0|3:0,3:0:0:0:
214,261,43303,5,0,0:0:0:0:
260,175,43821,1,0,0:0:0:0:
207,99,44325,2,0,P|188:157|142:187,1,100,8|0,3:0|3:0,0:0:0:0:
59,170,45333,1,8,3:0:0:0:
115,87,45837,1,0,3:0:0:0:
158,180,46341,1,8,3:0:0:0:
100,261,46845,1,0,3:0:0:0:
39,340,47349,6,0,B|86:377|146:351,1,100,4|0,0:1|0:0,0:0:0:0:
217,289,48393,2,0,B|142:205,1,100,4|0,0:1|0:0,0:0:0:0:
85,143,49377,1,2,0:0:0:0:
421,64,57343,5,2,0:0:0:0:
321,71,57840,2,0,L|207:77,2,100
374,155,59334,5,2,0:0:0:0:
334,247,59832,1,0,0:0:0:0:
253,169,60338,2,0,B|210:186|155:166|155:166|100:146|49:170,1,200
149,293,61831,5,0,0:3:0:0:
249,280,62330,1,2,0:3:0:0:
348,264,62829,1,0,0:3:0:0:
312,360,63328,5,2,0:0:0:0:
249,280,63827,1,0,0:0:0:0:
181,206,64326,2,0,B|212:165|289:185,1,100
383,239,65324,6,0,L|392:125,1,100
256,137,66324,2,0,L|247:23,2,100
263,236,67824,1,0,0:0:0:0:
337,302,68324,2,0,P|385:310|445:292,2,100
253,357,69824,6,0,L|203:357,2,50
195,275,70824,2,0,L|145:274,1,50
95,271,71324,1,0,0:0:0:0:
263,202,71824,2,0,L|264:132,1,50
265,102,72324,1,0,0:0:0:0:
361,128,72824,1,0,0:0:0:0:
395,222,73324,1,0,0:0:0:0:
466,305,73821,6,0,P|500:258|501:203,1,110.000003356934,2|8,0:0|0:0,0:0:0:0:
426,127,74816,2,0,P|368:121|320:147,1,110.000003356934,2|8,0:0|0:0,0:0:0:0:
322,254,75811,1,0,0:0:0:0:
232,189,76309,2,0,P|174:183|126:209,1,110.000003356934,8|8,0:0|0:0,0:0:0:0:
102,317,77304,1,4,0:0:0:0:
214,292,77801,6,8,L|304:212,1,110.000003356934
378,153,78793,1,0,0:0:0:0:
280,114,79287,2,0,L|205:181,1,100,0|8,0:0|0:0,0:0:0:0:
214,292,80275,2,0,L|300:214,1,100,8|8,0:0|0:0,0:0:0:0:
280,114,81264,1,4,0:1:0:0:
372,180,81776,6,8,P|328:217|281:223,1,100
187,192,82771,1,0,0:0:0:0:
170,88,83268,2,8,P|227:90|265:117,1,100
287,224,84263,2,8,P|255:273|212:291,1,100
187,192,85258,5,4,0:0:0:0:
261,113,85755,2,8,L|375:79,1,100
458,58,86750,1,0,0:0:0:0:
437,160,87248,2,8,L|341:188,1,100
365,310,88243,2,8,L|275:258,1,100
186,211,89238,5,8,0:0:0:0:
254,138,89729,2,0,L|340:217,1,100
301,302,90713,1,0,0:0:0:0:
224,233,91205,2,0,L|161:137,1,100
115,65,92165,2,8,P|76:113|69:158,1,100
73,249,93125,1,4,0:0:0:0:
164,195,93622,5,0,0:0:0:0:
256,243,94109,1,8,0:0:0:0:
169,293,94597,1,0,0:0:0:0:
164,195,95085,1,8,0:0:0:0:
248,141,95565,1,0,0:0:0:0:
256,243,96045,2,8,B|223:279|223:279|169:296,1,100
89,244,97002,5,4,0:0:0:0:
135,155,97497,2,0,L|206:73,2,100,8|0|0,0:0|0:0|0:0,0:0:0:0:
201,229,98985,5,4,0:0:0:0:
245,145,99473,2,0,L|310:69,2,100,8|0|0,0:0|0:0|0:0,0:0:0:0:
315,219,101019,5,4,0:1:0:0:
388,281,101506,2,0,P|409:227|394:169,2,100,8|0|0,0:0|0:0|0:0,0:0:0:0:
290,316,103047,5,4,0:0:0:0:
220,248,103530,2,0,P|264:217|322:221,2,100,8|0|0,0:0|0:0|0:0,0:0:0:0:
192,347,105044,5,4,0:0:0:0:
124,277,105529,2,0,B|123:227|123:227|155:172,1,100,0|8,0:0|0:0,0:0:0:0:
236,151,106529,2,0,B|237:204|237:204|214:257,1,100,0|8,0:0|0:0,0:0:0:0:
124,277,107540,6,8,B|73:264|73:264|29:227,1,100
118,188,108527,2,0,L|153:130,1,50
256,192,109054,12,0,112973,0:0:0:0:
