osu file format v14

[General]
AudioFilename: audio.mp3
AudioLeadIn: 0
PreviewTime: 18863
Countdown: 1
SampleSet: Soft
StackLeniency: 0.7
Mode: 0
LetterboxInBreaks: 0
WidescreenStoryboard: 1

[Editor]
Bookmarks: 18611,57343,73821,97497
DistanceSpacing: 1.1
BeatDivisor: 4
GridSize: 16
TimelineZoom: 1

[Metadata]
Title:A-L-I-E-N
TitleUnicode:え・い・り・あ・ん
Artist:MAXIMUM THE HORMONE
ArtistUnicode:マキシマム ザ ホルモン
Creator:Metronome
Version:COLLAB EASY
Source:
Tags:予襲復讐 yoshū fukushū yoshu fukushu alien sky records ダイスケはん ナヲ マキシマムザ亮君 上ちゃん daisuke-han nao ryo-kun cookiebite realazy ayyri linada sotarks eiri-
BeatmapID:1401939
BeatmapSetID:662260

[Difficulty]
HPDrainRate:2
CircleSize:2.5
OverallDifficulty:2
ApproachRate:3
SliderMultiplier:1
SliderTickRate:1

[Events]
//Background and Video events
0,0,"Konachan.com+-+181663+cola_(gotouryouta)+original+robot+ruins+scenic+stars.jpg",0,0
//Break Periods
//Storyboard Layer 0 (Background)
//Storyboard Layer 1 (Fail)
//Storyboard Layer 2 (Pass)
//Storyboard Layer 3 (Foreground)
//Storyboard Sound Samples

[TimingPoints]
1000,540.540540540541,4,2,22,30,1,0
2243,500,4,2,22,30,1,0
3036,540.540540540541,4,2,22,30,1,0
4292,495.867768595041,4,2,22,30,1,0
5035,506.329113924051,4,2,22,30,1,0
8313,506.329113924051,4,2,22,30,1,0
9072,540.540540540541,4,2,22,30,1,0
10328,500,4,2,22,30,1,0
11133,540.540540540541,4,2,22,30,1,0
12340,506.329113924051,4,2,22,30,1,0
13099,506.329113924051,4,2,22,30,1,0
15158,506.329113924051,4,2,22,30,1,0
18611,504.201680672269,4,2,22,60,1,0
19133,504.201680672269,4,2,22,60,1,0
20133,504.201680672269,4,2,22,60,1,0
21141,504.201680672269,4,2,22,60,1,0
21634,506.329113924051,4,2,22,60,1,0
23152,504.201680672269,4,2,22,60,1,0
25668,504.201680672269,4,2,22,60,1,0
26681,504.201680672269,4,2,22,60,1,0
27185,504.201680672269,4,2,22,60,1,0
27712,500,4,2,22,60,1,0
29221,504.201680672269,4,2,22,60,1,0
29715,504.201680672269,4,2,22,60,1,0
31227,504.201680672269,4,2,22,60,1,0
33243,500,4,2,22,60,1,0
34750,491.803278688525,4,2,22,60,1,0
35241,504.201680672269,4,2,22,60,1,0
35760,504.201680672269,4,2,22,60,1,0
36249,504.201680672269,4,2,22,60,1,0
37257,504.201680672269,4,2,22,60,1,0
38791,504.201680672269,4,2,22,60,1,0
39295,504.201680672269,4,2,22,60,1,0
39295,-90.9090909090909,4,2,1,60,0,0
42320,491.803278688525,4,2,22,60,1,0
43303,504.201680672269,4,2,22,60,1,0
43569,504.201680672269,4,2,22,60,1,0
43821,504.201680672269,4,2,22,60,1,0
45333,504.201680672269,4,2,22,60,1,0
48393,504.201680672269,4,2,22,45,1,0
49377,497.92531120332,4,2,22,60,1,0
57343,497.92531120332,4,2,22,45,1,0
60338,497.92531120332,4,2,22,45,1,0
61333,498.960498960499,4,2,22,45,1,0
65324,500,4,2,22,60,1,0
73324,497.512437810945,4,2,22,70,1,0
73821,-90.9090909090909,4,3,1,70,0,0
78299,494.233937397035,4,2,22,70,1,0
79287,494.233937397035,4,2,22,70,1,0
81264,512.820512820513,4,2,22,70,1,0
81776,497.512437810945,4,2,22,70,1,0
83268,497.512437810945,4,2,22,70,1,0
88243,483.870967741935,4,2,22,70,1,0
88968,540.540540540541,4,2,22,70,1,0
89238,491.803278688525,4,3,22,70,1,0
91205,480,4,2,22,70,1,0
93622,487.80487804878,4,3,22,70,1,0
95085,480,4,3,22,70,1,0
96045,468.75,4,3,22,70,1,0
96513,447.761194029851,4,3,22,70,1,0
97002,495.867768595041,4,2,22,70,1,0
99473,513.918629550321,4,2,22,50,1,0
100500,508.474576271186,4,2,22,50,1,0
101019,507.399577167019,4,2,22,70,1,0
101506,507.399577167019,4,2,22,70,1,0
102794,507.399577167019,4,2,22,70,1,0
103530,500,4,2,22,70,1,0
104794,500,4,2,22,70,1,0
105045,500,4,2,22,70,1,0
105529,500,4,2,22,70,1,0
107045,495.867768595041,4,2,22,70,1,0
108036,491.803278688525,4,2,22,80,1,0
108527,527.240773286468,4,2,22,90,1,0
109054,783.87311707145,4,2,22,90,1,0
109054,-133.333333333333,4,3,1,70,0,0
109249,-166.666666666667,4,3,1,25,0,0
113757,-166.666666666667,4,3,1,50,0,0
114541,-166.666666666667,4,3,1,40,0,0
115324,-166.666666666667,4,3,1,30,0,0
118460,-166.666666666667,4,3,1,20,0,0
121595,-166.666666666667,4,3,1,10,0,0
124731,-166.666666666667,4,3,1,5,0,0

[Colours]
Combo1 : 192,192,192
Combo2 : 192,192,192

[HitObjects]
202,97,1000,6,0,P|134:83|74:135,1,150,2|0,2:0|0:0,0:0:0:0:
42,220,2243,2,0,L|48:286,1,50,2|2,0:0|0:0,0:0:0:0:
127,344,3036,2,0,P|195:358|255:306,1,150,2|0,0:0|0:0,0:0:0:0:
275,213,4292,2,0,L|270:152,1,50,2|2,0:0|0:0,0:0:0:0:
305,60,5035,6,0,P|376:54|461:146,1,200,2|0,0:0|0:0,0:0:0:0:
391,226,6553,1,0,0:0:0:0:
450,318,7060,1,2,0:0:0:0:
179,352,8313,2,0,L|183:292,1,50,2|2,0:0|0:0,0:0:0:0:
135,212,9072,6,0,P|80:223|20:152,1,150,2|0,0:0|0:0,0:0:0:0:
75,78,10328,2,0,L|134:70,1,50
224,18,11133,2,0,P|284:58|370:55,1,150,2|0,0:0|0:0,0:0:0:0:
419,120,12340,2,0,L|414:186,1,50,2|2,0:0|0:0,0:0:0:0:
342,252,13099,6,0,P|292:253|245:270,1,100,2|0,0:0|0:0,0:0:0:0:
170,344,14111,2,0,P|117:342|68:322,1,100,0|0,0:0|0:0,0:0:0:0:
80,207,15158,2,0,P|181:248|83:139,1,400,0|0,0:0|0:0,0:0:0:0:
93,124,18611,1,8,0:0:0:0:
181,52,19133,6,0,P|237:44|283:65,1,100,4|8,3:1|0:0,0:0:0:0:
334,150,20133,2,0,P|390:158|436:137,1,100,8|8,3:0|0:0,0:0:0:0:
499,226,21141,1,8,3:0:0:0:
446,319,21634,1,8,0:0:0:0:
339,292,22140,2,0,P|284:297|234:328,1,100,8|8,3:0|0:0,0:0:0:0:
144,362,23152,6,0,P|156:311|146:264,1,100,8|8,3:0|0:0,0:0:0:0:
47,217,24160,2,0,P|35:166|45:119,1,100,8|8,3:0|0:0,0:0:0:0:
121,41,25168,1,8,3:0:0:0:
223,78,25668,2,0,L|213:180,1,100,8|8,0:0|3:0,0:0:0:0:
146,265,26681,1,0,0:0:0:0:
224,342,27185,5,4,3:1:0:0:
318,274,27712,1,0,0:0:0:0:
408,335,28212,2,0,L|507:325,1,100,8|8,3:0|0:0,0:0:0:0:
457,226,29221,1,0,0:0:0:0:
407,130,29715,2,0,L|417:27,2,100,8|8|8,0:0|3:0|0:0,0:0:0:0:
314,189,31227,6,0,L|214:199,1,100,8|8,3:0|0:0,0:0:0:0:
165,100,32235,2,0,L|66:91,1,100,8|8,3:0|0:0,0:0:0:0:
5,184,33243,2,0,P|-2:283|16:381,1,200,8|0,3:0|0:0,0:0:0:0:
118,329,34750,1,8,0:0:0:0:
212,379,35241,5,4,3:1:0:0:
305,314,35760,1,0,0:0:0:0:
265,214,36249,2,0,L|150:199,1,100,0|0,0:0|3:0,0:0:0:0:
104,110,37257,2,0,L|-11:125,2,100,8|8|8,3:0|3:0|3:0,0:0:0:0:
192,36,38791,1,0,0:0:0:0:
276,122,39295,6,0,P|331:133|380:113,1,110.000003356934,0|0,2:0|2:0,2:0:0:0:
470,192,40303,2,0,P|481:247|461:296,1,110.000003356934,0|0,2:0|2:0,2:0:0:0:
354,352,41311,5,8,3:0:0:0:
233,360,41816,1,8,0:0:0:0:
120,367,42320,2,0,L|111:267,1,100,8|8,3:0|0:0,0:0:0:0:
138,163,43303,5,8,3:0:0:0:
39,107,43821,1,0,0:0:0:0:
106,20,44325,2,0,L|205:23,1,100,8|0,3:0|3:0,0:0:0:0:
315,27,45333,5,8,3:0:0:0:
401,95,45837,1,0,3:0:0:0:
508,70,46341,2,0,P|487:166|478:277,1,200,8|4,3:0|0:1,0:0:0:0:
256,328,48393,1,4,0:1:0:0:
66,220,49377,6,0,P|32:144|68:38,2,200,2|0|0,0:0|0:0|0:0,0:0:0:0:
256,328,52364,1,0,0:0:0:0:
451,226,53360,2,0,P|466:176|460:129,1,100
387,46,54356,2,0,P|337:40|290:55,1,100,0|0,0:0|0:0,0:0:0:0:
218,139,55352,2,0,P|143:151|46:81,1,200
14,187,56845,1,0,0:0:0:0:
97,259,57343,6,0,L|85:360,2,100,2|0|2,0:0|0:0|0:0,0:0:0:0:
180,187,58836,1,0,0:0:0:0:
252,269,59334,2,0,P|301:284|350:262,1,100,2|0,0:0|0:0,0:0:0:0:
394,166,60338,2,0,P|443:151|492:173,1,100,0|0,0:0|0:0,0:0:0:0:
503,276,61333,6,0,L|496:375,2,100,2|0|0,0:0|0:0|0:0,0:0:0:0:
486,168,62829,1,0,0:0:0:0:
400,98,63328,2,0,P|347:90|299:118,1,100,0|0,0:0|0:0,0:0:0:0:
270,214,64326,2,0,P|217:222|169:194,1,100,0|0,0:0|0:0,0:0:0:0:
109,115,65324,6,0,P|130:198|95:305,1,200,2|2,0:0|0:0,0:0:0:0:
309,357,67324,2,0,P|275:264|295:167,1,200,2|2,0:0|0:0,0:0:0:0:
486,277,69324,2,0,L|382:289,1,100,2|8,0:0|0:0,0:0:0:0:
297,224,70324,2,0,L|308:124,1,100,2|8,0:0|0:0,0:0:0:0:
229,47,71324,2,0,P|177:113|63:92,1,200,0|0,3:0|3:0,0:0:0:0:
9,190,72824,1,8,3:2:0:0:
101,251,73324,6,0,L|91:362,2,100,4|2|8,3:1|0:0|0:0,0:0:0:0:
178,157,74816,1,0,0:0:0:0:
250,254,75314,2,0,P|300:266|354:235,1,110.000003356934,0|0,0:0|0:0,0:0:0:0:
406,132,76309,2,0,P|458:120|505:145,1,110.000003356934,8|8,0:0|0:0,0:0:0:0:
465,259,77304,6,0,L|474:371,2,110.000003356934,4|8|8,0:0|0:0|0:0,0:0:0:0:
409,164,78793,1,0,0:0:0:0:
329,239,79287,2,0,L|217:230,1,100,0|0,0:0|0:0,0:0:0:0:
131,281,80275,2,0,L|139:380,1,100,8|8,0:0|0:0,0:0:0:0:
40,340,81264,6,0,L|31:240,1,100,4|8,0:1|0:0,0:0:0:0:
104,157,82273,2,0,L|203:165,1,100,8|0,0:0|0:0,0:0:0:0:
296,105,83268,2,0,P|270:192|291:311,1,200,0|8,0:0|0:0,0:0:0:0:
376,360,84760,1,8,0:0:0:0:
471,304,85258,6,0,L|461:202,1,100,4|8,0:0|0:0,0:0:0:0:
367,147,86253,2,0,L|377:45,1,100,8|0,0:0|0:0,0:0:0:0:
268,28,87248,2,0,P|206:82|92:75,1,200,0|8,0:0|0:0,0:0:0:0:
25,161,88726,1,8,0:0:0:0:
84,289,89238,6,0,P|168:369|132:218,1,400,8|8,0:0|0:0,0:0:0:0:
256,33,92165,1,8,0:0:0:0:
438,155,93125,5,4,0:0:0:0:
366,241,93622,2,0,B|202:201|234:348|84:309,1,300,0|8,0:0|0:0,0:0:0:0:
49,88,96045,1,8,0:0:0:0:
256,43,97002,5,4,0:1:0:0:
356,86,97497,2,0,P|294:140|180:133,1,200,8|0,0:0|0:0,0:0:0:0:
95,64,98985,5,4,0:1:0:0:
76,166,99473,2,0,P|121:234|233:256,1,200,0|0,0:0|0:0,0:0:0:0:
317,184,101019,5,4,0:1:0:0:
346,285,101506,2,0,P|423:258|474:156,1,200,0|0,0:0|0:0,0:0:0:0:
422,56,103047,5,4,0:1:0:0:
359,141,103530,2,0,P|262:153|201:230,1,200,0|0,0:0|0:0,0:0:0:0:
255,330,105045,5,4,0:1:0:0:
361,330,105529,2,0,P|405:303|421:246,1,100,0|0,0:0|0:0,0:0:0:0:
467,159,106529,1,0,0:0:0:0:
422,56,107029,1,8,0:0:0:0:
354,147,107540,2,0,P|315:94|311:51,1,100,8|8,0:0|0:0,0:0:0:0:
207,20,108527,1,8,0:0:0:0:
256,192,109054,12,0,112973,0:0:0:0:
