osu file format v14

[General]
AudioFilename: audio.mp3
AudioLeadIn: 0
PreviewTime: 177257
Countdown: 1
SampleSet: None
StackLeniency: 0.7
Mode: 2
LetterboxInBreaks: 0
WidescreenStoryboard: 0

[Editor]
Bookmarks: 63678,146362
DistanceSpacing: 1
BeatDivisor: 4
GridSize: 8
TimelineZoom: 4.499998

[Metadata]
Title:A-L-I-E-N
TitleUnicode:え・い・り・あ・ん
Artist:MAXIMUM THE HORMONE
ArtistUnicode:マキシマム ザ ホルモン
Creator:DamnEasy
Version:Delusional
Source:
Tags:
BeatmapID:1510887
BeatmapSetID:715058

[Difficulty]
HPDrainRate:3.6
CircleSize:4.4
OverallDifficulty:3.8
ApproachRate:9.8
SliderMultiplier:2.2
SliderTickRate:2

[Events]
//Background and Video events
0,0,"thumb-1920-314169.jpg",0,0
//Break Periods
2,35103,36168
2,119770,122085
//Storyboard Layer 0 (Background)
//Storyboard Layer 1 (Fail)
//Storyboard Layer 2 (Pass)
//Storyboard Layer 3 (Foreground)
//Storyboard Sound Samples

[TimingPoints]
838,217.391304347826,4,2,1,35,1,0
3446,223.880597014925,4,2,1,5,1,0
11505,241.935483870968,4,2,1,35,1,0
17766,215.05376344086,4,3,1,30,1,0
17766,-166.666666666667,4,3,1,30,0,0
21206,213.903743315508,4,3,1,30,1,0
28071,212.765957446809,4,3,1,70,1,0
31475,214.285714285714,4,3,1,70,1,0
34933,214.285714285714,4,2,1,50,1,0
36647,213.713268032057,4,2,1,60,1,0
39211,-83.3333333333333,4,2,1,60,0,0
40066,213.143872113677,4,3,1,85,1,0
40066,-200,4,3,1,85,0,0
40918,210.526315789474,4,3,1,70,1,0
41339,-200,4,3,1,70,0,0
41771,212.765957446809,4,3,1,70,1,0
43473,217.391304347826,4,3,1,70,1,0
44342,214.285714285714,4,3,1,70,1,0
47770,211.267605633803,4,3,1,70,1,0
48623,229.007633587786,4,3,1,70,1,0
49081,217.391304347826,4,3,1,70,1,0
49515,217.391304347826,4,3,1,70,1,0
50819,215.827338129496,4,3,1,70,1,0
51250,215.05376344086,4,3,1,70,1,0
51346,215.05376344086,4,3,1,70,1,0
52107,219.78021978022,4,3,1,70,1,0
54304,211.267605633803,4,3,1,70,1,0
54726,211.267605633803,4,3,1,70,1,0
54828,211.267605633803,4,3,1,70,1,0
55579,214.285714285714,4,3,1,70,1,0
59022,211.267605633803,4,3,1,70,1,0
59866,214.285714285714,4,3,1,70,1,0
62466,606.060606060606,4,3,1,70,1,0
62466,-66.6666666666667,4,3,1,70,0,0
64890,600,4,3,1,70,1,0
66090,545.454545454546,4,3,1,70,1,0
67249,620.796689084325,4,3,1,70,1,0
68490,600,4,3,1,70,1,0
69690,606.060606060606,4,3,1,70,1,0
69690,-142.857142857143,4,3,1,70,0,0
70902,545.454545454546,4,3,1,70,1,0
72060,615.384615384615,4,3,1,70,1,0
72060,-76.9230769230769,4,3,1,70,0,0
73290,600,4,3,1,70,1,0
74490,606.060606060606,4,3,1,70,1,0
75702,521.739130434783,4,3,1,70,1,0
76223,600,4,3,1,70,1,0
76851,600,4,3,1,70,1,0
78051,618.556701030928,4,3,1,70,1,0
79288,574.162679425837,4,3,1,70,1,0
80436,618.556701030928,4,3,1,70,1,0
82624,217.391304347826,4,3,1,70,1,0
84363,214.285714285714,4,3,1,70,1,0
92077,212.765957446809,4,3,1,70,1,0
94630,214.285714285714,4,3,1,70,1,0
94630,-100,4,3,1,70,0,1
101487,240,3,3,1,70,1,0
101847,226.415094339623,4,3,1,70,1,0
102526,200,4,3,1,70,1,0
102836,218.181818181818,3,3,1,70,1,0
103490,226.415094339623,3,3,1,70,1,0
103942,222.222222222222,4,3,1,70,1,0
104275,200,4,3,1,70,1,0
104564,230.769230769231,3,3,1,70,1,0
105025,218.181818181818,4,3,1,70,1,0
105352,200,3,3,1,70,1,0
105670,218.181818181818,4,3,1,70,1,0
105997,200,4,3,1,70,1,0
106275,256.410256410256,3,3,1,70,1,0
106531,217.391304347826,4,3,1,70,1,0
107183,226.415094339623,4,3,1,70,1,0
107800,220.588235294118,3,3,1,70,1,0
108572,206.896551724138,4,3,1,70,1,0
108872,226.415094339623,3,3,1,70,1,0
109654,206.896551724138,3,3,1,70,1,0
109977,217.391304347826,4,3,1,70,1,0
110303,203.389830508475,4,3,1,70,1,0
110589,244.897959183673,3,3,1,70,1,0
110833,222.222222222222,4,3,1,70,1,0
111166,210.526315789474,3,3,1,70,1,0
111497,222.222222222222,4,3,1,70,1,0
111830,217.391304347826,4,3,1,70,1,0
112133,230.769230769231,3,3,1,70,1,0
112580,240,4,3,1,70,1,0
112820,218.978102189781,4,3,1,70,1,0
113476,218.978102189781,4,3,1,70,1,0
118499,214.285714285714,4,3,1,70,1,0
118713,214.285714285714,4,3,1,70,1,0
119570,222.222222222222,4,3,1,70,1,0
121014,206.896551724138,4,2,1,30,1,0
121324,235.294117647059,4,2,1,30,1,0
121676,222.222222222222,4,2,1,30,1,0
122231,222.222222222222,4,2,1,30,1,0
123140,226.415094339623,4,3,1,40,1,0
129830,210.526315789474,4,3,1,70,1,0
130385,231.660231660232,4,3,1,70,1,0
133776,210.526315789474,4,3,1,70,1,0
134100,231.660231660232,4,3,1,70,1,0
137561,218.181818181818,4,3,0,70,1,0
137798,241.935483870968,4,3,1,70,1,0
141689,241.935483870968,4,3,1,70,1,0
144216,241.935483870968,4,3,1,70,1,0
145051,241.935483870968,4,3,1,70,1,0
145494,214.285714285714,4,3,1,70,1,0
146362,208.333333333333,4,3,1,70,1,0
146362,-100,4,3,1,70,0,1
148028,214.285714285714,4,3,1,70,1,1
153171,230.769230769231,4,2,1,35,1,0
153171,-200,4,2,1,35,0,0
156797,218.181818181818,4,3,1,70,1,1
157233,223.048327137546,4,3,1,70,1,1
157679,223.048327137546,4,3,1,70,1,1
160340,223.048327137546,4,3,1,70,1,1
163900,223.048327137546,4,3,1,70,1,1
166236,223.048327137546,4,3,1,70,1,1
166570,223.048327137546,4,3,1,70,1,1
167677,223.048327137546,4,3,1,70,1,1
168346,221.40221402214,4,3,1,70,1,1
170117,-100,4,3,1,70,0,0
170353,222.222222222222,4,2,1,35,1,0
171908,218.181818181818,4,2,1,60,1,0
173686,222.222222222222,4,3,1,70,1,0
175471,211.267605633803,4,3,1,85,1,0
176316,235.294117647059,4,3,1,70,1,0
177257,540.540540540541,4,2,1,30,1,0
178500,500,4,2,1,30,1,0
179293,540.540540540541,4,2,1,30,1,0
180549,495.867768595041,4,2,1,30,1,0
181292,506.329113924051,4,2,1,30,1,0
184570,506.329113924051,4,2,1,30,1,0
185329,540.540540540541,4,2,1,30,1,0
186585,500,4,2,1,30,1,0
187390,540.540540540541,4,2,1,30,1,0
188597,506.329113924051,4,2,1,30,1,0
189356,506.329113924051,4,2,1,30,1,0
191415,506.329113924051,4,2,1,30,1,0
194868,504.201680672269,4,2,1,60,1,0
195390,504.201680672269,4,2,1,60,1,0
196390,504.201680672269,4,2,1,60,1,0
197398,504.201680672269,4,2,1,60,1,0
197891,506.329113924051,4,2,1,60,1,0
199409,504.201680672269,4,2,1,60,1,0
201925,504.201680672269,4,2,1,60,1,0
202938,504.201680672269,4,2,1,60,1,0
203442,504.201680672269,4,2,1,60,1,0
203969,500,4,2,1,60,1,0
205478,504.201680672269,4,2,1,60,1,0
205972,504.201680672269,4,2,1,60,1,0
207484,504.201680672269,4,2,1,60,1,0
209500,500,4,2,1,60,1,0
211007,491.803278688525,4,2,1,60,1,0
211498,504.201680672269,4,2,1,60,1,0
212017,504.201680672269,4,2,1,60,1,0
212506,504.201680672269,4,2,1,60,1,0
213514,504.201680672269,4,2,1,60,1,0
215048,504.201680672269,4,2,1,60,1,0
215552,504.201680672269,4,2,1,60,1,0
218577,491.803278688525,4,2,1,60,1,0
219560,504.201680672269,4,2,1,60,1,0
219826,504.201680672269,4,2,1,60,1,0
220078,504.201680672269,4,2,1,60,1,0
221590,504.201680672269,4,2,1,60,1,0
224650,504.201680672269,4,2,1,60,1,0
225634,497.92531120332,4,2,1,60,1,0
233600,497.92531120332,4,2,1,45,1,0
236595,497.92531120332,4,2,1,45,1,0
237590,498.960498960499,4,2,1,45,1,0
241581,500,4,2,1,60,1,0
249581,497.512437810945,4,3,1,70,1,0
254556,494.233937397035,4,3,1,70,1,0
255544,494.233937397035,4,3,1,70,1,0
257521,512.820512820513,4,3,1,70,1,0
258033,497.512437810945,4,3,1,70,1,0
259525,497.512437810945,4,3,1,70,1,0
264500,483.870967741935,4,3,1,70,1,0
265225,540.540540540541,4,3,1,70,1,0
265495,491.803278688525,4,3,1,70,1,0
267462,480,4,3,1,70,1,0
269879,487.80487804878,4,3,1,70,1,0
271342,480,4,3,1,70,1,0
272302,468.75,4,3,1,70,1,0
272770,447.761194029851,4,3,1,70,1,0
273259,495.867768595041,4,3,1,70,1,0
275730,513.918629550321,4,3,1,70,1,0
276757,508.474576271186,4,3,1,70,1,0
277276,507.399577167019,4,3,1,70,1,0
277763,507.399577167019,4,3,1,70,1,0
279051,507.399577167019,4,3,1,70,1,0
279787,500,4,3,1,70,1,0
281052,500,4,3,1,70,1,0
281302,500,4,3,1,70,1,0
281786,500,4,3,1,70,1,0
283302,495.867768595041,4,3,1,70,1,0
284293,491.803278688525,4,3,1,70,1,0
284784,527.240773286468,4,3,1,70,1,0
285311,783.87311707145,4,3,1,70,1,0

[HitObjects]
256,192,838,12,0,14408,0:0:0:0:
320,320,17766,6,0,L|376:320,2,43.9999986572266
216,296,17981,2,0,L|160:296,2,43.9999986572266
368,264,18196,2,0,L|424:264,2,43.9999986572266
264,240,18411,2,0,L|208:240,2,43.9999986572266
416,200,18626,6,0,L|472:200,2,43.9999986572266
312,176,18841,2,0,L|256:176,2,43.9999986572266
464,144,19056,2,0,L|520:144,2,43.9999986572266
360,120,19271,2,0,L|304:120,2,43.9999986572266
512,76,19486,6,0,L|512:124,2,43.9999986572266
360,76,19701,2,0,L|360:124,2,43.9999986572266
208,76,19916,2,0,L|208:124,2,43.9999986572266
56,76,20131,2,0,L|56:124,2,43.9999986572266
360,76,20346,6,0,L|360:124,2,43.9999986572266
208,76,20561,2,0,L|208:124,2,43.9999986572266
56,76,20776,2,0,L|56:124,2,43.9999986572266
360,76,20991,2,0,L|360:124,2,43.9999986572266
208,76,21206,2,0,L|208:164,2,73.3333333333333
336,72,21419,6,0,L|336:232,1,146.666666666667
208,232,21633,2,0,L|208:392,1,146.666666666667
336,72,21847,2,0,L|336:232,1,146.666666666667
464,232,22061,2,0,L|464:392,1,146.666666666667
208,232,22275,2,0,B|136:232|136:232|136:152,1,146.666666666667
336,72,22489,6,0,L|336:160,2,73.3333333333333
208,72,22703,2,0,L|208:160,2,73.3333333333333
400,72,22917,2,0,L|400:160,2,73.3333333333333
272,72,23131,6,0,L|272:232,1,146.666666666667
144,224,23345,2,0,L|144:384,1,146.666666666667
400,371,23558,2,0,L|399:211,1,146.666666666667
272,218,23772,2,0,L|272:57,1,146.666666666667
144,224,23986,2,0,B|72:224|72:224|72:144,1,146.666666666667
208,224,24200,6,0,L|208:312,2,73.3333333333333
80,224,24414,2,0,L|80:312,2,73.3333333333333
272,224,24628,2,0,L|272:304,2,73.3333333333333
144,224,24842,6,0,L|144:376,1,146.666666666667
272,224,25056,2,0,L|272:64,1,146.666666666667
80,224,25270,2,0,L|80:376,1,146.666666666667
208,224,25484,2,0,L|208:64,1,146.666666666667
336,224,25697,2,0,B|408:224|408:224|408:144,1,146.666666666667
144,224,25911,6,0,L|144:312,2,73.3333333333333
272,224,26125,2,0,L|272:312,2,73.3333333333333
144,224,26339,2,0,L|144:120,2,73.3333333333333
16,224,26553,6,0,L|16:376,1,146.666666666667
144,370,26767,2,0,L|144:218,1,146.666666666667
16,224,26981,2,0,L|16:376,1,146.666666666667
144,370,27195,2,0,L|144:218,1,146.666666666667
272,368,27409,2,0,P|312:304|464:256,1,220
168,320,27837,1,0,0:0:0:0:
344,320,28071,6,0,P|400:264|320:224,1,165
224,216,28283,2,0,L|104:192,1,110
288,168,28496,2,0,L|400:144,1,110
208,120,28709,2,0,L|336:184,2,110
352,104,29028,1,0,0:0:0:0:
488,88,29134,2,0,L|472:224,1,110
224,240,29347,2,0,P|104:184|240:32,1,385
352,32,29773,6,0,P|416:120|440:264,1,220
336,248,30092,1,0,0:0:0:0:
504,240,30198,1,0,0:0:0:0:
408,288,30305,1,0,0:0:0:0:
224,296,30411,2,0,L|336:296,1,110
512,240,30624,2,0,L|392:280,1,110
224,280,30836,2,0,L|128:184,1,110
312,224,31049,2,0,P|440:128|296:24,1,385
184,64,31475,6,0,P|128:112|120:208,1,165
248,192,31689,2,0,L|360:192,1,110
184,168,31903,2,0,L|264:88,1,110
496,168,32117,2,0,L|418:90,1,110
256,80,32332,1,0,0:0:0:0:
232,160,32439,1,0,0:0:0:0:
424,192,32546,2,0,P|472:240|480:304,1,110
320,288,32760,2,0,P|200:240|112:8,1,385
312,144,33189,6,0,L|200:168,2,110
160,96,33510,1,0,0:0:0:0:
32,96,33617,2,0,L|96:224,1,110
248,208,33832,2,0,L|344:112,1,110
160,136,34046,2,0,L|48:136,1,110
296,168,34260,2,0,L|408:192,2,110
32,160,34689,1,0,0:0:0:0:
344,88,34903,1,0,0:0:0:0:
344,312,36647,5,0,0:0:0:0:
336,264,36860,1,0,0:0:0:0:
328,216,37074,1,0,0:0:0:0:
320,168,37288,1,0,0:0:0:0:
200,312,37501,1,0,0:0:0:0:
224,264,37714,1,0,0:0:0:0:
216,216,37928,1,0,0:0:0:0:
248,168,38142,1,0,0:0:0:0:
400,168,38356,6,0,L|280:168,3,110
400,168,38784,2,0,L|512:168,3,110
400,168,39211,2,0,L|264:168,4,131.99999597168
128,160,39852,1,0,0:0:0:0:
400,240,40066,6,0,L|160:240,1,220
296,240,40598,1,0,0:0:0:0:
112,240,40705,1,0,0:0:0:0:
224,240,40812,1,0,0:0:0:0:
40,240,40918,1,0,0:0:0:0:
224,240,41023,1,0,0:0:0:0:
40,240,41128,1,0,0:0:0:0:
296,240,41233,1,0,0:0:0:0:
40,240,41339,2,0,L|40:64,1,165
256,80,41771,6,0,L|368:112,1,110
192,136,41983,2,0,L|104:224,1,110
288,224,42196,2,0,L|176:168,2,110
104,136,42515,1,0,0:0:0:0:
288,136,42622,2,0,L|400:136,1,110
168,136,42834,1,0,0:0:0:0:
192,216,42941,1,0,0:0:0:0:
376,288,43047,2,0,P|464:208|304:48,1,385
176,64,43473,6,0,L|48:128,1,110
256,120,43690,2,0,L|384:184,1,110
168,200,43907,1,0,0:0:0:0:
280,232,44016,1,0,0:0:0:0:
88,264,44125,1,0,0:0:0:0:
200,264,44233,1,0,0:0:0:0:
376,264,44342,2,0,L|264:208,2,110
200,264,44663,2,0,P|160:208|152:168,1,110
480,176,44984,1,0,0:0:0:0:
200,144,45199,6,0,L|312:184,1,110
120,192,45413,2,0,L|56:96,1,110
168,88,45627,1,0,0:0:0:0:
336,104,45734,2,0,L|392:216,1,110
264,208,45949,1,0,0:0:0:0:
48,216,46056,2,0,P|16:160|144:32,1,275
312,48,46377,2,0,P|288:112|168:216,1,220
80,232,46699,1,0,0:0:0:0:
360,232,46913,6,0,L|472:200,1,110
288,224,47127,2,0,L|360:120,1,110
512,128,47341,1,0,0:0:0:0:
416,104,47449,1,0,0:0:0:0:
216,104,47556,1,0,0:0:0:0:
176,192,47663,1,0,0:0:0:0:
368,224,47770,2,0,L|256:280,2,110
192,312,48086,1,0,0:0:0:0:
400,312,48192,1,0,0:0:0:0:
448,287,48244,1,0,0:0:0:0:
481,244,48297,1,0,0:0:0:0:
493,190,48350,1,0,0:0:0:0:
481,137,48403,1,0,0:0:0:0:
448,94,48456,1,0,0:0:0:0:
399,70,48508,1,0,0:0:0:0:
344,68,48561,1,0,0:0:0:0:
192,72,48623,6,0,L|56:72,1,110
248,72,48966,1,0,0:0:0:0:
136,136,49081,2,0,L|248:136,1,110
24,200,49298,2,0,L|136:200,1,110
368,200,49515,6,0,L|488:200,1,110
296,200,49841,1,0,0:0:0:0:
408,144,49949,2,0,L|272:144,1,110
128,144,50167,1,0,0:0:0:0:
296,80,50275,1,0,0:0:0:0:
480,80,50384,6,0,L|512:192,1,110
336,192,50710,2,0,L|448:192,1,110
272,192,50926,2,0,L|162:192,1,110
32,192,51250,5,0,0:0:0:0:
32,192,51346,1,0,0:0:0:0:
32,192,51453,1,0,0:0:0:0:
32,192,51561,1,0,0:0:0:0:
32,192,51668,1,0,0:0:0:0:
32,192,51776,1,0,0:0:0:0:
32,192,51883,1,0,0:0:0:0:
32,192,51991,1,0,0:0:0:0:
120,192,52098,6,0,L|240:192,1,110
480,192,52436,1,0,0:0:0:0:
304,192,52546,2,0,L|416:192,1,110
192,256,52766,2,0,L|302:256,1,110
480,256,52986,6,0,L|352:256,1,110
192,256,53315,1,0,0:0:0:0:
408,192,53425,2,0,L|280:192,1,110
512,192,53645,2,0,L|392:192,1,110
128,64,53865,6,0,L|16:64,2,110
288,64,54194,1,0,0:0:0:0:
464,64,54304,2,0,L|352:64,1,110
178,64,54515,2,0,L|290:64,1,110
512,64,54726,5,0,0:0:0:0:
512,64,54828,1,0,0:0:0:0:
512,64,54933,1,0,0:0:0:0:
512,64,55039,1,0,0:0:0:0:
512,64,55144,1,0,0:0:0:0:
512,64,55250,1,0,0:0:0:0:
512,64,55356,1,0,0:0:0:0:
512,64,55461,1,0,0:0:0:0:
328,64,55579,6,0,P|256:120|352:184,1,220
440,192,55900,1,0,0:0:0:0:
256,216,56007,2,0,L|144:192,3,110
328,88,56436,6,0,P|400:144|304:208,1,220
216,216,56757,1,0,0:0:0:0:
400,240,56864,2,0,L|512:216,3,110
288,248,57293,6,0,L|64:192,1,220
184,192,57614,1,0,0:0:0:0:
368,192,57721,2,0,L|488:192,1,110
256,136,57936,2,0,L|376:136,1,110
184,136,58150,6,0,L|184:80,3,55
128,136,58364,2,0,L|128:80,3,55
184,136,58578,2,0,L|184:80,3,55
128,136,58793,2,0,L|128:80,3,55
288,136,59022,6,0,L|416:136,2,110
128,136,59338,1,0,0:0:0:0:
344,192,59444,2,0,L|464:192,1,110
240,192,59655,2,0,L|128:192,1,110
400,256,59867,6,0,L|528:256,2,110
240,256,60183,1,0,0:0:0:0:
454,192,60294,2,0,L|334:192,2,110
216,192,60616,1,0,0:0:0:0:
104,192,60723,6,0,P|48:208|104:312,1,220
216,312,61044,1,0,0:0:0:0:
400,320,61151,2,0,L|288:296,1,110
112,256,61366,2,0,L|223:280,1,110
480,336,61580,6,0,L|480:280,3,55
424,336,61794,2,0,L|424:280,3,55
480,336,62008,2,0,L|480:280,3,55
424,336,62222,2,0,L|424:280,3,55
224,328,62466,6,0,B|112:320|72:224|120:152|208:136|208:136|240:144|240:144|192:200|192:200|264:184|264:184|216:240|216:240|264:232|296:224,1,639.375024390222
392,200,63678,2,0,B|480:184|472:112|448:80|376:64|376:64|304:48|144:72|144:72|216:72|216:72|104:96,1,639.375024390222
8,128,64890,2,0,B|0:352|0:352|16:368|72:336|96:248|96:248|112:264|136:280,1,426.25
224,288,66090,2,0,L|304:288,8,55
352,288,67249,6,0,P|488:192|344:56,1,412.5
160,288,68490,2,0,P|24:192|168:56,1,412.5
352,352,69690,2,0,L|488:80,1,298.374990894318
384,88,70902,2,0,L|320:88,1,55
448,88,71174,2,0,L|504:88,1,55
352,88,71447,2,0,L|288:88,1,55
424,88,71720,2,0,L|480:88,1,55
216,32,72060,6,0,B|-32:40|48:120|56:192|216:120|320:280|40:280,1,554.124974634172
160,280,73290,2,0,P|288:248|184:48,1,426.25
288,56,74490,2,0,P|448:104|472:344,1,426.25
376,344,75702,2,0,L|312:344,1,55
304,344,75962,1,0,0:0:0:0:
288,344,76093,1,0,0:0:0:0:
400,344,76223,1,0,0:0:0:0:
488,344,76373,1,0,0:0:0:0:
376,344,76523,1,0,0:0:0:0:
464,344,76673,1,0,0:0:0:0:
216,312,76851,6,0,B|360:240|360:240|256:216|256:216|312:192|336:160|336:136|320:120|288:112,1,426.25
192,112,78051,2,0,P|48:184|80:328,1,330
216,336,79133,1,0,0:0:0:0:
360,328,79288,2,0,B|448:336|472:296|472:256|376:224|376:224|472:216|496:176|456:112|384:120,1,440
296,184,80745,1,0,0:0:0:0:
208,248,81054,1,0,0:0:0:0:
120,312,81363,1,0,0:0:0:0:
384,304,82624,6,0,L|384:224,2,73.3333333333333
256,304,82841,2,0,L|256:224,2,73.3333333333333
512,304,83058,2,0,L|512:224,2,73.3333333333333
384,304,83275,2,0,L|384:224,2,73.3333333333333
256,304,83493,6,0,L|256:224,2,73.3333333333333
128,304,83710,2,0,L|128:224,2,73.3333333333333
384,304,83928,2,0,L|384:224,2,73.3333333333333
256,304,84145,2,0,L|256:224,2,73.3333333333333
512,304,84363,6,0,L|512:224,2,73.3333333333333
320,304,84577,2,0,L|264:248,2,73.3333333333333
448,304,84791,2,0,L|504:248,2,73.3333333333333
256,304,85005,2,0,L|200:248,2,73.3333333333333
384,304,85219,2,0,L|440:248,2,73.3333333333333
192,304,85434,2,0,L|136:248,2,73.3333333333333
320,304,85648,6,0,L|320:208,2,73.3333333333333
192,304,85863,2,0,L|192:208,2,73.3333333333333
448,304,86077,2,0,L|448:224,2,73.3333333333333
256,304,86291,6,0,L|184:232,2,73.3333333333333
384,304,86505,2,0,L|456:232,2,73.3333333333333
192,304,86720,2,0,L|120:232,2,73.3333333333333
384,304,86934,2,0,L|456:232,2,73.3333333333333
256,304,87148,2,0,L|184:232,2,73.3333333333333
448,304,87363,6,0,L|448:208,2,73.3333333333333
320,304,87577,2,0,L|320:224,2,73.3333333333333
192,304,87791,2,0,L|192:208,2,73.3333333333333
320,304,88005,6,0,L|384:240,2,73.3333333333333
192,304,88220,2,0,L|128:240,2,73.3333333333333
384,304,88434,2,0,L|448:240,2,73.3333333333333
256,304,88649,2,0,L|192:240,2,73.3333333333333
448,304,88863,2,0,L|504:248,2,73.3333333333333
320,304,89077,6,0,L|320:224,2,73.3333333333333
192,304,89291,2,0,L|192:224,2,73.3333333333333
64,304,89505,2,0,L|64:224,2,73.3333333333333
256,304,89720,6,0,L|312:248,2,73.3333333333333
128,304,89934,2,0,L|72:248,2,73.3333333333333
320,304,90148,2,0,L|376:248,2,73.3333333333333
192,304,90362,2,0,L|136:248,2,73.3333333333333
384,304,90577,2,0,L|440:248,2,73.3333333333333
256,304,90791,6,0,L|256:224,2,73.3333333333333
384,304,91005,2,0,L|384:224,2,73.3333333333333
128,304,91220,2,0,L|128:224,2,73.3333333333333
320,304,91434,6,0,L|384:240,2,73.3333333333333
192,304,91648,2,0,L|128:240,2,73.3333333333333
384,304,91862,2,0,L|448:240,2,73.3333333333333
256,304,92076,2,0,L|192:240,2,73.3333333333333
448,304,92289,2,0,L|512:240,2,73.3333333333333
320,304,92502,6,0,L|320:224,2,73.3333333333333
448,304,92715,2,0,L|448:224,2,73.3333333333333
192,304,92928,2,0,L|192:224,2,73.3333333333333
320,304,93140,6,0,L|384:240,2,73.3333333333333
128,304,93353,2,0,L|64:240,2,73.3333333333333
256,304,93566,2,0,L|320:240,2,73.3333333333333
128,304,93779,2,0,L|64:240,2,73.3333333333333
256,192,93991,12,0,94417,0:0:0:0:
352,336,94630,6,0,P|432:280|464:168,1,165
312,216,94844,2,0,L|256:216,1,55
400,216,94951,2,0,L|456:216,1,55
257,152,95058,2,0,L|137:152,1,110
345,152,95272,6,0,L|409:152,1,55
257,152,95380,2,0,L|201:152,1,55
377,96,95487,2,0,L|433:96,1,55
289,96,95594,2,0,L|176:96,1,110
288,96,95808,5,0,0:0:0:0:
456,96,95915,2,0,L|512:272,1,165
360,96,96130,2,0,L|248:304,1,220
352,288,96451,2,0,L|408:288,1,55
264,288,96558,2,0,L|200:288,1,55
384,232,96665,2,0,L|448:232,1,55
296,232,96772,6,0,L|176:232,1,110
360,176,96987,2,0,L|416:176,1,55
272,176,97094,2,0,L|208:176,1,55
392,120,97201,2,0,L|464:120,1,55
248,120,97308,6,0,L|192:120,1,55
248,120,97415,2,0,L|304:120,1,55
168,120,97522,2,0,L|112:120,1,55
248,120,97630,2,0,P|336:136|400:280,1,220
320,264,97951,1,0,0:0:0:0:
152,272,98058,5,0,0:0:0:0:
101,257,98111,1,0,0:0:0:0:
88,206,98165,1,0,0:0:0:0:
126,169,98218,1,0,0:0:0:0:
256,168,98272,2,0,L|320:168,1,55
168,168,98380,2,0,L|112:168,1,55
296,128,98487,2,0,L|360:128,1,55
208,128,98595,6,0,L|152:128,1,55
360,168,98701,2,0,L|416:168,1,55
208,168,98808,2,0,L|144:168,1,55
360,232,98915,1,0,0:0:0:0:
397,269,98968,1,0,0:0:0:0:
391,322,99022,1,0,0:0:0:0:
347,352,99075,1,0,0:0:0:0:
216,352,99130,6,0,L|264:304,1,55
424,296,99237,2,0,L|456:232,1,55
392,240,99344,1,0,0:0:0:0:
224,224,99451,2,0,P|152:176|232:104,1,220
392,104,99772,6,0,L|456:104,1,55
280,104,99880,2,0,L|248:40,1,55
368,160,99987,2,0,L|432:160,1,55
256,160,100095,2,0,L|224:96,1,55
344,216,100201,2,0,L|408:216,1,55
232,216,100309,2,0,L|200:152,1,55
320,272,100415,2,0,L|384:272,1,55
208,272,100523,2,0,L|176:208,1,55
376,344,100629,6,0,P|448:304|488:176,2,220
104,344,101272,1,0,0:0:0:0:
472,344,101487,1,0,0:0:0:0:
224,344,101727,5,0,0:0:0:0:
336,344,101847,2,0,P|384:328|320:216,1,220
160,216,102186,2,0,P|80:176|40:56,1,220
256,64,102526,2,0,L|96:224,1,220
328,224,102836,1,0,0:0:0:0:
160,224,103163,6,0,B|272:224|272:224|160:224,1,220
344,224,103490,2,0,L|400:56,1,165
256,176,103716,2,0,L|200:8,1,165
328,24,103942,2,0,P|400:40|456:176,1,220
288,168,104275,6,0,L|120:336,1,220
304,320,104564,2,0,P|376:256|296:200,1,220
104,200,105025,1,0,0:0:0:0:
256,200,105352,6,0,L|464:304,1,220
232,264,105670,2,0,P|200:232|312:88,1,275
424,104,105997,2,0,P|456:144|512:312,1,220
256,296,106275,1,0,0:0:0:0:
504,352,106531,1,0,0:0:0:0:
288,352,106748,1,0,0:0:0:0:
360,352,106857,6,0,L|152:248,1,220
384,272,107183,2,0,P|440:224|344:136,1,220
184,128,107522,2,0,B|72:160|72:160|176:192,1,220
344,192,107800,6,0,L|496:256,1,165
384,288,108020,2,0,L|232:352,1,165
352,360,108241,2,0,P|448:312|400:216,1,220
152,248,108572,6,0,L|96:32,1,220
352,112,108872,1,0,0:0:0:0:
144,144,109098,1,0,0:0:0:0:
384,248,109324,1,0,0:0:0:0:
224,272,109551,1,0,0:0:0:0:
136,264,109654,6,0,P|168:184|288:136,1,220
480,160,109977,1,0,0:0:0:0:
256,296,110303,6,0,P|192:240|184:112,1,220
360,112,110589,2,0,L|440:272,1,165
256,216,110833,2,0,P|184:176|256:96,1,220
472,104,111166,6,0,L|448:336,1,220
256,320,111497,2,0,P|272:264|416:168,1,220
224,240,111830,2,0,L|152:32,1,220
320,88,112133,6,0,P|272:168|208:200,1,165
96,200,112363,2,0,P|144:280|208:312,1,165
320,320,112580,6,0,P|384:288|424:136,1,220
256,152,112929,2,0,P|176:176|104:304,1,220
288,312,113257,2,0,L|368:96,1,220
272,104,113585,1,0,0:0:0:0:
176,104,113694,1,0,0:0:0:0:
344,232,113804,6,0,L|245:182,2,110
184,152,114132,1,0,0:0:0:0:
344,232,114242,1,0,0:0:0:0:
144,280,114351,2,0,P|72:232|168:168,1,220
312,152,114680,2,0,L|152:312,1,220
328,304,115008,2,0,P|392:288|456:152,1,220
368,160,115337,1,0,0:0:0:0:
304,216,115446,1,0,0:0:0:0:
480,232,115556,6,0,L|368:288,2,110
320,312,115884,1,0,0:0:0:0:
480,232,115994,1,0,0:0:0:0:
224,336,116103,2,0,P|152:312|120:152,1,220
272,184,116432,2,0,B|384:184|384:184|264:184,1,220
104,128,116760,2,0,L|224:312,1,220
320,312,117089,1,0,0:0:0:0:
416,312,117198,1,0,0:0:0:0:
224,248,117308,6,0,L|112:192,2,110
72,176,117636,1,0,0:0:0:0:
224,248,117746,1,0,0:0:0:0:
416,256,117855,2,0,P|448:208|352:104,1,220
192,112,118184,2,0,L|88:320,1,220
280,320,118499,2,0,P|344:288|256:200,1,220
176,192,118820,1,0,0:0:0:0:
278,192,118927,1,0,0:0:0:0:
376,192,119034,6,0,L|264:136,2,110
224,120,119355,1,0,0:0:0:0:
376,192,119463,1,0,0:0:0:0:
168,96,119570,1,0,0:0:0:0:
336,280,122564,5,0,0:0:0:0:
304,232,122675,1,0,0:0:0:0:
352,216,122786,1,0,0:0:0:0:
288,168,122897,1,0,0:0:0:0:
464,128,123140,6,0,L|504:344,1,220
360,128,123479,2,0,L|320:344,1,220
488,344,123819,1,0,0:0:0:0:
384,344,123932,1,0,0:0:0:0:
120,128,124045,6,0,L|80:344,1,220
224,128,124384,2,0,L|264:344,1,220
96,344,124724,1,0,0:0:0:0:
200,344,124837,1,0,0:0:0:0:
32,312,124951,6,0,L|0:88,1,220
152,96,125290,2,0,P|208:168|136:264,1,220
16,272,125630,1,0,0:0:0:0:
160,312,125743,1,0,0:0:0:0:
328,312,125856,6,0,P|400:248|296:208,1,220
184,312,126196,2,0,P|112:248|216:208,1,220
360,192,126536,1,0,0:0:0:0:
400,192,126649,1,0,0:0:0:0:
192,192,126762,6,0,P|192:128|320:48,1,220
480,48,127102,2,0,P|496:128|376:216,1,220
224,224,127441,1,0,0:0:0:0:
104,224,127555,1,0,0:0:0:0:
320,224,127668,6,0,P|392:184|304:104,1,220
192,224,128007,2,0,P|120:184|208:104,1,220
384,96,128347,1,0,0:0:0:0:
256,96,128460,1,0,0:0:0:0:
80,96,128573,6,0,L|32:320,1,220
184,312,128913,2,0,L|232:87,1,220
88,96,129253,1,0,0:0:0:0:
240,96,129366,1,0,0:0:0:0:
376,96,129479,6,0,P|440:152|360:240,1,220
144,240,129830,1,0,0:0:0:0:
272,240,129935,1,0,0:0:0:0:
144,240,130040,1,0,0:0:0:0:
272,240,130145,1,0,0:0:0:0:
416,328,130385,6,0,P|488:280|400:216,1,220
144,216,130732,1,0,0:0:0:0:
368,152,130964,1,0,0:0:0:0:
256,152,131080,1,0,0:0:0:0:
144,152,131195,1,0,0:0:0:0:
416,328,131311,6,0,P|488:280|400:216,1,220
144,216,131658,1,0,0:0:0:0:
368,152,131890,1,0,0:0:0:0:
256,152,132006,1,0,0:0:0:0:
144,152,132121,1,0,0:0:0:0:
416,328,132238,6,0,P|408:240|272:192,1,220
80,192,132585,1,0,0:0:0:0:
288,272,132817,2,0,L|400:272,2,110
80,280,133164,6,0,P|16:240|96:152,1,220
368,152,133512,1,0,0:0:0:0:
184,192,133776,1,0,0:0:0:0:
256,240,133881,1,0,0:0:0:0:
328,288,133986,1,0,0:0:0:0:
96,328,134100,6,0,P|24:280|112:216,1,220
368,216,134447,1,0,0:0:0:0:
144,152,134679,1,0,0:0:0:0:
256,152,134794,1,0,0:0:0:0:
368,152,134910,1,0,0:0:0:0:
96,328,135026,6,0,P|24:280|112:216,1,220
368,216,135374,1,0,0:0:0:0:
144,152,135605,1,0,0:0:0:0:
256,152,135721,1,0,0:0:0:0:
368,152,135837,1,0,0:0:0:0:
96,328,135953,6,0,P|104:240|240:192,1,220
432,192,136300,1,0,0:0:0:0:
224,272,136532,2,0,L|112:272,2,110
432,280,136879,6,0,P|496:240|416:152,1,220
144,152,137227,1,0,0:0:0:0:
64,200,137343,1,0,0:0:0:0:
24,280,137459,1,0,0:0:0:0:
144,288,137561,1,0,0:0:0:0:
24,288,137670,1,0,0:0:0:0:
328,336,137798,6,0,P|400:296|416:160,1,220
184,336,138160,2,0,P|112:296|96:160,1,220
352,168,138523,1,0,0:0:0:0:
160,168,138644,1,0,0:0:0:0:
352,328,138765,6,0,P|408:256|312:136,1,220
160,328,139128,2,0,P|104:256|200:136,1,220
352,168,139490,1,0,0:0:0:0:
160,168,139611,1,0,0:0:0:0:
392,320,139733,6,0,P|400:224|336:120,1,220
120,320,140096,2,0,P|112:224|176:120,1,220
392,144,140459,1,0,0:0:0:0:
256,152,140580,1,0,0:0:0:0:
120,144,140701,1,0,0:0:0:0:
464,144,140943,1,0,0:0:0:0:
48,144,141185,1,0,0:0:0:0:
400,144,141427,1,0,0:0:0:0:
184,336,141689,6,0,P|112:296|96:160,1,220
328,336,142051,2,0,P|400:296|416:160,1,220
160,168,142414,1,0,0:0:0:0:
352,168,142535,1,0,0:0:0:0:
160,328,142656,6,0,P|104:256|200:136,1,220
352,328,143019,2,0,P|408:256|312:136,1,220
160,168,143382,1,0,0:0:0:0:
352,168,143503,1,0,0:0:0:0:
120,320,143624,6,0,P|112:224|176:120,1,220
392,320,143987,2,0,P|400:224|304:152,1,220
200,144,144336,1,0,0:0:0:0:
88,136,144457,1,0,0:0:0:0:
384,152,144578,1,0,0:0:0:0:
48,200,144820,1,0,0:0:0:0:
384,152,145051,1,0,0:0:0:0:
184,192,145494,5,0,0:0:0:0:
208,240,145601,1,0,0:0:0:0:
168,272,145708,1,0,0:0:0:0:
224,304,145815,1,0,0:0:0:0:
144,328,145922,1,0,0:0:0:0:
424,328,146362,6,0,L|448:256,1,55
304,320,146466,2,0,L|280:248,1,55
416,240,146570,2,0,L|472:184,1,55
320,240,146674,2,0,L|264:184,1,55
160,192,146778,6,0,L|88:168,1,55
232,152,146882,2,0,L|296:88,1,55
392,112,146987,1,0,0:0:0:0:
439,133,147039,1,0,0:0:0:0:
441,185,147091,1,0,0:0:0:0:
395,210,147143,1,0,0:0:0:0:
264,264,147195,6,0,L|232:200,1,55
352,208,147299,2,0,L|384:144,1,55
248,200,147403,2,0,L|216:136,1,55
336,144,147507,2,0,L|368:80,1,55
232,136,147612,5,0,0:0:0:0:
177,131,147664,1,0,0:0:0:0:
126,150,147716,1,0,0:0:0:0:
86,188,147768,1,0,0:0:0:0:
66,238,147820,1,0,0:0:0:0:
69,293,147872,1,0,0:0:0:0:
93,341,147924,1,0,0:0:0:0:
136,376,147976,1,0,0:0:0:0:
272,360,148028,6,0,L|320:312,1,55
184,296,148135,2,0,L|136:248,1,55
304,320,148242,2,0,L|352:272,1,55
216,256,148349,2,0,L|168:208,1,55
336,264,148456,5,0,0:0:0:0:
335,209,148509,1,0,0:0:0:0:
305,164,148563,1,0,0:0:0:0:
254,144,148616,1,0,0:0:0:0:
368,128,148670,2,0,L|416:80,1,55
264,56,148778,2,0,L|208:112,1,55
112,176,148885,5,0,0:0:0:0:
84,223,148938,1,0,0:0:0:0:
81,277,148992,1,0,0:0:0:0:
103,327,149045,1,0,0:0:0:0:
144,363,149099,1,0,0:0:0:0:
197,376,149152,1,0,0:0:0:0:
344,352,149206,6,0,L|312:288,1,55
160,280,149313,2,0,L|128:216,1,55
248,224,149420,2,0,L|280:160,1,55
128,208,149528,2,0,L|96:144,1,55
216,152,149635,2,0,L|248:88,1,55
96,136,149742,5,0,0:0:0:0:
52,168,149795,1,0,0:0:0:0:
23,215,149849,1,0,0:0:0:0:
14,269,149902,1,0,0:0:0:0:
184,272,149956,6,0,L|208:208,1,55
128,208,150063,2,0,L|104:144,1,55
232,152,150170,2,0,L|280:104,1,55
152,96,150278,2,0,L|104:48,1,55
272,136,150385,2,0,L|304:72,1,55
184,72,150492,2,0,L|152:8,1,55
336,48,150599,5,0,0:0:0:0:
366,93,150652,1,0,0:0:0:0:
385,144,150706,1,0,0:0:0:0:
392,199,150759,1,0,0:0:0:0:
240,296,150813,5,0,0:0:0:0:
191,277,150866,1,0,0:0:0:0:
190,225,150920,1,0,0:0:0:0:
237,204,150973,1,0,0:0:0:0:
392,208,151028,2,0,P|456:240|504:376,1,220
272,336,151456,6,0,L|224:288,1,55
352,296,151563,2,0,L|400:248,1,55
240,272,151670,2,0,L|176:240,1,55
336,256,151778,2,0,L|352:192,1,55
200,200,151885,6,0,L|232:136,1,55
368,160,151992,2,0,L|416:112,1,55
272,112,152099,2,0,L|336:48,1,55
448,80,152206,2,0,L|496:128,1,55
368,144,152313,5,0,0:0:0:0:
314,152,152366,1,0,0:0:0:0:
279,193,152420,1,0,0:0:0:0:
279,246,152473,1,0,0:0:0:0:
313,288,152527,1,0,0:0:0:0:
366,297,152580,1,0,0:0:0:0:
488,296,152635,6,0,L|520:232,1,55
368,232,152742,1,0,0:0:0:0:
313,229,152795,1,0,0:0:0:0:
260,213,152849,1,0,0:0:0:0:
214,184,152902,1,0,0:0:0:0:
176,145,152956,1,0,0:0:0:0:
150,96,153009,1,0,0:0:0:0:
137,43,153063,1,0,0:0:0:0:
368,40,153171,6,0,B|472:248|472:248|368:40|368:40|472:248|472:248|400:104,1,852.5
256,232,155017,6,0,B|480:232|480:232|256:232|256:232|480:232|480:232|424:232,1,715
256,232,156797,5,0,0:0:0:0:
203,217,156851,1,0,0:0:0:0:
169,175,156906,1,0,0:0:0:0:
165,121,156960,1,0,0:0:0:0:
280,120,157015,2,0,L|344:88,1,55
200,88,157124,2,0,L|136:56,1,55
336,152,157233,6,0,L|368:232,1,55
296,208,157344,2,0,L|240:208,1,55
104,208,157456,2,0,L|72:288,1,55
144,264,157567,2,0,L|200:264,1,55
320,264,157679,6,0,L|360:184,1,55
232,208,157790,2,0,L|192:128,1,55
352,200,157902,2,0,L|392:120,1,55
264,144,158013,2,0,L|224:64,1,55
384,136,158125,5,0,0:0:0:0:
422,175,158180,1,0,0:0:0:0:
444,225,158236,1,0,0:0:0:0:
448,279,158292,1,0,0:0:0:0:
320,280,158348,2,0,L|288:224,1,55
416,208,158459,2,0,L|472:184,1,55
320,168,158571,5,0,0:0:0:0:
272,145,158626,1,0,0:0:0:0:
269,92,158682,1,0,0:0:0:0:
313,63,158738,1,0,0:0:0:0:
448,64,158794,2,0,L|416:128,1,55
312,160,158905,2,0,L|248:192,1,55
136,192,159017,6,0,L|80:192,1,55
136,192,159128,2,0,L|192:192,1,55
312,192,159240,2,0,L|344:128,1,55
208,136,159351,2,0,L|160:88,1,55
336,96,159463,1,0,0:0:0:0:
288,272,159686,5,0,0:0:0:0:
32,272,159797,1,0,0:0:0:0:
232,272,159909,1,0,0:0:0:0:
88,272,160021,1,0,0:0:0:0:
352,272,160132,1,0,0:0:0:0:
32,272,160244,1,0,0:0:0:0:
176,272,160340,5,0,0:0:0:0:
223,249,160395,1,0,0:0:0:0:
225,197,160451,1,0,0:0:0:0:
180,171,160507,1,0,0:0:0:0:
64,168,160563,2,0,L|96:104,1,55
200,88,160674,2,0,L|256:72,1,55
384,80,160786,6,0,L|416:144,1,55
280,136,160897,2,0,L|248:200,1,55
368,192,161009,2,0,L|400:256,1,55
264,248,161120,2,0,L|232:312,1,55
352,304,161232,5,0,0:0:0:0:
347,249,161287,1,0,0:0:0:0:
320,200,161343,1,0,0:0:0:0:
274,171,161399,1,0,0:0:0:0:
152,176,161455,1,0,0:0:0:0:
105,151,161510,1,0,0:0:0:0:
99,99,161566,1,0,0:0:0:0:
140,65,161622,1,0,0:0:0:0:
256,64,161678,6,0,L|232:120,1,55
120,112,161789,2,0,L|96:168,1,55
224,136,161901,2,0,L|200:192,1,55
88,184,162012,2,0,L|64:240,1,55
192,208,162124,5,0,0:0:0:0:
242,188,162179,1,0,0:0:0:0:
273,143,162235,1,0,0:0:0:0:
272,89,162291,1,0,0:0:0:0:
144,88,162347,2,0,L|176:152,1,55
280,200,162458,2,0,L|344:216,1,55
448,224,162570,6,0,L|504:224,1,55
352,224,162682,2,0,L|272:224,1,55
416,168,162793,2,0,L|472:168,1,55
288,168,162905,2,0,L|232:168,1,55
176,168,163016,1,0,0:0:0:0:
312,320,163239,5,0,0:0:0:0:
80,320,163351,1,0,0:0:0:0:
392,320,163462,1,0,0:0:0:0:
160,320,163574,1,0,0:0:0:0:
312,320,163685,1,0,0:0:0:0:
0,320,163797,1,0,0:0:0:0:
240,320,163900,6,0,L|296:208,1,110
96,224,164123,1,0,0:0:0:0:
352,224,164234,1,0,0:0:0:0:
160,224,164346,2,0,L|88:224,2,55
352,224,164569,1,0,0:0:0:0:
96,224,164680,1,0,0:0:0:0:
280,224,164792,2,0,L|320:336,1,110
176,312,165015,2,0,L|136:200,1,110
312,200,165238,2,0,L|384:200,2,55
144,200,165461,1,0,0:0:0:0:
376,200,165572,1,0,0:0:0:0:
144,200,165684,6,0,L|24:152,1,110
224,160,165907,2,0,L|328:264,1,110
128,256,166130,1,0,0:0:0:0:
352,280,166236,1,0,0:0:0:0:
160,264,166347,1,0,0:0:0:0:
384,288,166459,1,0,0:0:0:0:
48,256,166570,1,0,0:0:0:0:
296,272,166793,5,0,0:0:0:0:
360,144,166904,1,0,0:0:0:0:
160,264,167016,1,0,0:0:0:0:
96,136,167127,1,0,0:0:0:0:
352,208,167239,1,0,0:0:0:0:
104,200,167350,1,0,0:0:0:0:
272,208,167462,6,0,P|336:136|384:128,1,110
168,136,167677,2,0,L|96:240,1,110
288,280,167900,1,0,0:0:0:0:
152,296,168011,1,0,0:0:0:0:
384,288,168123,1,0,0:0:0:0:
208,304,168234,1,0,0:0:0:0:
408,336,168346,2,0,L|472:208,1,110
288,224,168567,2,0,L|184:120,1,110
456,160,168788,1,0,0:0:0:0:
248,152,168899,1,0,0:0:0:0:
376,152,169010,1,0,0:0:0:0:
128,152,169120,1,0,0:0:0:0:
328,200,169231,6,0,L|368:312,1,110
192,240,169453,2,0,L|144:128,1,110
344,120,169674,1,0,0:0:0:0:
136,192,169785,1,0,0:0:0:0:
384,184,169895,1,0,0:0:0:0:
144,280,170006,1,0,0:0:0:0:
440,280,170117,1,0,0:0:0:0:
256,320,170353,6,0,L|288:200,13,110
296,304,171908,6,0,L|224:216,15,110
312,240,173686,6,0,L|176:240,15,110
392,240,175471,5,0,0:0:0:0:
120,240,175576,1,0,0:0:0:0:
464,240,175682,1,0,0:0:0:0:
48,240,175787,1,0,0:0:0:0:
392,240,175893,1,0,0:0:0:0:
120,240,175998,1,0,0:0:0:0:
464,240,176104,1,0,0:0:0:0:
48,240,176209,1,0,0:0:0:0:
464,240,176316,5,0,0:0:0:0:
256,240,176551,1,0,0:0:0:0:
48,240,176786,1,0,0:0:0:0:
288,352,177257,6,0,L|528:352,1,220
400,352,178067,1,0,0:0:0:0:
256,352,178500,1,0,0:0:0:0:
256,352,178750,1,0,0:0:0:0:
112,352,179293,6,0,L|352:352,1,220
224,352,180103,1,0,0:0:0:0:
80,352,180549,1,0,0:0:0:0:
80,352,180796,1,0,0:0:0:0:
192,352,181044,1,0,0:0:0:0:
304,352,181292,6,0,L|416:352,2,110
128,352,182051,1,0,0:0:0:0:
248,352,182304,2,0,L|368:352,1,110
160,352,182810,1,0,0:0:0:0:
288,352,183064,2,0,P|272:280|136:200,1,220
0,200,183823,2,0,L|256:200,1,220
360,200,184570,1,0,0:0:0:0:
160,200,184823,1,0,0:0:0:0:
