osu file format v14

[General]
AudioFilename: Haibokubokushikute.mp3
AudioLeadIn: 0
PreviewTime: 72307
Countdown: 0
SampleSet: None
StackLeniency: 0.7
Mode: 0
LetterboxInBreaks: 1
WidescreenStoryboard: 1

[Editor]
DistanceSpacing: 1.4
BeatDivisor: 4
GridSize: 4
TimelineZoom: 1

[Metadata]
Title:Haibokubokushikute
TitleUnicode:敗北々しくて
Artist:MAX SP
ArtistUnicode:MAX SP
Creator:HICCA
Version:Losers
Source:Nico Nico Douga
Tags:敗北者 女々しくて one piece hicari
BeatmapID:1865511
BeatmapSetID:892435

[Difficulty]
HPDrainRate:5
CircleSize:4
OverallDifficulty:7
ApproachRate:9.2
SliderMultiplier:1.9
SliderTickRate:1

[Events]
//Background and Video events
Video,0,"Haibokubokushikute.avi"
0,0,"BG.jpg",0,0
//Break Periods
//Storyboard Layer 0 (Background)
//Storyboard Layer 1 (Fail)
//Storyboard Layer 2 (Pass)
//Storyboard Layer 3 (Foreground)
//Storyboard Sound Samples

[TimingPoints]
245,419.58041958042,4,2,1,70,1,0
245,-80,4,2,1,70,0,1
2342,-80,4,2,1,100,0,0
2762,-80,4,2,1,70,0,0
17028,-100,4,2,1,55,0,0
30454,-90.9090909090909,4,2,1,60,0,0
43461,-133.333333333333,4,2,1,60,0,0
43776,-133.333333333333,4,2,1,5,0,0
43881,-66.6666666666667,4,2,1,75,0,1
49755,-100,4,2,1,70,0,0
50594,-66.6666666666667,4,2,1,75,0,1
55629,-50,4,2,1,75,0,1
58566,-66.6666666666667,4,2,1,70,0,0
58986,-80,4,2,1,70,0,1
60664,-80,4,2,1,60,0,0
62342,-80,4,2,1,70,0,1
64021,-80,4,2,1,60,0,0
65699,-80,4,2,1,70,0,1
67377,-100,4,2,1,60,0,0
72412,-80,4,2,1,70,0,1
74510,-80,4,2,1,100,0,0
74930,-80,4,2,1,70,0,0
90559,-80,4,2,1,30,0,0
94021,-80,4,2,1,5,0,0

[HitObjects]
200,91,245,5,2,0:0:0:0:
203,123,349,1,0,0:0:0:0:
206,156,454,1,0,0:0:0:0:
209,189,559,1,0,0:0:0:0:
213,221,664,1,8,0:0:0:0:
146,71,874,5,2,0:0:0:0:
150,119,978,1,0,0:0:0:0:
155,168,1083,1,0,0:0:0:0:
159,218,1188,1,0,0:0:0:0:
165,266,1293,1,8,0:0:0:0:
91,48,1503,5,2,0:0:0:0:
96,120,1607,1,0,0:0:0:0:
104,193,1712,1,0,0:0:0:0:
110,268,1817,1,0,0:0:0:0:
119,340,1922,1,8,0:0:0:0:
409,119,2342,5,4,0:0:0:0:
325,349,2762,5,0,0:0:0:0:
206,190,2972,1,2,0:0:0:0:
261,177,3077,1,0,0:0:0:0:
459,265,3286,1,0,0:0:0:0:
399,254,3391,1,2,0:0:0:0:
237,359,3601,6,0,P|159:325|74:343,1,118.75,2|0,0:0|0:0,0:0:0:0:
27,352,3916,1,0,0:0:0:0:
12,317,4021,2,0,B|5:289|5:289|17:194,1,118.75,8|2,0:0|0:0,0:0:0:0:
162,133,4335,1,0,0:0:0:0:
221,188,4440,2,0,P|195:207|130:205,1,59.375,2|0,0:0|0:0,0:0:0:0:
105,79,4650,2,0,P|131:60|196:62,1,59.375
197,219,4860,2,0,P|168:226|139:223,1,59.375,8|0,0:0|0:0,0:0:0:0:
128,47,5070,2,0,P|157:40|186:43,1,59.375
95,189,5279,5,0,0:0:0:0:
314,100,5489,1,2,0:0:0:0:
262,90,5594,1,0,0:0:0:0:
222,106,5699,2,0,L|211:179,1,59.375,8|0,0:0|0:0,0:0:0:0:
357,252,5909,2,0,L|365:310,1,59.375
462,128,6119,2,0,P|395:132|337:93,1,118.75,2|0,0:0|0:0,0:0:0:0:
286,27,6433,2,0,P|322:83|318:152,1,118.75,8|0,0:0|0:0,0:0:0:0:
286,230,6748,2,0,P|298:195|328:161,1,59.375,8|0,0:0|0:0,0:0:0:0:
427,43,6958,6,0,P|443:67|451:96,1,59.375,2|0,0:0|0:0,0:0:0:0:
452,240,7168,2,0,P|440:275|410:309,1,59.375
224,147,7377,1,8,0:0:0:0:
429,145,7587,1,2,0:0:0:0:
429,145,7692,1,0,0:0:0:0:
429,145,7797,2,0,L|502:140,1,59.375,2|0,0:0|0:0,0:0:0:0:
347,326,8007,2,0,L|274:321,1,59.375
224,147,8217,1,8,0:0:0:0:
405,250,8426,1,2,0:0:0:0:
172,333,8636,5,2,0:0:0:0:
172,333,8741,1,0,0:0:0:0:
118,256,8846,2,0,L|107:170,1,59.375
291,252,9056,2,0,L|222:304,1,59.375,8|0,0:0|0:0,0:0:0:0:
202,105,9265,2,0,L|281:138,1,59.375
172,333,9475,1,2,0:0:0:0:
103,89,9685,1,0,0:0:0:0:
68,300,9895,5,8,0:0:0:0:
82,304,10000,1,0,0:0:0:0:
146,253,10105,1,8,0:0:0:0:
159,249,10210,1,0,0:0:0:0:
239,267,10314,1,2,0:0:0:0:
353,145,10524,5,0,0:0:0:0:
372,225,10629,1,0,0:0:0:0:
346,304,10734,1,8,0:0:0:0:
273,344,10839,1,2,0:0:0:0:
190,332,10944,1,2,0:0:0:0:
357,132,11154,5,0,0:0:0:0:
378,220,11259,1,0,0:0:0:0:
349,307,11364,1,0,0:0:0:0:
269,351,11469,1,2,0:0:0:0:
176,339,11573,2,0,P|151:323|136:297,1,59.375,10|0,0:0|0:0,0:0:0:0:
237,212,11783,2,0,P|261:227|276:253,1,59.375
144,201,11993,1,0,0:0:0:0:
404,106,12203,5,0,0:0:0:0:
321,99,12307,1,0,0:0:0:0:
237,93,12412,1,8,0:0:0:0:
153,87,12517,1,2,0:0:0:0:
69,81,12622,1,2,0:0:0:0:
52,79,12832,5,0,0:0:0:0:
144,86,12937,1,0,0:0:0:0:
237,92,13042,1,0,0:0:0:0:
329,99,13147,1,2,0:0:0:0:
420,107,13251,2,0,L|496:95,1,59.375,10|0,0:0|0:0,0:0:0:0:
345,238,13461,2,0,L|427:219,1,59.375
237,92,13671,1,0,0:0:0:0:
123,310,13881,5,0,0:0:0:0:
152,207,13986,1,0,0:0:0:0:
190,307,14091,1,8,0:0:0:0:
101,248,14196,1,2,0:0:0:0:
207,243,14300,1,2,0:0:0:0:
107,311,14510,5,0,0:0:0:0:
163,196,14615,1,0,0:0:0:0:
187,322,14720,1,0,0:0:0:0:
94,234,14825,1,2,0:0:0:0:
220,250,14930,2,0,P|239:215|237:165,1,59.375,10|0,0:0|0:0,0:0:0:0:
70,102,15140,2,0,P|76:130|91:155,1,59.375
286,76,15349,5,2,0:0:0:0:
258,42,15454,2,0,P|193:14|127:36,1,118.75
91,156,15769,2,0,P|147:113|161:45,1,118.75,8|0,0:0|0:0,0:0:0:0:
33,48,16084,1,0,0:0:0:0:
5,166,16189,6,0,P|12:204|40:237,1,59.375,2|0,0:0|0:0,0:0:0:0:
198,162,16398,2,0,P|194:132|180:106,1,59.375,2|0,0:0|0:0,0:0:0:0:
103,260,16608,2,0,P|132:256|158:242,1,59.375,8|0,0:0|0:0,0:0:0:0:
99,67,16818,2,0,P|70:71|44:85,1,59.375,2|0,0:0|0:0,0:0:0:0:
41,308,17028,6,0,P|82:333|133:332,1,95,4|0,0:0|0:0,0:0:0:0:
233,266,17447,1,8,0:0:0:0:
115,179,17657,1,0,0:0:0:0:
114,203,17762,1,0,0:0:0:0:
115,230,17867,2,0,L|141:299,1,47.5,2|0,0:0|0:0,0:0:0:0:
226,360,18077,2,0,L|242:315,1,47.5,2|0,0:0|0:0,0:0:0:0:
245,186,18286,1,8,0:0:0:0:
374,319,18496,1,0,0:0:0:0:
456,153,18706,6,0,B|406:155|406:155|362:144,1,95,2|0,0:0|0:0,0:0:0:0:
311,37,19021,1,0,0:0:0:0:
402,46,19126,2,0,L|469:36,2,47.5,8|0|0,0:0|0:0|0:0,0:0:0:0:
312,28,19440,1,0,0:0:0:0:
224,39,19545,2,0,L|154:30,1,47.5,2|0,0:0|0:0,0:0:0:0:
258,153,19755,2,0,L|306:160,1,47.5,2|0,0:0|0:0,0:0:0:0:
176,32,19965,2,0,L|165:132,1,95,8|0,0:0|0:0,0:0:0:0:
231,252,20384,5,2,0:0:0:0:
218,244,20489,1,2,0:0:0:0:
203,244,20594,1,0,0:0:0:0:
191,251,20699,1,0,0:0:0:0:
136,296,20804,5,8,0:0:0:0:
124,303,20909,1,0,0:0:0:0:
109,303,21014,1,0,0:0:0:0:
96,295,21119,1,2,0:0:0:0:
33,249,21224,6,0,L|26:187,1,47.5,2|0,0:0|0:0,0:0:0:0:
196,368,21433,2,0,L|203:306,1,47.5,2|0,0:0|0:0,0:0:0:0:
125,128,21643,2,0,L|114:222,1,95,8|0,0:0|0:0,0:0:0:0:
296,335,22063,6,0,P|318:299|400:299,1,95,2|0,0:0|0:0,0:0:0:0:
444,304,22377,1,0,0:0:0:0:
396,213,22482,2,0,P|432:235|432:317,1,95,8|0,0:0|0:0,0:0:0:0:
371,370,22797,1,2,0:0:0:0:
281,363,22902,6,0,L|221:353,1,47.5,2|0,0:0|0:0,0:0:0:0:
73,335,23112,2,0,L|133:325,1,47.5,2|0,0:0|0:0,0:0:0:0:
329,289,23321,1,8,0:0:0:0:
175,217,23531,1,0,0:0:0:0:
385,197,23741,5,2,0:0:0:0:
394,167,23846,2,0,P|397:143|395:119,1,47.5
230,48,24056,1,0,0:0:0:0:
220,77,24161,2,0,P|217:100|219:124,1,47.5,8|0,0:0|0:0,0:0:0:0:
262,266,24370,1,0,0:0:0:0:
469,172,24580,1,2,0:0:0:0:
440,189,24685,1,0,0:0:0:0:
407,195,24790,1,2,0:0:0:0:
373,196,24895,1,0,0:0:0:0:
340,190,25000,1,8,0:0:0:0:
159,249,25210,1,0,0:0:0:0:
50,76,25419,5,0,0:0:0:0:
47,153,25524,2,0,P|75:150|102:128,1,47.5,2|2,0:0|0:0,0:0:0:0:
236,64,25734,1,0,0:0:0:0:
257,145,25839,2,0,L|244:201,1,47.5,8|0,0:0|0:0,0:0:0:0:
132,35,26049,2,0,L|145:91,1,47.5
171,197,26258,1,2,0:0:0:0:
178,223,26363,1,0,0:0:0:0:
105,251,26468,1,2,0:0:0:0:
112,277,26573,1,0,0:0:0:0:
39,305,26678,2,0,P|25:254|40:184,1,95,8|0,0:0|0:0,0:0:0:0:
265,202,27098,6,0,P|232:160|167:129,1,95,2|0,0:0|0:0,0:0:0:0:
104,92,27412,1,0,0:0:0:0:
189,125,27517,2,0,L|253:113,1,47.5,8|0,0:0|0:0,0:0:0:0:
383,74,27727,2,0,L|429:82,1,47.5,0|2,0:0|0:0,0:0:0:0:
208,97,27937,2,0,L|272:85,1,47.5,2|0,0:0|0:0,0:0:0:0:
423,102,28147,2,0,L|469:110,1,47.5
227,46,28356,2,0,L|334:26,1,95,8|0,0:0|0:0,0:0:0:0:
421,228,28776,5,2,0:0:0:0:
253,162,28986,1,0,0:0:0:0:
349,339,29196,5,8,0:0:0:0:
373,94,29405,1,2,0:0:0:0:
176,262,29615,6,0,B|240:221|265:305|349:239,1,142.5,2|0,0:0|0:0,0:0:0:0:
335,257,30035,1,8,0:0:0:0:
339,248,30140,1,0,0:0:0:0:
341,238,30245,1,0,0:0:0:0:
342,228,30349,1,0,0:0:0:0:
342,217,30454,6,0,L|346:164,1,52.2500015945435,4|0,0:0|0:0,0:0:0:0:
165,164,30664,2,0,L|170:217,1,52.2500015945435
305,355,30874,2,0,L|370:347,1,52.2500015945435,8|0,0:0|0:0,0:0:0:0:
473,179,31084,2,0,L|408:171,1,52.2500015945435
289,234,31293,5,2,0:0:0:0:
270,196,31398,1,0,0:0:0:0:
272,154,31503,1,2,0:0:0:0:
294,118,31608,1,0,0:0:0:0:
353,75,31713,5,8,0:0:0:0:
286,105,31818,1,0,0:0:0:0:
212,107,31923,1,0,0:0:0:0:
144,79,32028,1,0,0:0:0:0:
94,24,32133,6,0,P|68:54|68:73,1,52.2500015945435,2|0,0:0|0:0,0:0:0:0:
120,274,32342,1,0,0:0:0:0:
255,85,32552,2,0,P|217:97|207:114,1,52.2500015945435,8|0,0:0|0:0,0:0:0:0:
148,316,32762,1,0,0:0:0:0:
151,324,32867,1,0,0:0:0:0:
152,331,32972,5,2,0:0:0:0:
202,338,33077,1,0,0:0:0:0:
243,344,33182,1,2,0:0:0:0:
283,350,33286,1,0,0:0:0:0:
369,366,33391,5,8,0:0:0:0:
410,305,33496,1,0,0:0:0:0:
407,226,33601,1,0,0:0:0:0:
358,158,33706,1,0,0:0:0:0:
272,132,33811,6,0,L|181:125,1,52.2500015945435,2|0,0:0|0:0,0:0:0:0:
56,221,34021,2,0,L|147:214,1,52.2500015945435
270,85,34231,2,0,L|209:100,1,52.2500015945435,8|0,0:0|0:0,0:0:0:0:
57,267,34441,2,0,L|115:243,1,52.2500015945435
180,61,34650,5,2,0:0:0:0:
172,96,34755,1,0,0:0:0:0:
232,214,34860,5,2,0:0:0:0:
205,189,34965,1,0,0:0:0:0:
73,182,35070,5,8,0:0:0:0:
108,171,35175,1,0,0:0:0:0:
388,95,35489,5,2,0:0:0:0:
402,117,35594,1,0,0:0:0:0:
402,143,35699,1,0,0:0:0:0:
392,167,35804,1,0,0:0:0:0:
485,171,35909,5,8,0:0:0:0:
461,223,36014,1,0,0:0:0:0:
410,249,36119,1,0,0:0:0:0:
352,245,36224,1,0,0:0:0:0:
303,214,36328,5,2,0:0:0:0:
258,135,36433,2,0,P|257:108|266:67,1,52.2500015945435,0|2,0:0|0:0,0:0:0:0:
313,224,36643,5,0,0:0:0:0:
267,302,36748,2,0,P|244:316|204:329,1,52.2500015945435,8|0,0:0|0:0,0:0:0:0:
318,209,36958,5,0,0:0:0:0:
408,211,37168,6,0,P|431:223|453:326,1,104.500003189087,2|0,0:0|0:0,0:0:0:0:
183,295,37587,2,8,P|196:245|237:214,1,104.500003189087,8|2,0:0|0:0,0:0:0:0:
368,280,38007,1,2,0:0:0:0:
261,346,38217,1,0,0:0:0:0:
213,195,38426,2,0,B|205:124|205:124|224:70,1,104.500003189087,8|0,0:0|0:0,0:0:0:0:
412,97,38846,5,2,0:0:0:0:
294,258,39056,2,0,P|253:237|166:242,1,104.500003189087,0|8,0:0|0:0,0:0:0:0:
224,122,39475,2,0,P|180:136|122:201,1,104.500003189087,0|2,0:0|0:0,0:0:0:0:
226,309,39895,1,2,0:0:0:0:
78,75,40105,2,0,P|56:116|61:202,1,104.500003189087,8|0,0:0|0:0,0:0:0:0:
133,348,40524,6,0,L|268:335,1,104.500003189087,2|0,0:0|0:0,0:0:0:0:
461,279,40944,2,0,L|326:266,1,104.500003189087,8|2,0:0|0:0,0:0:0:0:
212,255,41363,1,2,0:0:0:0:
372,174,41573,1,0,0:0:0:0:
367,338,41783,1,8,0:0:0:0:
193,180,41993,5,2,0:0:0:0:
426,117,42203,5,2,0:0:0:0:
469,131,42307,1,8,0:0:0:0:
129,273,42517,5,2,0:0:0:0:
110,220,42621,1,8,0:0:0:0:
338,21,42832,5,2,0:0:0:0:
256,355,43042,1,8,0:0:0:0:
256,343,43461,6,2,B|228:312|283:277|251:230,1,106.875004076958
256,58,43881,6,0,B|248:101|248:101|263:161|263:161|256:200,1,142.500005435944,4|0,0:0|0:0,0:0:0:0:
161,154,44196,1,2,0:0:0:0:
129,63,44300,2,0,P|154:29|207:-1,1,71.2500027179719,8|0,0:0|0:0,0:0:0:0:
384,31,44510,2,0,P|404:60|414:94,1,71.2500027179719,0|2,0:0|0:0,0:0:0:0:
147,208,44720,2,0,L|63:195,1,71.2500027179719,2|0,0:0|0:0,0:0:0:0:
303,49,44930,1,2,0:0:0:0:
319,126,45035,1,0,0:0:0:0:
335,203,45140,2,0,L|309:297,1,71.2500027179719,8|0,0:0|0:0,0:0:0:0:
208,349,45349,6,0,P|212:313|210:278,1,71.2500027179719,2|0,0:0|0:0,0:0:0:0:
102,168,45559,2,0,P|99:203|103:238,1,71.2500027179719,2|0,0:0|0:0,0:0:0:0:
191,355,45769,2,0,P|198:320|199:284,1,71.2500027179719,8|0,0:0|0:0,0:0:0:0:
236,108,45979,2,0,P|214:136|198:168,1,71.2500027179719,2|0,0:0|0:0,0:0:0:0:
172,359,46189,2,0,P|183:325|188:289,1,71.2500027179719,8|0,0:0|0:0,0:0:0:0:
381,130,46398,1,2,0:0:0:0:
338,167,46503,1,0,0:0:0:0:
282,178,46608,2,0,P|246:183|211:178,1,71.2500027179719,8|0,0:0|0:0,0:0:0:0:
10,114,46818,2,0,P|45:109|80:114,1,71.2500027179719,8|0,0:0|0:0,0:0:0:0:
285,58,47028,2,0,P|263:86|235:107,1,71.2500027179719
89,295,47238,6,0,P|119:245|186:284,1,142.500005435944,4|0,0:0|0:0,0:0:0:0:
251,359,47552,1,2,0:0:0:0:
209,268,47657,2,0,P|208:216|223:164,1,71.2500027179719,8|0,0:0|0:0,0:0:0:0:
408,192,47867,2,0,P|409:140|394:88,1,71.2500027179719,0|2,0:0|0:0,0:0:0:0:
191,113,48077,2,0,L|294:101,1,71.2500027179719,2|0,0:0|0:0,0:0:0:0:
329,299,48286,2,0,L|399:307,1,71.2500027179719,2|0,0:0|0:0,0:0:0:0:
434,93,48496,2,0,L|504:84,1,71.2500027179719,8|0,0:0|0:0,0:0:0:0:
324,201,48706,5,2,0:0:0:0:
291,145,48811,1,0,0:0:0:0:
307,82,48916,2,0,P|324:46|360:21,1,71.2500027179719,2|0,0:0|0:0,0:0:0:0:
220,243,49126,2,0,P|180:246|140:227,1,71.2500027179719,8|0,0:0|0:0,0:0:0:0:
403,238,49335,1,2,0:0:0:0:
427,304,49440,1,2,0:0:0:0:
378,365,49545,1,8,0:0:0:0:
298,333,49650,1,0,0:0:0:0:
304,240,49755,5,8,0:0:0:0:
448,254,49860,1,2,0:0:0:0:
208,309,50175,5,8,0:0:0:0:
257,104,50279,1,2,0:0:0:0:
295,181,50594,6,0,P|226:186|177:133,1,142.500005435944,4|0,0:0|0:0,0:0:0:0:
220,28,50909,1,2,0:0:0:0:
155,116,51014,2,0,P|109:117|73:106,1,71.2500027179719,8|0,0:0|0:0,0:0:0:0:
29,291,51224,2,0,P|75:292|111:281,1,71.2500027179719,0|2,0:0|0:0,0:0:0:0:
228,85,51433,2,0,P|229:131|218:167,1,71.2500027179719,2|0,0:0|0:0,0:0:0:0:
107,365,51643,1,2,0:0:0:0:
99,285,51748,1,0,0:0:0:0:
91,205,51853,2,0,P|128:177|147:152,1,71.2500027179719,8|0,0:0|0:0,0:0:0:0:
393,184,52063,6,0,B|348:177|325:160|325:160|316:187|285:218,1,142.500005435944,2|0,0:0|0:0,0:0:0:0:
331,334,52377,1,0,0:0:0:0:
463,278,52482,2,0,L|379:270,1,71.2500027179719,8|0,0:0|0:0,0:0:0:0:
198,300,52692,2,0,L|282:308,1,71.2500027179719,2|0,0:0|0:0,0:0:0:0:
468,271,52902,2,0,L|385:255,1,71.2500027179719,8|0,0:0|0:0,0:0:0:0:
147,330,53112,2,0,L|229:345,1,71.2500027179719,2|0,0:0|0:0,0:0:0:0:
474,265,53321,2,0,L|393:241,1,71.2500027179719,8|0,0:0|0:0,0:0:0:0:
93,354,53531,1,10,0:0:0:0:
141,311,53636,1,0,0:0:0:0:
147,247,53741,1,0,0:0:0:0:
109,195,53846,1,0,0:0:0:0:
46,181,53951,1,4,0:0:0:0:
257,308,54161,6,0,L|363:292,1,71.2500027179719,2|0,0:0|0:0,0:0:0:0:
488,134,54370,2,0,L|448:233,1,71.2500027179719,8|0,0:0|0:0,0:0:0:0:
240,142,54580,1,2,0:0:0:0:
333,189,54685,2,0,L|330:271,2,71.2500027179719,2|0|0,0:0|0:0|0:0,0:0:0:0:
397,84,55000,2,0,L|399:12,1,71.2500027179719,2|0,0:0|0:0,0:0:0:0:
144,131,55210,2,0,L|146:202,1,71.2500027179719,8|0,0:0|0:0,0:0:0:0:
421,233,55419,2,0,L|381:147,1,71.2500027179719,2|0,0:0|0:0,0:0:0:0:
59,301,55629,6,0,B|434:365|434:365|308:9|308:9|182:159|182:159|255:334|255:334|370:184|370:184|309:9|309:9|60:299|60:299|435:366|435:366|307:5,1,2660,2|4,0:0|0:0,0:0:0:0:
278,173,58986,5,2,0:0:0:0:
290,185,59091,1,0,0:0:0:0:
306,192,59196,1,0,0:0:0:0:
323,195,59300,1,0,0:0:0:0:
340,191,59405,1,8,0:0:0:0:
203,139,59615,5,2,0:0:0:0:
222,213,59720,1,0,0:0:0:0:
279,264,59825,1,0,0:0:0:0:
355,262,59929,1,0,0:0:0:0:
418,218,60034,1,8,0:0:0:0:
418,218,60664,6,0,P|419:174|413:137,1,59.375,2|0,0:0|0:0,0:0:0:0:
263,131,60874,2,0,P|260:160|262:190,1,59.375,2|0,0:0|0:0,0:0:0:0:
429,214,61084,2,0,P|426:166|416:126,1,59.375,10|0,0:0|0:0,0:0:0:0:
251,134,61293,2,0,P|251:166|256:199,1,59.375,2|0,0:0|0:0,0:0:0:0:
441,210,61503,2,0,P|433:157|419:114,1,59.375,2|0,0:0|0:0,0:0:0:0:
239,138,61713,2,0,P|242:174|250:209,1,59.375,2|0,0:0|0:0,0:0:0:0:
455,203,61923,1,10,0:0:0:0:
192,315,62342,5,2,0:0:0:0:
187,279,62447,1,0,0:0:0:0:
182,243,62552,1,0,0:0:0:0:
177,207,62657,1,0,0:0:0:0:
172,171,62762,1,8,0:0:0:0:
87,383,62972,5,2,0:0:0:0:
133,312,63077,1,0,0:0:0:0:
182,243,63182,1,0,0:0:0:0:
229,176,63287,1,0,0:0:0:0:
277,106,63392,1,8,0:0:0:0:
277,106,64021,6,0,L|217:101,1,59.375,2|0,0:0|0:0,0:0:0:0:
107,240,64231,2,0,L|47:235,1,59.375,2|0,0:0|0:0,0:0:0:0:
297,175,64440,2,0,L|237:170,1,59.375,10|0,0:0|0:0,0:0:0:0:
83,188,64650,2,0,L|23:183,1,59.375,2|0,0:0|0:0,0:0:0:0:
317,244,64860,2,0,L|257:239,1,59.375,2|0,0:0|0:0,0:0:0:0:
59,136,65070,2,0,L|0:131,1,59.375,2|0,0:0|0:0,0:0:0:0:
337,313,65279,1,10,0:0:0:0:
355,57,65699,5,2,0:0:0:0:
328,145,65804,1,0,0:0:0:0:
340,54,65909,1,0,0:0:0:0:
342,147,66014,1,0,0:0:0:0:
326,57,66119,1,8,0:0:0:0:
413,122,66328,5,2,0:0:0:0:
250,149,66433,1,0,0:0:0:0:
418,147,66538,1,0,0:0:0:0:
254,124,66643,1,0,0:0:0:0:
414,173,66748,1,8,0:0:0:0:
414,173,67377,6,0,P|369:196|306:186,1,95,2|0,0:0|0:0,0:0:0:0:
165,145,67797,2,0,P|210:122|273:132,1,95,8|0,0:0|0:0,0:0:0:0:
250,310,68217,1,2,0:0:0:0:
74,211,68426,2,0,L|65:103,2,95,2|8|0,0:0|0:0|0:0,0:0:0:0:
173,341,69056,6,0,P|205:293|257:271,1,95,2|0,0:0|0:0,0:0:0:0:
387,268,69475,2,0,P|430:284|462:320,1,95,8|0,0:0|0:0,0:0:0:0:
205,231,69895,6,0,L|189:107,1,95,2|0,0:0|0:0,0:0:0:0:
382,127,70314,2,0,L|383:222,1,95,8|0,0:0|0:0,0:0:0:0:
230,70,70734,5,2,0:0:0:0:
391,57,70944,1,0,0:0:0:0:
269,218,71154,5,8,0:0:0:0:
87,196,71363,1,2,0:0:0:0:
222,355,71573,5,2,0:0:0:0:
451,316,71783,1,0,0:0:0:0:
381,100,71993,5,8,0:0:0:0:
390,98,72098,1,0,0:0:0:0:
399,96,72203,1,0,0:0:0:0:
408,94,72307,1,2,0:0:0:0:
417,92,72413,5,2,0:0:0:0:
383,99,72518,1,0,0:0:0:0:
350,106,72622,1,0,0:0:0:0:
316,114,72727,1,0,0:0:0:0:
283,121,72832,1,8,0:0:0:0:
468,149,73042,5,2,0:0:0:0:
417,135,73147,1,0,0:0:0:0:
367,124,73251,1,0,0:0:0:0:
316,114,73356,1,0,0:0:0:0:
266,102,73461,1,8,0:0:0:0:
501,258,73671,5,2,0:0:0:0:
440,206,73776,1,0,0:0:0:0:
379,159,73880,1,0,0:0:0:0:
316,114,73985,1,0,0:0:0:0:
256,66,74090,1,8,0:0:0:0:
62,363,74510,5,4,0:0:0:0:
224,125,74930,5,0,0:0:0:0:
140,288,75140,1,2,0:0:0:0:
124,228,75245,1,0,0:0:0:0:
331,105,75454,1,0,0:0:0:0:
315,165,75559,1,2,0:0:0:0:
77,86,75769,6,0,P|133:100|184:73,1,118.75,2|0,0:0|0:0,0:0:0:0:
175,189,76084,1,0,0:0:0:0:
202,193,76189,2,0,P|251:163|268:108,1,118.75,8|2,0:0|0:0,0:0:0:0:
122,24,76503,1,0,0:0:0:0:
83,115,76608,2,0,P|83:151|96:194,1,59.375,2|0,0:0|0:0,0:0:0:0:
136,306,76818,2,0,P|161:323|189:333,1,59.375
196,105,77028,2,0,P|166:124|138:160,1,59.375,8|0,0:0|0:0,0:0:0:0:
69,283,77238,2,0,P|70:312|76:340,1,59.375
285,318,77447,5,0,0:0:0:0:
213,140,77657,1,2,0:0:0:0:
198,191,77762,1,0,0:0:0:0:
215,241,77867,2,0,L|291:222,1,59.375,8|0,0:0|0:0,0:0:0:0:
456,320,78077,2,0,L|398:334,1,59.375
298,133,78286,2,0,B|356:142|356:142|393:188,1,118.75,2|0,0:0|0:0,0:0:0:0:
313,325,78601,2,0,B|291:270|291:270|313:214,1,118.75,8|0,0:0|0:0,0:0:0:0:
472,217,78916,2,0,L|429:270,1,59.375,8|0,0:0|0:0,0:0:0:0:
237,187,79126,5,2,0:0:0:0:
77,275,79265,5,0,0:0:0:0:
234,369,79405,5,0,0:0:0:0:
161,157,79545,6,0,L|150:52,2,79.1666666666667,8|0|0,0:0|0:0|0:0,0:0:0:0:
69,77,79965,6,0,P|87:23|220:32,1,178.125,2|0,0:0|0:0,0:0:0:0:
321,85,80384,2,0,P|280:71|234:70,1,59.375,8|0,0:0|0:0,0:0:0:0:
56,175,80594,2,0,P|72:134|101:99,1,59.375,2|0,0:0|0:0,0:0:0:0:
276,176,80804,5,2,0:0:0:0:
255,187,80909,1,0,0:0:0:0:
234,198,81014,1,0,0:0:0:0:
213,209,81119,1,0,0:0:0:0:
139,250,81224,2,0,L|139:183,1,59.375,8|0,0:0|0:0,0:0:0:0:
352,140,81433,2,0,L|352:199,1,59.375
206,66,81643,5,2,0:0:0:0:
282,50,81748,2,0,L|350:40,1,59.375
337,254,81958,5,0,0:0:0:0:
285,196,82063,1,8,0:0:0:0:
233,138,82168,2,0,L|206:59,1,59.375
435,47,82377,5,0,0:0:0:0:
410,120,82482,1,2,0:0:0:0:
173,206,82692,5,0,0:0:0:0:
211,132,82797,1,0,0:0:0:0:
289,104,82902,1,8,0:0:0:0:
368,127,83007,1,2,0:0:0:0:
420,191,83112,1,2,0:0:0:0:
161,211,83321,5,0,0:0:0:0:
202,130,83426,1,0,0:0:0:0:
288,99,83531,1,0,0:0:0:0:
375,124,83636,1,2,0:0:0:0:
433,196,83741,2,0,P|440:225|438:255,1,59.375,10|0,0:0|0:0,0:0:0:0:
277,248,83951,2,0,P|298:227|325:214,1,59.375
389,344,84161,1,0,0:0:0:0:
125,340,84370,5,0,0:0:0:0:
106,258,84475,1,0,0:0:0:0:
145,184,84580,1,8,0:0:0:0:
124,103,84685,1,2,0:0:0:0:
164,30,84790,1,2,0:0:0:0:
167,14,85000,5,0,0:0:0:0:
123,95,85105,1,0,0:0:0:0:
146,184,85210,1,0,0:0:0:0:
103,265,85315,1,2,0:0:0:0:
124,355,85419,2,0,L|139:297,1,59.375,10|0,0:0|0:0,0:0:0:0:
38,193,85629,2,0,L|53:135,1,59.375
213,49,85839,1,0,0:0:0:0:
415,116,86049,5,0,0:0:0:0:
272,125,86154,1,0,0:0:0:0:
374,42,86258,1,8,0:0:0:0:
378,188,86363,1,2,0:0:0:0:
249,101,86468,1,2,0:0:0:0:
344,65,86678,5,0,0:0:0:0:
358,219,86783,1,0,0:0:0:0:
452,130,86888,1,0,0:0:0:0:
266,159,86993,1,2,0:0:0:0:
385,266,87098,2,0,P|414:268|451:254,1,59.375,10|0,0:0|0:0,0:0:0:0:
249,101,87307,2,0,P|220:99|183:113,1,59.375
204,288,87517,5,2,0:0:0:0:
226,246,87622,2,0,P|230:220|220:176,1,59.375
64,298,87832,1,0,0:0:0:0:
89,338,87937,2,0,P|109:354|152:367,1,59.375,8|0,0:0|0:0,0:0:0:0:
346,320,88147,2,0,P|323:339|296:350,1,59.375
354,121,88356,5,2,0:0:0:0:
379,118,88461,1,0,0:0:0:0:
280,220,88566,5,2,0:0:0:0:
255,223,88671,1,0,0:0:0:0:
366,207,88776,5,8,0:0:0:0:
369,232,88881,1,0,0:0:0:0:
267,133,88986,5,2,0:0:0:0:
264,108,89091,1,0,0:0:0:0:
323,41,89196,5,8,0:0:0:0:
146,226,89405,1,0,0:0:0:0:
395,287,89615,5,2,0:0:0:0:
163,75,89825,5,8,0:0:0:0:
88,378,90035,5,0,0:0:0:0:
479,222,90245,1,2,0:0:0:0:
24,113,90454,1,4,0:0:0:0:
256,192,90559,12,0,94021,0:0:0:0:
