osu file format v14

[General]
AudioFilename: audio.mp3
AudioLeadIn: 0
PreviewTime: 97538
Countdown: 0
SampleSet: Soft
StackLeniency: 0.7
Mode: 0
LetterboxInBreaks: 0
WidescreenStoryboard: 1

[Editor]
Bookmarks: 1192,5294,15550,23756,31961,40166,48371,56576,64781,72986,77089,85294,92474,97602,105807,114012,122217
DistanceSpacing: 1.3
BeatDivisor: 6
GridSize: 16
TimelineZoom: 2.4

[Metadata]
Title:Rebellio
TitleUnicode:Rebellio
Artist:MAX MAXIMIZER vs. DJ TOTTO
ArtistUnicode:MAX MAXIMIZER vs. DJ TOTTO
Creator:Realazy
Version:HYPER
Source:REFLEC BEAT VOLZZA
Tags:hypercyte [_Drop_] Drop Sharu [_Sharuresu_] SnowNiNo_ toybot den0saur eiri- Ayyri SOUND VOLTEX IV HEAVENLY HAVEN SDVX4 SDVX 4 The 5th KAC Arcade Championship Tatsuya Iyama 伊山達也 Qrispy Joybox Yoshihiro Tagawa 田川義浩 The 6th
BeatmapID:1623396
BeatmapSetID:744636

[Difficulty]
HPDrainRate:4
CircleSize:3.7
OverallDifficulty:7
ApproachRate:8.3
SliderMultiplier:1.2
SliderTickRate:1

[Events]
//Background and Video events
0,0,"burn.jpg",0,0
//Break Periods
//Storyboard Layer 0 (Background)
//Storyboard Layer 1 (Fail)
//Storyboard Layer 2 (Pass)
//Storyboard Layer 3 (Foreground)
//Storyboard Sound Samples

[TimingPoints]
1192,256.410256410256,4,2,1,60,1,0
1448,-100,4,2,1,30,0,0
3243,-100,4,2,1,50,0,0
5294,-125,4,2,1,50,0,0
15550,-100,4,2,1,60,0,0
16961,-100,4,2,1,50,0,0
17602,-100,4,2,1,60,0,0
21448,-100,4,2,1,65,0,0
21961,-100,4,2,1,70,0,0
22474,-100,4,2,1,75,0,0
23243,-100,4,2,1,55,0,0
23307,-100,4,2,1,58,0,0
23371,-100,4,2,1,61,0,0
23435,-100,4,2,1,64,0,0
23499,-100,4,2,1,67,0,0
23563,-100,4,2,1,70,0,0
23627,-100,4,2,1,73,0,0
23756,-100,4,2,1,75,0,0
31704,-100,4,2,1,50,0,0
31961,-100,4,2,1,75,0,0
35550,-100,4,2,1,80,0,0
36063,-100,4,2,1,75,0,0
39653,-100,4,2,1,55,0,0
40166,-100,4,2,1,80,0,0
47858,-100,4,2,1,70,0,0
48371,-100,4,2,1,80,0,0
51961,-100,4,2,1,90,0,0
52474,-100,4,2,1,80,0,0
56576,-125,4,2,1,60,0,0
64781,-111.111111111111,4,2,1,70,0,0
72986,-100,4,2,1,50,0,0
75038,-100,4,2,1,55,0,0
75294,-100,4,2,1,60,0,0
75358,-100,4,2,1,60,0,0
75422,-100,4,2,1,60,0,0
75486,-100,4,2,1,60,0,0
75550,-100,4,2,1,62,0,0
75615,-100,4,2,1,64,0,0
75679,-100,4,2,1,66,0,0
75743,-100,4,2,1,68,0,0
75807,-100,4,2,1,70,0,0
75871,-100,4,2,1,72,0,0
75935,-100,4,2,1,74,0,0
75999,-100,4,2,1,76,0,0
76063,-100,4,2,1,80,0,0
77089,-100,4,2,1,90,0,1
81704,-100,4,2,1,95,0,1
82217,-100,4,2,1,90,0,1
82730,-100,4,2,1,95,0,1
83243,-100,4,2,1,90,0,1
89909,-100,4,2,1,95,0,1
90422,-100,4,2,1,90,0,1
90935,-100,4,2,1,95,0,1
91448,-100,4,2,1,90,0,1
97089,-100,4,2,1,30,0,1
97602,-100,4,2,1,80,0,0
105807,-100,4,2,1,90,0,1
114012,-100,4,2,1,70,0,0

[Colours]
Combo1 : 97,139,218
Combo2 : 250,130,78
Combo3 : 232,208,125
Combo4 : 255,79,83

[HitObjects]
180,117,1192,5,4,1:0:0:0:
256,192,1320,12,0,3243,0:0:0:0:
165,66,5294,6,0,P|198:151|144:225,1,192,4|0,1:0|0:0,0:0:0:0:
142,225,6320,1,0,0:0:0:0:
241,296,6576,1,0,0:0:0:0:
360,267,6833,1,0,0:0:0:0:
360,267,7345,6,0,P|383:307|382:355,2,96,0|0|0,0:0|0:0|0:0,0:0:0:0:
202,85,8371,1,0,0:0:0:0:
431,12,8884,1,8,0:0:0:0:
270,216,9397,6,0,P|204:240|140:212,1,144,0|0,0:0|0:0,0:0:0:0:
140,212,9909,1,8,0:0:0:0:
200,326,10422,2,0,P|243:345|290:339,2,96,0|0|8,0:0|1:0|0:0,0:0:0:0:
52,105,11448,5,0,1:0:0:0:
170,89,11704,1,0,0:0:0:0:
289,74,11961,1,8,0:0:0:0:
200,326,12474,5,0,0:0:0:0:
185,208,12730,1,0,0:0:0:0:
170,89,12987,1,8,0:0:0:0:
422,177,13499,5,4,1:0:0:0:
256,192,13627,12,0,15294,0:0:0:0:
424,237,15550,6,0,P|464:256|508:258,2,90,0|0|0,1:0|1:0|1:0,0:0:0:0:
301,43,16320,1,0,1:0:0:0:
301,43,16448,2,0,L|181:52,1,120,0|0,1:0|0:0,0:0:0:0:
110,19,16833,1,0,0:0:0:0:
51,70,16961,2,0,L|62:159,1,90,0|0,0:0|0:0,0:0:0:0:
80,174,17217,2,0,L|138:159,1,60
144,238,17474,2,0,L|114:245,1,30
84,256,17602,6,0,P|71:298|85:340,2,90,0|0|0,1:0|1:0|1:0,0:0:0:0:
209,349,18243,1,0,1:0:0:0:
284,330,18371,1,0,1:0:0:0:
360,310,18499,2,0,P|376:269|371:225,1,90,0|0,1:0|0:0,0:0:0:0:
364,201,18756,2,0,P|360:186|361:171,2,30,0|0|0,0:0|0:0|0:0,0:0:0:0:
439,183,19012,1,0,0:0:0:0:
410,109,19140,2,0,P|354:93|302:120,1,120,4|4,1:0|1:0,0:0:0:0:
160,187,19653,6,0,L|176:98,2,90,0|0|0,1:0|1:0|1:0,0:0:0:0:
334,343,20422,1,0,1:0:0:0:
334,342,20550,2,0,P|353:287|337:230,1,120,0|0,1:0|0:0,0:0:0:0:
299,161,20935,2,0,L|309:101,1,60,0|0,0:0|0:0,0:0:0:0:
387,103,21191,2,0,L|376:162,1,60,0|0,0:0|0:0,0:0:0:0:
337,230,21448,2,0,L|308:239,3,30,0|0|0|0,1:0|1:0|1:0|1:0,0:0:0:0:
285,247,21704,6,0,P|234:218|177:229,1,120,4|0,1:2|1:0,0:0:0:0:
121,285,22089,1,0,1:0:0:0:
63,232,22217,2,0,P|51:174|81:123,1,120,4|0,1:2|1:0,0:0:0:0:
137,68,22602,1,0,1:0:0:0:
208,99,22730,2,0,L|267:88,1,60,0|0,1:0|0:0,0:0:0:0:
326,139,22986,2,0,L|385:128,1,60,0|0,0:0|0:0,0:0:0:0:
444,179,23243,2,0,B|438:208,6,30,0|0|0|0|0|0|0,0:0|0:0|0:0|0:0|0:0|0:0|0:0,0:0:0:0:
437,101,23756,6,0,P|408:109|385:128,1,60,4|0,1:0|0:0,0:0:0:0:
328,181,24012,2,0,P|299:173|275:154,1,60,0|0,1:0|0:0,0:0:0:0:
224,96,24268,1,0,1:0:0:0:
224,96,24397,2,0,P|195:104|172:123,1,60,0|0,0:0|1:0,0:0:0:0:
38,43,24781,6,0,L|46:102,1,60,2|0,1:1|0:1,0:0:0:0:
101,158,25038,2,0,L|109:217,1,60,2|0,1:0|0:0,0:0:0:0:
85,291,25294,1,0,1:0:0:0:
139,346,25422,1,0,0:0:0:0:
214,327,25550,2,0,L|243:321,3,30,0|0|0|0,1:0|1:0|1:0|1:0,0:0:0:0:
279,337,25807,6,0,L|338:326,1,60,4|0,1:0|0:0,0:0:0:0:
360,251,26063,2,0,L|300:240,1,60,0|0,1:0|0:0,0:0:0:0:
249,180,26320,1,0,1:0:0:0:
249,180,26448,2,0,P|244:150|252:122,1,60,0|0,0:0|1:0,0:0:0:0:
404,86,26833,6,0,P|414:113|412:143,1,60,2|0,1:1|0:0,0:0:0:0:
351,193,27089,2,0,P|348:222|359:250,1,60,2|0,1:0|0:0,0:0:0:0:
391,319,27345,2,0,P|350:302|306:307,1,90,0|0,1:0|1:0,0:0:0:0:
272,326,27602,1,0,1:0:0:0:
201,291,27730,1,0,1:0:0:0:
139,338,27858,6,0,P|125:311|124:281,1,60,4|0,1:0|0:0,0:0:0:0:
144,206,28115,2,0,P|143:176|129:149,1,60,0|0,1:0|0:0,0:0:0:0:
66,103,28371,1,0,1:0:0:0:
112,39,28499,1,0,0:0:0:0:
175,85,28627,1,0,1:0:0:0:
245,224,28884,6,0,B|277:232|277:232|303:224,1,60,2|0,1:0|0:0,0:0:0:0:
367,180,29140,2,0,B|393:172|393:172|425:180,1,60,2|0,1:0|0:0,0:0:0:0:
492,221,29397,1,0,1:0:0:0:
494,143,29525,1,0,0:0:0:0:
427,102,29653,2,0,L|397:95,3,30,0|0|0|0,1:0|1:0|1:0|1:0,0:0:0:0:
368,69,29909,6,0,L|309:81,1,60,4|0,1:0|0:0,0:0:0:0:
260,142,30166,2,0,L|272:200,1,60,0|0,1:0|0:0,0:0:0:0:
303,276,30422,1,0,1:0:0:0:
303,276,30550,2,0,P|245:279|199:242,1,120,0|0,0:0|1:0,0:0:0:0:
150,180,30935,6,0,P|120:174|92:182,1,60,2|0,1:0|0:0,0:0:0:0:
58,112,31191,2,0,L|60:52,1,60,2|0,1:0|0:0,0:0:0:0:
133,79,31448,2,0,L|135:19,1,60,0|0,1:0|0:0,0:0:0:0:
212,17,31704,1,0,1:0:0:0:
212,17,31961,6,0,P|241:13|270:21,1,60,0|0,1:0|0:0,0:0:0:0:
328,72,32217,2,0,P|357:75|386:67,1,60,0|0,1:0|0:0,0:0:0:0:
450,22,32474,1,0,1:0:0:0:
450,22,32602,2,0,P|464:48|466:77,1,60,0|0,0:0|1:0,0:0:0:0:
506,228,32986,6,0,P|453:254|397:236,1,120,2|2,1:0|1:0,0:0:0:0:
346,177,33371,1,0,0:0:0:0:
276,215,33499,2,0,L|279:274,1,60,0|0,1:0|0:0,0:0:0:0:
240,342,33756,2,0,L|210:337,3,30,0|0|0|0,1:0|1:0|1:0|1:0,0:0:0:0:
174,352,34012,6,0,P|178:322|169:294,1,60,4|0,1:0|0:0,0:0:0:0:
119,234,34268,2,0,P|109:205|114:176,1,60,0|0,1:0|0:0,0:0:0:0:
72,109,34525,1,0,1:0:0:0:
72,109,34653,2,0,P|124:135|181:121,1,120,0|0,0:0|0:0,0:0:0:0:
236,65,35038,6,0,L|295:71,1,60,2|0,1:0|0:0,0:0:0:0:
338,6,35294,2,0,L|386:41,1,60,2|0,1:0|1:0,0:0:0:0:
448,88,35550,2,0,P|464:46|454:3,2,90,8|8|8,1:2|1:2|1:2,0:0:0:0:
384,133,36063,6,0,L|392:192,1,60,4|0,1:0|0:0,0:0:0:0:
443,251,36320,2,0,L|434:310,1,60,0|0,1:0|0:0,0:0:0:0:
370,352,36576,1,0,1:0:0:0:
370,352,36704,2,0,P|340:359|311:353,1,60,0|0,0:0|1:0,0:0:0:0:
281,198,37089,6,0,P|335:175|391:192,1,120,2|2,1:0|1:0,0:0:0:0:
443,251,37474,1,0,0:0:0:0:
499,198,37602,2,0,P|504:168|499:138,1,60,0|0,1:0|0:0,0:0:0:0:
453,76,37858,2,0,L|423:71,3,30,0|0|0|0,1:0|1:0|1:0|1:0,0:0:0:0:
386,84,38115,6,0,L|326:74,1,60,4|0,1:0|0:0,0:0:0:0:
274,17,38371,2,0,L|214:26,1,60,0|0,1:0|0:0,0:0:0:0:
145,61,38627,1,0,1:0:0:0:
73,29,38756,2,0,L|66:73,1,30,0|0,1:0|1:0,0:0:0:0:
41,87,38884,6,0,P|28:114|28:143,2,60,0|0|2,1:0|1:0|1:0,0:0:0:0:
105,131,39268,1,0,0:0:0:0:
154,191,39397,2,0,P|128:205|99:209,1,60,2|0,1:0|0:0,0:0:0:0:
22,221,39653,1,2,0:1:0:0:
302,357,40166,6,0,B|294:327|302:297|302:297|309:267|302:238,1,120,4|2,1:0|1:2,0:0:0:0:
267,167,40550,1,0,0:0:0:0:
292,92,40679,1,0,1:0:0:0:
442,162,40935,6,0,P|443:191|434:220,1,60,2|2,1:2|0:2,0:0:0:0:
356,215,41191,2,0,P|331:231|301:237,1,60,2|2,1:0|0:2,0:0:0:0:
267,167,41448,2,0,P|240:153|220:131,1,60,2|2,1:0|0:2,0:0:0:0:
154,89,41704,2,0,P|127:102|107:124,1,60,2|2,1:2|0:2,0:0:0:0:
74,195,41961,2,0,L|78:224,3,30,0|0|0|0,1:0|1:0|1:0|1:0,0:0:0:0:
58,256,42217,6,0,P|115:254|150:301,1,120,4|2,1:0|1:2,0:0:0:0:
177,374,42602,1,0,0:0:0:0:
249,346,42730,1,2,1:2:0:0:
403,368,42986,6,0,L|412:309,1,60,2|2,1:2|0:2,0:0:0:0:
356,253,43243,2,0,L|347:194,1,60,2|2,1:0|0:2,0:0:0:0:
410,148,43499,2,0,L|419:89,1,60,2|2,1:0|0:2,0:0:0:0:
366,28,43756,2,0,P|324:15|281:25,1,90,2|0,1:2|0:0,0:0:0:0:
252,52,44012,1,2,1:2:0:0:
177,76,44140,1,2,1:2:0:0:
116,25,44268,6,0,P|97:80|122:133,1,120,4|2,1:0|1:2,0:0:0:0:
181,184,44653,1,0,0:0:0:0:
120,232,44781,1,2,1:2:0:0:
256,307,45038,6,0,L|245:366,1,60,2|2,1:2|0:2,0:0:0:0:
323,373,45294,2,0,L|333:313,1,60,2|2,1:0|0:2,0:0:0:0:
410,319,45550,2,0,L|400:379,1,60,2|2,1:0|0:2,0:0:0:0:
478,377,45807,2,0,L|498:258,1,120,2|0,1:2|1:0,0:0:0:0:
447,199,46191,2,0,L|442:169,1,30,0|0,1:0|1:0,0:0:0:0:
465,138,46320,6,0,P|408:145|362:108,1,120,6|2,1:2|1:2,0:0:0:0:
429,70,46704,1,0,0:0:0:0:
360,30,46833,1,2,1:2:0:0:
207,59,47089,5,2,1:2:0:0:
207,59,47217,1,2,1:2:0:0:
207,59,47345,2,0,L|220:117,1,60,2|0,1:2|0:0,0:0:0:0:
150,154,47602,2,0,L|137:96,1,60,2|2,0:0|0:0,0:0:0:0:
67,129,47858,1,0,1:0:0:0:
39,312,48115,1,0,1:0:0:0:
177,239,48371,6,0,P|233:223|290:242,1,120,6|2,1:2|1:2,0:0:0:0:
358,281,48756,1,0,0:0:0:0:
433,262,48884,1,2,1:2:0:0:
354,126,49140,6,0,P|354:155|366:183,1,60,2|2,1:2|0:2,0:0:0:0:
443,170,49397,2,0,P|442:140|430:112,1,60,2|2,1:0|0:2,0:0:0:0:
380,51,49653,2,0,P|350:46|321:53,1,60,2|2,1:0|0:2,0:0:0:0:
262,103,49909,2,0,P|233:110|203:105,1,60,2|2,1:2|0:2,0:0:0:0:
132,71,50166,2,0,L|102:74,3,30,0|0|0|0,1:0|1:0|1:0|1:0,0:0:0:0:
68,54,50422,6,0,L|85:172,1,120,6|2,1:2|1:2,0:0:0:0:
128,238,50807,1,0,0:0:0:0:
198,205,50935,1,2,1:2:0:0:
330,287,51191,6,0,L|389:295,1,60,2|2,1:2|0:2,0:0:0:0:
435,229,51448,2,0,L|412:173,1,60,2|2,1:0|0:2,0:0:0:0:
334,170,51704,2,0,L|296:217,1,60,2|2,1:0|1:2,0:0:0:0:
243,275,51961,2,0,L|153:288,2,90,8|8|8,1:2|1:2|1:2,0:0:0:0:
297,217,52474,6,0,P|320:163|307:106,1,120,6|2,1:2|1:2,0:0:0:0:
262,40,52858,1,0,0:0:0:0:
187,63,52986,1,2,1:2:0:0:
91,186,53243,6,0,P|70:207|59:235,1,60,2|2,1:2|0:2,0:0:0:0:
135,248,53499,2,0,P|135:277|147:305,1,60,2|2,1:0|0:2,0:0:0:0:
211,261,53756,2,0,P|232:281|260:292,1,60,2|2,1:0|0:2,0:0:0:0:
274,215,54012,2,0,P|303:214|331:202,1,60,2|2,1:2|0:2,0:0:0:0:
383,144,54268,2,0,L|389:114,3,30,0|0|0|0,1:0|1:0|1:0|1:0,0:0:0:0:
405,78,54525,6,0,L|415:197,1,120,6|2,1:2|1:2,0:0:0:0:
463,258,54909,1,0,0:0:0:0:
434,331,55038,1,2,1:2:0:0:
279,348,55294,5,2,1:2:0:0:
279,348,55422,1,2,1:2:0:0:
279,348,55550,2,0,L|284:288,1,60,2|2,1:0|0:2,0:0:0:0:
207,299,55807,2,0,L|201:239,1,60,2|2,1:0|0:2,0:0:0:0:
154,176,56063,2,0,L|124:172,2,30,0|0|0,1:2|1:0|1:2,0:0:0:0:
206,117,56320,1,2,1:2:0:0:
206,117,56448,1,2,1:2:0:0:
206,116,56576,6,0,P|273:99|332:138,1,144,4|0,1:2|1:0,0:0:0:0:
332,138,57602,2,0,L|343:42,2,96,2|2|2,0:0|0:0|0:0,0:0:0:0:
367,189,58243,1,0,0:0:0:0:
367,189,58371,2,0,L|357:235,1,48,2|0,0:0|0:0,0:0:0:0:
374,294,58627,6,0,P|306:279|247:318,1,144,2|0,1:2|1:2,0:0:0:0:
247,318,59653,2,0,P|294:316|333:288,2,96,2|2|2,0:0|0:0|0:0,0:0:0:0:
190,290,60294,1,0,0:0:0:0:
190,290,60422,2,0,P|166:283|143:285,1,48,2|0,0:0|0:0,0:0:0:0:
92,323,60679,6,0,L|72:180,1,144,2|0,1:2|1:0,0:0:0:0:
72,180,61704,2,0,L|47:272,2,96,2|2|2,0:0|0:0|0:0,0:0:0:0:
116,135,62345,1,0,0:0:0:0:
116,135,62474,2,0,L|128:88,1,48,2|0,0:0|0:0,0:0:0:0:
168,41,62730,2,0,P|224:82|294:70,1,144
346,34,63243,2,0,P|369:38|390:49,1,48
437,91,63499,2,0,P|446:112|449:136,1,48
429,197,63756,1,0,0:0:0:0:
429,197,64268,1,0,0:0:0:0:
429,197,64781,6,0,P|415:275|442:351,1,161.999995056153,4|0,1:0|0:0,0:0:0:0:
442,351,65294,1,8,0:0:0:0:
446,355,65807,1,0,0:0:0:0:
305,352,66063,1,0,1:0:0:0:
263,218,66320,1,8,0:0:0:0:
263,217,66833,6,0,P|336:244|361:318,1,161.999995056153,0|0,1:0|1:0,0:0:0:0:
361,318,67345,1,8,0:0:0:0:
361,318,67858,1,0,0:0:0:0:
233,377,68115,1,0,1:0:0:0:
120,293,68371,1,8,0:0:0:0:
120,293,68884,6,0,B|152:218|152:218|125:142,1,161.999995056153,4|0,1:0|1:0,0:0:0:0:
125,142,69397,1,8,0:0:0:0:
125,142,69909,1,0,0:0:0:0:
214,33,70166,1,0,1:0:0:0:
317,127,70422,1,8,0:0:0:0:
317,126,70935,6,0,P|386:91|455:128,1,161.999995056153,0|0,1:0|1:0,0:0:0:0:
455,128,71448,1,8,0:0:0:0:
455,128,71961,1,0,0:0:0:0:
383,249,72217,1,0,1:0:0:0:
471,358,72474,1,8,0:0:0:0:
471,358,72986,6,0,L|481:298,2,60,2|0|2,0:0|0:0|0:0,0:0:0:0:
395,335,73371,1,0,0:0:0:0:
319,358,73499,2,0,L|308:298,1,60,2|2,0:0|0:0,0:0:0:0:
285,144,73884,1,2,0:0:0:0:
232,201,74012,2,0,L|226:241,3,40,2|0|0|2,0:0|0:0|0:0|0:0,0:0:0:0:
99,332,74525,2,0,L|92:371,3,40,2|0|0|2,0:0|0:0|0:0|0:0,0:0:0:0:
41,223,75038,6,0,P|42:193|52:164,1,60,0|0,0:0|0:0,0:0:0:0:
111,114,75294,2,0,L|140:121,3,30
169,94,75550,2,0,L|198:101,3,30
230,77,75807,2,0,L|259:84,3,30
294,67,76063,6,0,L|301:156,2,90,2|0|0,0:0|0:0|0:0,0:0:0:0:
348,10,76576,1,2,0:0:0:0:
413,51,76704,2,0,L|442:44,3,20,2|2|2|2,0:0|0:0|0:0|0:0,0:0:0:0:
378,118,76961,1,0,0:0:0:0:
433,173,77089,6,0,L|428:232,1,60,6|2,1:2|0:0,0:0:0:0:
413,309,77345,1,0,1:0:0:0:
342,342,77474,2,0,L|292:308,1,60,2|2,0:0|1:2,0:0:0:0:
230,261,77730,1,0,0:0:0:0:
230,182,77858,2,0,L|284:156,1,60,2|0,1:2|0:0,0:0:0:0:
253,83,78115,6,0,L|144:135,1,120,0|2,1:2|1:2,0:0:0:0:
83,87,78499,1,2,0:0:0:0:
90,243,78756,2,0,P|91:272|80:300,2,60,2|2|2,0:0|1:2|0:0,0:0:0:0:
135,180,79140,6,0,L|139:150,4,30,2|2|0|0|0,1:2|0:0|0:0|0:0|1:0,0:0:0:0:
188,237,79525,2,0,L|192:266,4,30,2|2|0|0|0,0:0|0:0|1:0|0:0|0:0,0:0:0:0:
238,178,79909,6,0,P|268:172|296:180,1,60,2|0,1:2|0:0,0:0:0:0:
362,223,80166,2,0,P|390:231|419:225,1,60,2|0,1:2|1:0,0:0:0:0:
424,148,80422,2,0,P|395:139|366:145,1,60,2|0,1:2|0:0,0:0:0:0:
296,180,80679,1,0,1:0:0:0:
238,127,80807,2,0,L|245:97,2,30,2|2|0,0:0|0:0|1:0,0:0:0:0:
183,182,81063,1,0,1:0:0:0:
183,182,81191,6,0,P|127:193|82:156,1,120,4|2,1:0|1:2,0:0:0:0:
71,78,81576,1,0,0:0:0:0:
10,128,81704,2,0,P|5:171|25:211,2,90,2|2|2,1:2|1:2|1:2,0:0:0:0:
71,78,82217,6,0,L|190:64,1,120,4|2,1:0|1:2,0:0:0:0:
259,101,82602,1,0,1:0:0:0:
316,48,82730,2,0,L|405:59,2,90,2|2|2,1:2|1:2|1:2,0:0:0:0:
258,100,83243,6,0,P|239:61|244:17,2,90,6|0|2,1:2|0:0|0:0,0:0:0:0:
320,150,83756,2,0,P|332:177|332:206,1,60,2|0,1:2|0:0,0:0:0:0:
403,239,84012,2,0,P|385:263|360:278,1,60,2|0,1:2|0:0,0:0:0:0:
305,332,84268,6,0,P|349:332|389:351,2,90,2|2|2,1:2|0:0|0:0,0:0:0:0:
229,357,84781,2,0,P|171:355|135:309,1,120,2|0,1:2|1:0,0:0:0:0:
164,155,85294,6,0,P|134:156|107:143,1,60,6|2,1:2|0:0,0:0:0:0:
67,76,85550,1,0,1:0:0:0:
126,24,85679,2,0,P|155:23|182:36,1,60,2|2,0:0|1:2,0:0:0:0:
223,104,85935,1,0,0:0:0:0:
241,178,86063,2,0,P|227:205|205:225,1,60,2|0,1:2|0:0,0:0:0:0:
244,293,86320,6,0,P|289:254|316:201,1,120,0|2,1:2|1:2,0:0:0:0:
326,124,86704,1,2,0:0:0:0:
456,209,86961,2,0,L|464:149,2,60,2|2|2,0:0|1:2|0:0,0:0:0:0:
482,282,87345,6,0,L|512:282,4,30,2|2|0|0|0,1:2|0:0|0:0|0:0|1:0,0:0:0:0:
438,347,87730,2,0,L|438:377,4,30,2|2|0|0|0,0:0|0:0|1:0|0:0|0:0,0:0:0:0:
394,280,88115,6,0,P|365:277|336:285,1,60,2|0,1:2|0:0,0:0:0:0:
269,325,88371,2,0,P|239:328|210:320,1,60,2|0,1:2|1:0,0:0:0:0:
164,257,88627,2,0,P|160:227|168:198,1,60,2|0,1:2|0:0,0:0:0:0:
196,125,88884,1,0,1:0:0:0:
161,54,89012,2,0,L|131:57,2,30,2|2|0,0:0|0:0|1:0,0:0:0:0:
225,10,89268,1,0,1:0:0:0:
225,10,89397,6,0,L|343:31,1,120,4|2,1:0|1:2,0:0:0:0:
397,86,89781,1,0,0:0:0:0:
323,111,89909,2,0,L|234:95,2,90,2|2|2,1:2|1:2|1:2,0:0:0:0:
397,86,90422,6,0,P|394:144|351:184,1,120,4|2,1:0|1:2,0:0:0:0:
276,208,90807,1,0,1:0:0:0:
332,261,90935,2,0,P|375:272|407:303,2,90,2|2|2,1:2|1:2|1:2,0:0:0:0:
257,284,91448,6,0,P|198:291|148:259,1,120,6|2,1:2|1:2,0:0:0:0:
116,188,91833,2,0,L|86:190,2,30,2|2|2,1:2|1:2|1:2,0:0:0:0:
155,120,92089,1,2,1:2:0:0:
231,132,92217,1,2,1:2:0:0:
307,144,92345,1,2,1:0:0:0:
307,144,92602,5,2,1:0:0:0:
231,132,92730,1,2,1:2:0:0:
155,120,92858,1,2,1:2:0:0:
116,188,92986,2,0,L|86:190,2,30,2|0|2,0:0|0:0|0:0,0:0:0:0:
171,243,93243,2,0,L|228:259,1,60,2|2,1:2|1:2,0:0:0:0:
283,314,93499,6,0,P|280:343|267:370,2,60,6|0|0,1:2|1:0|1:0,0:0:0:0:
324,247,93884,1,0,1:0:0:0:
387,291,94012,2,0,L|460:299,1,60,2|0,1:2|1:0,0:0:0:0:
508,249,94268,1,2,1:2:0:0:
438,108,94525,6,0,L|453:50,2,60,2|0|0,1:2|1:0|1:0,0:0:0:0:
381,161,94909,1,0,1:0:0:0:
326,102,95038,2,0,P|298:93|268:94,1,60,2|0,1:2|1:0,0:0:0:0:
201,133,95294,1,2,1:2:0:0:
63,59,95550,6,0,L|33:54,4,30,0|0|0|0|2,1:0|1:0|1:0|1:0|1:2,0:0:0:0:
98,128,95935,1,0,1:0:0:0:
29,163,96063,2,0,L|24:193,4,30,0|0|2|0|2,1:0|1:0|1:2|1:0|1:2,0:0:0:0:
98,128,96448,1,0,1:0:0:0:
133,197,96576,2,0,L|163:202,3,30,0|0|2|0,1:0|1:0|1:2|1:0,0:0:0:0:
186,233,96833,2,0,L|216:238,3,30,2|0|2|0,1:2|1:0|1:2|1:0,0:0:0:0:
239,269,97089,5,2,0:1:0:0:
238,268,97602,6,0,P|236:210|274:165,1,120,6|2,1:2|1:2,0:0:0:0:
340,124,97986,1,2,0:0:0:0:
267,91,98115,2,0,P|213:115|176:161,1,120,2|2,1:0|1:2,0:0:0:0:
125,220,98499,5,2,0:0:0:0:
176,278,98627,2,0,L|235:285,1,60,2|0,1:2|0:0,0:0:0:0:
265,357,98884,2,0,L|312:320,1,60,2|0,1:2|0:0,0:0:0:0:
383,349,99140,2,0,L|390:289,1,60,2|0,1:2|0:0,0:0:0:0:
437,226,99397,2,0,L|433:196,3,30,0|0|0|0,1:0|1:0|1:0|1:0,0:0:0:0:
453,163,99653,6,0,P|398:183|340:170,1,120,6|2,1:2|1:2,0:0:0:0:
292,108,100038,1,2,1:2:0:0:
335,43,100166,2,0,P|390:22|448:35,1,120,2|2,1:0|1:2,0:0:0:0:
497,98,100551,1,2,0:0:0:0:
453,163,100679,6,0,L|461:222,1,60,2|0,1:2|0:0,0:0:0:0:
384,213,100935,2,0,L|371:271,1,60,2|0,1:2|0:0,0:0:0:0:
302,236,101191,2,0,L|270:287,1,60,2|0,1:2|1:0,0:0:0:0:
204,329,101448,1,2,1:2:0:0:
204,329,101576,1,0,1:0:0:0:
204,329,101704,6,0,P|147:342|97:312,1,120,6|2,1:2|1:2,0:0:0:0:
157,264,102089,1,2,0:0:0:0:
219,218,102217,2,0,P|168:187|112:201,1,120,2|2,1:0|1:2,0:0:0:0:
46,244,102602,5,2,0:0:0:0:
14,172,102730,2,0,L|15:112,1,60,2|0,1:2|0:0,0:0:0:0:
92,122,102986,2,0,L|93:62,1,60,2|0,1:2|0:0,0:0:0:0:
170,72,103243,2,0,L|171:12,1,60,2|0,1:2|0:0,0:0:0:0:
247,28,103499,2,0,L|246:57,3,30,0|0|0|0,1:0|1:0|1:0|1:0,0:0:0:0:
272,86,103756,6,0,P|301:78|331:84,1,60,6|0,1:2|1:0,0:0:0:0:
400,119,104012,1,2,1:2:0:0:
445,188,104140,1,2,1:2:0:0:
445,188,104268,2,0,P|452:216|446:246,1,60,2|0,1:0|1:0,0:0:0:0:
395,305,104525,6,0,L|335:294,1,60,2|0,1:2|1:0,0:0:0:0:
260,313,104781,2,0,L|201:298,1,60,2|2,1:2|1:2,0:0:0:0:
188,221,105038,2,0,L|129:206,1,60,2|2,1:2|1:2,0:0:0:0:
61,244,105294,1,10,1:2:0:0:
63,166,105422,1,10,1:2:0:0:
63,166,105807,6,0,P|121:171|171:139,1,120,6|2,1:2|1:2,0:0:0:0:
218,77,106191,1,2,1:2:0:0:
271,18,106320,2,0,P|329:22|366:67,1,120,2|2,1:0|1:2,0:0:0:0:
397,139,106704,1,2,1:2:0:0:
460,94,106833,6,0,P|474:128|472:164,1,60,2|2,1:2|1:2,0:0:0:0:
405,218,107089,2,0,P|367:212|338:193,1,60,2|2,1:2|1:2,0:0:0:0:
324,108,107345,2,0,P|347:78|378:62,1,60,2|0,1:2|1:2,0:0:0:0:
397,139,107602,1,2,1:2:0:0:
248,184,107858,6,0,L|131:156,1,120,6|0,1:2|1:0,0:0:0:0:
61,193,108243,1,0,1:0:0:0:
101,259,108371,2,0,L|217:286,1,120,2|2,1:0|1:2,0:0:0:0:
288,252,108756,1,2,1:2:0:0:
352,295,108884,6,0,L|411:286,1,60,2|2,1:2|1:2,0:0:0:0:
416,208,109140,2,0,L|356:216,1,60,2|2,1:2|1:2,0:0:0:0:
360,137,109397,2,0,L|420:129,1,60,2|2,1:2|1:2,0:0:0:0:
424,50,109653,1,2,1:2:0:0:
346,58,109781,1,0,1:0:0:0:
267,65,109909,6,0,P|239:116|240:176,1,120,6|2,1:2|1:2,0:0:0:0:
270,248,110294,1,2,1:2:0:0:
192,237,110422,2,0,P|161:186|160:126,1,120,2|2,1:0|1:2,0:0:0:0:
134,52,110807,1,2,1:2:0:0:
83,111,110935,6,0,P|78:140|79:170,1,60,2|2,1:2|1:2,0:0:0:0:
101,245,111191,2,0,P|115:271|135:293,1,60,2|2,1:2|1:2,0:0:0:0:
200,335,111448,2,0,P|227:345|257:350,1,60,2|2,1:2|1:2,0:0:0:0:
333,338,111704,1,2,1:2:0:0:
333,338,111961,6,0,P|311:284|321:225,1,120,6|2,1:2|1:2,0:0:0:0:
355,155,112345,1,2,1:2:0:0:
295,104,112474,2,0,P|236:111|191:149,1,120,2|2,1:0|1:2,0:0:0:0:
147,214,112858,1,2,1:2:0:0:
179,283,112986,6,0,P|150:291|120:285,1,60,2|2,1:2|1:2,0:0:0:0:
70,206,113243,2,0,P|78:177|97:154,1,60,2|2,1:2|1:2,0:0:0:0:
192,150,113499,2,0,P|212:171|222:199,1,60,2|0,1:2|1:0,0:0:0:0:
147,214,113756,1,14,1:2:0:0:
283,289,114012,5,8,0:2:0:0:
283,289,114140,2,0,P|341:278|384:237,1,120,8|0,0:2|0:0,0:0:0:0:
455,205,114525,2,0,P|461:234|455:263,1,60,8|8,0:2|0:2,0:0:0:0:
332,360,114909,2,0,P|273:362|218:340,1,120,0|0,0:0|0:0,0:0:0:0:
153,295,115294,1,0,0:0:0:0:
85,253,115422,1,0,0:0:0:0:
85,253,115550,2,0,P|74:295|87:338,2,90,8|8|8,0:2|0:2|0:2,0:0:0:0:
131,103,116191,5,8,0:2:0:0:
285,81,116448,2,0,L|297:18,2,60,0|8|8,0:0|0:2|0:2,0:0:0:0:
326,231,116961,1,8,0:2:0:0:
371,167,117089,2,0,P|400:161|429:164,1,60,8|8,0:2|0:2,0:0:0:0:
494,217,117345,1,8,0:2:0:0:
494,217,117474,2,0,P|497:275|462:322,1,120,8|8,0:2|0:0,0:0:0:0:
385,336,117858,1,8,0:0:0:0:
251,255,118115,5,8,0:0:0:0:
251,255,118243,2,0,L|132:236,1,120,8|0,0:0|0:0,0:0:0:0:
123,314,118627,2,0,L|182:323,1,60,8|8,0:0|0:0,0:0:0:0:
334,287,119012,2,0,P|337:228|301:182,1,120,8|0,0:0|0:0,0:0:0:0:
254,119,119397,1,8,0:0:0:0:
310,65,119525,1,8,0:0:0:0:
310,65,119653,2,0,L|398:78,2,90,8|8|8,0:0|0:0|0:0,0:0:0:0:
246,19,120166,6,0,L|186:28,1,60,0|8,0:0|0:0,0:0:0:0:
109,40,120422,1,8,0:0:0:0:
63,189,120679,2,0,L|41:222,4,30,0|0|0|0|8,0:0|0:0|0:0|0:0|0:0,0:0:0:0:
256,192,121191,12,12,122217,0:0:0:0:
