osu file format v14

[General]
AudioFilename: audio.mp3
AudioLeadIn: 0
PreviewTime: 97538
Countdown: 0
SampleSet: Soft
StackLeniency: 0.4
Mode: 0
LetterboxInBreaks: 0
WidescreenStoryboard: 1

[Editor]
Bookmarks: 1192,15550,23756,31961,38371,40166,48371,56576,64781,72986,77089,85294,92474,97602,105807,114012,122217
DistanceSpacing: 0.8
BeatDivisor: 4
GridSize: 4
TimelineZoom: 4.399998

[Metadata]
Title:Rebellio
TitleUnicode:Rebellio
Artist:MAX MAXIMIZER vs. DJ TOTTO
ArtistUnicode:MAX MAXIMIZER vs. DJ TOTTO
Creator:Realazy
Version:DROP'S INSANE
Source:REFLEC BEAT VOLZZA
Tags:hypercyte [_Drop_] Drop Sharu [_Sharuresu_] SnowNiNo_ toybot den0saur eiri- Ayyri SOUND VOLTEX IV HEAVENLY HAVEN SDVX4 SDVX 4 The 5th KAC Arcade Championship Tatsuya Iyama 伊山達也 Qrispy Joybox Yoshihiro Tagawa 田川義浩 The 6th
BeatmapID:1621858
BeatmapSetID:744636

[Difficulty]
HPDrainRate:6
CircleSize:4
OverallDifficulty:8
ApproachRate:9.3
SliderMultiplier:1.6
SliderTickRate:1

[Events]
//Background and Video events
0,0,"burn.jpg",0,0
//Break Periods
//Storyboard Layer 0 (Background)
//Storyboard Layer 1 (Fail)
//Storyboard Layer 2 (Pass)
//Storyboard Layer 3 (Foreground)
//Storyboard Sound Samples

[TimingPoints]
1192,256.410256410256,4,2,1,60,1,0
1192,-200,4,2,1,60,0,0
1448,-100,4,2,1,30,0,0
3243,-83.3333333333333,4,2,1,50,0,0
4781,-200,4,2,1,50,0,0
9397,-125,4,2,1,50,0,0
11448,-200,4,2,1,50,0,0
13243,-100,4,2,1,50,0,0
13499,-200,4,2,1,50,0,0
15038,-142.857142857143,4,2,1,50,0,0
15294,-111.111111111111,4,2,1,50,0,0
15550,-66.6666666666667,4,2,1,60,0,0
16576,-166.666666666667,4,2,1,60,0,0
16961,-166.666666666667,4,2,1,50,0,0
17602,-66.6666666666667,4,2,1,60,0,0
18627,-166.666666666667,4,2,1,60,0,0
19140,-66.6666666666667,4,2,1,60,0,0
20679,-166.666666666667,4,2,1,60,0,0
21448,-200,4,2,1,65,0,0
21704,-100,4,2,1,65,0,0
21961,-200,4,2,1,70,0,0
22217,-100,4,2,1,70,0,0
22474,-200,4,2,1,75,0,0
22730,-100,4,2,1,75,0,0
23242,-200,4,2,1,75,0,0
23243,-200,4,2,1,55,0,0
23307,-200,4,2,1,58,0,0
23371,-200,4,2,1,61,0,0
23435,-200,4,2,1,64,0,0
23499,-200,4,2,1,67,0,0
23563,-200,4,2,1,70,0,0
23627,-200,4,2,1,73,0,0
23756,-100,4,2,1,75,0,0
31704,-100,4,2,1,50,0,0
31961,-100,4,2,1,75,0,0
35550,-66.6666666666667,4,2,1,80,0,0
36063,-100,4,2,1,75,0,0
39653,-100,4,2,1,55,0,0
40166,-100,4,2,1,80,0,0
47858,-100,4,2,1,70,0,0
48371,-100,4,2,1,80,0,0
51961,-66.6666666666667,4,2,1,90,0,0
52474,-100,4,2,1,80,0,0
56576,-200,4,2,1,60,0,0
64781,-142.857142857143,4,2,1,70,0,0
72986,-200,4,2,1,50,0,0
75038,-200,4,2,1,55,0,0
75294,-200,4,2,1,60,0,0
75550,-200,4,2,1,62,0,0
75615,-200,4,2,1,64,0,0
75679,-200,4,2,1,66,0,0
75743,-200,4,2,1,68,0,0
75807,-200,4,2,1,70,0,0
75871,-200,4,2,1,72,0,0
75935,-200,4,2,1,74,0,0
75999,-200,4,2,1,76,0,0
76063,-200,4,2,1,80,0,0
77089,-100,4,2,1,90,0,1
81704,-66.6666666666667,4,2,1,95,0,1
82217,-100,4,2,1,90,0,1
82730,-66.6666666666667,4,2,1,95,0,1
83243,-100,4,2,1,90,0,1
89909,-66.6666666666667,4,2,1,95,0,1
90422,-100,4,2,1,90,0,1
90935,-66.6666666666667,4,2,1,95,0,1
91448,-100,4,2,1,90,0,1
97089,-200,4,2,1,30,0,1
97602,-100,4,2,1,80,0,0
105807,-100,4,2,1,90,0,0
113756,-66.6666666666667,4,2,1,90,0,0
114012,-100,4,2,1,70,0,0

[Colours]
Combo1 : 97,139,218
Combo2 : 250,130,78
Combo3 : 232,208,125
Combo4 : 255,79,83

[HitObjects]
144,324,1192,6,0,B|52:308|52:308|32:228|32:228|200:260|200:260|228:344|228:344|312:364|312:364|280:260,1,613.333333333333,4|0,1:0|0:0,0:0:0:0:
264,196,3243,6,0,P|296:196|336:216,2,63.9999980468751,0|0|0,0:0|0:0|0:0,0:0:0:0:
212,112,3499,2,0,P|196:139|158:164,2,63.9999980468751,0|0|0,0:0|0:0|0:0,0:0:0:0:
310,108,3756,2,0,P|294:80|291:35,2,63.9999980468751,0|0|0,0:0|0:0|0:0,0:0:0:0:
325,207,4012,6,0,P|341:234|343:279,2,63.9999980468751,0|0|0,0:0|0:0|0:0,0:0:0:0:
171,159,4268,2,0,P|139:158|99:139,2,63.9999980468751,0|0|0,0:0|0:0|0:0,0:0:0:0:
289,48,4525,2,0,P|305:20|342:-4,2,63.9999980468751,0|0|0,0:0|0:0|0:0,0:0:0:0:
264,140,4781,6,0,L|268:160,7,20,0|0|0|0|0|0|0|0,0:0|0:0|0:0|0:0|0:0|0:0|0:0|0:0,0:0:0:0:
288,236,5294,6,0,B|376:220|360:288|448:272,1,160,4|0,1:0|0:0,0:0:0:0:
437,273,6320,6,0,P|456:244|460:200,2,80,0|0|0,0:0|0:0|0:0,0:0:0:0:
416,140,7345,6,0,P|396:105|394:65,1,80,0|0,0:0|0:0,0:0:0:0:
472,84,7858,1,0,0:0:0:0:
316,120,8371,1,0,0:0:0:0:
472,84,8884,1,8,0:0:0:0:
266,26,9397,6,0,P|233:33|200:36,1,64,0|0,0:0|0:0,0:0:0:0:
160,100,9653,2,0,P|127:93|94:90,1,64,0|0,0:0|0:0,0:0:0:0:
48,32,9909,1,8,0:0:0:0:
0,216,10422,6,0,P|43:173|103:188,2,128,0|0|8,0:0|1:0|0:0,0:0:0:0:
176,248,11448,6,0,L|188:204,3,40,0|0|0|0,1:0|0:0|0:0|0:0,0:0:0:0:
236,312,11961,2,0,L|246:350,3,40,0|0|0|0,0:0|0:0|0:0|0:0,0:0:0:0:
308,260,12474,6,0,L|346:249,1,40,0|0,0:0|0:0,0:0:0:0:
448,208,12730,1,0,0:0:0:0:
448,208,12858,2,0,L|409:197,1,40,0|8,0:0|0:0,0:0:0:0:
348,140,13243,6,0,L|360:84,3,40,0|0|0|0,0:0|0:0|0:0|0:0,0:0:0:0:
360,80,13499,6,0,B|248:96|248:96|216:128|216:128|176:108|176:108|48:124,1,320,4|0,1:0|0:0,0:0:0:0:
20,188,14653,1,0,0:0:0:0:
20,188,14781,6,0,P|12:214|8:242,1,40,0|0,0:0|0:0,0:0:0:0:
96,360,15038,6,0,P|90:332|81:306,1,55.9999982910157,0|0,0:0|0:0,0:0:0:0:
160,244,15294,6,0,L|233:252,1,71.9999978027344,0|0,0:0|0:0,0:0:0:0:
380,300,15550,6,0,B|305:315|305:315|287:341|287:341|217:358,2,180.000006866455,0|0|0,1:0|1:0|1:0,0:0:0:0:
380,300,16320,1,0,1:0:0:0:
404,188,16449,1,0,1:0:0:0:
320,172,16576,6,0,P|320:202|332:225,1,47.9999985351563,0|0,0:0|0:0,0:0:0:0:
484,196,16833,2,0,P|484:166|472:143,1,47.9999985351563,0|0,0:0|0:0,0:0:0:0:
404,188,17089,2,0,L|412:224,4,23.9999992675781,0|0|0|0|0,0:0|0:0|0:0|0:0|0:0,0:0:0:0:
392,72,17474,5,0,0:0:0:0:
388,80,17538,1,0,0:0:0:0:
384,88,17602,2,0,B|320:80|320:80|290:96|290:96|264:80|264:80|200:71,2,180.000006866455,0|0|0,1:0|1:0|1:0,0:0:0:0:
112,176,18243,6,0,B|152:170|152:170|171:181|171:181|187:170|187:170|227:165,2,120.000004577637,0|0|0,1:0|1:0|1:0,0:0:0:0:
24,176,18627,6,0,P|32:198|37:228,1,47.9999985351563,0|0,0:0|0:0,0:0:0:0:
124,256,18884,2,0,P|119:279|111:302,1,47.9999985351563,0|0,0:0|0:0,0:0:0:0:
195,342,19140,6,0,P|261:374|316:296,1,180.000006866455,4|0,1:0|0:0,0:0:0:0:
308,284,19397,2,0,P|351:354|429:325,1,180.000006866455,4|0,1:0|0:0,0:0:0:0:
440,336,19653,6,0,P|432:256|520:208,2,180.000006866455,0|0|0,1:0|1:0|1:0,0:0:0:0:
440,336,20422,1,0,1:0:0:0:
508,288,20550,1,0,1:0:0:0:
380,188,20679,6,0,L|388:244,1,47.9999985351563,0|0,0:0|0:0,0:0:0:0:
293,168,20935,2,0,L|300:216,1,47.9999985351563,0|0,0:0|0:0,0:0:0:0:
204,144,21191,2,0,L|212:200,1,47.9999985351563,0|0,0:0|0:0,0:0:0:0:
124,172,21448,6,0,L|118:143,3,20,0|0|0|0,1:0|1:0|1:0|1:0,0:0:0:0:
108,76,21704,2,0,P|64:96|16:100,1,80,4|0,1:2|0:0,0:0:0:0:
276,36,21961,6,0,L|270:64,3,20,0|0|0|0,1:0|1:0|1:0|1:0,0:0:0:0:
260,132,22217,2,0,P|216:112|168:108,1,80,4|0,1:2|0:0,0:0:0:0:
432,172,22474,6,0,L|426:143,3,20,0|0|0|0,1:0|1:0|1:0|1:0,0:0:0:0:
416,76,22730,2,0,P|372:96|324:100,1,80,0|0,1:0|0:0,0:0:0:0:
392,252,22986,1,0,0:0:0:0:
316,227,23114,1,0,0:0:0:0:
304,328,23243,6,0,L|333:324,7,20,0|0|0|0|0|0|0|0,0:0|0:0|0:0|0:0|0:0|0:0|0:0|0:0,0:0:0:0:
228,284,23756,6,0,P|185:288|149:304,1,80,4|0,1:0|0:0,0:0:0:0:
72,368,24012,2,0,P|68:325|52:289,1,80,0|0,1:0|0:0,0:0:0:0:
0,204,24268,6,0,P|43:200|79:184,1,80,0|0,1:0|0:0,0:0:0:0:
156,120,24524,2,0,P|160:163|176:199,1,80,0|0,1:0|0:0,0:0:0:0:
228,284,24781,6,0,L|308:276,1,80,2|0,1:1|0:1,0:0:0:0:
316,264,24974,1,0,0:0:0:0:
316,264,25038,2,0,B|307:303|307:303|326:343,1,80,2|0,1:0|0:0,0:0:0:0:
496,320,25294,2,0,B|505:281|505:281|486:241,1,80,0|0,1:0|0:0,0:0:0:0:
408,304,25550,2,0,L|413:348,3,40,0|0|0|0,1:0|1:0|1:0|1:0,0:0:0:0:
396,292,25807,6,0,L|404:180,1,80,4|0,1:0|0:0,0:0:0:0:
480,136,26063,2,0,L|474:56,1,80,0|0,1:0|0:0,0:0:0:0:
296,240,26320,6,0,L|304:128,1,80,0|0,1:0|0:0,0:0:0:0:
380,84,26576,2,0,L|374:4,1,80,0|0,1:0|0:0,0:0:0:0:
264,56,26833,6,0,P|220:64|164:64,1,80,2|0,1:1|0:0,0:0:0:0:
32,16,27089,2,0,P|76:8|132:8,1,80,2|0,1:0|0:0,0:0:0:0:
212,156,27345,6,0,P|168:164|112:164,1,80,0|0,1:0|1:0,0:0:0:0:
132,165,27538,1,0,1:0:0:0:
132,165,27602,1,0,1:0:0:0:
184,252,27730,1,0,1:0:0:0:
152,344,27858,6,0,P|196:336|252:336,1,80,4|0,1:0|0:0,0:0:0:0:
364,268,28115,2,0,P|324:266|284:258,1,80,0|0,1:0|0:0,0:0:0:0:
376,360,28371,1,0,1:0:0:0:
376,360,28499,1,0,0:0:0:0:
440,236,28627,2,0,L|428:152,1,80,0|0,1:0|0:0,0:0:0:0:
400,72,28884,6,0,B|442:63|442:63|476:88,1,80,2|0,1:0|0:0,0:0:0:0:
344,160,29140,2,0,B|302:169|302:169|268:144,1,80,2|0,1:0|0:0,0:0:0:0:
244,0,29397,2,0,B|286:-9|286:-9|320:16,1,80,0|0,1:0|0:0,0:0:0:0:
176,84,29653,2,0,L|132:75,3,40,0|0|0|0,1:0|1:0|1:0|1:0,0:0:0:0:
119,59,29909,6,0,P|127:103|127:152,1,80,4|0,1:0|0:0,0:0:0:0:
24,208,30166,2,0,P|16:164|16:115,1,80,0|0,1:0|0:0,0:0:0:0:
224,160,30422,6,0,P|232:204|232:253,1,80,0|0,1:0|0:0,0:0:0:0:
129,309,30679,2,0,P|121:265|121:216,1,80,0|0,1:0|1:0,0:0:0:0:
224,160,30935,6,0,L|339:168,1,80,2|0,1:0|0:0,0:0:0:0:
352,324,31191,2,0,L|272:317,1,80,2|0,1:0|0:0,0:0:0:0:
396,232,31448,2,0,L|511:240,1,80,0|0,1:0|0:0,0:0:0:0:
475,237,31704,1,0,1:0:0:0:
480,246,31961,6,0,P|498:201|489:160,1,80,0|0,1:0|0:0,0:0:0:0:
331,89,32217,2,0,P|313:134|322:175,1,80,0|0,1:0|0:0,0:0:0:0:
472,48,32474,6,0,P|427:30|386:39,1,80,0|0,1:0|0:0,0:0:0:0:
242,150,32730,2,0,P|287:168|328:159,1,80,0|0,1:0|0:0,0:0:0:0:
164,24,32986,6,0,L|172:112,1,80,2|0,1:0|0:0,0:0:0:0:
32,200,33243,2,0,L|24:120,1,80,2|0,1:0|0:0,0:0:0:0:
140,200,33499,2,0,L|148:288,1,80,0|0,1:0|0:0,0:0:0:0:
148,360,33756,2,0,L|192:368,3,40,0|0|0|0,1:0|1:0|1:0|1:0,0:0:0:0:
204,360,34012,6,0,P|250:369|304:372,1,80,4|0,1:0|0:0,0:0:0:0:
348,268,34268,2,0,P|302:277|248:280,1,80,0|0,1:0|0:0,0:0:0:0:
212,168,34525,6,0,P|258:177|312:180,1,80,0|0,1:0|0:0,0:0:0:0:
356,76,34781,2,0,P|310:85|256:88,1,80,0|0,1:0|0:0,0:0:0:0:
436,16,35038,6,0,L|448:108,1,80,2|0,1:0|0:0,0:0:0:0:
512,164,35294,2,0,L|500:256,1,80,2|0,1:0|1:0,0:0:0:0:
492,316,35486,1,0,1:0:0:0:
488,328,35550,6,0,B|418:339|418:339|396:368|396:368|319:380,2,180.000006866455,8|8|8,1:2|1:2|1:2,0:0:0:0:
343,216,36063,6,0,P|333:254|332:294,1,80,4|0,1:0|0:0,0:0:0:0:
216,276,36320,2,0,P|226:314|227:354,1,80,0|0,1:0|0:0,0:0:0:0:
116,320,36576,6,0,L|128:236,1,80,0|0,1:0|0:0,0:0:0:0:
16,268,36833,2,0,L|4:188,1,80,0|0,1:0|0:0,0:0:0:0:
68,104,37089,6,0,P|116:108|149:115,1,80,2|0,1:0|0:0,0:0:0:0:
244,16,37345,2,0,P|204:18|164:26,1,80,2|0,1:0|0:0,0:0:0:0:
196,216,37602,2,0,P|235:213|275:205,1,80,0|0,1:0|0:0,0:0:0:0:
360,80,37858,2,0,L|308:88,3,40,0|0|0|0,1:0|1:0|1:0|1:0,0:0:0:0:
380,64,38115,6,0,L|372:156,1,80,4|0,1:0|0:0,0:0:0:0:
504,100,38371,2,0,L|512:8,1,80,0|0,1:0|0:0,0:0:0:0:
428,240,38627,6,0,P|475:242|504:260,1,80,0|0,1:0|1:0,0:0:0:0:
502,258,38820,1,0,1:0:0:0:
502,258,38884,1,0,1:0:0:0:
440,360,39012,1,0,1:0:0:0:
326,339,39140,6,0,L|229:352,1,80,2|0,1:0|0:0,0:0:0:0:
315,241,39397,2,0,L|235:251,1,80,2|0,1:0|0:0,0:0:0:0:
265,162,39653,1,2,0:1:0:0:
236,252,40166,6,0,P|216:300|212:340,1,80,4|0,1:0|0:0,0:0:0:0:
96,364,40422,2,0,P|64:322|31:299,1,80,2|0,1:2|0:0,0:0:0:0:
69,186,40679,2,0,P|120:179|157:162,1,80,0|0,1:0|0:0,0:0:0:0:
136,268,40935,1,2,1:2:0:0:
136,268,41063,1,2,0:2:0:0:
156,160,41191,6,0,L|144:60,1,80,2|2,1:0|0:2,0:0:0:0:
264,20,41448,2,0,L|276:120,1,80,2|2,1:0|0:2,0:0:0:0:
400,172,41704,2,0,L|388:72,1,80,2|2,1:2|0:2,0:0:0:0:
477,272,41961,5,0,1:0:0:0:
474,281,42025,1,0,1:0:0:0:
472,291,42089,1,0,1:0:0:0:
470,301,42153,1,0,1:0:0:0:
468,312,42217,2,0,B|430:329|430:329|376:320,1,80,4|0,1:0|0:0,0:0:0:0:
304,372,42474,2,0,B|266:355|266:355|212:364,1,80,2|0,1:2|0:0,0:0:0:0:
152,296,42730,6,0,L|161:216,1,80,2|0,1:2|0:0,0:0:0:0:
40,356,42986,2,0,L|30:277,1,80,2|2,1:2|0:2,0:0:0:0:
36,80,43243,5,2,1:0:0:0:
56,172,43371,1,2,0:2:0:0:
112,4,43499,1,2,1:0:0:0:
132,96,43627,1,2,0:2:0:0:
248,128,43756,6,0,P|252:88|268:51,1,80,2|2,1:2|0:2,0:0:0:0:
264,40,43948,1,0,0:0:0:0:
264,40,44012,2,0,L|368:36,1,80,2|2,1:2|1:2,0:0:0:0:
444,168,44268,6,0,P|459:204|464:244,1,80,4|0,1:0|0:0,0:0:0:0:
348,364,44525,2,0,P|352:324|368:287,1,80,2|0,1:2|0:0,0:0:0:0:
272,228,44781,2,0,L|188:236,1,80,2|0,1:2|0:0,0:0:0:0:
192,340,45038,1,2,1:2:0:0:
192,340,45166,1,2,0:2:0:0:
200,224,45294,6,0,L|116:216,1,80,2|2,1:0|0:2,0:0:0:0:
131,119,45550,2,0,L|52:112,1,80,2|2,1:0|0:2,0:0:0:0:
244,36,45807,2,0,L|160:28,1,80,2|2,1:2|0:2,0:0:0:0:
344,116,46063,5,0,1:0:0:0:
347,106,46127,1,0,1:0:0:0:
350,97,46191,1,0,1:0:0:0:
353,87,46255,1,0,1:0:0:0:
357,78,46320,2,0,B|365:50|365:50|352:-4,1,80,6|0,1:2|0:0,0:0:0:0:
480,168,46576,2,0,B|472:140|472:140|485:86,1,80,2|0,1:2|0:0,0:0:0:0:
288,220,46833,6,0,L|367:209,1,80,2|0,1:2|0:0,0:0:0:0:
360,304,47089,2,0,L|281:315,1,80,2|2,1:2|1:2,0:0:0:0:
188,332,47345,5,2,1:2:0:0:
212,244,47474,1,0,0:0:0:0:
132,196,47602,5,2,0:0:0:0:
108,108,47731,1,2,0:0:0:0:
168,36,47858,5,0,1:0:0:0:
168,36,48115,5,0,1:0:0:0:
168,36,48371,6,0,P|216:37|255:20,1,80,6|0,1:2|0:0,0:0:0:0:
304,120,48627,2,0,L|294:199,1,80,2|0,1:2|0:0,0:0:0:0:
396,56,48884,2,0,P|444:55|483:72,1,80,2|0,1:2|0:0,0:0:0:0:
424,140,49140,1,2,1:2:0:0:
424,140,49268,1,2,0:2:0:0:
452,220,49397,6,0,P|404:221|365:204,1,80,2|2,1:0|0:2,0:0:0:0:
348,372,49653,2,0,P|387:369|425:382,1,80,2|2,1:0|0:2,0:0:0:0:
288,280,49909,2,0,P|248:282|210:269,1,80,2|2,1:2|0:2,0:0:0:0:
100,368,50166,5,0,1:0:0:0:
102,358,50230,1,0,1:0:0:0:
104,348,50294,1,0,1:0:0:0:
106,338,50358,1,0,1:0:0:0:
108,328,50422,2,0,L|96:240,1,80,6|0,1:2|0:0,0:0:0:0:
184,224,50679,2,0,L|172:136,1,80,2|0,1:2|0:0,0:0:0:0:
260,120,50935,6,0,L|248:32,1,80,2|0,1:2|0:0,0:0:0:0:
344,88,51191,1,2,1:2:0:0:
344,88,51320,1,2,0:2:0:0:
332,172,51448,6,0,L|321:251,1,80,2|2,1:0|0:2,0:0:0:0:
368,352,51704,2,0,B|332:336|332:336|288:348,1,80,2|2,1:0|1:2,0:0:0:0:
216,368,51897,1,0,1:0:0:0:
196,364,51961,2,0,L|8:340,2,180.000006866455,8|8|8,1:2|1:2|1:2,0:0:0:0:
228,288,52474,6,0,P|225:239|216:204,1,80,6|0,1:2|0:0,0:0:0:0:
108,172,52730,2,0,P|109:211|118:250,1,80,2|0,1:2|0:0,0:0:0:0:
308,164,52986,6,0,P|305:115|296:80,1,80,2|0,1:2|0:0,0:0:0:0:
188,48,53242,2,0,P|189:87|198:126,1,80,2|2,1:2|0:2,0:0:0:0:
308,164,53499,6,0,L|416:156,1,80,2|2,1:0|0:2,0:0:0:0:
508,232,53756,2,0,L|428:226,1,80,2|2,1:0|0:2,0:0:0:0:
300,292,54012,2,0,L|408:284,1,80,2|2,1:2|0:2,0:0:0:0:
224,352,54269,5,0,1:0:0:0:
214,350,54333,1,0,1:0:0:0:
204,348,54397,1,0,1:0:0:0:
194,346,54461,1,0,1:0:0:0:
184,344,54525,2,0,P|139:348|88:364,1,80,6|0,1:2|0:0,0:0:0:0:
0,280,54781,2,0,P|45:276|96:260,1,80,2|0,1:2|0:0,0:0:0:0:
188,172,55038,6,0,P|143:176|92:192,1,80,2|0,1:2|0:0,0:0:0:0:
4,108,55294,2,0,P|49:104|100:88,1,80,2|2,1:2|1:2,0:0:0:0:
194,2,55550,6,0,L|182:94,1,80,2|2,1:0|0:2,0:0:0:0:
284,49,55807,2,0,L|272:141,1,80,2|2,1:0|0:2,0:0:0:0:
456,81,56063,6,0,L|464:144,2,40,0|0|0,1:2|1:0|1:2,0:0:0:0:
366,128,56320,2,0,L|378:220,1,80,2|2,1:2|1:2,0:0:0:0:
476,268,56576,6,0,P|449:274|428:288,1,40,4|0,1:2|0:0,0:0:0:0:
388,344,56833,2,0,P|361:338|340:324,1,40,0|0,0:0|1:0,0:0:0:0:
292,280,57089,6,0,L|252:288,1,40,0|0,0:0|0:0,0:0:0:0:
212,352,57345,2,0,L|172:360,1,40,0|0,0:0|0:0,0:0:0:0:
68,284,57602,6,0,L|108:292,2,40,2|0|2,0:0|0:0|0:0,0:0:0:0:
16,220,57986,1,0,0:0:0:0:
72,164,58115,6,0,P|87:187|92:210,1,40,2|0,0:0|0:0,0:0:0:0:
172,228,58371,2,0,P|184:203|201:187,1,40,2|0,0:0|0:0,0:0:0:0:
178,110,58627,6,0,P|150:111|128:104,1,40,2|0,1:2|0:0,0:0:0:0:
168,36,58884,2,0,P|195:34|217:41,1,40,0|0,0:0|1:2,0:0:0:0:
276,180,59140,6,0,P|248:181|226:174,1,40,0|0,0:0|0:0,0:0:0:0:
266,106,59397,2,0,P|293:104|315:111,1,40,0|0,0:0|0:0,0:0:0:0:
372,164,59653,6,0,L|364:212,1,40,2|0,0:0|0:0,0:0:0:0:
396,152,59909,2,0,L|388:200,1,40,2|0,0:0|0:0,0:0:0:0:
452,248,60166,6,0,L|444:296,1,40,2|0,0:0|0:0,0:0:0:0:
476,236,60422,2,0,L|468:284,1,40,2|0,0:0|0:0,0:0:0:0:
380,344,60679,6,0,L|340:350,1,40,2|0,1:2|0:0,0:0:0:0:
264,360,60935,2,0,L|224:366,1,40,0|0,0:0|1:0,0:0:0:0:
184,292,61191,6,0,L|144:286,1,40,0|0,0:0|0:0,0:0:0:0:
68,276,61447,2,0,L|28:270,1,40,0|0,0:0|0:0,0:0:0:0:
112,168,61704,6,0,P|118:190|116:212,2,40,2|0|2,0:0|0:0|0:0,0:0:0:0:
60,108,62089,1,0,0:0:0:0:
124,64,62217,6,0,P|154:71|178:71,1,40,2|0,0:0|0:0,0:0:0:0:
236,48,62474,2,8,P|257:25|269:4,1,40,2|0,0:0|0:0,0:0:0:0:
328,72,62730,6,0,P|358:65|382:65,1,40,2|0,1:2|0:0,0:0:0:0:
440,88,62987,2,8,P|461:111|473:132,1,40,0|0,0:0|1:0,0:0:0:0:
496,192,63243,6,0,L|492:240,1,40,0|0,0:0|0:0,0:0:0:0:
412,252,63499,2,0,L|416:204,1,40,0|0,0:0|0:0,0:0:0:0:
448,352,63756,1,0,0:0:0:0:
456,360,64012,6,0,L|408:364,1,40,0|0,0:0|0:0,0:0:0:0:
344,316,64268,2,0,L|296:320,1,40,0|0,0:0|0:0,0:0:0:0:
232,272,64525,2,0,L|184:276,1,40,0|0,0:0|0:0,0:0:0:0:
116,320,64781,6,0,P|116:357|132:384,1,55.9999982910157,4|0,1:0|0:0,0:0:0:0:
32,317,65038,2,0,P|42:291|39:264,1,55.9999982910157,0|0,0:0|0:0,0:0:0:0:
102,206,65294,6,0,L|169:197,1,55.9999982910157,8|0,0:0|0:0,0:0:0:0:
52,136,65550,2,0,L|119:127,1,55.9999982910157,0|0,0:0|0:0,0:0:0:0:
168,56,65807,6,0,L|112:48,2,55.9999982910157,0|0|0,0:0|0:0|1:0,0:0:0:0:
244,68,66191,1,0,0:0:0:0:
236,152,66320,6,0,L|291:144,1,55.9999982910157,8|0,0:0|0:0,0:0:0:0:
344,80,66576,2,0,L|399:72,1,55.9999982910157,0|0,0:0|0:0,0:0:0:0:
473,114,66833,6,0,P|466:142|468:180,1,55.9999982910157,0|0,1:0|0:0,0:0:0:0:
400,224,67089,2,0,P|406:251|406:279,1,55.9999982910157,0|0,0:0|1:0,0:0:0:0:
475,363,67345,6,0,P|433:355|408:360,1,55.9999982910157,8|0,0:0|0:0,0:0:0:0:
336,364,67602,2,0,L|268:356,1,55.9999982910157,0|0,0:0|0:0,0:0:0:0:
208,328,67858,6,0,L|152:334,2,55.9999982910157,0|0|0,0:0|0:0|1:0,0:0:0:0:
172,256,68243,1,0,0:0:0:0:
104,212,68371,6,0,P|92:244|96:276,1,55.9999982910157,8|0,0:0|0:0,0:0:0:0:
16,204,68627,2,0,P|15:176|4:150,1,55.9999982910157,0|0,0:0|1:0,0:0:0:0:
56,88,68884,6,0,L|128:96,1,55.9999982910157,4|0,1:0|0:0,0:0:0:0:
180,48,69140,2,0,L|252:56,1,55.9999982910157,0|0,0:0|1:0,0:0:0:0:
280,124,69397,6,0,P|306:98|318:63,1,55.9999982910157,8|0,0:0|0:0,0:0:0:0:
412,40,69653,2,0,P|420:75|444:103,1,55.9999982910157,0|0,0:0|0:0,0:0:0:0:
418,196,69909,6,0,P|382:185|346:192,1,55.9999982910157,0|0,0:0|0:0,0:0:0:0:
328,272,70166,2,0,P|354:262|382:262,1,55.9999982910157,0|0,1:0|0:0,0:0:0:0:
420,344,70422,6,0,L|360:340,1,55.9999982910157,8|0,0:0|0:0,0:0:0:0:
280,364,70679,2,0,L|220:368,1,55.9999982910157,0|0,0:0|0:0,0:0:0:0:
156,324,70935,6,0,B|148:296|148:296|164:256,1,55.9999982910157,0|0,1:0|0:0,0:0:0:0:
80,196,71191,2,0,B|88:224|88:224|72:264,1,55.9999982910157,0|0,0:0|1:0,0:0:0:0:
168,188,71448,6,0,B|160:160|160:160|176:120,1,55.9999982910157,8|0,0:0|0:0,0:0:0:0:
92,60,71704,2,0,B|100:88|100:88|84:128,1,55.9999982910157,0|0,0:0|0:0,0:0:0:0:
204,60,71961,6,0,L|196:-4,1,55.9999982910157,0|0,0:0|0:0,0:0:0:0:
288,84,72217,2,0,L|280:148,1,55.9999982910157,0|0,1:0|0:0,0:0:0:0:
376,60,72474,6,0,L|368:-4,1,55.9999982910157,8|0,0:0|0:0,0:0:0:0:
460,84,72730,2,0,L|452:148,1,55.9999982910157,0|0,0:0|0:0,0:0:0:0:
480,224,72986,6,0,P|481:245|488:268,2,40,2|0|2,0:0|0:0|0:0,0:0:0:0:
452,332,73371,6,0,P|451:353|444:376,2,40,0|2|2,0:0|0:0|0:0,0:0:0:0:
392,280,73756,6,0,L|348:284,1,40,0|2,0:0|0:0,0:0:0:0:
289,338,74012,6,0,L|256:333,5,26.6666666666667
195,287,74525,2,0,L|162:292,5,26.6666666666667
94,335,75038,5,0,0:0:0:0:
256,192,75102,12,0,76961,0:0:0:0:
152,32,77089,5,6,1:2:0:0:
168,116,77217,1,2,0:0:0:0:
88,92,77345,2,0,P|44:96|0:112,1,80,0|2,1:0|0:0,0:0:0:0:
36,256,77602,6,0,P|80:252|124:236,1,80,2|0,1:2|0:0,0:0:0:0:
204,200,77858,2,0,P|248:204|292:220,1,80,2|0,1:2|0:0,0:0:0:0:
380,256,78115,6,0,L|368:152,1,80,0|2,1:2|0:2,0:0:0:0:
380,168,78307,1,0,0:2:0:0:
388,160,78371,1,2,1:2:0:0:
444,340,78499,2,0,B|406:329|406:329|342:341,1,80,2|0,0:0|0:0,0:0:0:0:
248,356,78756,1,2,0:0:0:0:
248,356,78820,1,2,0:0:0:0:
248,356,78884,2,0,B|210:367|210:367|146:355,1,80,2|2,1:2|0:0,0:0:0:0:
52,296,79140,6,0,L|8:288,4,40,2|2|0|0|0,1:2|0:0|0:0|0:0|1:0,0:0:0:0:
80,224,79525,2,0,L|119:216,4,40,2|2|0|0|0,0:0|0:0|1:0|0:0|0:0,0:0:0:0:
36,156,79909,2,0,L|48:56,1,80,2|0,1:2|0:0,0:0:0:0:
152,88,80166,5,2,1:2:0:0:
152,88,80294,1,0,1:0:0:0:
104,16,80422,2,0,P|144:4|200:12,1,80,2|0,1:2|0:0,0:0:0:0:
300,80,80679,5,0,1:0:0:0:
280,164,80807,2,0,L|268:208,4,40,2|2|0|0|0,0:0|0:0|1:0|0:0|1:0,0:0:0:0:
332,72,81191,5,4,1:0:0:0:
404,116,81320,1,0,0:0:0:0:
499,101,81448,1,2,1:2:0:0:
499,101,81512,1,2,0:0:0:0:
499,101,81577,1,0,0:0:0:0:
499,101,81640,1,0,0:0:0:0:
499,101,81704,2,0,L|479:293,2,180.000006866455,2|2|2,1:2|1:2|1:2,0:0:0:0:
404,116,82217,5,4,1:0:0:0:
383,199,82346,1,0,0:0:0:0:
373,303,82474,1,2,1:2:0:0:
373,303,82538,1,2,0:0:0:0:
373,303,82602,1,0,1:0:0:0:
373,303,82666,1,0,1:0:0:0:
373,303,82730,2,0,B|273:275|305:363|185:327,2,180.000006866455,2|2|2,1:2|1:2|1:2,0:0:0:0:
373,303,83243,6,0,P|385:239|381:191,1,80,6|0,1:2|0:0,0:0:0:0:
384,224,83435,1,0,0:0:0:0:
384,224,83499,1,2,1:2:0:0:
285,170,83627,2,0,P|273:106|277:58,1,80,2|2,0:0|1:2,0:0:0:0:
186,25,83884,6,0,L|136:28,5,40,0|0|2|2|0|0,0:0|0:0|1:2|0:0|0:0|0:0,0:0:0:0:
140,48,84268,2,0,P|77:47|28:92,2,120,2|2|2,1:2|0:0|0:0,0:0:0:0:
116,172,84781,2,0,L|106:127,2,40,2|2|2,1:2|1:2|1:2,0:0:0:0:
128,252,85038,2,0,L|49:234,1,80,0|0,1:0|1:0,0:0:0:0:
104,348,85294,5,6,1:2:0:0:
184,316,85422,1,2,0:0:0:0:
254,366,85550,2,0,P|296:364|340:348,1,80,0|2,1:0|0:0,0:0:0:0:
420,312,85807,6,0,L|419:354,2,40,2|0|0,1:2|0:0|0:0,0:0:0:0:
476,236,86063,2,0,P|436:234|398:222,1,80,2|0,1:2|0:0,0:0:0:0:
332,148,86320,6,0,L|320:56,1,80,0|2,1:2|0:2,0:0:0:0:
324,60,86512,1,0,0:2:0:0:
328,52,86576,1,2,1:2:0:0:
210,112,86704,2,0,L|198:20,1,80,2|0,0:0|0:0,0:0:0:0:
72,52,86961,1,2,0:0:0:0:
72,52,87025,1,2,0:0:0:0:
72,52,87089,2,0,L|84:144,1,80,2|2,1:2|0:0,0:0:0:0:
28,248,87345,6,0,P|47:247|69:255,4,40,2|2|0|0|0,1:2|0:0|0:0|0:0|1:0,0:0:0:0:
132,220,87730,2,0,P|142:235|146:259,4,40,2|2|0|0|0,0:0|0:0|1:0|0:0|0:0,0:0:0:0:
208,296,88115,2,0,L|196:384,1,80,2|0,1:2|0:0,0:0:0:0:
376,252,88371,5,2,1:2:0:0:
376,252,88499,1,0,1:0:0:0:
296,288,88627,2,0,B|283:247|283:247|304:188,1,80,2|0,1:2|0:0,0:0:0:0:
336,120,88884,5,0,1:0:0:0:
420,136,89012,2,0,L|468:144,4,40,2|2|0|0|0,0:0|0:0|1:0|0:0|1:0,0:0:0:0:
331,14,89397,5,4,1:0:0:0:
235,26,89525,1,0,0:0:0:0:
149,57,89653,1,2,1:2:0:0:
149,57,89717,1,2,0:0:0:0:
149,57,89781,1,0,0:0:0:0:
149,57,89845,1,0,0:0:0:0:
149,57,89909,2,0,B|89:69|89:69|61:117|61:117|-3:133,2,180.000006866455,2|2|2,1:2|1:2|1:2,0:0:0:0:
235,26,90422,5,4,1:0:0:0:
227,118,90550,1,0,0:0:0:0:
231,225,90679,1,2,1:2:0:0:
231,225,90743,1,2,0:0:0:0:
231,225,90807,1,0,1:0:0:0:
231,225,90871,1,0,1:0:0:0:
231,225,90935,2,0,B|291:237|291:237|319:285|319:285|383:301,2,180.000006866455,2|2|2,1:2|1:2|1:2,0:0:0:0:
140,272,91448,6,0,P|126:230|130:177,1,80,6|0,1:2|1:0,0:0:0:0:
68,124,91704,2,0,P|81:86|81:46,1,80,2|2,1:2|1:2,0:0:0:0:
76,40,91897,1,2,1:2:0:0:
68,32,91961,2,0,L|156:40,2,80,2|2|2,1:2|1:2|1:2,0:0:0:0:
200,116,92345,6,0,P|274:102|332:156,1,160,2|2,1:0|1:0,0:0:0:0:
331,155,92730,2,0,L|432:144,1,80,2|2,1:2|1:2,0:0:0:0:
488,192,92986,2,0,L|500:124,2,40,2|0|2,0:0|0:0|0:0,0:0:0:0:
416,276,93243,2,0,L|409:236,3,40,2|0|2|0,1:2|1:0|1:2|1:0,0:0:0:0:
440,304,93499,6,0,L|352:292,1,80,6|0,1:2|1:0,0:0:0:0:
292,360,93756,2,0,L|204:348,1,80,0|0,1:0|1:0,0:0:0:0:
120,380,94012,6,0,B|107:352|107:352|126:270,1,80,2|0,1:2|1:0,0:0:0:0:
32,240,94268,2,0,B|45:212|45:212|26:130,1,80,2|0,1:2|1:0,0:0:0:0:
112,100,94525,6,0,L|228:108,1,80,2|0,1:2|1:0,0:0:0:0:
312,88,94781,2,0,P|308:48|293:8,1,80,0|0,1:0|1:0,0:0:0:0:
256,156,95038,6,0,P|242:193|238:233,1,80,2|0,1:2|1:0,0:0:0:0:
412,196,95294,2,0,L|332:201,1,80,2|0,1:2|1:0,0:0:0:0:
244,320,95550,6,0,L|200:312,4,40,0|0|0|0|2,1:0|1:0|1:0|1:0|1:2,0:0:0:0:
320,332,95935,1,0,1:0:0:0:
368,240,96063,6,0,L|412:232,4,40,0|0|2|0|2,1:0|1:0|1:2|1:0|1:2,0:0:0:0:
292,252,96448,1,0,1:0:0:0:
248,160,96576,6,0,L|204:152,7,40,0|0|2|0|2|0|2|0,1:0|1:0|1:2|1:0|1:2|1:0|1:2|1:0,0:0:0:0:
308,104,97089,6,0,P|354:119|376:50,1,120,2|0,0:1|0:0,0:0:0:0:
383,64,97602,6,0,L|392:148,1,80,6|0,1:2|0:0,0:0:0:0:
476,192,97858,2,0,L|467:275,1,80,2|2,1:2|0:0,0:0:0:0:
500,364,98115,2,0,B|467:350|467:350|408:360,1,80,2|0,1:0|0:0,0:0:0:0:
344,284,98371,2,0,B|311:298|311:298|252:288,1,80,2|2,1:2|0:0,0:0:0:0:
176,356,98627,6,0,L|88:364,1,80,2|0,1:2|0:0,0:0:0:0:
20,272,98884,2,0,L|108:264,1,80,2|0,1:2|0:0,0:0:0:0:
176,164,99140,2,0,L|88:172,1,80,2|0,1:2|0:0,0:0:0:0:
20,80,99397,5,0,1:0:0:0:
20,80,99461,1,0,1:0:0:0:
20,80,99525,1,0,1:0:0:0:
20,80,99589,1,0,1:0:0:0:
20,80,99653,2,0,L|108:72,1,80,6|0,1:2|0:0,0:0:0:0:
144,152,99909,2,0,L|232:144,1,80,2|2,1:2|1:2,0:0:0:0:
320,92,100166,2,0,P|323:52|307:11,1,80,2|0,1:0|0:0,0:0:0:0:
348,176,100422,2,0,P|380:152|401:113,1,80,2|2,1:2|0:0,0:0:0:0:
304,256,100679,6,0,P|342:265|386:257,1,80,2|0,1:2|0:0,0:0:0:0:
216,268,100935,2,0,P|233:304|267:331,1,80,2|0,1:2|0:0,0:0:0:0:
244,184,101191,2,0,P|203:180|162:197,1,80,2|0,1:2|1:0,0:0:0:0:
304,256,101448,2,0,P|326:222|333:179,1,80,2|0,1:2|1:0,0:0:0:0:
308,92,101704,6,0,L|410:102,1,80,6|0,1:2|0:0,0:0:0:0:
232,8,101961,2,0,L|311:0,1,80,2|2,1:2|0:0,0:0:0:0:
224,176,102217,2,0,B|213:146|213:146|228:88,1,80,2|0,1:0|0:0,0:0:0:0:
104,96,102474,2,0,B|115:66|115:66|100:8,1,80,2|2,1:2|0:0,0:0:0:0:
16,168,102730,6,0,L|28:252,1,80,2|0,1:2|0:0,0:0:0:0:
120,256,102986,2,0,L|108:335,1,80,2|0,1:2|0:0,0:0:0:0:
204,160,103243,2,0,L|216:244,1,80,2|0,1:2|0:0,0:0:0:0:
304,200,103499,6,0,L|343:206,3,40,0|0|0|0,1:0|1:0|1:0|1:0,0:0:0:0:
416,216,103756,2,0,L|455:222,3,40,6|0|0|0,1:2|1:0|1:0|1:0,0:0:0:0:
340,356,104012,6,0,L|379:350,3,40,2|0|2|0,1:2|1:0|1:2|1:0,0:0:0:0:
452,340,104269,2,0,L|491:334,3,40,2|0|0|0,1:0|0:0|0:0|0:0,0:0:0:0:
284,296,104525,6,0,L|232:304,3,40,2|0|0|0,1:2|1:0|1:0|1:0,0:0:0:0:
184,364,104781,2,0,L|132:356,3,40,2|0|2|0,1:2|1:0|1:2|1:0,0:0:0:0:
120,260,105038,2,0,L|68:268,3,40,2|0|2|0,1:2|1:0|1:2|1:0,0:0:0:0:
8,328,105294,5,10,1:2:0:0:
8,328,105422,1,10,1:2:0:0:
8,328,105807,6,0,L|16:284,3,40,6|0|0|0,1:2|1:0|1:0|1:0,0:0:0:0:
92,300,106063,2,0,L|100:256,3,40,2|0|2|0,1:2|0:0|1:2|0:0,0:0:0:0:
176,276,106320,6,0,L|184:232,3,40,2|0|0|0,1:0|1:0|1:0|1:0,0:0:0:0:
260,248,106576,2,0,L|268:204,3,40,2|0|2|0,1:2|0:0|1:2|0:0,0:0:0:0:
320,312,106833,6,0,L|328:356,3,40,2|0|2|0,1:2|0:0|1:2|0:0,0:0:0:0:
404,340,107089,2,0,L|412:384,3,40,2|0|2|0,1:2|0:0|1:2|0:0,0:0:0:0:
460,276,107345,2,0,L|468:232,4,40,2|0|0|0|2,1:2|1:0|1:2|1:0|1:2,0:0:0:0:
467,236,107858,6,0,L|475:192,3,40,6|0|0|0,1:2|1:0|1:0|1:0,0:0:0:0:
395,192,108115,2,0,L|403:148,3,40,0|0|0|0,1:0|0:0|1:0|0:0,0:0:0:0:
323,148,108371,6,0,L|331:104,3,40,2|0|0|0,1:0|1:0|1:0|1:0,0:0:0:0:
251,104,108627,2,0,L|259:60,3,40,2|0|2|0,1:2|0:0|1:2|0:0,0:0:0:0:
179,60,108883,6,0,L|187:16,3,40,2|0|2|0,1:2|0:0|1:2|0:0,0:0:0:0:
101,73,109140,2,0,L|93:117,3,40,2|0|2|0,1:2|0:0|1:2|0:0,0:0:0:0:
15,111,109397,2,0,L|7:155,3,40,2|0|2|0,1:2|1:0|1:2|1:0,0:0:0:0:
80,216,109653,5,2,1:2:0:0:
80,216,109781,1,0,1:0:0:0:
80,216,109909,6,0,L|18:226,3,40,6|0|0|0,1:2|1:0|1:0|1:0,0:0:0:0:
112,280,110166,2,0,L|50:290,3,40,2|0|2|0,1:2|0:0|1:2|0:0,0:0:0:0:
200,356,110422,6,0,L|138:346,3,40,2|0|0|0,1:0|1:0|1:0|1:0,0:0:0:0:
232,292,110679,2,0,L|170:282,3,40,2|0|2|0,1:2|0:0|1:2|0:0,0:0:0:0:
320,220,110935,6,0,L|258:230,3,40,2|0|2|0,1:2|0:0|1:2|0:0,0:0:0:0:
352,284,111192,2,0,L|290:294,3,40,2|0|2|0,1:2|0:0|1:2|0:0,0:0:0:0:
440,356,111448,2,0,L|378:346,4,40,2|0|2|0|2,1:2|1:0|1:2|1:0|1:2,0:0:0:0:
400,349,111961,6,0,L|338:339,3,40,6|0|0|0,1:2|1:0|1:0|1:0,0:0:0:0:
384,269,112217,2,0,L|322:259,3,40,2|0|2|0,1:2|0:0|1:2|0:0,0:0:0:0:
368,189,112474,6,0,L|306:179,3,40,2|0|0|0,1:0|1:0|1:0|1:0,0:0:0:0:
352,109,112730,2,0,L|290:99,3,40,2|0|2|0,1:2|0:0|1:2|0:0,0:0:0:0:
256,17,112986,6,0,L|295:23,3,40,2|0|2|0,1:2|0:0|1:2|0:0,0:0:0:0:
272,96,113242,2,0,L|311:102,3,40,2|0|2|0,1:2|0:0|1:2|0:0,0:0:0:0:
288,177,113499,6,0,L|314:181,4,26.6666666666667,2|0|0|0|0,1:2|1:0|1:0|1:0|0:0,0:0:0:0:
304,257,113756,6,0,L|268:251,1,30.0000011444092,14|0,1:2|0:0,0:0:0:0:
200,288,114012,6,0,L|212:374,1,80,8|8,0:2|0:2,0:0:0:0:
172,128,114397,5,0,0:0:0:0:
172,128,114461,1,0,0:0:0:0:
172,128,114525,2,0,L|183:207,1,80,8|8,0:2|0:2,0:0:0:0:
304,64,114909,6,0,P|253:62|212:56,1,80,0|8,0:0|0:2,0:0:0:0:
368,124,115166,1,0,0:0:0:0:
368,124,115230,1,0,0:0:0:0:
368,124,115294,2,0,P|407:125|447:129,1,80,0|0,0:0|0:0,0:0:0:0:
312,196,115550,6,0,L|332:328,2,120,8|8|8,0:2|0:2|0:2,0:0:0:0:
312,196,116191,1,8,0:2:0:0:
248,356,116448,5,0,0:0:0:0:
248,356,116512,1,0,0:0:0:0:
248,356,116576,2,0,L|164:348,1,80,8|8,0:2|0:2,0:0:0:0:
28,260,116961,6,0,L|112:252,1,80,8|8,0:2|0:2,0:0:0:0:
104,171,117217,2,0,L|184:164,1,80,8|8,0:2|0:2,0:0:0:0:
266,156,117474,1,8,0:2:0:0:
228,28,117730,6,0,L|307:35,1,80,8|8,0:0|0:0,0:0:0:0:
464,0,118115,6,0,B|453:33|453:33|464:84,1,80,8|8,0:0|0:0,0:0:0:0:
320,136,118499,5,0,0:0:0:0:
320,136,118563,1,0,0:0:0:0:
320,136,118627,2,0,B|331:169|331:169|320:220,1,80,8|8,0:0|0:0,0:0:0:0:
500,256,119012,6,0,L|412:268,1,80,8|0,0:0|0:0,0:0:0:0:
392,352,119268,1,0,0:0:0:0:
392,352,119333,1,0,0:0:0:0:
392,352,119397,2,0,L|312:341,1,80,8|8,0:0|0:0,0:0:0:0:
224,296,119653,6,0,P|160:296|108:348,2,120,8|8|8,0:0|0:0|0:0,0:0:0:0:
96,104,120294,6,0,L|80:200,1,80,8|8,0:0|0:0,0:0:0:0:
224,56,120679,5,0,0:0:0:0:
224,56,120743,1,0,0:0:0:0:
224,56,120807,1,0,0:0:0:0:
224,56,120871,1,0,0:0:0:0:
224,56,120935,2,0,L|208:152,1,80,8|0,0:0|0:0,0:0:0:0:
352,8,121191,6,0,L|344:55,3,40,8|0|0|0,0:0|0:0|0:0|0:0,0:0:0:0:
404,104,121448,2,0,L|396:152,3,40,0|0|0|0,0:0|0:0|0:0|0:0,0:0:0:0:
448,216,121704,6,0,L|440:264,3,40,0|0|0|0,0:0|0:0|0:0|0:0,0:0:0:0:
500,312,121961,2,0,L|492:360,3,40,0|0|0|0,0:0|0:0|0:0|0:0,0:0:0:0:
412,328,122217,5,12,0:0:0:0:
