osu file format v14

[General]
AudioFilename: audio.mp3
AudioLeadIn: 0
PreviewTime: 97538
Countdown: 0
SampleSet: Normal
StackLeniency: 0.7
Mode: 1
LetterboxInBreaks: 0
WidescreenStoryboard: 0

[Editor]
Bookmarks: 1192,9397,15550,23756,31961,40166,48371,56576,64781,72986,77089,97089,97602,105807,114012,122217
DistanceSpacing: 2
BeatDivisor: 4
GridSize: 32
TimelineZoom: 3.299999

[Metadata]
Title:Rebellio
TitleUnicode:Rebellio
Artist:MAX MAXIMIZER vs. DJ TOTTO
ArtistUnicode:MAX MAXIMIZER vs. DJ TOTTO
Creator:Realazy
Version:AYYRI'S MUZUKASHII
Source:REFLEC BEAT VOLZZA
Tags:hypercyte [_Drop_] Drop Sharu [_Sharuresu_] SnowNiNo_ toybot den0saur eiri- Ayyri SOUND VOLTEX IV HEAVENLY HAVEN SDVX4 SDVX 4 The 5th KAC Arcade Championship Tatsuya Iyama 伊山達也 Qrispy Joybox Yoshihiro Tagawa 田川義浩 The 6th
BeatmapID:1602449
BeatmapSetID:744636

[Difficulty]
HPDrainRate:5
CircleSize:2
OverallDifficulty:5
ApproachRate:10
SliderMultiplier:1.4
SliderTickRate:1

[Events]
//Background and Video events
0,0,"Utsuho 761.jpg",0,0
//Break Periods
//Storyboard Layer 0 (Background)
//Storyboard Layer 1 (Fail)
//Storyboard Layer 2 (Pass)
//Storyboard Layer 3 (Foreground)
//Storyboard Sound Samples

[TimingPoints]
1192,256.410256410256,4,1,0,75,1,0
77089,-100,4,1,0,75,0,1
97089,-100,4,1,0,75,0,0

[HitObjects]
256,192,1192,5,12,0:0:0:0:
256,192,1320,8,0,3115,0:0:0:0:
256,192,3243,5,0,0:0:0:0:
256,192,3328,1,0,0:0:0:0:
256,192,3499,1,8,0:0:0:0:
256,192,3756,1,0,0:0:0:0:
256,192,3841,1,0,0:0:0:0:
256,192,4012,1,8,0:0:0:0:
256,192,4268,1,0,0:0:0:0:
256,192,4354,1,0,0:0:0:0:
256,192,4525,1,8,0:0:0:0:
256,192,4610,1,8,0:0:0:0:
256,192,4696,1,8,0:0:0:0:
256,192,5294,1,12,0:0:0:0:
256,192,5807,1,8,0:0:0:0:
256,192,6320,1,0,0:0:0:0:
256,192,6833,1,8,0:0:0:0:
256,192,7345,1,0,0:0:0:0:
256,192,7602,1,0,0:0:0:0:
256,192,7858,1,8,0:0:0:0:
256,192,8371,1,0,0:0:0:0:
256,192,8884,1,8,0:0:0:0:
256,192,9397,1,12,0:0:0:0:
256,192,9653,1,0,0:0:0:0:
256,192,9909,1,8,0:0:0:0:
256,192,10422,1,0,0:0:0:0:
256,192,10679,1,0,0:0:0:0:
256,192,10935,1,8,0:0:0:0:
256,192,11448,1,0,0:0:0:0:
256,192,11704,1,0,0:0:0:0:
256,192,11961,1,8,0:0:0:0:
256,192,12474,1,0,0:0:0:0:
256,192,12730,1,0,0:0:0:0:
256,192,12986,1,8,0:0:0:0:
256,192,13243,1,0,0:0:0:0:
256,192,13371,1,0,0:0:0:0:
256,192,13499,1,12,0:0:0:0:
256,192,13627,8,0,14397,0:0:0:0:
256,192,14525,5,0,0:0:0:0:
256,192,14653,1,0,0:0:0:0:
256,192,14781,1,8,0:0:0:0:
256,192,14909,1,8,0:0:0:0:
256,192,15038,1,0,0:0:0:0:
256,192,15166,1,8,0:0:0:0:
256,192,15294,1,0,0:0:0:0:
256,192,15550,1,12,0:0:0:0:
256,192,15743,1,12,0:0:0:0:
256,192,15935,1,12,0:0:0:0:
256,192,16320,1,4,0:0:0:0:
256,192,16448,1,12,0:0:0:0:
256,192,16704,1,8,0:0:0:0:
256,192,16833,1,0,0:0:0:0:
256,192,17089,1,8,0:0:0:0:
256,192,17345,1,8,0:0:0:0:
256,192,17474,1,0,0:0:0:0:
256,192,17602,1,12,0:0:0:0:
256,192,17794,1,12,0:0:0:0:
256,192,17986,1,12,0:0:0:0:
256,192,18243,1,4,0:0:0:0:
256,192,18371,1,4,0:0:0:0:
256,192,18499,1,12,0:0:0:0:
256,192,18756,1,8,0:0:0:0:
256,192,18884,1,0,0:0:0:0:
256,192,19140,1,12,0:0:0:0:
256,192,19397,1,12,0:0:0:0:
256,192,19653,1,12,0:0:0:0:
256,192,19845,1,12,0:0:0:0:
256,192,20038,1,12,0:0:0:0:
256,192,20422,1,4,0:0:0:0:
256,192,20550,1,12,0:0:0:0:
256,192,20807,1,8,0:0:0:0:
256,192,20935,1,0,0:0:0:0:
256,192,21191,1,8,0:0:0:0:
256,192,21448,1,0,0:0:0:0:
256,192,21576,1,0,0:0:0:0:
256,192,21704,1,12,0:0:0:0:
256,192,21961,1,0,0:0:0:0:
256,192,22089,1,0,0:0:0:0:
256,192,22217,1,12,0:0:0:0:
256,192,22474,1,0,0:0:0:0:
256,192,22538,1,0,0:0:0:0:
256,192,22602,1,0,0:0:0:0:
256,192,22730,1,12,0:0:0:0:
256,192,22858,1,0,0:0:0:0:
256,192,23115,1,0,0:0:0:0:
256,192,23243,1,8,0:0:0:0:
256,192,23756,1,12,0:0:0:0:
256,192,23884,1,0,0:0:0:0:
256,192,24012,1,8,0:0:0:0:
256,192,24268,1,0,0:0:0:0:
256,192,24397,1,8,0:0:0:0:
256,192,24525,1,8,0:0:0:0:
256,192,24653,1,0,0:0:0:0:
256,192,24781,1,8,0:0:0:0:
256,192,24845,1,8,0:0:0:0:
256,192,24909,1,8,0:0:0:0:
256,192,25038,1,0,0:0:0:0:
256,192,25294,1,0,0:0:0:0:
256,192,25422,1,8,0:0:0:0:
256,192,25550,1,0,0:0:0:0:
256,192,25615,1,0,0:0:0:0:
256,192,25679,1,0,0:0:0:0:
256,192,25807,1,12,0:0:0:0:
256,192,26063,1,8,0:0:0:0:
256,192,26191,1,0,0:0:0:0:
256,192,26320,1,8,0:0:0:0:
256,192,26576,1,0,0:0:0:0:
256,192,26704,1,8,0:0:0:0:
256,192,26833,1,8,0:0:0:0:
256,192,27345,1,0,0:0:0:0:
256,192,27474,1,0,0:0:0:0:
256,192,27538,1,0,0:0:0:0:
256,192,27602,1,0,0:0:0:0:
256,192,27730,1,0,0:0:0:0:
256,192,27858,1,12,0:0:0:0:
256,192,28115,1,0,0:0:0:0:
256,192,28243,1,8,0:0:0:0:
256,192,28499,1,8,0:0:0:0:
256,192,28627,1,0,0:0:0:0:
256,192,28756,1,8,0:0:0:0:
256,192,28884,1,8,0:0:0:0:
256,192,28948,1,8,0:0:0:0:
256,192,29012,1,8,0:0:0:0:
256,192,29140,1,0,0:0:0:0:
256,192,29397,1,0,0:0:0:0:
256,192,29525,1,8,0:0:0:0:
256,192,29653,1,0,0:0:0:0:
256,192,29717,1,0,0:0:0:0:
256,192,29781,1,0,0:0:0:0:
256,192,29909,1,12,0:0:0:0:
256,192,30166,1,8,0:0:0:0:
256,192,30294,1,0,0:0:0:0:
256,192,30422,1,8,0:0:0:0:
256,192,30807,1,0,0:0:0:0:
256,192,30935,1,8,0:0:0:0:
256,192,31191,1,0,0:0:0:0:
256,192,31320,1,0,0:0:0:0:
256,192,31448,1,8,0:0:0:0:
256,192,31576,1,8,0:0:0:0:
256,192,31704,1,0,0:0:0:0:
256,192,31961,1,12,0:0:0:0:
256,192,32089,1,0,0:0:0:0:
256,192,32217,1,8,0:0:0:0:
256,192,32474,1,0,0:0:0:0:
256,192,32602,1,0,0:0:0:0:
256,192,32730,1,8,0:0:0:0:
256,192,32858,1,0,0:0:0:0:
256,192,32986,1,8,0:0:0:0:
256,192,33050,1,8,0:0:0:0:
256,192,33115,1,8,0:0:0:0:
256,192,33243,1,0,0:0:0:0:
256,192,33499,1,0,0:0:0:0:
256,192,33627,1,8,0:0:0:0:
256,192,33756,1,0,0:0:0:0:
256,192,33820,1,0,0:0:0:0:
256,192,33884,1,0,0:0:0:0:
256,192,34012,1,12,0:0:0:0:
256,192,34268,1,0,0:0:0:0:
256,192,34397,1,8,0:0:0:0:
256,192,34653,1,8,0:0:0:0:
256,192,34781,1,0,0:0:0:0:
256,192,34909,1,8,0:0:0:0:
256,192,35038,1,8,0:0:0:0:
256,192,35422,1,0,0:0:0:0:
256,192,35550,1,12,0:0:0:0:
256,192,35743,1,12,0:0:0:0:
256,192,35935,1,12,0:0:0:0:
256,192,36063,1,12,0:0:0:0:
256,192,36320,1,8,0:0:0:0:
256,192,36448,1,0,0:0:0:0:
256,192,36576,1,0,0:0:0:0:
256,192,36704,1,8,0:0:0:0:
256,192,36961,1,0,0:0:0:0:
256,192,37089,1,8,0:0:0:0:
256,192,37153,1,8,0:0:0:0:
256,192,37217,1,8,0:0:0:0:
256,192,37345,1,0,0:0:0:0:
256,192,37602,1,8,0:0:0:0:
256,192,37730,1,0,0:0:0:0:
256,192,37858,1,0,0:0:0:0:
256,192,37922,1,0,0:0:0:0:
256,192,37986,1,0,0:0:0:0:
256,192,38115,1,12,0:0:0:0:
256,192,38371,1,0,0:0:0:0:
256,192,38627,1,12,0:0:0:0:
256,192,38884,1,0,0:0:0:0:
256,192,39012,1,0,0:0:0:0:
256,192,39140,1,12,0:0:0:0:
256,192,39397,1,12,0:0:0:0:
256,192,39653,2,0,L|320:192,6,35
256,192,40166,1,12,0:0:0:0:
256,192,40422,1,8,0:0:0:0:
256,192,40550,1,0,0:0:0:0:
256,192,40679,1,8,0:0:0:0:
256,192,40807,1,0,0:0:0:0:
256,192,40935,1,8,0:0:0:0:
256,192,41191,1,8,0:0:0:0:
256,192,41704,1,0,0:0:0:0:
256,192,41833,1,8,0:0:0:0:
256,192,41961,1,0,0:0:0:0:
256,192,42025,1,0,0:0:0:0:
256,192,42089,1,0,0:0:0:0:
256,192,42217,1,12,0:0:0:0:
256,192,42474,1,8,0:0:0:0:
256,192,42602,1,0,0:0:0:0:
256,192,42730,1,0,0:0:0:0:
256,192,42986,1,0,0:0:0:0:
256,192,43115,1,0,0:0:0:0:
256,192,43243,1,8,0:0:0:0:
256,192,43307,1,8,0:0:0:0:
256,192,43371,1,8,0:0:0:0:
256,192,43499,1,0,0:0:0:0:
256,192,43756,1,8,0:0:0:0:
256,192,43884,1,0,0:0:0:0:
256,192,43948,1,0,0:0:0:0:
256,192,44012,1,0,0:0:0:0:
256,192,44140,1,0,0:0:0:0:
256,192,44268,1,12,0:0:0:0:
256,192,44525,1,8,0:0:0:0:
256,192,44653,1,8,0:0:0:0:
256,192,44781,1,0,0:0:0:0:
256,192,45038,1,8,0:0:0:0:
256,192,45166,1,0,0:0:0:0:
256,192,45294,1,8,0:0:0:0:
256,192,45807,1,0,0:0:0:0:
256,192,45935,1,8,0:0:0:0:
256,192,46063,1,0,0:0:0:0:
256,192,46127,1,0,0:0:0:0:
256,192,46191,1,0,0:0:0:0:
256,192,46320,1,12,0:0:0:0:
256,192,46576,1,8,0:0:0:0:
256,192,46704,1,0,0:0:0:0:
256,192,46833,1,8,0:0:0:0:
256,192,47089,1,8,0:0:0:0:
256,192,47217,1,0,0:0:0:0:
256,192,47345,1,8,0:0:0:0:
256,192,47474,1,0,0:0:0:0:
256,192,47538,1,0,0:0:0:0:
256,192,47602,1,0,0:0:0:0:
256,192,47730,1,0,0:0:0:0:
256,192,47858,1,12,0:0:0:0:
256,192,48115,1,12,0:0:0:0:
256,192,48371,1,12,0:0:0:0:
256,192,48499,1,0,0:0:0:0:
256,192,48627,1,8,0:0:0:0:
256,192,48884,1,0,0:0:0:0:
256,192,49012,1,8,0:0:0:0:
256,192,49140,1,0,0:0:0:0:
256,192,49268,1,8,0:0:0:0:
256,192,49397,1,8,0:0:0:0:
256,192,49461,1,8,0:0:0:0:
256,192,49525,1,8,0:0:0:0:
256,192,49653,1,0,0:0:0:0:
256,192,49909,1,0,0:0:0:0:
256,192,50038,1,8,0:0:0:0:
256,192,50166,1,0,0:0:0:0:
256,192,50230,1,0,0:0:0:0:
256,192,50294,1,0,0:0:0:0:
256,192,50422,1,12,0:0:0:0:
256,192,50679,1,8,0:0:0:0:
256,192,50807,1,0,0:0:0:0:
256,192,50935,1,0,0:0:0:0:
256,192,51191,1,0,0:0:0:0:
256,192,51320,1,8,0:0:0:0:
256,192,51448,1,8,0:0:0:0:
256,192,51833,1,0,0:0:0:0:
256,192,51961,1,12,0:0:0:0:
256,192,52153,1,12,0:0:0:0:
256,192,52345,1,12,0:0:0:0:
256,192,52474,1,12,0:0:0:0:
256,192,52730,1,8,0:0:0:0:
256,192,52858,1,8,0:0:0:0:
256,192,52986,1,0,0:0:0:0:
256,192,53243,1,0,0:0:0:0:
256,192,53371,1,0,0:0:0:0:
256,192,53499,1,12,0:0:0:0:
256,192,53756,1,8,0:0:0:0:
256,192,53884,1,0,0:0:0:0:
256,192,54012,1,0,0:0:0:0:
256,192,54140,1,8,0:0:0:0:
256,192,54268,1,0,0:0:0:0:
256,192,54333,1,0,0:0:0:0:
256,192,54397,1,0,0:0:0:0:
256,192,54525,1,12,0:0:0:0:
256,192,54781,1,0,0:0:0:0:
256,192,55038,1,12,0:0:0:0:
256,192,55294,1,0,0:0:0:0:
256,192,55422,1,0,0:0:0:0:
256,192,55550,1,12,0:0:0:0:
256,192,55807,1,0,0:0:0:0:
256,192,55935,1,8,0:0:0:0:
256,192,56063,1,0,0:0:0:0:
256,192,56127,1,0,0:0:0:0:
256,192,56191,1,0,0:0:0:0:
256,192,56320,1,0,0:0:0:0:
256,192,56448,1,0,0:0:0:0:
256,192,56576,1,12,0:0:0:0:
256,192,56961,1,0,0:0:0:0:
256,192,57474,1,0,0:0:0:0:
256,192,57602,1,8,0:0:0:0:
256,192,58627,1,4,0:0:0:0:
256,192,59012,1,8,0:0:0:0:
256,192,59525,1,0,0:0:0:0:
256,192,59653,1,8,0:0:0:0:
256,192,60679,1,12,0:0:0:0:
256,192,61063,1,0,0:0:0:0:
256,192,61576,1,0,0:0:0:0:
256,192,61704,1,8,0:0:0:0:
256,192,62730,1,4,0:0:0:0:
256,192,63115,1,8,0:0:0:0:
256,192,63627,1,0,0:0:0:0:
256,192,63756,1,8,0:0:0:0:
256,192,64781,1,12,0:0:0:0:
256,192,65166,1,0,0:0:0:0:
256,192,65294,1,8,0:0:0:0:
256,192,65679,1,8,0:0:0:0:
256,192,65807,1,8,0:0:0:0:
256,192,66063,1,0,0:0:0:0:
256,192,66320,1,8,0:0:0:0:
256,192,66833,1,4,0:0:0:0:
256,192,67217,1,0,0:0:0:0:
256,192,67345,1,8,0:0:0:0:
256,192,67602,1,0,0:0:0:0:
256,192,67730,1,8,0:0:0:0:
256,192,67858,1,0,0:0:0:0:
256,192,68115,1,0,0:0:0:0:
256,192,68371,1,8,0:0:0:0:
256,192,68627,1,0,0:0:0:0:
256,192,68756,1,0,0:0:0:0:
256,192,68884,1,12,0:0:0:0:
256,192,69268,1,0,0:0:0:0:
256,192,69397,1,8,0:0:0:0:
256,192,69781,1,8,0:0:0:0:
256,192,69909,1,8,0:0:0:0:
256,192,70166,1,0,0:0:0:0:
256,192,70422,1,8,0:0:0:0:
256,192,70935,1,4,0:0:0:0:
256,192,71320,1,0,0:0:0:0:
256,192,71448,1,8,0:0:0:0:
256,192,71704,1,0,0:0:0:0:
256,192,71833,1,8,0:0:0:0:
256,192,71961,1,0,0:0:0:0:
256,192,72089,1,8,0:0:0:0:
256,192,72217,1,0,0:0:0:0:
256,192,72474,1,8,0:0:0:0:
256,192,72730,1,0,0:0:0:0:
256,192,72986,1,12,0:0:0:0:
256,192,73115,8,0,74909,0:0:0:0:
256,192,75038,5,4,0:0:0:0:
256,192,75166,8,0,75935,0:0:0:0:
256,192,76063,5,0,0:0:0:0:
256,192,76256,1,8,0:0:0:0:
256,192,76576,1,0,0:0:0:0:
256,192,76704,1,8,0:0:0:0:
256,192,76833,1,0,0:0:0:0:
256,192,77089,1,12,0:0:0:0:
256,192,77217,1,0,0:0:0:0:
256,192,77345,1,8,0:0:0:0:
256,192,77602,1,0,0:0:0:0:
256,192,77730,1,8,0:0:0:0:
256,192,77858,1,0,0:0:0:0:
256,192,77986,1,8,0:0:0:0:
256,192,78371,1,8,0:0:0:0:
256,192,78499,1,8,0:0:0:0:
256,192,78756,1,0,0:0:0:0:
256,192,78884,1,8,0:0:0:0:
256,192,79140,1,0,0:0:0:0:
256,192,79204,1,0,0:0:0:0:
256,192,79268,1,0,0:0:0:0:
256,192,79397,1,8,0:0:0:0:
256,192,79525,1,0,0:0:0:0:
256,192,79589,1,0,0:0:0:0:
256,192,79653,1,0,0:0:0:0:
256,192,79781,1,8,0:0:0:0:
256,192,79909,1,0,0:0:0:0:
256,192,80166,1,0,0:0:0:0:
256,192,80294,1,8,0:0:0:0:
256,192,80422,1,0,0:0:0:0:
256,192,80679,1,8,0:0:0:0:
256,192,80807,1,0,0:0:0:0:
256,192,80871,1,0,0:0:0:0:
256,192,80935,1,0,0:0:0:0:
256,192,81063,1,0,0:0:0:0:
256,192,81191,1,12,0:0:0:0:
256,192,81704,1,12,0:0:0:0:
256,192,81897,1,12,0:0:0:0:
256,192,82089,1,12,0:0:0:0:
256,192,82217,1,12,0:0:0:0:
256,192,82474,1,0,0:0:0:0:
256,192,82538,1,0,0:0:0:0:
256,192,82602,1,0,0:0:0:0:
256,192,82730,1,12,0:0:0:0:
256,192,82922,1,12,0:0:0:0:
256,192,83115,1,12,0:0:0:0:
256,192,83243,1,12,0:0:0:0:
256,192,83435,1,0,0:0:0:0:
256,192,83627,1,0,0:0:0:0:
256,192,83756,1,8,0:0:0:0:
256,192,84268,1,8,0:0:0:0:
256,192,84461,1,8,0:0:0:0:
256,192,84653,1,8,0:0:0:0:
256,192,84781,1,0,0:0:0:0:
256,192,84845,1,0,0:0:0:0:
256,192,84909,1,0,0:0:0:0:
256,192,85038,1,8,0:0:0:0:
256,192,85166,1,0,0:0:0:0:
256,192,85294,1,12,0:0:0:0:
256,192,85422,1,0,0:0:0:0:
256,192,85550,1,8,0:0:0:0:
256,192,85807,1,0,0:0:0:0:
256,192,85935,1,8,0:0:0:0:
256,192,86063,1,0,0:0:0:0:
256,192,86191,1,8,0:0:0:0:
256,192,86448,1,0,0:0:0:0:
256,192,86512,1,0,0:0:0:0:
256,192,86576,1,0,0:0:0:0:
256,192,86704,1,8,0:0:0:0:
256,192,86961,1,0,0:0:0:0:
256,192,87089,1,8,0:0:0:0:
256,192,87217,1,0,0:0:0:0:
256,192,87345,1,0,0:0:0:0:
256,192,87409,1,0,0:0:0:0:
256,192,87474,1,0,0:0:0:0:
256,192,87602,1,8,0:0:0:0:
256,192,87730,1,0,0:0:0:0:
256,192,87794,1,0,0:0:0:0:
256,192,87858,1,0,0:0:0:0:
256,192,87986,1,8,0:0:0:0:
256,192,88115,1,0,0:0:0:0:
256,192,88371,1,0,0:0:0:0:
256,192,88499,1,8,0:0:0:0:
256,192,88627,1,0,0:0:0:0:
256,192,88884,1,8,0:0:0:0:
256,192,89012,1,0,0:0:0:0:
256,192,89076,1,0,0:0:0:0:
256,192,89140,1,0,0:0:0:0:
256,192,89268,1,0,0:0:0:0:
256,192,89397,1,12,0:0:0:0:
256,192,89909,1,12,0:0:0:0:
256,192,90102,1,12,0:0:0:0:
256,192,90294,1,12,0:0:0:0:
256,192,90422,1,12,0:0:0:0:
256,192,90679,1,0,0:0:0:0:
256,192,90743,1,0,0:0:0:0:
256,192,90807,1,0,0:0:0:0:
256,192,90935,1,12,0:0:0:0:
256,192,91127,1,12,0:0:0:0:
256,192,91320,1,12,0:0:0:0:
256,192,91448,1,12,0:0:0:0:
256,192,91833,1,0,0:0:0:0:
256,192,91961,1,12,0:0:0:0:
256,192,92089,1,4,0:0:0:0:
256,192,92217,1,12,0:0:0:0:
256,192,92345,1,12,0:0:0:0:
256,192,92602,1,4,0:0:0:0:
256,192,92730,1,12,0:0:0:0:
256,192,92858,1,12,0:0:0:0:
256,192,92986,1,0,0:0:0:0:
256,192,93115,1,8,0:0:0:0:
256,192,93243,1,0,0:0:0:0:
256,192,93307,1,0,0:0:0:0:
256,192,93371,1,0,0:0:0:0:
256,192,93499,1,12,0:0:0:0:
256,192,93756,1,0,0:0:0:0:
256,192,93884,1,0,0:0:0:0:
256,192,94012,1,8,0:0:0:0:
256,192,94140,1,0,0:0:0:0:
256,192,94268,1,8,0:0:0:0:
256,192,94397,1,0,0:0:0:0:
256,192,94525,1,12,0:0:0:0:
256,192,95038,1,8,0:0:0:0:
256,192,95166,1,0,0:0:0:0:
256,192,95294,1,8,0:0:0:0:
256,192,95550,1,0,0:0:0:0:
256,192,95679,1,0,0:0:0:0:
256,192,95807,1,8,0:0:0:0:
256,192,96063,1,0,0:0:0:0:
256,192,96191,1,0,0:0:0:0:
256,192,96320,1,8,0:0:0:0:
256,192,96576,1,0,0:0:0:0:
256,192,96640,1,0,0:0:0:0:
256,192,96704,1,0,0:0:0:0:
256,192,96833,1,8,0:0:0:0:
256,192,96961,1,8,0:0:0:0:
256,192,97089,1,0,0:0:0:0:
256,192,97602,1,12,0:0:0:0:
256,192,97858,1,8,0:0:0:0:
256,192,97986,1,0,0:0:0:0:
256,192,98115,1,8,0:0:0:0:
256,192,98243,1,0,0:0:0:0:
256,192,98371,1,8,0:0:0:0:
256,192,98627,1,8,0:0:0:0:
256,192,98691,1,8,0:0:0:0:
256,192,98756,1,8,0:0:0:0:
256,192,98884,1,0,0:0:0:0:
256,192,99140,1,0,0:0:0:0:
256,192,99268,1,8,0:0:0:0:
256,192,99397,1,0,0:0:0:0:
256,192,99461,1,0,0:0:0:0:
256,192,99525,1,0,0:0:0:0:
256,192,99653,1,12,0:0:0:0:
256,192,99909,1,8,0:0:0:0:
256,192,100038,1,0,0:0:0:0:
256,192,100166,1,0,0:0:0:0:
256,192,100422,1,0,0:0:0:0:
256,192,100550,1,0,0:0:0:0:
256,192,100679,1,8,0:0:0:0:
256,192,101191,1,8,0:0:0:0:
256,192,101320,1,0,0:0:0:0:
256,192,101384,1,0,0:0:0:0:
256,192,101448,1,0,0:0:0:0:
256,192,101576,1,0,0:0:0:0:
256,192,101704,1,12,0:0:0:0:
256,192,101961,1,8,0:0:0:0:
256,192,102089,1,8,0:0:0:0:
256,192,102217,1,0,0:0:0:0:
256,192,102474,1,8,0:0:0:0:
256,192,102602,1,0,0:0:0:0:
256,192,102730,1,8,0:0:0:0:
256,192,102794,1,8,0:0:0:0:
256,192,102858,1,8,0:0:0:0:
256,192,102986,1,0,0:0:0:0:
256,192,103243,1,0,0:0:0:0:
256,192,103371,1,8,0:0:0:0:
256,192,103499,1,0,0:0:0:0:
256,192,103563,1,0,0:0:0:0:
256,192,103627,1,0,0:0:0:0:
256,192,103756,1,12,0:0:0:0:
256,192,104012,1,8,0:0:0:0:
256,192,104140,1,8,0:0:0:0:
256,192,104268,1,0,0:0:0:0:
256,192,104525,1,8,0:0:0:0:
256,192,104653,1,8,0:0:0:0:
256,192,104781,1,0,0:0:0:0:
256,192,104909,1,8,0:0:0:0:
256,192,105038,1,0,0:0:0:0:
256,192,105102,1,0,0:0:0:0:
256,192,105166,1,0,0:0:0:0:
256,192,105294,1,12,0:0:0:0:
256,192,105422,1,12,0:0:0:0:
256,192,105807,1,12,0:0:0:0:
256,192,106063,1,8,0:0:0:0:
256,192,106191,1,8,0:0:0:0:
256,192,106320,1,0,0:0:0:0:
256,192,106576,1,8,0:0:0:0:
256,192,106704,1,0,0:0:0:0:
256,192,106833,1,8,0:0:0:0:
256,192,106897,1,8,0:0:0:0:
256,192,106961,1,8,0:0:0:0:
256,192,107089,1,0,0:0:0:0:
256,192,107345,1,0,0:0:0:0:
256,192,107474,1,0,0:0:0:0:
256,192,107602,1,8,0:0:0:0:
256,192,107858,1,12,0:0:0:0:
256,192,108115,1,8,0:0:0:0:
256,192,108243,1,0,0:0:0:0:
256,192,108371,1,8,0:0:0:0:
256,192,108627,1,0,0:0:0:0:
256,192,108756,1,0,0:0:0:0:
256,192,108884,1,8,0:0:0:0:
256,192,109397,1,8,0:0:0:0:
256,192,109525,1,0,0:0:0:0:
256,192,109589,1,0,0:0:0:0:
256,192,109653,1,0,0:0:0:0:
256,192,109781,1,0,0:0:0:0:
256,192,109909,1,12,0:0:0:0:
256,192,110166,1,0,0:0:0:0:
256,192,110294,1,0,0:0:0:0:
256,192,110422,1,8,0:0:0:0:
256,192,110679,1,8,0:0:0:0:
256,192,110807,1,0,0:0:0:0:
256,192,110935,1,8,0:0:0:0:
256,192,110999,1,8,0:0:0:0:
256,192,111063,1,8,0:0:0:0:
256,192,111191,1,0,0:0:0:0:
256,192,111448,1,8,0:0:0:0:
256,192,111576,1,0,0:0:0:0:
256,192,111704,1,8,0:0:0:0:
256,192,111961,1,8,0:0:0:0:
256,192,112345,1,0,0:0:0:0:
256,192,112474,1,8,0:0:0:0:
256,192,112730,1,0,0:0:0:0:
256,192,112858,1,8,0:0:0:0:
256,192,112986,1,0,0:0:0:0:
256,192,113243,1,8,0:0:0:0:
256,192,113371,1,8,0:0:0:0:
256,192,113499,1,0,0:0:0:0:
256,192,113563,1,0,0:0:0:0:
256,192,113627,1,0,0:0:0:0:
256,192,113756,1,8,0:0:0:0:
256,192,114012,1,4,0:0:0:0:
256,192,114140,1,12,0:0:0:0:
256,192,114397,1,4,0:0:0:0:
256,192,114525,1,12,0:0:0:0:
256,192,114653,1,12,0:0:0:0:
256,192,114909,1,12,0:0:0:0:
256,192,115294,1,12,0:0:0:0:
256,192,115422,1,4,0:0:0:0:
256,192,115550,1,4,0:0:0:0:
256,192,115743,1,4,0:0:0:0:
256,192,115935,1,4,0:0:0:0:
256,192,116191,1,12,0:0:0:0:
256,192,116576,1,12,0:0:0:0:
256,192,116704,1,12,0:0:0:0:
256,192,116961,1,4,0:0:0:0:
256,192,117089,1,12,0:0:0:0:
256,192,117217,1,4,0:0:0:0:
256,192,117345,1,12,0:0:0:0:
256,192,117474,1,4,0:0:0:0:
256,192,117730,1,4,0:0:0:0:
256,192,117858,1,12,0:0:0:0:
256,192,118115,1,4,0:0:0:0:
256,192,118243,1,12,0:0:0:0:
256,192,118627,1,12,0:0:0:0:
256,192,118756,1,12,0:0:0:0:
256,192,119012,1,12,0:0:0:0:
256,192,119268,1,4,0:0:0:0:
256,192,119397,1,12,0:0:0:0:
256,192,119525,1,4,0:0:0:0:
256,192,119653,1,4,0:0:0:0:
256,192,119845,1,4,0:0:0:0:
256,192,120038,1,4,0:0:0:0:
256,192,120422,1,12,0:0:0:0:
256,192,120679,1,0,0:0:0:0:
256,192,120807,1,0,0:0:0:0:
256,192,120935,1,12,0:0:0:0:
256,192,121191,1,0,0:0:0:0:
256,192,121320,1,0,0:0:0:0:
256,192,121448,1,8,0:0:0:0:
256,192,121576,1,8,0:0:0:0:
256,192,121704,1,0,0:0:0:0:
256,192,121768,1,0,0:0:0:0:
256,192,121833,1,0,0:0:0:0:
256,192,121961,1,8,0:0:0:0:
256,192,122089,1,0,0:0:0:0:
256,192,122217,1,12,0:0:0:0:
