osu file format v14

[General]
AudioFilename: audio.mp3
AudioLeadIn: 0
PreviewTime: 11499
Countdown: 0
SampleSet: Normal
StackLeniency: 0.7
Mode: 3
LetterboxInBreaks: 0
SpecialStyle: 0
WidescreenStoryboard: 0

[Editor]
Bookmarks: 6167,24393,36547,54773,60851,73003,97305
DistanceSpacing: 0.8
BeatDivisor: 6
GridSize: 32
TimelineZoom: 1.6

[Metadata]
Title:District 1
TitleUnicode:District 1
Artist:MAX
ArtistUnicode:MAX
Creator:GalluZ
Version:[S15] Insane
Source:Pump It Up: XX
Tags:pump it up xx twenty MAX District 1 hybrid jack
BeatmapID:4163152
BeatmapSetID:2001981

[Difficulty]
HPDrainRate:7.5
CircleSize:4
OverallDifficulty:7.5
ApproachRate:5
SliderMultiplier:1.4
SliderTickRate:1

[Events]
//Background and Video events
0,0,"District 1 Background.png",0,0
//Break Periods
//Storyboard Layer 0 (Background)
//Storyboard Layer 1 (Fail)
//Storyboard Layer 2 (Pass)
//Storyboard Layer 3 (Foreground)
//Storyboard Layer 4 (Overlay)
//Storyboard Sound Samples

[TimingPoints]
107,379.746835443038,4,1,0,50,1,0
6182,-100,4,1,0,50,0,0
36562,-100,4,1,0,50,0,1
48714,-100,4,1,0,50,0,0
85170,-100,4,1,0,50,0,1
95803,-100,4,1,0,50,0,0
106436,-100,4,1,0,50,0,1
109474,-100,4,1,0,50,0,0

[HitObjects]
64,192,107,5,0,0:0:0:0:
320,192,107,1,0,0:0:0:0:
192,192,296,1,0,0:0:0:0:
448,192,486,1,0,0:0:0:0:
320,192,676,1,0,0:0:0:0:
192,192,866,1,0,0:0:0:0:
448,192,1056,1,0,0:0:0:0:
64,192,1246,1,0,0:0:0:0:
192,192,1436,1,0,0:0:0:0:
64,192,1625,1,0,0:0:0:0:
192,192,1815,1,0,0:0:0:0:
448,192,2005,1,0,0:0:0:0:
320,192,2195,1,0,0:0:0:0:
192,192,2385,1,0,0:0:0:0:
448,192,2575,1,0,0:0:0:0:
320,192,2670,1,0,0:0:0:0:
192,192,2765,1,0,0:0:0:0:
64,192,2955,1,0,0:0:0:0:
64,192,3144,1,0,0:0:0:0:
192,192,3334,1,0,0:0:0:0:
448,192,3524,1,0,0:0:0:0:
64,192,3714,1,0,0:0:0:0:
320,192,3904,1,0,0:0:0:0:
320,192,4094,1,0,0:0:0:0:
64,192,4284,1,0,0:0:0:0:
320,192,4474,1,0,0:0:0:0:
64,192,4663,1,0,0:0:0:0:
320,192,4853,1,0,0:0:0:0:
448,192,5043,1,0,0:0:0:0:
192,192,5233,128,0,5423:0:0:0:0:
64,192,6182,5,0,0:0:0:0:
448,192,6182,1,0,0:0:0:0:
320,192,6372,1,0,0:0:0:0:
192,192,6467,1,0,0:0:0:0:
320,192,6562,1,0,0:0:0:0:
448,192,6562,1,0,0:0:0:0:
192,192,6657,1,0,0:0:0:0:
64,192,6752,1,0,0:0:0:0:
448,192,6942,1,0,0:0:0:0:
320,192,6942,1,0,0:0:0:0:
192,192,7132,1,0,0:0:0:0:
320,192,7227,1,0,0:0:0:0:
448,192,7322,1,0,0:0:0:0:
192,192,7322,1,0,0:0:0:0:
64,192,7512,1,0,0:0:0:0:
320,192,7701,1,0,0:0:0:0:
192,192,7701,1,0,0:0:0:0:
64,192,7891,1,0,0:0:0:0:
192,192,7986,1,0,0:0:0:0:
320,192,8081,1,0,0:0:0:0:
64,192,8081,1,0,0:0:0:0:
192,192,8176,1,0,0:0:0:0:
448,192,8271,1,0,0:0:0:0:
64,192,8461,1,0,0:0:0:0:
192,192,8461,1,0,0:0:0:0:
448,192,8651,1,0,0:0:0:0:
320,192,8746,1,0,0:0:0:0:
192,192,8841,1,0,0:0:0:0:
64,192,8841,1,0,0:0:0:0:
448,192,9031,1,0,0:0:0:0:
320,192,9220,1,0,0:0:0:0:
64,192,9220,1,0,0:0:0:0:
448,192,9315,1,0,0:0:0:0:
320,192,9410,1,0,0:0:0:0:
192,192,9505,1,0,0:0:0:0:
448,192,9600,1,0,0:0:0:0:
320,192,9600,1,0,0:0:0:0:
64,192,9695,1,0,0:0:0:0:
192,192,9790,1,0,0:0:0:0:
448,192,9885,1,0,0:0:0:0:
64,192,9980,1,0,0:0:0:0:
320,192,9980,1,0,0:0:0:0:
192,192,10075,1,0,0:0:0:0:
448,192,10170,1,0,0:0:0:0:
320,192,10265,1,0,0:0:0:0:
192,192,10360,1,0,0:0:0:0:
64,192,10360,1,0,0:0:0:0:
320,192,10455,1,0,0:0:0:0:
448,192,10550,1,0,0:0:0:0:
192,192,10644,1,0,0:0:0:0:
320,192,10739,1,0,0:0:0:0:
448,192,10739,128,0,11119:0:0:0:0:
320,192,11499,128,0,11689:0:0:0:0:
192,192,11689,128,0,11879:0:0:0:0:
64,192,11879,128,0,12069:0:0:0:0:
448,192,11879,1,0,0:0:0:0:
320,192,11974,1,0,0:0:0:0:
192,192,12069,128,0,12258:0:0:0:0:
448,192,12069,1,0,0:0:0:0:
320,192,12163,1,0,0:0:0:0:
64,192,12258,128,0,12448:0:0:0:0:
448,192,12258,1,0,0:0:0:0:
64,192,12543,128,0,12733:0:0:0:0:
448,192,12638,1,0,0:0:0:0:
320,192,12638,1,0,0:0:0:0:
64,192,12828,128,0,13018:0:0:0:0:
192,192,13018,128,0,13208:0:0:0:0:
448,192,13018,1,0,0:0:0:0:
192,192,13303,128,0,13493:0:0:0:0:
448,192,13398,1,0,0:0:0:0:
320,192,13398,1,0,0:0:0:0:
320,192,13588,128,0,13777:0:0:0:0:
64,192,13777,128,0,13967:0:0:0:0:
448,192,13777,1,0,0:0:0:0:
64,192,14062,128,0,14252:0:0:0:0:
320,192,14157,1,0,0:0:0:0:
192,192,14157,1,0,0:0:0:0:
64,192,14347,128,0,14537:0:0:0:0:
448,192,14537,1,0,0:0:0:0:
192,192,14537,1,0,0:0:0:0:
320,192,14632,128,0,14822:0:0:0:0:
64,192,14822,1,0,0:0:0:0:
192,192,14917,128,0,15107:0:0:0:0:
448,192,14917,128,0,15107:0:0:0:0:
320,192,15107,128,0,15296:0:0:0:0:
64,192,15107,128,0,15296:0:0:0:0:
192,192,15296,128,0,15486:0:0:0:0:
448,192,15296,1,0,0:0:0:0:
192,192,15581,128,0,15771:0:0:0:0:
448,192,15676,1,0,0:0:0:0:
64,192,15676,1,0,0:0:0:0:
192,192,15866,128,0,16056:0:0:0:0:
320,192,15866,1,0,0:0:0:0:
64,192,16151,1,0,0:0:0:0:
192,192,16151,1,0,0:0:0:0:
320,192,16246,1,0,0:0:0:0:
448,192,16246,1,0,0:0:0:0:
64,192,16341,1,0,0:0:0:0:
192,192,16341,1,0,0:0:0:0:
320,192,16436,1,0,0:0:0:0:
448,192,16436,1,0,0:0:0:0:
192,192,16625,1,0,0:0:0:0:
320,192,16720,1,0,0:0:0:0:
192,192,16815,128,0,17100:0:0:0:0:
448,192,16815,1,0,0:0:0:0:
320,192,17100,128,0,17385:0:0:0:0:
448,192,17100,1,0,0:0:0:0:
192,192,17385,128,0,17670:0:0:0:0:
448,192,17385,1,0,0:0:0:0:
64,192,17670,128,0,17955:0:0:0:0:
448,192,17670,1,0,0:0:0:0:
320,192,17955,128,0,18144:0:0:0:0:
448,192,17955,128,0,18144:0:0:0:0:
64,192,18144,128,0,18334:0:0:0:0:
192,192,18144,128,0,18334:0:0:0:0:
320,192,18334,128,0,18524:0:0:0:0:
320,192,18619,128,0,18809:0:0:0:0:
64,192,18714,1,0,0:0:0:0:
192,192,18714,1,0,0:0:0:0:
320,192,18904,128,0,19094:0:0:0:0:
192,192,19094,128,0,19284:0:0:0:0:
448,192,19094,1,0,0:0:0:0:
192,192,19379,128,0,19569:0:0:0:0:
448,192,19474,1,0,0:0:0:0:
64,192,19474,1,0,0:0:0:0:
320,192,19663,128,0,19853:0:0:0:0:
64,192,19853,128,0,20043:0:0:0:0:
448,192,19853,1,0,0:0:0:0:
64,192,20138,128,0,20328:0:0:0:0:
320,192,20233,1,0,0:0:0:0:
448,192,20233,1,0,0:0:0:0:
64,192,20423,128,0,20613:0:0:0:0:
192,192,20613,1,0,0:0:0:0:
320,192,20708,128,0,20898:0:0:0:0:
64,192,20898,1,0,0:0:0:0:
192,192,20993,128,0,21182:0:0:0:0:
448,192,20993,128,0,21182:0:0:0:0:
320,192,21182,128,0,21372:0:0:0:0:
64,192,21182,128,0,21372:0:0:0:0:
192,192,21372,128,0,21562:0:0:0:0:
448,192,21372,1,0,0:0:0:0:
192,192,21657,128,0,21847:0:0:0:0:
448,192,21752,1,0,0:0:0:0:
64,192,21752,1,0,0:0:0:0:
192,192,21942,128,0,22132:0:0:0:0:
320,192,21942,1,0,0:0:0:0:
192,192,22227,1,0,0:0:0:0:
64,192,22227,1,0,0:0:0:0:
448,192,22322,1,0,0:0:0:0:
320,192,22322,1,0,0:0:0:0:
64,192,22417,1,0,0:0:0:0:
192,192,22417,1,0,0:0:0:0:
320,192,22512,1,0,0:0:0:0:
448,192,22512,1,0,0:0:0:0:
448,192,22701,1,0,0:0:0:0:
320,192,22796,1,0,0:0:0:0:
192,192,22891,128,0,23176:0:0:0:0:
64,192,22891,1,0,0:0:0:0:
320,192,23176,128,0,23461:0:0:0:0:
64,192,23176,1,0,0:0:0:0:
448,192,23461,128,0,23651:0:0:0:0:
192,192,23461,1,0,0:0:0:0:
192,192,23746,128,0,24031:0:0:0:0:
64,192,23746,1,0,0:0:0:0:
448,192,24031,128,0,24220:0:0:0:0:
320,192,24031,128,0,24220:0:0:0:0:
192,192,24220,128,0,24410:0:0:0:0:
64,192,24220,128,0,24410:0:0:0:0:
448,192,24410,1,0,0:0:0:0:
320,192,24600,1,0,0:0:0:0:
192,192,24695,1,0,0:0:0:0:
320,192,24790,1,0,0:0:0:0:
448,192,24790,1,0,0:0:0:0:
64,192,24980,1,0,0:0:0:0:
192,192,25075,1,0,0:0:0:0:
320,192,25170,1,0,0:0:0:0:
448,192,25170,1,0,0:0:0:0:
448,192,25360,1,0,0:0:0:0:
64,192,25455,1,0,0:0:0:0:
320,192,25550,1,0,0:0:0:0:
448,192,25550,1,0,0:0:0:0:
320,192,25739,1,0,0:0:0:0:
192,192,25834,1,0,0:0:0:0:
64,192,25929,1,0,0:0:0:0:
320,192,25929,1,0,0:0:0:0:
448,192,26024,1,0,0:0:0:0:
192,192,26119,1,0,0:0:0:0:
448,192,26214,1,0,0:0:0:0:
320,192,26309,1,0,0:0:0:0:
64,192,26309,1,0,0:0:0:0:
192,192,26499,1,0,0:0:0:0:
64,192,26594,1,0,0:0:0:0:
448,192,26689,1,0,0:0:0:0:
320,192,26689,1,0,0:0:0:0:
64,192,26784,1,0,0:0:0:0:
192,192,26879,1,0,0:0:0:0:
320,192,26974,1,0,0:0:0:0:
448,192,27069,1,0,0:0:0:0:
64,192,27069,1,0,0:0:0:0:
192,192,27163,1,0,0:0:0:0:
320,192,27258,1,0,0:0:0:0:
448,192,27353,1,0,0:0:0:0:
64,192,27448,1,0,0:0:0:0:
192,192,27448,1,0,0:0:0:0:
448,192,27638,1,0,0:0:0:0:
320,192,27733,1,0,0:0:0:0:
64,192,27828,1,0,0:0:0:0:
192,192,27828,1,0,0:0:0:0:
192,192,28018,1,0,0:0:0:0:
320,192,28113,1,0,0:0:0:0:
64,192,28208,1,0,0:0:0:0:
192,192,28208,1,0,0:0:0:0:
320,192,28398,1,0,0:0:0:0:
448,192,28493,1,0,0:0:0:0:
64,192,28588,1,0,0:0:0:0:
192,192,28588,1,0,0:0:0:0:
64,192,28777,1,0,0:0:0:0:
320,192,28872,1,0,0:0:0:0:
64,192,28967,1,0,0:0:0:0:
192,192,28967,1,0,0:0:0:0:
448,192,29062,1,0,0:0:0:0:
320,192,29157,1,0,0:0:0:0:
64,192,29157,1,0,0:0:0:0:
192,192,29252,1,0,0:0:0:0:
64,192,29347,1,0,0:0:0:0:
448,192,29347,1,0,0:0:0:0:
192,192,29442,1,0,0:0:0:0:
320,192,29537,1,0,0:0:0:0:
448,192,29537,1,0,0:0:0:0:
192,192,29632,1,0,0:0:0:0:
448,192,29727,1,0,0:0:0:0:
64,192,29727,128,0,29917:0:0:0:0:
320,192,29822,1,0,0:0:0:0:
192,192,29917,128,0,30107:0:0:0:0:
320,192,30012,1,0,0:0:0:0:
448,192,30107,128,0,30296:0:0:0:0:
320,192,30201,1,0,0:0:0:0:
192,192,30296,128,0,30486:0:0:0:0:
64,192,30391,1,0,0:0:0:0:
320,192,30486,1,0,0:0:0:0:
448,192,30486,1,0,0:0:0:0:
320,192,30676,1,0,0:0:0:0:
192,192,30771,1,0,0:0:0:0:
448,192,30866,1,0,0:0:0:0:
320,192,30866,1,0,0:0:0:0:
64,192,31056,1,0,0:0:0:0:
192,192,31151,1,0,0:0:0:0:
448,192,31246,1,0,0:0:0:0:
320,192,31246,1,0,0:0:0:0:
448,192,31436,1,0,0:0:0:0:
64,192,31531,1,0,0:0:0:0:
448,192,31625,1,0,0:0:0:0:
320,192,31625,1,0,0:0:0:0:
192,192,31815,1,0,0:0:0:0:
64,192,31910,1,0,0:0:0:0:
448,192,32005,1,0,0:0:0:0:
192,192,32005,1,0,0:0:0:0:
320,192,32100,1,0,0:0:0:0:
64,192,32195,1,0,0:0:0:0:
192,192,32290,1,0,0:0:0:0:
448,192,32385,1,0,0:0:0:0:
320,192,32385,1,0,0:0:0:0:
192,192,32575,1,0,0:0:0:0:
64,192,32670,1,0,0:0:0:0:
320,192,32765,1,0,0:0:0:0:
448,192,32765,1,0,0:0:0:0:
64,192,32860,1,0,0:0:0:0:
192,192,32955,1,0,0:0:0:0:
320,192,33050,1,0,0:0:0:0:
64,192,33144,1,0,0:0:0:0:
448,192,33144,1,0,0:0:0:0:
192,192,33239,1,0,0:0:0:0:
320,192,33334,1,0,0:0:0:0:
448,192,33429,1,0,0:0:0:0:
192,192,33524,1,0,0:0:0:0:
64,192,33524,1,0,0:0:0:0:
448,192,33714,1,0,0:0:0:0:
320,192,33809,1,0,0:0:0:0:
192,192,33904,1,0,0:0:0:0:
64,192,33904,1,0,0:0:0:0:
192,192,34094,1,0,0:0:0:0:
320,192,34189,1,0,0:0:0:0:
192,192,34284,1,0,0:0:0:0:
64,192,34284,1,0,0:0:0:0:
320,192,34474,1,0,0:0:0:0:
448,192,34569,1,0,0:0:0:0:
192,192,34663,1,0,0:0:0:0:
64,192,34663,1,0,0:0:0:0:
448,192,34853,1,0,0:0:0:0:
320,192,34948,1,0,0:0:0:0:
64,192,35043,1,0,0:0:0:0:
192,192,35043,128,0,35233:0:0:0:0:
448,192,35233,128,0,35423:0:0:0:0:
320,192,35423,1,0,0:0:0:0:
64,192,35518,1,0,0:0:0:0:
192,192,35613,128,0,35803:0:0:0:0:
320,192,35803,1,0,0:0:0:0:
448,192,35898,128,0,36182:0:0:0:0:
64,192,36182,128,0,36372:0:0:0:0:
192,192,36372,128,0,36562:0:0:0:0:
64,192,36562,1,0,0:0:0:0:
320,192,36562,1,0,0:0:0:0:
448,192,36562,1,0,0:0:0:0:
192,192,36752,1,0,0:0:0:0:
64,192,36847,1,0,0:0:0:0:
192,192,36942,1,0,0:0:0:0:
320,192,36942,1,0,0:0:0:0:
448,192,37132,1,0,0:0:0:0:
320,192,37227,1,0,0:0:0:0:
448,192,37322,1,0,0:0:0:0:
192,192,37322,1,0,0:0:0:0:
64,192,37512,1,0,0:0:0:0:
192,192,37607,1,0,0:0:0:0:
320,192,37701,1,0,0:0:0:0:
448,192,37701,1,0,0:0:0:0:
192,192,37796,1,0,0:0:0:0:
448,192,37891,1,0,0:0:0:0:
320,192,37986,1,0,0:0:0:0:
64,192,38081,1,0,0:0:0:0:
192,192,38081,1,0,0:0:0:0:
448,192,38271,1,0,0:0:0:0:
320,192,38366,1,0,0:0:0:0:
192,192,38461,1,0,0:0:0:0:
448,192,38461,1,0,0:0:0:0:
320,192,38556,1,0,0:0:0:0:
64,192,38651,1,0,0:0:0:0:
192,192,38746,1,0,0:0:0:0:
64,192,38841,1,0,0:0:0:0:
448,192,38841,1,0,0:0:0:0:
192,192,39031,1,0,0:0:0:0:
320,192,39125,1,0,0:0:0:0:
64,192,39220,1,0,0:0:0:0:
448,192,39220,1,0,0:0:0:0:
320,192,39410,1,0,0:0:0:0:
64,192,39600,1,0,0:0:0:0:
192,192,39600,1,0,0:0:0:0:
448,192,39790,128,0,39980:0:0:0:0:
64,192,39885,1,0,0:0:0:0:
320,192,39980,1,0,0:0:0:0:
192,192,39980,1,0,0:0:0:0:
64,192,40075,128,0,40265:0:0:0:0:
192,192,40170,1,0,0:0:0:0:
320,192,40265,1,0,0:0:0:0:
192,192,40360,1,0,0:0:0:0:
448,192,40360,128,0,40550:0:0:0:0:
320,192,40550,1,0,0:0:0:0:
64,192,40644,128,0,40834:0:0:0:0:
448,192,40739,1,0,0:0:0:0:
192,192,40739,1,0,0:0:0:0:
192,192,40929,128,0,41119:0:0:0:0:
320,192,41024,1,0,0:0:0:0:
448,192,41119,1,0,0:0:0:0:
64,192,41119,1,0,0:0:0:0:
448,192,41309,128,0,41499:0:0:0:0:
64,192,41404,1,0,0:0:0:0:
192,192,41499,1,0,0:0:0:0:
320,192,41499,1,0,0:0:0:0:
64,192,41594,128,0,41784:0:0:0:0:
320,192,41689,1,0,0:0:0:0:
192,192,41784,1,0,0:0:0:0:
448,192,41879,128,0,42069:0:0:0:0:
320,192,41879,1,0,0:0:0:0:
64,192,42069,1,0,0:0:0:0:
192,192,42069,1,0,0:0:0:0:
320,192,42258,1,0,0:0:0:0:
448,192,42258,1,0,0:0:0:0:
192,192,42353,1,0,0:0:0:0:
320,192,42448,1,0,0:0:0:0:
64,192,42448,1,0,0:0:0:0:
448,192,42543,1,0,0:0:0:0:
192,192,42638,1,0,0:0:0:0:
64,192,42638,1,0,0:0:0:0:
320,192,42828,1,0,0:0:0:0:
448,192,42923,1,0,0:0:0:0:
192,192,43018,1,0,0:0:0:0:
320,192,43018,1,0,0:0:0:0:
64,192,43208,1,0,0:0:0:0:
320,192,43303,1,0,0:0:0:0:
448,192,43398,1,0,0:0:0:0:
192,192,43398,1,0,0:0:0:0:
320,192,43588,1,0,0:0:0:0:
192,192,43682,1,0,0:0:0:0:
64,192,43777,1,0,0:0:0:0:
448,192,43777,1,0,0:0:0:0:
320,192,43872,1,0,0:0:0:0:
448,192,43967,1,0,0:0:0:0:
320,192,44062,1,0,0:0:0:0:
64,192,44157,1,0,0:0:0:0:
192,192,44157,1,0,0:0:0:0:
448,192,44347,1,0,0:0:0:0:
320,192,44442,1,0,0:0:0:0:
192,192,44537,1,0,0:0:0:0:
64,192,44537,1,0,0:0:0:0:
320,192,44632,1,0,0:0:0:0:
448,192,44727,1,0,0:0:0:0:
64,192,44822,1,0,0:0:0:0:
192,192,44917,1,0,0:0:0:0:
448,192,44917,1,0,0:0:0:0:
320,192,45107,1,0,0:0:0:0:
448,192,45201,1,0,0:0:0:0:
192,192,45296,1,0,0:0:0:0:
64,192,45296,1,0,0:0:0:0:
320,192,45486,1,0,0:0:0:0:
64,192,45676,1,0,0:0:0:0:
448,192,45676,1,0,0:0:0:0:
320,192,45866,128,0,46056:0:0:0:0:
192,192,45961,1,0,0:0:0:0:
64,192,46056,1,0,0:0:0:0:
448,192,46056,1,0,0:0:0:0:
192,192,46151,128,0,46341:0:0:0:0:
448,192,46246,1,0,0:0:0:0:
320,192,46341,1,0,0:0:0:0:
448,192,46436,1,0,0:0:0:0:
64,192,46436,128,0,46625:0:0:0:0:
320,192,46625,1,0,0:0:0:0:
192,192,46720,128,0,46910:0:0:0:0:
448,192,46815,1,0,0:0:0:0:
64,192,46815,1,0,0:0:0:0:
320,192,47005,128,0,47195:0:0:0:0:
64,192,47100,1,0,0:0:0:0:
448,192,47195,1,0,0:0:0:0:
192,192,47195,1,0,0:0:0:0:
448,192,47385,128,0,47575:0:0:0:0:
320,192,47480,1,0,0:0:0:0:
192,192,47575,1,0,0:0:0:0:
64,192,47575,1,0,0:0:0:0:
320,192,47670,128,0,47860:0:0:0:0:
192,192,47765,1,0,0:0:0:0:
64,192,47860,1,0,0:0:0:0:
192,192,47955,128,0,48144:0:0:0:0:
448,192,47955,1,0,0:0:0:0:
320,192,48144,1,0,0:0:0:0:
64,192,48239,128,0,48429:0:0:0:0:
192,192,48334,1,0,0:0:0:0:
448,192,48334,1,0,0:0:0:0:
320,192,48524,128,0,48714:0:0:0:0:
448,192,48619,1,0,0:0:0:0:
64,192,48714,128,0,51752:0:0:0:0:
192,192,48714,1,0,0:0:0:0:
448,192,48904,1,0,0:0:0:0:
448,192,49094,1,0,0:0:0:0:
320,192,49284,1,0,0:0:0:0:
192,192,49474,1,0,0:0:0:0:
448,192,49663,1,0,0:0:0:0:
192,192,49853,1,0,0:0:0:0:
448,192,50043,1,0,0:0:0:0:
320,192,50233,1,0,0:0:0:0:
192,192,50423,1,0,0:0:0:0:
448,192,50613,1,0,0:0:0:0:
320,192,50803,1,0,0:0:0:0:
192,192,50993,1,0,0:0:0:0:
448,192,51182,1,0,0:0:0:0:
320,192,51277,1,0,0:0:0:0:
192,192,51372,1,0,0:0:0:0:
448,192,51562,1,0,0:0:0:0:
320,192,51752,1,0,0:0:0:0:
192,192,51942,1,0,0:0:0:0:
448,192,52132,1,0,0:0:0:0:
64,192,52322,1,0,0:0:0:0:
320,192,52512,1,0,0:0:0:0:
448,192,52701,1,0,0:0:0:0:
64,192,52891,1,0,0:0:0:0:
192,192,53081,1,0,0:0:0:0:
64,192,53271,1,0,0:0:0:0:
192,192,53461,1,0,0:0:0:0:
448,192,53651,1,0,0:0:0:0:
64,192,53841,1,0,0:0:0:0:
448,192,54031,1,0,0:0:0:0:
448,192,54125,1,0,0:0:0:0:
64,192,54315,1,0,0:0:0:0:
64,192,54410,1,0,0:0:0:0:
320,192,54600,128,0,54790:0:0:0:0:
192,192,54790,1,0,0:0:0:0:
64,192,54790,1,0,0:0:0:0:
448,192,54885,1,0,0:0:0:0:
64,192,54980,1,0,0:0:0:0:
192,192,54980,1,0,0:0:0:0:
320,192,55075,1,0,0:0:0:0:
192,192,55170,1,0,0:0:0:0:
320,192,55265,1,0,0:0:0:0:
448,192,55360,1,0,0:0:0:0:
320,192,55455,1,0,0:0:0:0:
64,192,55550,1,0,0:0:0:0:
192,192,55550,1,0,0:0:0:0:
448,192,55644,1,0,0:0:0:0:
64,192,55739,1,0,0:0:0:0:
192,192,55739,1,0,0:0:0:0:
320,192,55834,1,0,0:0:0:0:
448,192,55929,1,0,0:0:0:0:
320,192,56024,1,0,0:0:0:0:
192,192,56119,128,0,56309:0:0:0:0:
448,192,56119,1,0,0:0:0:0:
320,192,56309,1,0,0:0:0:0:
448,192,56309,1,0,0:0:0:0:
64,192,56404,1,0,0:0:0:0:
320,192,56499,1,0,0:0:0:0:
448,192,56499,1,0,0:0:0:0:
64,192,56594,1,0,0:0:0:0:
192,192,56689,1,0,0:0:0:0:
320,192,56784,1,0,0:0:0:0:
192,192,56879,1,0,0:0:0:0:
64,192,56974,1,0,0:0:0:0:
320,192,57069,1,0,0:0:0:0:
448,192,57069,1,0,0:0:0:0:
64,192,57163,1,0,0:0:0:0:
448,192,57258,1,0,0:0:0:0:
320,192,57258,1,0,0:0:0:0:
64,192,57353,1,0,0:0:0:0:
192,192,57448,1,0,0:0:0:0:
320,192,57543,1,0,0:0:0:0:
448,192,57638,128,0,57733:0:0:0:0:
192,192,57733,1,0,0:0:0:0:
64,192,57733,1,0,0:0:0:0:
320,192,57828,1,0,0:0:0:0:
448,192,57828,1,0,0:0:0:0:
64,192,57923,1,0,0:0:0:0:
320,192,58018,1,0,0:0:0:0:
448,192,58018,1,0,0:0:0:0:
192,192,58113,1,0,0:0:0:0:
320,192,58208,1,0,0:0:0:0:
448,192,58303,1,0,0:0:0:0:
64,192,58398,128,0,58493:0:0:0:0:
448,192,58493,1,0,0:0:0:0:
320,192,58493,1,0,0:0:0:0:
64,192,58588,1,0,0:0:0:0:
192,192,58588,1,0,0:0:0:0:
448,192,58682,1,0,0:0:0:0:
64,192,58777,1,0,0:0:0:0:
192,192,58777,1,0,0:0:0:0:
320,192,58872,1,0,0:0:0:0:
192,192,58967,1,0,0:0:0:0:
64,192,59062,1,0,0:0:0:0:
448,192,59157,128,0,59252:0:0:0:0:
64,192,59252,1,0,0:0:0:0:
192,192,59252,1,0,0:0:0:0:
448,192,59347,1,0,0:0:0:0:
320,192,59347,1,0,0:0:0:0:
320,192,59537,1,0,0:0:0:0:
64,192,59537,1,0,0:0:0:0:
64,192,59727,1,0,0:0:0:0:
64,192,59822,1,0,0:0:0:0:
320,192,59822,1,0,0:0:0:0:
448,192,60012,1,0,0:0:0:0:
448,192,60107,1,0,0:0:0:0:
192,192,60107,1,0,0:0:0:0:
448,192,60296,1,0,0:0:0:0:
192,192,60296,1,0,0:0:0:0:
64,192,60486,128,0,60866:0:0:0:0:
192,192,60486,128,0,60866:0:0:0:0:
320,192,60486,1,0,0:0:0:0:
320,192,60866,1,0,0:0:0:0:
448,192,60866,128,0,61056:0:0:0:0:
320,192,61056,1,0,0:0:0:0:
192,192,61151,128,0,61341:0:0:0:0:
64,192,61246,1,0,0:0:0:0:
448,192,61246,1,0,0:0:0:0:
320,192,61436,128,0,61625:0:0:0:0:
192,192,61531,1,0,0:0:0:0:
64,192,61625,1,0,0:0:0:0:
448,192,61625,1,0,0:0:0:0:
192,192,61720,128,0,61910:0:0:0:0:
448,192,61815,1,0,0:0:0:0:
320,192,61910,1,0,0:0:0:0:
448,192,62005,128,0,62385:0:0:0:0:
64,192,62005,1,0,0:0:0:0:
320,192,62385,128,0,62575:0:0:0:0:
192,192,62385,1,0,0:0:0:0:
64,192,62575,1,0,0:0:0:0:
192,192,62670,128,0,62860:0:0:0:0:
320,192,62765,1,0,0:0:0:0:
448,192,62765,1,0,0:0:0:0:
64,192,62955,128,0,63144:0:0:0:0:
448,192,62955,1,0,0:0:0:0:
320,192,63050,1,0,0:0:0:0:
192,192,63144,1,0,0:0:0:0:
448,192,63144,1,0,0:0:0:0:
320,192,63239,128,0,63429:0:0:0:0:
192,192,63334,1,0,0:0:0:0:
448,192,63429,1,0,0:0:0:0:
192,192,63524,128,0,63904:0:0:0:0:
64,192,63524,1,0,0:0:0:0:
64,192,63904,1,0,0:0:0:0:
448,192,63904,1,0,0:0:0:0:
192,192,64094,1,0,0:0:0:0:
64,192,64094,1,0,0:0:0:0:
320,192,64094,1,0,0:0:0:0:
320,192,64284,1,0,0:0:0:0:
448,192,64284,1,0,0:0:0:0:
448,192,64474,1,0,0:0:0:0:
192,192,64474,1,0,0:0:0:0:
64,192,64474,1,0,0:0:0:0:
320,192,64758,1,0,0:0:0:0:
448,192,64758,1,0,0:0:0:0:
192,192,64853,1,0,0:0:0:0:
64,192,64853,1,0,0:0:0:0:
448,192,64948,1,0,0:0:0:0:
320,192,64948,1,0,0:0:0:0:
192,192,65043,128,0,65423:0:0:0:0:
64,192,65043,128,0,65423:0:0:0:0:
320,192,65233,1,0,0:0:0:0:
448,192,65423,128,0,66942:0:0:0:0:
320,192,65423,128,0,65613:0:0:0:0:
64,192,65613,1,0,0:0:0:0:
64,192,65803,128,0,65993:0:0:0:0:
320,192,65993,1,0,0:0:0:0:
192,192,66182,128,0,66372:0:0:0:0:
320,192,66372,128,0,66562:0:0:0:0:
192,192,66562,128,0,66942:0:0:0:0:
64,192,66942,128,0,67132:0:0:0:0:
320,192,67037,1,0,0:0:0:0:
448,192,67132,1,0,0:0:0:0:
192,192,67227,128,0,67417:0:0:0:0:
320,192,67322,1,0,0:0:0:0:
64,192,67322,1,0,0:0:0:0:
320,192,67512,128,0,67701:0:0:0:0:
192,192,67607,1,0,0:0:0:0:
64,192,67701,1,0,0:0:0:0:
448,192,67701,1,0,0:0:0:0:
192,192,67796,128,0,67986:0:0:0:0:
448,192,67891,1,0,0:0:0:0:
320,192,67986,1,0,0:0:0:0:
64,192,68081,1,0,0:0:0:0:
448,192,68081,128,0,68461:0:0:0:0:
192,192,68461,1,0,0:0:0:0:
320,192,68461,128,0,68651:0:0:0:0:
64,192,68651,1,0,0:0:0:0:
192,192,68746,128,0,68936:0:0:0:0:
448,192,68841,1,0,0:0:0:0:
320,192,68841,1,0,0:0:0:0:
64,192,69031,128,0,69220:0:0:0:0:
320,192,69125,1,0,0:0:0:0:
448,192,69220,1,0,0:0:0:0:
192,192,69220,1,0,0:0:0:0:
320,192,69315,128,0,69410:0:0:0:0:
192,192,69410,1,0,0:0:0:0:
64,192,69410,1,0,0:0:0:0:
448,192,69505,1,0,0:0:0:0:
320,192,69505,1,0,0:0:0:0:
192,192,69600,1,0,0:0:0:0:
64,192,69600,1,0,0:0:0:0:
320,192,69695,1,0,0:0:0:0:
448,192,69695,1,0,0:0:0:0:
192,192,69790,1,0,0:0:0:0:
64,192,69790,1,0,0:0:0:0:
320,192,69885,1,0,0:0:0:0:
448,192,69885,1,0,0:0:0:0:
64,192,69980,1,0,0:0:0:0:
192,192,69980,1,0,0:0:0:0:
192,192,70265,1,0,0:0:0:0:
448,192,70360,1,0,0:0:0:0:
320,192,70360,1,0,0:0:0:0:
320,192,70550,1,0,0:0:0:0:
192,192,70644,1,0,0:0:0:0:
64,192,70739,1,0,0:0:0:0:
448,192,70739,1,0,0:0:0:0:
192,192,70834,1,0,0:0:0:0:
320,192,70929,1,0,0:0:0:0:
64,192,70929,1,0,0:0:0:0:
192,192,71024,1,0,0:0:0:0:
448,192,71119,128,0,71214:0:0:0:0:
320,192,71119,1,0,0:0:0:0:
448,192,71309,128,0,71404:0:0:0:0:
320,192,71309,1,0,0:0:0:0:
320,192,71499,128,0,71879:0:0:0:0:
192,192,71879,128,0,72258:0:0:0:0:
64,192,72258,128,0,72638:0:0:0:0:
192,192,72638,128,0,72828:0:0:0:0:
320,192,72828,128,0,73018:0:0:0:0:
448,192,73018,1,0,0:0:0:0:
64,192,73018,1,0,0:0:0:0:
320,192,73208,1,0,0:0:0:0:
192,192,73303,1,0,0:0:0:0:
320,192,73398,1,0,0:0:0:0:
448,192,73398,1,0,0:0:0:0:
64,192,73588,1,0,0:0:0:0:
192,192,73682,1,0,0:0:0:0:
320,192,73777,1,0,0:0:0:0:
448,192,73777,1,0,0:0:0:0:
448,192,73967,1,0,0:0:0:0:
64,192,74062,1,0,0:0:0:0:
320,192,74157,1,0,0:0:0:0:
448,192,74157,1,0,0:0:0:0:
320,192,74347,1,0,0:0:0:0:
192,192,74442,1,0,0:0:0:0:
64,192,74537,1,0,0:0:0:0:
320,192,74537,1,0,0:0:0:0:
448,192,74632,1,0,0:0:0:0:
192,192,74727,1,0,0:0:0:0:
448,192,74822,1,0,0:0:0:0:
320,192,74917,1,0,0:0:0:0:
64,192,74917,1,0,0:0:0:0:
192,192,75107,1,0,0:0:0:0:
64,192,75201,1,0,0:0:0:0:
448,192,75296,1,0,0:0:0:0:
320,192,75296,1,0,0:0:0:0:
64,192,75391,1,0,0:0:0:0:
192,192,75486,1,0,0:0:0:0:
320,192,75581,1,0,0:0:0:0:
448,192,75676,1,0,0:0:0:0:
64,192,75676,1,0,0:0:0:0:
192,192,75771,1,0,0:0:0:0:
320,192,75866,1,0,0:0:0:0:
448,192,75961,1,0,0:0:0:0:
64,192,76056,1,0,0:0:0:0:
192,192,76056,1,0,0:0:0:0:
448,192,76246,1,0,0:0:0:0:
320,192,76341,1,0,0:0:0:0:
64,192,76436,1,0,0:0:0:0:
192,192,76436,1,0,0:0:0:0:
192,192,76625,1,0,0:0:0:0:
320,192,76720,1,0,0:0:0:0:
64,192,76815,1,0,0:0:0:0:
192,192,76815,1,0,0:0:0:0:
320,192,77005,1,0,0:0:0:0:
448,192,77100,1,0,0:0:0:0:
64,192,77195,1,0,0:0:0:0:
192,192,77195,1,0,0:0:0:0:
64,192,77385,1,0,0:0:0:0:
320,192,77480,1,0,0:0:0:0:
64,192,77575,1,0,0:0:0:0:
192,192,77575,1,0,0:0:0:0:
448,192,77670,1,0,0:0:0:0:
320,192,77765,1,0,0:0:0:0:
64,192,77765,1,0,0:0:0:0:
192,192,77860,1,0,0:0:0:0:
64,192,77955,1,0,0:0:0:0:
448,192,77955,1,0,0:0:0:0:
192,192,78050,1,0,0:0:0:0:
320,192,78144,1,0,0:0:0:0:
448,192,78144,1,0,0:0:0:0:
192,192,78239,1,0,0:0:0:0:
448,192,78334,1,0,0:0:0:0:
64,192,78334,128,0,78524:0:0:0:0:
320,192,78429,1,0,0:0:0:0:
192,192,78524,128,0,78714:0:0:0:0:
320,192,78619,1,0,0:0:0:0:
448,192,78714,128,0,78904:0:0:0:0:
320,192,78809,1,0,0:0:0:0:
192,192,78904,128,0,79094:0:0:0:0:
64,192,78999,1,0,0:0:0:0:
320,192,79094,1,0,0:0:0:0:
448,192,79094,1,0,0:0:0:0:
320,192,79284,1,0,0:0:0:0:
192,192,79379,1,0,0:0:0:0:
448,192,79474,1,0,0:0:0:0:
320,192,79474,1,0,0:0:0:0:
64,192,79663,1,0,0:0:0:0:
192,192,79758,1,0,0:0:0:0:
448,192,79853,1,0,0:0:0:0:
320,192,79853,1,0,0:0:0:0:
448,192,80043,1,0,0:0:0:0:
64,192,80138,1,0,0:0:0:0:
448,192,80233,1,0,0:0:0:0:
320,192,80233,1,0,0:0:0:0:
192,192,80423,1,0,0:0:0:0:
64,192,80518,1,0,0:0:0:0:
448,192,80613,1,0,0:0:0:0:
192,192,80613,1,0,0:0:0:0:
320,192,80708,1,0,0:0:0:0:
64,192,80803,1,0,0:0:0:0:
192,192,80898,1,0,0:0:0:0:
448,192,80993,1,0,0:0:0:0:
320,192,80993,1,0,0:0:0:0:
192,192,81182,1,0,0:0:0:0:
64,192,81277,1,0,0:0:0:0:
320,192,81372,1,0,0:0:0:0:
448,192,81372,1,0,0:0:0:0:
64,192,81467,1,0,0:0:0:0:
192,192,81562,1,0,0:0:0:0:
320,192,81657,1,0,0:0:0:0:
64,192,81752,1,0,0:0:0:0:
448,192,81752,1,0,0:0:0:0:
192,192,81847,1,0,0:0:0:0:
320,192,81942,1,0,0:0:0:0:
448,192,82037,1,0,0:0:0:0:
192,192,82132,1,0,0:0:0:0:
64,192,82132,1,0,0:0:0:0:
448,192,82322,1,0,0:0:0:0:
320,192,82417,1,0,0:0:0:0:
192,192,82512,1,0,0:0:0:0:
64,192,82512,1,0,0:0:0:0:
192,192,82701,1,0,0:0:0:0:
320,192,82796,1,0,0:0:0:0:
192,192,82891,1,0,0:0:0:0:
64,192,82891,1,0,0:0:0:0:
320,192,83081,1,0,0:0:0:0:
448,192,83176,1,0,0:0:0:0:
192,192,83271,1,0,0:0:0:0:
64,192,83271,1,0,0:0:0:0:
448,192,83461,1,0,0:0:0:0:
320,192,83556,1,0,0:0:0:0:
64,192,83651,1,0,0:0:0:0:
192,192,83651,128,0,83841:0:0:0:0:
448,192,83841,128,0,84031:0:0:0:0:
320,192,84031,1,0,0:0:0:0:
64,192,84125,1,0,0:0:0:0:
192,192,84220,128,0,84410:0:0:0:0:
320,192,84410,1,0,0:0:0:0:
448,192,84505,128,0,84790:0:0:0:0:
64,192,84790,128,0,84980:0:0:0:0:
192,192,84980,128,0,85170:0:0:0:0:
64,192,85170,1,0,0:0:0:0:
320,192,85170,1,0,0:0:0:0:
448,192,85170,1,0,0:0:0:0:
192,192,85360,1,0,0:0:0:0:
64,192,85455,1,0,0:0:0:0:
192,192,85550,1,0,0:0:0:0:
320,192,85550,1,0,0:0:0:0:
448,192,85739,1,0,0:0:0:0:
448,192,85834,1,0,0:0:0:0:
320,192,85929,1,0,0:0:0:0:
192,192,85929,1,0,0:0:0:0:
64,192,86119,1,0,0:0:0:0:
192,192,86214,1,0,0:0:0:0:
320,192,86309,1,0,0:0:0:0:
448,192,86309,1,0,0:0:0:0:
64,192,86404,1,0,0:0:0:0:
192,192,86499,1,0,0:0:0:0:
192,192,86594,1,0,0:0:0:0:
64,192,86689,1,0,0:0:0:0:
320,192,86689,1,0,0:0:0:0:
448,192,86879,1,0,0:0:0:0:
320,192,86974,1,0,0:0:0:0:
192,192,87069,1,0,0:0:0:0:
448,192,87069,1,0,0:0:0:0:
64,192,87163,1,0,0:0:0:0:
192,192,87353,1,0,0:0:0:0:
192,192,87448,1,0,0:0:0:0:
448,192,87448,1,0,0:0:0:0:
448,192,87638,1,0,0:0:0:0:
320,192,87733,1,0,0:0:0:0:
64,192,87828,1,0,0:0:0:0:
448,192,87828,1,0,0:0:0:0:
320,192,88018,1,0,0:0:0:0:
64,192,88208,1,0,0:0:0:0:
192,192,88208,1,0,0:0:0:0:
448,192,88398,128,0,88588:0:0:0:0:
64,192,88493,1,0,0:0:0:0:
320,192,88588,1,0,0:0:0:0:
192,192,88588,1,0,0:0:0:0:
64,192,88682,128,0,88872:0:0:0:0:
192,192,88777,1,0,0:0:0:0:
320,192,88872,1,0,0:0:0:0:
192,192,88967,1,0,0:0:0:0:
448,192,88967,128,0,89157:0:0:0:0:
320,192,89157,1,0,0:0:0:0:
64,192,89252,128,0,89442:0:0:0:0:
448,192,89347,1,0,0:0:0:0:
192,192,89347,1,0,0:0:0:0:
192,192,89537,128,0,89727:0:0:0:0:
320,192,89632,1,0,0:0:0:0:
448,192,89727,1,0,0:0:0:0:
64,192,89727,1,0,0:0:0:0:
448,192,89917,128,0,90107:0:0:0:0:
320,192,90012,1,0,0:0:0:0:
192,192,90107,1,0,0:0:0:0:
64,192,90201,128,0,90391:0:0:0:0:
320,192,90296,1,0,0:0:0:0:
192,192,90391,1,0,0:0:0:0:
448,192,90486,128,0,90676:0:0:0:0:
320,192,90486,1,0,0:0:0:0:
64,192,90676,1,0,0:0:0:0:
192,192,90676,1,0,0:0:0:0:
320,192,90866,1,0,0:0:0:0:
448,192,90866,1,0,0:0:0:0:
192,192,90961,1,0,0:0:0:0:
320,192,91056,1,0,0:0:0:0:
64,192,91056,1,0,0:0:0:0:
448,192,91151,1,0,0:0:0:0:
192,192,91246,1,0,0:0:0:0:
64,192,91246,1,0,0:0:0:0:
320,192,91436,1,0,0:0:0:0:
448,192,91531,1,0,0:0:0:0:
192,192,91625,1,0,0:0:0:0:
320,192,91625,1,0,0:0:0:0:
64,192,91815,1,0,0:0:0:0:
64,192,91910,1,0,0:0:0:0:
448,192,92005,1,0,0:0:0:0:
192,192,92005,1,0,0:0:0:0:
320,192,92195,1,0,0:0:0:0:
192,192,92290,1,0,0:0:0:0:
64,192,92385,1,0,0:0:0:0:
448,192,92385,1,0,0:0:0:0:
192,192,92480,1,0,0:0:0:0:
320,192,92575,1,0,0:0:0:0:
320,192,92670,1,0,0:0:0:0:
64,192,92765,1,0,0:0:0:0:
192,192,92765,1,0,0:0:0:0:
448,192,92955,1,0,0:0:0:0:
192,192,93050,1,0,0:0:0:0:
64,192,93144,1,0,0:0:0:0:
320,192,93144,1,0,0:0:0:0:
448,192,93239,1,0,0:0:0:0:
320,192,93334,1,0,0:0:0:0:
192,192,93429,1,0,0:0:0:0:
448,192,93524,1,0,0:0:0:0:
192,192,93524,1,0,0:0:0:0:
320,192,93714,1,0,0:0:0:0:
448,192,93809,1,0,0:0:0:0:
192,192,93904,1,0,0:0:0:0:
64,192,93904,1,0,0:0:0:0:
320,192,94094,1,0,0:0:0:0:
64,192,94284,1,0,0:0:0:0:
448,192,94284,1,0,0:0:0:0:
320,192,94379,1,0,0:0:0:0:
448,192,94474,128,0,94663:0:0:0:0:
64,192,94569,1,0,0:0:0:0:
320,192,94663,1,0,0:0:0:0:
192,192,94663,1,0,0:0:0:0:
64,192,94758,128,0,94948:0:0:0:0:
192,192,94853,1,0,0:0:0:0:
320,192,94948,1,0,0:0:0:0:
192,192,95043,1,0,0:0:0:0:
448,192,95043,128,0,95233:0:0:0:0:
64,192,95138,1,0,0:0:0:0:
320,192,95233,1,0,0:0:0:0:
64,192,95328,128,0,95518:0:0:0:0:
448,192,95423,1,0,0:0:0:0:
192,192,95423,1,0,0:0:0:0:
320,192,95518,1,0,0:0:0:0:
192,192,95613,128,0,95803:0:0:0:0:
320,192,95708,1,0,0:0:0:0:
448,192,95803,1,0,0:0:0:0:
64,192,95803,1,0,0:0:0:0:
64,192,96562,5,0,0:0:0:0:
448,192,96562,1,0,0:0:0:0:
448,192,96800,1,0,0:0:0:0:
64,192,96800,1,0,0:0:0:0:
64,192,96894,1,0,0:0:0:0:
448,192,96894,1,0,0:0:0:0:
192,192,97322,1,0,0:0:0:0:
448,192,97322,1,0,0:0:0:0:
64,192,97322,1,0,0:0:0:0:
64,192,97512,1,0,0:0:0:0:
448,192,97607,1,0,0:0:0:0:
192,192,97701,1,0,0:0:0:0:
320,192,97701,1,0,0:0:0:0:
64,192,97891,1,0,0:0:0:0:
192,192,97986,1,0,0:0:0:0:
64,192,98081,1,0,0:0:0:0:
320,192,98081,1,0,0:0:0:0:
448,192,98271,1,0,0:0:0:0:
320,192,98366,1,0,0:0:0:0:
192,192,98461,1,0,0:0:0:0:
64,192,98461,1,0,0:0:0:0:
448,192,98651,1,0,0:0:0:0:
320,192,98746,1,0,0:0:0:0:
448,192,98841,1,0,0:0:0:0:
64,192,98841,1,0,0:0:0:0:
192,192,98841,1,0,0:0:0:0:
320,192,99031,1,0,0:0:0:0:
192,192,99125,1,0,0:0:0:0:
64,192,99220,1,0,0:0:0:0:
320,192,99220,1,0,0:0:0:0:
448,192,99410,1,0,0:0:0:0:
192,192,99505,1,0,0:0:0:0:
64,192,99600,1,0,0:0:0:0:
448,192,99600,1,0,0:0:0:0:
192,192,99790,1,0,0:0:0:0:
320,192,99885,1,0,0:0:0:0:
192,192,99980,1,0,0:0:0:0:
64,192,99980,1,0,0:0:0:0:
320,192,100170,1,0,0:0:0:0:
64,192,100265,1,0,0:0:0:0:
192,192,100360,1,0,0:0:0:0:
320,192,100360,1,0,0:0:0:0:
448,192,100360,1,0,0:0:0:0:
64,192,100550,1,0,0:0:0:0:
192,192,100644,1,0,0:0:0:0:
320,192,100739,1,0,0:0:0:0:
448,192,100739,1,0,0:0:0:0:
320,192,100929,1,0,0:0:0:0:
448,192,101024,1,0,0:0:0:0:
64,192,101119,1,0,0:0:0:0:
320,192,101119,1,0,0:0:0:0:
192,192,101214,1,0,0:0:0:0:
64,192,101309,1,0,0:0:0:0:
192,192,101404,1,0,0:0:0:0:
320,192,101499,1,0,0:0:0:0:
64,192,101499,1,0,0:0:0:0:
192,192,101594,1,0,0:0:0:0:
320,192,101689,1,0,0:0:0:0:
192,192,101784,1,0,0:0:0:0:
64,192,101879,1,0,0:0:0:0:
320,192,101879,1,0,0:0:0:0:
448,192,101879,1,0,0:0:0:0:
192,192,102069,1,0,0:0:0:0:
320,192,102163,1,0,0:0:0:0:
64,192,102258,1,0,0:0:0:0:
448,192,102258,1,0,0:0:0:0:
192,192,102448,1,0,0:0:0:0:
448,192,102543,1,0,0:0:0:0:
192,192,102638,1,0,0:0:0:0:
64,192,102638,1,0,0:0:0:0:
320,192,102733,1,0,0:0:0:0:
448,192,102828,1,0,0:0:0:0:
320,192,102923,1,0,0:0:0:0:
192,192,103018,1,0,0:0:0:0:
448,192,103018,1,0,0:0:0:0:
64,192,103113,1,0,0:0:0:0:
192,192,103208,1,0,0:0:0:0:
64,192,103303,1,0,0:0:0:0:
448,192,103398,1,0,0:0:0:0:
320,192,103398,1,0,0:0:0:0:
192,192,103398,1,0,0:0:0:0:
64,192,103493,1,0,0:0:0:0:
64,192,103588,1,0,0:0:0:0:
320,192,103682,1,0,0:0:0:0:
64,192,103777,1,0,0:0:0:0:
448,192,103777,1,0,0:0:0:0:
192,192,103872,1,0,0:0:0:0:
320,192,103967,1,0,0:0:0:0:
192,192,104062,1,0,0:0:0:0:
448,192,104157,1,0,0:0:0:0:
64,192,104157,1,0,0:0:0:0:
320,192,104252,1,0,0:0:0:0:
192,192,104347,1,0,0:0:0:0:
320,192,104442,1,0,0:0:0:0:
64,192,104537,1,0,0:0:0:0:
192,192,104537,1,0,0:0:0:0:
448,192,104632,1,0,0:0:0:0:
320,192,104727,1,0,0:0:0:0:
192,192,104822,1,0,0:0:0:0:
448,192,104917,1,0,0:0:0:0:
64,192,104917,1,0,0:0:0:0:
320,192,104917,1,0,0:0:0:0:
192,192,105012,1,0,0:0:0:0:
64,192,105107,1,0,0:0:0:0:
320,192,105201,1,0,0:0:0:0:
448,192,105296,1,0,0:0:0:0:
192,192,105296,1,0,0:0:0:0:
64,192,105391,1,0,0:0:0:0:
192,192,105486,1,0,0:0:0:0:
320,192,105581,1,0,0:0:0:0:
448,192,105676,1,0,0:0:0:0:
64,192,105676,1,0,0:0:0:0:
320,192,105771,1,0,0:0:0:0:
192,192,105866,1,0,0:0:0:0:
448,192,105961,1,0,0:0:0:0:
64,192,106056,1,0,0:0:0:0:
192,192,106056,1,0,0:0:0:0:
448,192,106151,1,0,0:0:0:0:
320,192,106246,1,0,0:0:0:0:
192,192,106341,1,0,0:0:0:0:
64,192,106436,1,0,0:0:0:0:
320,192,106436,1,0,0:0:0:0:
448,192,106436,1,0,0:0:0:0:
192,192,106531,1,0,0:0:0:0:
64,192,106625,1,0,0:0:0:0:
448,192,106720,1,0,0:0:0:0:
64,192,106815,1,0,0:0:0:0:
320,192,106815,1,0,0:0:0:0:
192,192,106910,1,0,0:0:0:0:
320,192,107005,1,0,0:0:0:0:
192,192,107100,1,0,0:0:0:0:
448,192,107195,1,0,0:0:0:0:
64,192,107195,1,0,0:0:0:0:
320,192,107195,1,0,0:0:0:0:
192,192,107290,1,0,0:0:0:0:
320,192,107385,1,0,0:0:0:0:
64,192,107480,1,0,0:0:0:0:
320,192,107575,1,0,0:0:0:0:
448,192,107575,1,0,0:0:0:0:
192,192,107670,1,0,0:0:0:0:
320,192,107765,1,0,0:0:0:0:
448,192,107860,1,0,0:0:0:0:
64,192,107955,1,0,0:0:0:0:
192,192,107955,1,0,0:0:0:0:
320,192,107955,1,0,0:0:0:0:
448,192,108050,1,0,0:0:0:0:
320,192,108144,1,0,0:0:0:0:
192,192,108144,1,0,0:0:0:0:
64,192,108239,1,0,0:0:0:0:
192,192,108334,1,0,0:0:0:0:
448,192,108334,1,0,0:0:0:0:
320,192,108429,1,0,0:0:0:0:
448,192,108524,1,0,0:0:0:0:
192,192,108524,1,0,0:0:0:0:
64,192,108619,1,0,0:0:0:0:
320,192,108714,1,0,0:0:0:0:
192,192,108714,1,0,0:0:0:0:
448,192,108714,1,0,0:0:0:0:
64,192,108809,1,0,0:0:0:0:
192,192,108904,1,0,0:0:0:0:
320,192,108904,1,0,0:0:0:0:
64,192,108999,1,0,0:0:0:0:
192,192,109094,1,0,0:0:0:0:
448,192,109094,1,0,0:0:0:0:
64,192,109189,1,0,0:0:0:0:
320,192,109189,1,0,0:0:0:0:
448,192,109284,1,0,0:0:0:0:
192,192,109284,1,0,0:0:0:0:
64,192,109379,1,0,0:0:0:0:
320,192,109379,1,0,0:0:0:0:
448,192,109474,128,0,110993:0:0:0:0:
192,192,109474,128,0,110993:0:0:0:0:
