osu file format v14

[General]
AudioFilename: audio.mp3
AudioLeadIn: 0
PreviewTime: 27200
Countdown: 0
SampleSet: None
StackLeniency: 0.7
Mode: 1
LetterboxInBreaks: 0
WidescreenStoryboard: 0

[Editor]
DistanceSpacing: 0.9
BeatDivisor: 4
GridSize: 8
TimelineZoom: 1

[Metadata]
Title:Hella Deep
TitleUnicode:Hella Deep
Artist:MASAYOSHI IIMORI
ArtistUnicode:MASAYOSHI IIMORI
Creator:Trapmaniac
Version:Oni
Source:beatmania IIDX 25 CANNON BALLERS
Tags:
BeatmapID:1669852
BeatmapSetID:795073

[Difficulty]
HPDrainRate:8
CircleSize:5
OverallDifficulty:7
ApproachRate:5
SliderMultiplier:1.4
SliderTickRate:1

[Events]
//Background and Video events
0,0,"116792-illuminati-wallpaper-2560x1575-for-iphone-5s.jpg",0,0
//Break Periods
//Storyboard Layer 0 (Background)
//Storyboard Layer 1 (Fail)
//Storyboard Layer 2 (Pass)
//Storyboard Layer 3 (Foreground)
//Storyboard Sound Samples

[TimingPoints]
1700,400,4,1,0,90,1,0
27300,-100,4,1,0,90,0,1
38500,-100,4,1,0,90,0,0
40100,-100,4,1,0,90,0,1
52900,-100,4,1,0,90,0,0
56100,416.666666666667,4,1,0,90,1,0
62766,454.545454545455,4,1,0,90,1,0
77311,-100,4,1,0,90,0,1
106402,-100,4,1,0,90,0,0

[HitObjects]
272,232,1700,5,0,0:0:0:0:
280,256,1900,1,8,0:0:0:0:
280,240,2100,1,0,0:0:0:0:
288,256,2166,1,0,0:0:0:0:
288,256,2233,1,0,0:0:0:0:
288,272,2300,1,0,0:0:0:0:
288,232,2500,1,8,0:0:0:0:
280,248,2900,1,0,0:0:0:0:
272,312,3300,1,0,0:0:0:0:
272,304,3700,1,8,0:0:0:0:
272,304,3766,1,8,0:0:0:0:
272,304,3833,1,8,0:0:0:0:
280,288,3900,1,0,0:0:0:0:
256,272,4000,1,0,0:0:0:0:
280,288,4100,1,8,0:0:0:0:
280,288,4500,1,8,0:0:0:0:
280,288,4700,1,8,0:0:0:0:
280,288,4900,1,0,0:0:0:0:
296,296,5300,1,8,0:0:0:0:
296,296,5500,1,0,0:0:0:0:
296,296,5700,1,8,0:0:0:0:
296,296,5900,1,0,0:0:0:0:
296,296,6100,1,0,0:0:0:0:
296,296,6500,1,0,0:0:0:0:
296,296,6700,1,0,0:0:0:0:
296,296,6900,1,0,0:0:0:0:
296,296,7000,1,0,0:0:0:0:
296,296,7100,1,0,0:0:0:0:
296,296,7200,1,0,0:0:0:0:
296,296,7300,1,8,0:0:0:0:
296,296,7500,1,0,0:0:0:0:
296,288,7700,1,8,0:0:0:0:
296,288,7800,1,8,0:0:0:0:
296,288,7900,1,8,0:0:0:0:
296,288,8000,1,8,0:0:0:0:
296,288,8100,1,0,0:0:0:0:
288,304,8166,1,0,0:0:0:0:
288,304,8233,1,0,0:0:0:0:
288,304,8300,1,8,0:0:0:0:
296,296,8500,1,0,0:0:0:0:
304,304,8566,1,8,0:0:0:0:
304,304,8633,1,8,0:0:0:0:
304,304,8700,1,0,0:0:0:0:
288,296,8900,1,8,0:0:0:0:
304,304,8966,1,8,0:0:0:0:
304,304,9033,1,8,0:0:0:0:
304,304,9100,1,8,0:0:0:0:
304,304,9166,1,8,0:0:0:0:
304,304,9233,1,8,0:0:0:0:
304,304,9300,1,0,0:0:0:0:
304,328,9700,1,0,0:0:0:0:
336,312,10100,1,8,0:0:0:0:
328,312,10166,1,8,0:0:0:0:
304,336,10233,1,8,0:0:0:0:
328,312,10300,1,0,0:0:0:0:
304,296,10400,1,0,0:0:0:0:
328,312,10500,1,8,0:0:0:0:
344,312,10900,1,8,0:0:0:0:
344,312,11100,1,8,0:0:0:0:
344,312,11300,1,0,0:0:0:0:
344,304,11700,1,8,0:0:0:0:
344,304,11900,1,0,0:0:0:0:
344,304,12100,1,8,0:0:0:0:
344,304,12300,1,0,0:0:0:0:
344,304,12500,1,0,0:0:0:0:
344,304,12900,1,0,0:0:0:0:
352,288,13000,1,0,0:0:0:0:
344,304,13100,1,0,0:0:0:0:
352,304,13200,1,0,0:0:0:0:
336,304,13300,1,8,0:0:0:0:
336,304,13366,1,8,0:0:0:0:
336,304,13433,1,8,0:0:0:0:
336,304,13500,1,0,0:0:0:0:
304,304,13600,1,0,0:0:0:0:
336,304,13700,1,8,0:0:0:0:
336,280,14500,1,6,0:0:0:0:
336,280,14900,1,6,0:0:0:0:
336,280,15300,1,6,0:0:0:0:
336,280,15700,1,6,0:0:0:0:
336,280,15900,1,8,0:0:0:0:
336,280,16100,1,6,0:0:0:0:
336,280,16500,1,6,0:0:0:0:
336,280,16900,1,6,0:0:0:0:
336,280,17300,1,6,0:0:0:0:
336,280,17500,1,8,0:0:0:0:
336,280,17700,1,6,0:0:0:0:
336,280,18100,1,6,0:0:0:0:
336,280,18500,1,6,0:0:0:0:
336,280,18900,1,6,0:0:0:0:
336,280,19100,1,8,0:0:0:0:
336,280,19300,1,6,0:0:0:0:
336,280,19700,1,6,0:0:0:0:
336,280,20100,1,6,0:0:0:0:
336,280,20500,1,6,0:0:0:0:
336,280,20700,1,8,0:0:0:0:
336,280,20900,1,6,0:0:0:0:
352,272,21100,1,8,0:0:0:0:
352,272,21300,1,8,0:0:0:0:
344,272,21500,1,8,0:0:0:0:
344,272,21700,1,8,0:0:0:0:
344,272,21900,1,8,0:0:0:0:
344,272,22100,1,8,0:0:0:0:
344,272,22300,1,8,0:0:0:0:
344,272,22500,1,8,0:0:0:0:
344,272,22700,1,8,0:0:0:0:
344,272,22900,1,8,0:0:0:0:
344,272,23100,1,8,0:0:0:0:
344,272,23300,1,8,0:0:0:0:
344,272,23500,1,8,0:0:0:0:
344,272,23700,1,8,0:0:0:0:
344,272,23900,1,8,0:0:0:0:
344,272,24100,1,8,0:0:0:0:
344,272,24200,1,8,0:0:0:0:
344,272,24300,1,8,0:0:0:0:
344,272,24400,1,8,0:0:0:0:
344,272,24500,1,8,0:0:0:0:
344,272,24600,1,8,0:0:0:0:
344,272,24700,1,8,0:0:0:0:
344,272,24800,1,8,0:0:0:0:
344,272,24900,1,8,0:0:0:0:
344,272,24966,1,8,0:0:0:0:
344,272,25033,1,8,0:0:0:0:
344,272,25100,1,8,0:0:0:0:
344,272,25166,1,8,0:0:0:0:
344,272,25233,1,8,0:0:0:0:
344,272,25300,1,8,0:0:0:0:
344,272,25366,1,8,0:0:0:0:
344,272,25433,1,8,0:0:0:0:
344,272,25500,1,8,0:0:0:0:
344,272,25566,1,8,0:0:0:0:
344,272,25633,1,8,0:0:0:0:
344,272,25700,1,0,0:0:0:0:
320,256,26100,1,8,0:0:0:0:
320,256,26300,1,8,0:0:0:0:
320,256,26500,1,0,0:0:0:0:
320,256,26900,1,8,0:0:0:0:
328,288,27300,1,0,0:0:0:0:
312,280,27700,1,0,0:0:0:0:
312,280,27900,1,0,0:0:0:0:
312,280,28000,1,0,0:0:0:0:
312,280,28100,1,8,0:0:0:0:
288,272,28300,1,8,0:0:0:0:
288,272,28400,1,0,0:0:0:0:
288,272,28500,1,8,0:0:0:0:
288,272,28700,1,8,0:0:0:0:
288,272,28900,1,0,0:0:0:0:
296,248,29100,1,0,0:0:0:0:
296,248,29200,1,0,0:0:0:0:
296,248,29300,1,8,0:0:0:0:
296,248,29500,1,0,0:0:0:0:
296,248,29700,1,8,0:0:0:0:
296,248,29900,1,8,0:0:0:0:
296,248,30000,1,0,0:0:0:0:
296,248,30100,1,8,0:0:0:0:
296,248,30300,1,8,0:0:0:0:
296,248,30500,1,0,0:0:0:0:
304,256,30900,1,0,0:0:0:0:
280,272,31100,1,0,0:0:0:0:
280,272,31200,1,0,0:0:0:0:
280,272,31300,1,8,0:0:0:0:
280,272,31500,1,8,0:0:0:0:
280,272,31600,1,0,0:0:0:0:
280,272,31700,1,8,0:0:0:0:
280,272,31900,1,8,0:0:0:0:
280,272,32100,1,0,0:0:0:0:
280,288,32300,1,0,0:0:0:0:
280,288,32400,1,0,0:0:0:0:
280,288,32500,1,8,0:0:0:0:
280,288,32700,1,0,0:0:0:0:
272,288,32800,1,0,0:0:0:0:
280,288,32900,1,8,0:0:0:0:
272,288,33000,1,0,0:0:0:0:
280,288,33100,1,8,0:0:0:0:
280,288,33200,1,0,0:0:0:0:
280,288,33300,1,8,0:0:0:0:
280,288,33500,1,8,0:0:0:0:
280,288,33700,1,0,0:0:0:0:
280,280,34100,1,0,0:0:0:0:
280,280,34300,1,0,0:0:0:0:
280,280,34500,1,0,0:0:0:0:
264,256,34800,1,0,0:0:0:0:
280,280,35100,1,0,0:0:0:0:
280,272,35300,1,0,0:0:0:0:
288,288,35400,1,8,0:0:0:0:
288,288,35500,1,8,0:0:0:0:
288,288,35600,1,8,0:0:0:0:
288,288,35700,1,0,0:0:0:0:
288,288,35900,1,8,0:0:0:0:
288,288,36100,1,0,0:0:0:0:
288,288,36300,1,0,0:0:0:0:
288,288,36500,1,8,0:0:0:0:
288,288,36600,1,8,0:0:0:0:
288,288,36700,1,8,0:0:0:0:
288,288,36800,1,8,0:0:0:0:
288,288,36900,1,0,0:0:0:0:
288,288,37300,1,6,0:0:0:0:
288,288,37700,1,0,0:0:0:0:
272,288,38100,1,8,0:0:0:0:
272,288,38500,1,0,0:0:0:0:
264,296,38700,1,0,0:0:0:0:
264,296,38900,1,0,0:0:0:0:
264,296,39100,1,0,0:0:0:0:
264,296,39300,1,8,0:0:0:0:
264,296,39500,1,0,0:0:0:0:
264,296,39600,1,0,0:0:0:0:
264,296,39700,1,0,0:0:0:0:
264,304,39900,1,8,0:0:0:0:
264,304,40100,1,0,0:0:0:0:
264,296,40500,1,0,0:0:0:0:
264,304,40900,1,0,0:0:0:0:
264,304,41100,1,8,0:0:0:0:
264,304,41200,1,8,0:0:0:0:
264,304,41300,1,0,0:0:0:0:
264,304,41500,1,8,0:0:0:0:
264,304,41700,1,0,0:0:0:0:
264,304,41900,1,0,0:0:0:0:
264,304,42000,1,8,0:0:0:0:
264,304,42100,1,0,0:0:0:0:
264,304,42300,1,8,0:0:0:0:
264,304,42500,1,0,0:0:0:0:
256,304,42700,1,8,0:0:0:0:
256,304,42800,1,8,0:0:0:0:
256,304,42900,1,0,0:0:0:0:
256,304,43100,1,8,0:0:0:0:
256,312,43300,1,0,0:0:0:0:
256,312,43700,1,0,0:0:0:0:
256,312,44100,1,0,0:0:0:0:
272,320,44300,1,8,0:0:0:0:
272,320,44400,1,8,0:0:0:0:
272,320,44500,1,0,0:0:0:0:
272,320,44700,1,8,0:0:0:0:
272,320,44900,1,0,0:0:0:0:
272,320,45100,1,0,0:0:0:0:
280,312,45200,1,8,0:0:0:0:
280,312,45300,1,0,0:0:0:0:
280,312,45500,1,8,0:0:0:0:
280,312,45600,1,8,0:0:0:0:
280,312,45700,1,0,0:0:0:0:
280,336,45900,1,8,0:0:0:0:
280,336,46000,1,0,0:0:0:0:
280,336,46100,1,8,0:0:0:0:
280,336,46300,1,8,0:0:0:0:
280,336,46500,1,0,0:0:0:0:
280,304,47100,1,8,0:0:0:0:
280,304,47300,1,0,0:0:0:0:
280,304,47700,1,6,0:0:0:0:
280,304,48100,1,0,0:0:0:0:
280,304,48300,1,0,0:0:0:0:
280,304,48500,1,6,0:0:0:0:
272,312,48700,1,0,0:0:0:0:
280,304,48900,1,0,0:0:0:0:
280,304,49300,1,6,0:0:0:0:
280,304,49700,1,0,0:0:0:0:
272,304,50100,1,8,0:0:0:0:
272,304,50300,1,8,0:0:0:0:
272,304,50500,1,0,0:0:0:0:
272,304,50900,1,8,0:0:0:0:
272,304,51300,1,0,0:0:0:0:
272,304,51500,1,0,0:0:0:0:
272,304,51700,1,0,0:0:0:0:
272,296,51800,1,0,0:0:0:0:
272,296,51900,1,0,0:0:0:0:
272,296,52000,1,0,0:0:0:0:
272,296,52100,1,0,0:0:0:0:
272,296,52300,1,8,0:0:0:0:
272,312,52400,1,8,0:0:0:0:
272,312,52500,1,8,0:0:0:0:
272,312,52700,1,8,0:0:0:0:
272,312,52900,1,4,0:0:0:0:
272,288,56100,1,4,0:0:0:0:
256,192,56308,12,0,62558,0:0:0:0:
272,232,62766,5,4,0:0:0:0:
280,240,63220,1,8,0:0:0:0:
272,240,63675,1,0,0:0:0:0:
280,240,64129,1,8,0:0:0:0:
272,240,64584,1,0,0:0:0:0:
280,240,65038,1,8,0:0:0:0:
272,240,65493,1,0,0:0:0:0:
272,240,65947,1,8,0:0:0:0:
272,232,66856,1,8,0:0:0:0:
288,240,67311,1,0,0:0:0:0:
272,232,67766,1,8,0:0:0:0:
288,240,68220,1,0,0:0:0:0:
272,240,68675,1,8,0:0:0:0:
288,240,69129,1,0,0:0:0:0:
272,240,69584,1,8,0:0:0:0:
288,240,70038,1,0,0:0:0:0:
280,248,70266,1,8,0:0:0:0:
280,248,70493,1,0,0:0:0:0:
280,248,70720,1,8,0:0:0:0:
280,248,70947,1,0,0:0:0:0:
280,248,71175,1,8,0:0:0:0:
280,248,71402,1,0,0:0:0:0:
280,248,71629,1,8,0:0:0:0:
280,248,71856,1,0,0:0:0:0:
288,256,72008,1,8,0:0:0:0:
288,256,72084,1,0,0:0:0:0:
288,256,72235,1,8,0:0:0:0:
280,256,72311,1,0,0:0:0:0:
280,256,72462,1,8,0:0:0:0:
280,256,72538,1,0,0:0:0:0:
280,256,72690,1,8,0:0:0:0:
280,256,72766,1,0,0:0:0:0:
304,240,72841,1,0,0:0:0:0:
296,248,72917,1,8,0:0:0:0:
296,248,72993,1,0,0:0:0:0:
296,248,73069,1,0,0:0:0:0:
296,240,73144,1,8,0:0:0:0:
296,240,73220,1,0,0:0:0:0:
296,240,73296,1,0,0:0:0:0:
296,240,73372,1,8,0:0:0:0:
296,240,73447,1,0,0:0:0:0:
296,240,73523,1,0,0:0:0:0:
296,240,73599,1,8,0:0:0:0:
296,240,73675,1,0,0:0:0:0:
296,248,73902,1,8,0:0:0:0:
288,248,74129,1,8,0:0:0:0:
288,248,74356,1,8,0:0:0:0:
288,248,74584,1,0,0:0:0:0:
288,224,75266,1,0,0:0:0:0:
280,248,75493,1,8,0:0:0:0:
288,248,75947,1,8,0:0:0:0:
288,248,76402,1,8,0:0:0:0:
272,248,76856,1,6,0:0:0:0:
296,248,77311,1,0,0:0:0:0:
336,224,77766,1,0,0:0:0:0:
312,296,77993,1,8,0:0:0:0:
288,272,78220,1,0,0:0:0:0:
312,304,78447,1,8,0:0:0:0:
312,304,78561,1,8,0:0:0:0:
312,304,78675,1,0,0:0:0:0:
312,304,78902,1,8,0:0:0:0:
304,280,78978,1,8,0:0:0:0:
304,280,79053,1,8,0:0:0:0:
304,280,79129,1,0,0:0:0:0:
296,288,79356,1,0,0:0:0:0:
296,288,79470,1,8,0:0:0:0:
296,288,79584,1,0,0:0:0:0:
296,288,79811,1,8,0:0:0:0:
296,288,80038,1,0,0:0:0:0:
296,288,80266,1,8,0:0:0:0:
296,288,80379,1,8,0:0:0:0:
296,288,80493,1,0,0:0:0:0:
304,280,80569,1,0,0:0:0:0:
304,280,80644,1,0,0:0:0:0:
304,280,80720,1,0,0:0:0:0:
296,288,80947,1,6,0:0:0:0:
288,272,81402,1,8,0:0:0:0:
304,256,81629,1,0,0:0:0:0:
304,256,81743,1,8,0:0:0:0:
304,256,81856,1,0,0:0:0:0:
304,256,82084,1,0,0:0:0:0:
304,256,82311,1,8,0:0:0:0:
304,256,82538,1,8,0:0:0:0:
304,256,82652,1,8,0:0:0:0:
304,256,82766,1,0,0:0:0:0:
304,256,82993,1,8,0:0:0:0:
304,256,83106,1,0,0:0:0:0:
304,256,83220,1,8,0:0:0:0:
304,256,83447,1,8,0:0:0:0:
304,256,83675,1,0,0:0:0:0:
304,256,83902,1,0,0:0:0:0:
304,256,84129,1,8,0:0:0:0:
304,256,84356,1,8,0:0:0:0:
304,256,84584,1,0,0:0:0:0:
304,296,85038,1,8,0:0:0:0:
312,288,85266,1,0,0:0:0:0:
312,288,85417,1,8,0:0:0:0:
312,288,85493,1,0,0:0:0:0:
312,304,85720,1,0,0:0:0:0:
312,288,85947,1,8,0:0:0:0:
320,304,86175,1,0,0:0:0:0:
320,304,86326,1,8,0:0:0:0:
320,304,86402,1,0,0:0:0:0:
320,304,86629,1,0,0:0:0:0:
320,304,86856,1,8,0:0:0:0:
336,328,87084,1,0,0:0:0:0:
328,320,87235,1,8,0:0:0:0:
328,320,87311,1,0,0:0:0:0:
328,360,87538,1,0,0:0:0:0:
328,320,87766,1,8,0:0:0:0:
328,320,87993,1,0,0:0:0:0:
328,320,88144,1,8,0:0:0:0:
328,320,88220,1,0,0:0:0:0:
328,320,88675,1,8,0:0:0:0:
328,320,88902,1,0,0:0:0:0:
328,320,89053,1,8,0:0:0:0:
328,320,89129,1,0,0:0:0:0:
328,320,89356,1,0,0:0:0:0:
328,320,89584,1,8,0:0:0:0:
328,320,89811,1,0,0:0:0:0:
328,320,89962,1,8,0:0:0:0:
328,320,90038,1,0,0:0:0:0:
312,320,90266,1,0,0:0:0:0:
312,320,90493,1,8,0:0:0:0:
312,320,90720,1,0,0:0:0:0:
312,320,90872,1,8,0:0:0:0:
312,320,90947,1,0,0:0:0:0:
328,312,91402,1,0,0:0:0:0:
328,312,91629,1,0,0:0:0:0:
328,312,91856,1,0,0:0:0:0:
328,312,92311,1,8,0:0:0:0:
352,312,92538,1,0,0:0:0:0:
352,312,92690,1,8,0:0:0:0:
336,304,92766,1,0,0:0:0:0:
296,280,92993,1,0,0:0:0:0:
352,312,93220,1,8,0:0:0:0:
352,312,93447,1,8,0:0:0:0:
352,312,93599,1,8,0:0:0:0:
352,312,93675,1,0,0:0:0:0:
352,312,93902,1,0,0:0:0:0:
352,312,94129,1,8,0:0:0:0:
344,296,94356,1,8,0:0:0:0:
344,296,94508,1,8,0:0:0:0:
344,296,94584,1,0,0:0:0:0:
344,296,94811,1,0,0:0:0:0:
344,296,95038,1,8,0:0:0:0:
344,296,95266,1,8,0:0:0:0:
344,296,95417,1,8,0:0:0:0:
344,296,95493,1,0,0:0:0:0:
344,296,95947,1,8,0:0:0:0:
344,296,96175,1,0,0:0:0:0:
344,296,96326,1,8,0:0:0:0:
344,296,96402,1,0,0:0:0:0:
344,296,96629,1,0,0:0:0:0:
344,296,96856,1,8,0:0:0:0:
344,296,97084,1,8,0:0:0:0:
344,296,97235,1,8,0:0:0:0:
344,296,97311,1,0,0:0:0:0:
344,296,97538,1,0,0:0:0:0:
344,296,97766,1,8,0:0:0:0:
344,296,97993,1,8,0:0:0:0:
344,296,98144,1,8,0:0:0:0:
344,296,98220,1,0,0:0:0:0:
328,296,98447,1,0,0:0:0:0:
344,296,98599,1,0,0:0:0:0:
344,296,98675,1,8,0:0:0:0:
360,328,98788,1,8,0:0:0:0:
360,328,98902,1,8,0:0:0:0:
360,328,99016,1,8,0:0:0:0:
360,328,99129,1,0,0:0:0:0:
352,328,99356,1,0,0:0:0:0:
352,328,99584,1,8,0:0:0:0:
352,328,99811,1,0,0:0:0:0:
352,328,99925,1,8,0:0:0:0:
352,328,100038,1,0,0:0:0:0:
352,328,100266,1,0,0:0:0:0:
352,328,100493,1,8,0:0:0:0:
352,328,100606,1,0,0:0:0:0:
352,328,100720,1,8,0:0:0:0:
352,328,100834,1,8,0:0:0:0:
352,328,100947,1,0,0:0:0:0:
352,328,101175,1,0,0:0:0:0:
352,328,101402,1,8,0:0:0:0:
368,328,101629,1,0,0:0:0:0:
368,328,101743,1,8,0:0:0:0:
368,328,101856,1,0,0:0:0:0:
368,328,102084,1,0,0:0:0:0:
368,328,102311,1,0,0:0:0:0:
368,328,102538,1,0,0:0:0:0:
368,328,102766,1,8,0:0:0:0:
368,328,102993,1,0,0:0:0:0:
368,328,103220,1,8,0:0:0:0:
368,328,103447,1,0,0:0:0:0:
368,328,103675,1,8,0:0:0:0:
368,328,103902,1,0,0:0:0:0:
368,328,104129,1,8,0:0:0:0:
368,328,104356,1,0,0:0:0:0:
368,328,104584,1,8,0:0:0:0:
368,328,104697,1,0,0:0:0:0:
368,328,104811,1,0,0:0:0:0:
368,328,104925,1,0,0:0:0:0:
368,328,105038,1,8,0:0:0:0:
368,328,105152,1,0,0:0:0:0:
368,328,105266,1,0,0:0:0:0:
352,336,105379,1,8,0:0:0:0:
368,328,105493,1,8,0:0:0:0:
352,336,105947,1,8,0:0:0:0:
336,320,106175,1,0,0:0:0:0:
336,320,106856,1,8,0:0:0:0:
336,320,107008,1,8,0:0:0:0:
336,320,107084,1,0,0:0:0:0:
336,320,107159,1,0,0:0:0:0:
336,304,107235,1,0,0:0:0:0:
336,320,107311,1,8,0:0:0:0:
336,320,107538,1,0,0:0:0:0:
296,328,107652,1,0,0:0:0:0:
312,312,107766,1,8,0:0:0:0:
304,312,107879,1,0,0:0:0:0:
312,312,107993,1,8,0:0:0:0:
336,328,108220,1,8,0:0:0:0:
336,328,108334,1,0,0:0:0:0:
336,328,108447,1,8,0:0:0:0:
336,328,108675,1,0,0:0:0:0:
336,328,108902,1,0,0:0:0:0:
336,328,109016,1,0,0:0:0:0:
336,328,109129,1,8,0:0:0:0:
336,328,109356,1,0,0:0:0:0:
336,328,109584,1,8,0:0:0:0:
336,328,110038,1,0,0:0:0:0:
328,320,110266,1,0,0:0:0:0:
328,320,110493,1,8,0:0:0:0:
328,320,110606,1,8,0:0:0:0:
328,320,110720,1,0,0:0:0:0:
328,320,110947,1,8,0:0:0:0:
328,320,111175,1,0,0:0:0:0:
328,320,111402,1,0,0:0:0:0:
328,320,111629,1,8,0:0:0:0:
328,320,111856,1,0,0:0:0:0:
328,320,112084,1,8,0:0:0:0:
328,320,112197,1,8,0:0:0:0:
328,320,112311,1,0,0:0:0:0:
328,320,112425,1,0,0:0:0:0:
328,320,112538,1,0,0:0:0:0:
328,320,112652,1,0,0:0:0:0:
328,320,112766,1,8,0:0:0:0:
328,320,112993,1,0,0:0:0:0:
320,320,113220,1,8,0:0:0:0:
320,320,113334,1,0,0:0:0:0:
320,320,113447,1,8,0:0:0:0:
320,320,113675,1,0,0:0:0:0:
272,304,113826,1,0,0:0:0:0:
320,312,113978,1,0,0:0:0:0:
320,312,114129,1,8,0:0:0:0:
296,320,114281,1,8,0:0:0:0:
296,320,114356,1,8,0:0:0:0:
296,320,114432,1,0,0:0:0:0:
296,320,114584,1,8,0:0:0:0:
296,320,114811,1,0,0:0:0:0:
296,312,114925,1,0,0:0:0:0:
280,320,115038,1,8,0:0:0:0:
280,320,115114,1,8,0:0:0:0:
280,320,115190,1,8,0:0:0:0:
280,320,115266,1,8,0:0:0:0:
280,320,115341,1,8,0:0:0:0:
280,320,115417,1,8,0:0:0:0:
280,320,115493,1,8,0:0:0:0:
280,320,115569,1,8,0:0:0:0:
280,320,115644,1,8,0:0:0:0:
280,320,115720,1,8,0:0:0:0:
280,320,115796,1,8,0:0:0:0:
280,320,115872,1,8,0:0:0:0:
280,320,115947,1,0,0:0:0:0:
280,320,116175,1,0,0:0:0:0:
280,320,116288,1,0,0:0:0:0:
280,320,116402,1,8,0:0:0:0:
280,320,116629,1,0,0:0:0:0:
280,320,116856,1,8,0:0:0:0:
280,320,117084,1,8,0:0:0:0:
280,320,117311,1,0,0:0:0:0:
280,320,117538,1,8,0:0:0:0:
280,320,117652,1,0,0:0:0:0:
280,320,117766,1,8,0:0:0:0:
280,320,117993,1,0,0:0:0:0:
280,320,118220,1,8,0:0:0:0:
280,320,118447,1,0,0:0:0:0:
280,320,118675,1,0,0:0:0:0:
280,320,118902,1,8,0:0:0:0:
280,320,119129,1,0,0:0:0:0:
280,320,119243,1,0,0:0:0:0:
280,320,119356,1,8,0:0:0:0:
280,320,119470,1,8,0:0:0:0:
280,320,119584,1,0,0:0:0:0:
296,304,119659,1,0,0:0:0:0:
296,304,119735,1,0,0:0:0:0:
296,304,119811,1,0,0:0:0:0:
296,304,119887,1,0,0:0:0:0:
296,304,119962,1,0,0:0:0:0:
272,312,120038,1,8,0:0:0:0:
272,312,120947,1,4,0:0:0:0:
