osu file format v14

[General]
AudioFilename: audio.mp3
AudioLeadIn: 0
PreviewTime: 83577
Countdown: 0
SampleSet: Drum
StackLeniency: 0.2
Mode: 0
LetterboxInBreaks: 0
WidescreenStoryboard: 0

[Editor]
DistanceSpacing: 6
BeatDivisor: 4
GridSize: 32
TimelineZoom: 2.799999

[Metadata]
Title:Scarlet Lance
TitleUnicode:Scarlet Lance
Artist:MASAKI (ZUNTATA)
ArtistUnicode:MASAKI (ZUNTATA)
Creator:QuiescentRabbit
Version:Gungnir
Source:GROOVE COASTER 3 LINK FEVER
Tags:BlastTheKidd Xenon- Xehn Xen MrMenda Niva ZUNTATA RECORDS Rhythmvaders Bandai Namco sound voltex iv
BeatmapID:2024206
BeatmapSetID:967178

[Difficulty]
HPDrainRate:5
CircleSize:4
OverallDifficulty:9.5
ApproachRate:9.6
SliderMultiplier:2
SliderTickRate:1

[Events]
//Background and Video events
0,0,"60753950_p0.jpg",0,0
//Break Periods
//Storyboard Layer 0 (Background)
//Storyboard Layer 1 (Fail)
//Storyboard Layer 2 (Pass)
//Storyboard Layer 3 (Foreground)
//Storyboard Layer 4 (Overlay)
//Storyboard Sound Samples

[TimingPoints]
922,324.324324324324,4,3,1,65,1,0
922,-125,4,3,1,65,0,0
1489,-125,4,3,1,5,0,0
1570,-125,4,3,1,60,0,0
3516,-125,4,3,1,50,0,0
5786,-125,4,3,1,60,0,0
6111,-125,4,3,1,65,0,0
7408,-125,4,3,1,65,0,0
8381,-125,4,3,1,40,0,0
8705,-125,4,3,1,55,0,0
10651,-125,4,3,1,50,0,0
11300,-125,4,3,1,50,0,0
11949,-125,4,3,1,55,0,0
12597,-125,4,3,1,55,0,0
13246,-100,4,3,1,60,0,0
13894,-100,4,3,1,60,0,0
15192,-125,4,3,1,55,0,0
16408,-125,4,3,1,50,0,0
18435,-125,4,3,1,55,0,0
19084,-125,4,3,1,50,0,0
19732,-125,4,3,1,55,0,0
20381,-125,4,3,1,50,0,0
21678,-125,4,3,1,55,0,0
21840,-125,4,3,1,60,0,0
22327,-125,4,3,1,60,0,0
24273,-100,4,3,1,55,0,0
24435,-100,4,3,1,60,0,0
24921,-100,4,3,1,60,0,0
25570,-125,4,3,1,65,0,0
26219,-100,4,3,1,60,0,0
26867,-100,4,3,1,55,0,0
27030,-100,4,3,1,60,0,0
27516,-100,4,3,1,60,0,0
29462,-100,4,3,1,55,0,0
29624,-100,4,3,1,60,0,0
30111,-100,4,3,1,60,0,0
30327,-100,4,3,1,55,0,0
30543,-100,4,3,1,45,0,0
30759,-200,4,3,1,40,0,0
31003,-200,4,3,1,5,0,0
31084,-100,4,3,1,40,0,0
31894,-100,4,3,1,5,0,0
32057,-100,4,3,1,45,0,0
32705,-100,4,3,1,50,0,0
33354,-100,4,3,1,55,0,0
34003,-100,4,3,1,60,0,0
34043,-100,4,3,1,5,0,0
34084,-100,4,3,1,60,0,0
34124,-100,4,3,1,5,0,0
34165,-100,4,3,1,60,0,0
34205,-100,4,3,1,5,0,0
34246,-100,4,3,1,60,0,0
34286,-100,4,3,1,5,0,0
34327,-100,4,3,1,60,0,0
34367,-100,4,3,1,5,0,0
34408,-100,4,3,1,60,0,0
34448,-100,4,3,1,5,0,0
34489,-100,4,3,1,60,0,0
34529,-100,4,3,1,5,0,0
34570,-100,4,3,1,60,0,0
34610,-100,4,3,1,5,0,0
34651,-200,4,3,1,60,0,0
34976,-200,4,3,1,55,0,0
39516,-200,4,3,1,60,0,0
39840,-200,4,3,1,60,0,0
40165,-111.111111111111,4,3,1,55,0,0
41138,-99.9999999999999,4,3,1,60,0,0
42435,-83.3333333333333,4,3,1,60,0,0
43732,-83.3333333333333,4,3,1,65,0,0
45030,-125,4,3,1,55,0,0
45273,-125,4,3,1,5,0,0
45354,-125,4,3,1,55,0,0
49894,-125,4,3,1,60,0,0
50543,-99.9999999999999,4,3,1,60,0,0
51516,-90.9090909090909,4,3,1,60,0,0
52813,-83.3333333333333,4,3,1,65,0,0
54111,-76.9230769230769,4,3,1,70,0,0
55408,-76.9230769230769,4,3,1,55,0,0
55489,-76.9230769230769,4,3,1,70,0,0
56381,-76.9230769230769,4,3,1,55,0,0
56705,-100,4,3,1,55,0,0
57678,-100,4,3,1,60,0,0
58003,-100,4,3,1,50,0,0
59949,-125,4,3,1,50,0,0
60273,-84.7457627118644,4,3,1,50,0,0
61894,-83.3333333333333,4,3,1,60,0,0
62867,-83.3333333333333,4,3,1,65,0,0
63192,-200,4,3,1,60,0,0
63435,-200,4,3,1,5,0,0
63516,-200,4,3,1,60,0,0
63678,-1000,4,3,1,60,0,0
63840,-1000,4,2,1,5,0,0
64165,-1000,4,3,1,60,0,0
64489,-200,4,3,1,60,0,0
64732,-200,4,3,1,5,0,0
64813,-200,4,3,1,60,0,0
64976,-1000,4,3,1,60,0,0
65138,-1000,4,2,1,5,0,0
65463,-1000,4,3,1,60,0,0
65786,-200,4,3,1,60,0,0
66030,-200,4,3,1,5,0,0
66111,-200,4,3,1,60,0,0
66273,-1000,4,3,1,60,0,0
66435,-1000,4,2,1,5,0,0
66516,-1000,4,2,1,5,0,0
66597,-1000,4,3,1,55,0,0
66760,-1000,4,3,1,60,0,0
67084,-71.4285714285714,4,3,1,60,0,0
67246,-71.4285714285714,4,3,1,5,0,0
67327,-250,4,3,1,65,0,0
67489,-250,4,3,1,5,0,0
67570,-76.9230769230769,4,3,1,55,0,0
67651,-76.9230769230769,4,3,1,5,0,0
67732,-200,4,3,1,65,0,0
67894,-200,4,3,1,5,0,0
67976,-100,4,3,1,65,0,0
68138,-71.4285714285714,4,3,1,5,0,0
68219,-100,4,3,1,50,0,0
68300,-100,4,3,1,5,0,0
68381,-200,4,3,1,40,0,0
68867,-200,4,3,1,40,0,0
70976,-400,4,3,1,40,0,0
73570,-303.030303030303,4,3,1,40,0,0
75516,-200,4,3,1,40,0,0
76165,-153.846153846154,4,3,1,30,0,0
77462,-125,4,3,1,45,0,0
78759,-90.9090909090909,4,3,1,55,0,0
78921,-90.9090909090909,4,3,1,55,0,0
80057,-76.9230769230769,4,3,1,65,0,0
81354,-76.9230769230769,4,3,1,35,0,0
81678,-76.9230769230769,4,3,1,37,0,0
82003,-76.9230769230769,4,3,1,39,0,0
82327,-76.9230769230769,4,3,1,42,0,0
82651,-76.9230769230769,4,3,1,51,0,0
82976,-76.9230769230769,4,3,1,60,0,0
83624,-76.9230769230769,4,3,10,60,0,0
83949,-100,4,3,2,60,0,1
86543,-100,4,3,2,60,0,1
87192,-100,4,3,2,60,0,1
87840,-100,4,3,2,60,0,1
88489,-83.3333333333333,4,3,2,60,0,1
89138,-83.3333333333333,4,3,2,60,0,1
90435,-100,4,3,2,60,0,1
91732,-100,4,3,2,60,0,1
93678,-100,4,3,2,60,0,1
94327,-100,4,3,2,60,0,1
95624,-100,4,3,2,60,0,1
96273,-133.333333333333,4,3,2,50,0,1
96597,-133.333333333333,4,3,2,40,0,1
96921,-133.333333333333,4,3,2,60,0,1
97003,-133.333333333333,4,3,2,60,0,1
97570,-83.3333333333333,4,3,2,55,0,1
98219,-71.4285714285714,4,3,2,60,0,1
98867,-54.054054054054,4,3,2,65,0,1
99516,-71.4285714285714,4,3,2,65,0,1
99597,-71.4285714285714,4,3,2,5,0,1
99678,-71.4285714285714,4,3,2,65,0,1
100084,-71.4285714285714,4,3,2,5,0,1
100165,-71.4285714285714,4,3,2,65,0,1
100570,-71.4285714285714,4,3,2,5,0,1
100651,-71.4285714285714,4,3,2,65,0,1
101057,-71.4285714285714,4,3,2,5,0,1
101138,-71.4285714285714,4,3,2,65,0,1
101543,-71.4285714285714,4,3,2,5,0,1
101624,-71.4285714285714,4,3,2,65,0,1
101786,-500,4,3,2,65,0,1
102030,-153.846153846154,4,3,2,5,0,1
102111,-83.3333333333333,4,3,2,60,0,1
102759,-83.3333333333333,4,3,2,65,0,1
103408,-71.4285714285714,4,3,2,65,0,1
103976,-50,4,3,2,70,0,1
104057,-50,4,3,2,65,0,1
104705,-71.4285714285714,4,3,2,65,0,1
104786,-71.4285714285714,4,3,2,5,0,1
104867,-71.4285714285714,4,3,2,65,0,1
105273,-71.4285714285714,4,3,2,5,0,1
105354,-71.4285714285714,4,3,2,65,0,1
105759,-71.4285714285714,4,3,2,5,0,1
105840,-71.4285714285714,4,3,2,65,0,1
106246,-71.4285714285714,4,3,2,5,0,1
106327,-71.4285714285714,4,3,2,65,0,1
106976,-322.58064516129,4,3,2,65,0,1
107219,-153.846153846154,4,3,2,5,0,1
107300,-71.4285714285714,4,3,2,65,0,1
107949,-83.3333333333333,4,3,2,70,0,1
108597,-71.4285714285714,4,3,2,70,0,1
109246,-45.4545454545455,4,3,2,70,0,1
109894,-95.2380952380952,4,3,2,70,0,1
109976,-95.2380952380952,4,3,2,5,0,1
110057,-95.2380952380952,4,3,2,70,0,1
110462,-95.2380952380952,4,3,2,5,0,1
110543,-95.2380952380952,4,3,2,70,0,1
110949,-95.2380952380952,4,3,2,5,0,1
111030,-95.2380952380952,4,3,2,70,0,1
111435,-95.2380952380952,4,3,2,5,0,1
111516,-95.2380952380952,4,3,2,70,0,1
111921,-95.2380952380952,4,3,2,5,0,1
112003,-95.2380952380952,4,3,2,70,0,1
112165,-133.333333333333,4,3,2,70,0,1
112408,-88.4955752212389,4,3,2,5,0,1
112489,-71.4285714285714,4,3,2,70,0,1
113462,-71.4285714285714,4,3,2,70,0,1
113786,-62.5,4,3,2,75,0,1
114435,-100,4,3,2,75,0,1
115084,-100,4,3,2,60,0,1
117030,-100,4,3,2,60,0,1
117678,-100,4,3,2,60,0,1
118165,-100,4,3,2,60,0,1
118327,-100,4,3,2,60,0,1
118813,-100,4,3,2,60,0,1
118976,-100,4,3,2,60,0,1
119462,-100,4,3,2,60,0,1
119624,-100,4,3,2,60,0,1
120273,-100,4,3,2,65,0,1
122219,-66.6666666666667,4,3,2,75,0,1
122867,-100,4,3,10,100,0,0
123192,-100,4,3,1,75,0,0
125462,-100,4,3,1,75,0,0

[Colours]
Combo1 : 109,118,160
Combo2 : 130,176,181
Combo3 : 157,77,77
Combo4 : 157,105,158

[HitObjects]
0,135,922,5,6,2:0:0:0:
269,104,1246,2,0,P|206:72|175:18,1,120,0|0,2:3|0:0,0:0:0:0:
174,19,1570,6,0,L|168:80,1,53.3333333333333,4|0,1:3|2:0,0:0:0:0:
138,151,1786,2,0,L|87:115,1,53.3333333333333,8|0,0:0|2:0,0:0:0:0:
41,53,2003,2,0,L|97:26,1,53.3333333333333,8|0,3:0|2:0,0:0:0:0:
179,13,2219,6,0,L|173:81,1,53.3333333333333,4|0,1:3|2:0,0:0:0:0:
140,158,2435,2,0,L|84:119,1,53.3333333333333,8|0,0:0|2:0,0:0:0:0:
33,50,2651,2,0,L|95:22,1,53.3333333333333,8|0,0:0|2:0,0:0:0:0:
286,120,2867,6,0,L|224:148,1,40,4|0,1:3|0:0,0:0:0:0:
140,158,3030,1,2,2:0:0:0:
140,158,3111,2,0,L|145:90,1,40,4|0,1:3|0:0,0:0:0:0:
179,13,3273,1,2,2:0:0:0:
179,13,3354,2,0,L|234:52,1,40,4|0,1:3|0:0,0:0:0:0:
415,187,3516,6,0,P|419:250|407:283,1,80,4|0,2:3|0:0,0:0:0:0:
342,372,3840,2,0,P|352:323|355:316,1,40,0|0,1:0|1:0,0:0:0:0:
415,187,4003,2,0,P|403:249|382:277,1,80,4|0,0:0|2:0,0:0:0:0:
296,346,4327,2,0,P|318:301|323:295,1,40,0|0,1:0|1:0,0:0:0:0:
415,187,4489,2,0,P|387:244|360:266,1,80,4|0,0:0|0:0,0:0:0:0:
259,310,4813,2,0,P|292:272|298:268,1,40,0|0,1:0|1:0,0:0:0:0:
415,187,4976,2,0,P|373:235|341:249,1,80,4|0,0:0|0:0,0:0:0:0:
233,266,5300,2,0,P|274:238|281:235,1,40,0|0,1:0|1:0,0:0:0:0:
415,187,5462,2,0,P|362:222|327:228,1,80,4|0,0:0|2:0,0:0:0:0:
228,163,5786,5,8,1:3:0:0:
213,148,5867,1,8,0:0:0:0:
197,137,5949,1,4,2:3:0:0:
179,128,6030,1,4,0:0:0:0:
160,123,6111,5,4,1:3:0:0:
211,19,6273,1,8,0:0:0:0:
144,156,6435,5,4,1:3:0:0:
168,30,6597,1,8,0:0:0:0:
139,192,6759,5,4,1:3:0:0:
129,53,6921,1,8,0:0:0:0:
145,227,7084,5,4,1:3:0:0:
96,85,7246,1,8,0:0:0:0:
69,274,7408,5,4,0:0:0:0:
91,306,7489,1,4,0:0:0:0:
126,323,7570,1,4,2:3:0:0:
166,321,7651,1,4,0:0:0:0:
200,302,7732,1,4,0:3:0:0:
235,283,7813,1,4,0:0:0:0:
275,282,7894,1,4,2:3:0:0:
310,299,7976,1,4,0:0:0:0:
332,331,8057,1,4,0:3:0:0:
354,363,8138,1,4,0:0:0:0:
389,380,8219,1,4,2:3:0:0:
429,379,8300,1,12,2:3:0:0:
464,360,8381,6,0,L|475:225,1,120,2|0,2:3|2:0,0:0:0:0:
360,159,8705,5,4,0:3:0:0:
356,126,8786,1,0,0:0:0:0:
334,102,8867,1,0,0:0:0:0:
301,98,8948,1,4,0:3:0:0:
273,115,9029,1,0,0:0:0:0:
261,145,9110,1,0,0:0:0:0:
271,177,9191,1,2,2:3:0:0:
271,177,9354,5,4,0:0:0:0:
280,208,9435,1,0,0:0:0:0:
269,238,9516,1,0,0:0:0:0:
241,255,9597,1,4,0:0:0:0:
208,251,9678,1,0,0:0:0:0:
185,227,9759,1,0,0:0:0:0:
182,195,9840,1,2,2:3:0:0:
182,195,10003,5,4,0:0:0:0:
173,156,10084,1,0,0:0:0:0:
143,130,10165,1,0,0:0:0:0:
104,126,10246,1,4,0:0:0:0:
70,146,10327,1,0,0:0:0:0:
55,182,10408,1,0,0:0:0:0:
63,221,10489,1,6,0:0:0:0:
92,247,10570,1,8,0:0:0:0:
123,257,10651,5,2,1:2:0:0:
143,130,10813,1,0,2:0:0:0:
271,177,10976,5,4,2:3:0:0:
291,50,11138,1,8,0:0:0:0:
135,24,11300,6,0,L|201:21,1,40,4|0,0:0|2:0,0:0:0:0:
291,50,11462,5,2,2:0:0:0:
330,51,11543,1,0,2:0:0:0:
370,53,11624,1,8,1:2:0:0:
410,55,11705,1,0,2:0:0:0:
450,57,11786,2,0,L|454:117,1,40,2|0,2:0|0:0,0:0:0:0:
453,286,11949,6,0,L|517:290,1,40,4|0,1:3|0:0,0:0:0:0:
331,253,12111,1,4,3:0:0:0:
331,253,12192,2,0,L|389:225,1,40,0|0,1:0|0:0,0:0:0:0:
208,285,12354,1,8,3:0:0:0:
208,285,12435,2,0,L|244:231,1,40,0|0,1:0|0:0,0:0:0:0:
119,334,12597,6,0,L|117:374,1,40,4|0,0:0|2:0,0:0:0:0:
269,143,12759,1,2,2:0:0:0:
230,133,12840,1,0,2:0:0:0:
191,138,12921,1,8,2:2:0:0:
157,159,13002,1,0,2:0:0:0:
133,190,13084,2,0,L|69:183,1,40,2|0,2:0|0:0,0:0:0:0:
473,267,13246,6,0,L|545:272,1,50,0|0,1:0|0:0,0:0:0:0:
335,229,13408,1,4,2:3:0:0:
335,229,13489,2,0,L|400:197,1,50,0|0,1:0|0:0,0:0:0:0:
197,265,13651,1,8,2:3:0:0:
197,265,13732,2,0,L|237:205,1,50,0|0,1:0|0:0,0:0:0:0:
98,315,13894,6,0,L|95:365,1,50,4|0,0:0|2:0,0:0:0:0:
282,137,14057,1,2,2:0:0:0:
236,126,14138,1,0,2:0:0:0:
190,132,14219,1,8,2:2:0:0:
151,156,14300,1,0,2:0:0:0:
123,193,14382,2,0,L|115:109,1,50,2|0,2:0|2:0,0:0:0:0:
36,0,14543,6,0,L|30:67,1,50,4|0,2:3|0:0,0:0:0:0:
24,126,14705,2,0,L|18:193,1,50,2|0,2:0|0:0,0:0:0:0:
123,193,14867,6,0,L|128:260,1,50,8|0,2:2|0:0,0:0:0:0:
135,318,15030,2,0,L|140:385,1,50,2|0,2:0|0:0,0:0:0:0:
222,321,15192,6,0,P|129:320|117:330,1,80,4|8,0:0|0:0,0:0:0:0:
275,250,15516,2,0,L|321:254,1,40,4|0,0:0|0:0,0:0:0:0:
464,160,15678,5,4,2:3:0:0:
464,160,15759,2,0,L|396:168,1,40,2|0,1:2|0:0,0:0:0:0:
415,155,15921,2,0,L|347:163,1,40,2|0,1:2|0:0,0:0:0:0:
273,70,16084,1,4,2:3:0:0:
273,70,16165,2,0,L|341:78,1,40,2|0,2:2|0:0,0:0:0:0:
322,65,16327,2,0,L|390:73,1,40,2|0,2:3|0:0,0:0:0:0:
197,139,16489,5,4,0:0:0:0:
177,137,16570,1,0,2:0:0:0:
157,135,16651,1,0,0:0:0:0:
137,133,16732,1,4,2:3:0:0:
117,132,16813,1,0,0:0:0:0:
97,130,16894,1,0,2:0:0:0:
77,128,16976,1,10,1:2:0:0:
129,238,17138,5,4,0:0:0:0:
140,221,17219,1,0,2:3:0:0:
151,205,17300,1,0,0:0:0:0:
163,188,17381,1,4,2:3:0:0:
174,172,17462,1,0,0:0:0:0:
186,156,17543,1,0,2:3:0:0:
197,139,17624,1,10,2:2:0:0:
77,128,17786,5,4,0:0:0:0:
86,146,17867,1,0,2:3:0:0:
94,163,17949,1,0,0:0:0:0:
103,182,18030,1,4,2:3:0:0:
111,199,18111,1,0,0:0:0:0:
119,218,18192,1,0,2:3:0:0:
128,236,18273,1,10,2:2:0:0:
163,188,18354,1,8,2:3:0:0:
197,139,18435,5,4,1:3:0:0:
77,128,18597,1,0,2:0:0:0:
324,26,18759,5,4,0:0:0:0:
204,15,18921,1,8,1:3:0:0:
503,230,19084,5,4,1:3:0:0:
478,212,19165,1,0,2:0:0:0:
449,204,19246,1,0,0:0:0:0:
420,207,19327,1,0,2:2:0:0:
382,222,19408,1,10,3:2:0:0:
350,237,19489,1,0,2:0:0:0:
321,246,19570,1,0,0:0:0:0:
291,247,19651,1,0,2:0:0:0:
264,236,19732,6,0,L|270:162,1,40,4|0,0:3|2:0,0:0:0:0:
196,323,19894,1,0,3:0:0:0:
196,323,19976,2,0,L|202:396,1,40,2|8,2:0|2:2,0:0:0:0:
128,236,20138,1,0,3:0:0:0:
128,236,20219,2,0,L|134:162,1,40,2|0,2:0|2:0,0:0:0:0:
60,323,20381,2,0,L|66:396,1,40,4|0,0:0|2:0,0:0:0:0:
0,226,20543,1,2,2:0:0:0:
2,196,20624,1,0,2:0:0:0:
5,166,20705,1,8,0:2:0:0:
7,136,20786,1,0,2:0:0:0:
10,106,20867,1,2,2:2:0:0:
128,0,21030,6,0,L|134:80,1,80,4|0,0:0|2:0,0:0:0:0:
241,322,21354,2,0,L|247:242,1,80,10|0,1:2|2:0,0:0:0:0:
429,61,21678,6,0,P|376:22|367:22,1,40,2|8,1:3|2:3,0:0:0:0:
373,18,21840,1,8,2:3:0:0:
340,25,21921,1,8,2:3:0:0:
312,43,22003,1,0,1:0:0:0:
292,69,22084,1,0,1:0:0:0:
283,101,22165,1,0,1:0:0:0:
285,134,22246,1,0,1:0:0:0:
298,165,22327,6,0,L|372:171,1,53.3333333333333,4|0,0:0|0:0,0:0:0:0:
194,238,22543,2,0,L|268:244,1,53.3333333333333,8|0,0:0|0:0,0:0:0:0:
90,310,22759,2,0,L|164:316,1,53.3333333333333,8|0,0:0|0:0,0:0:0:0:
289,174,22976,6,0,L|363:180,1,53.3333333333333,4|0,0:0|0:0,0:0:0:0:
185,247,23192,2,0,L|259:253,1,53.3333333333333,8|0,0:0|0:0,0:0:0:0:
81,319,23408,2,0,L|155:325,1,53.3333333333333,8|0,0:0|0:0,0:0:0:0:
280,183,23625,6,0,L|354:189,1,40,4|0,1:3|0:0,0:0:0:0:
176,256,23786,1,0,2:0:0:0:
176,256,23867,2,0,L|250:262,1,40,8|0,1:3|0:0,0:0:0:0:
72,328,24030,1,0,2:0:0:0:
72,328,24111,2,0,L|146:334,1,40,4|0,1:3|0:0,0:0:0:0:
71,206,24273,6,0,P|30:163|30:154,1,50,2|8,1:3|2:3,0:0:0:0:
6,98,24435,1,8,2:3:0:0:
13,62,24516,1,8,2:3:0:0:
33,32,24597,1,0,1:3:0:0:
61,10,24678,1,0,1:3:0:0:
95,0,24759,1,0,1:3:0:0:
131,2,24840,1,0,1:3:0:0:
162,21,24921,6,0,L|168:103,1,66.6666666666667,4|0,0:0|0:0,0:0:0:0:
309,91,25138,2,0,L|234:55,1,66.6666666666667,8|0,0:0|0:0,0:0:0:0:
174,183,25354,2,0,L|242:136,1,66.6666666666667,8|0,1:3|0:0,0:0:0:0:
456,162,25570,6,0,L|381:126,1,53.3333333333333,4|0,0:0|0:0,0:0:0:0:
321,254,25786,2,0,L|389:207,1,53.3333333333333,8|0,0:0|0:0,0:0:0:0:
309,91,26003,2,0,L|314:172,1,53.3333333333333,8|0,1:3|0:0,0:0:0:0:
187,346,26219,6,0,L|255:299,1,50,4|0,0:0|0:0,0:0:0:0:
174,183,26381,1,0,1:3:0:0:
174,183,26462,2,0,L|180:264,1,50,4|0,0:0|0:0,0:0:0:0:
321,254,26624,1,0,1:0:0:0:
321,254,26705,2,0,L|246:218,1,50,4|0,0:0|0:0,0:0:0:0:
109,287,26867,6,0,L|73:361,1,50,2|8,1:3|2:3,0:0:0:0:
0,181,27030,1,8,2:3:0:0:
37,162,27111,1,8,2:3:0:0:
75,143,27192,1,0,1:0:0:0:
112,125,27273,1,0,1:0:0:0:
150,106,27354,1,0,1:0:0:0:
188,89,27435,1,0,1:0:0:0:
226,70,27516,6,0,L|313:77,1,66.6666666666667,4|0,1:3|0:0,0:0:0:0:
403,232,27732,2,0,L|365:151,1,66.6666666666667,8|0,2:3|0:0,0:0:0:0:
455,0,27949,2,0,L|404:72,1,66.6666666666667,8|0,1:3|0:0,0:0:0:0:
233,78,28165,6,0,L|320:85,1,66.6666666666667,4|0,1:3|0:0,0:0:0:0:
410,240,28381,2,0,L|372:159,1,66.6666666666667,8|0,2:3|0:0,0:0:0:0:
462,8,28597,2,0,L|411:80,1,66.6666666666667,4|0,1:3|0:0,0:0:0:0:
240,86,28813,6,0,L|327:93,1,50,4|0,1:3|0:0,0:0:0:0:
417,248,28976,1,0,1:0:0:0:
417,248,29057,2,0,L|379:167,1,50,4|0,2:3|0:0,0:0:0:0:
469,16,29219,1,0,1:3:0:0:
469,16,29300,2,0,L|418:88,1,50,4|0,2:3|0:0,0:0:0:0:
338,295,29462,6,0,P|386:325|406:324,1,50,2|8,1:3|2:3,0:0:0:0:
102,144,29624,1,8,2:3:0:0:
53,140,29705,1,8,2:3:0:0:
13,168,29786,1,0,1:0:0:0:
1,216,29867,1,0,1:0:0:0:
23,260,29948,1,0,1:0:0:0:
67,279,30029,1,0,1:0:0:0:
115,266,30111,6,0,L|105:374,1,66.6666666666667,4|0,0:0|0:0,0:0:0:0:
218,160,30327,2,0,L|208:268,1,66.6666666666667,8|0,1:3|0:0,0:0:0:0:
321,54,30543,2,0,L|311:162,1,66.6666666666667,8|0,0:0|0:0,0:0:0:0:
117,344,30759,2,0,L|124:264,1,75,4|0,2:3|0:0,0:0:0:0:
256,192,31084,12,0,31894,0:0:0:0:
223,308,32057,5,4,0:0:0:0:
368,137,32300,1,2,2:0:0:0:
318,384,32543,1,4,0:0:0:0:
431,360,32705,5,2,2:0:0:0:
376,306,32813,1,0,2:0:0:0:
300,288,32921,1,0,3:0:0:0:
223,308,33029,1,2,2:0:0:0:
151,330,33138,1,0,2:0:0:0:
73,310,33246,1,0,3:0:0:0:
16,258,33355,5,4,3:3:0:0:
0,209,33436,1,0,2:3:0:0:
9,158,33517,1,0,3:3:0:0:
40,115,33598,1,0,2:3:0:0:
87,92,33679,1,0,1:3:0:0:
140,91,33760,1,0,2:3:0:0:
185,116,33841,1,4,3:3:0:0:
218,158,33922,1,0,2:3:0:0:
224,211,34003,6,0,L|204:230,1,25,2|0,2:0|2:0,0:0:0:0:
196,211,34084,2,0,L|176:230,1,25,0|0,2:0|2:0,0:0:0:0:
168,211,34165,2,0,L|148:230,1,25,4|0,2:3|2:0,0:0:0:0:
140,210,34246,2,0,L|120:229,1,25,0|0,2:0|2:0,0:0:0:0:
112,210,34327,2,0,L|92:229,1,25,2|0,1:2|2:0,0:0:0:0:
84,210,34408,2,0,L|64:229,1,25,0|0,2:0|2:0,0:0:0:0:
56,209,34489,2,0,L|36:228,1,25,2|0,2:0|2:0,0:0:0:0:
28,209,34570,2,0,L|8:228,1,25,0|0,2:0|2:0,0:0:0:0:
0,209,34651,2,0,L|80:194,1,50,4|2,0:0|2:0,0:0:0:0:
342,146,34976,6,0,L|286:155,1,50,4|2,0:0|2:0,0:0:0:0:
334,37,35300,1,4,0:0:0:0:
466,123,35462,1,2,2:0:0:0:
342,29,35949,5,4,0:0:0:0:
474,115,36111,1,2,2:0:0:0:
350,25,36273,5,4,0:0:0:0:
203,164,36435,1,2,2:0:0:0:
131,46,36759,6,0,L|197:51,1,50,2|4,2:0|0:0,0:0:0:0:
203,164,37084,2,0,L|131:170,1,50,2|4,2:0|0:0,0:0:0:0:
193,45,37570,5,4,0:0:0:0:
282,251,37732,1,2,2:0:0:0:
45,123,37894,5,4,0:0:0:0:
215,163,38057,1,2,2:0:0:0:
60,344,38543,6,0,L|53:272,1,50,4|2,2:3|2:2,0:0:0:0:
45,123,38867,1,0,2:0:0:0:
60,344,39030,1,8,0:0:0:0:
127,33,39354,5,4,0:0:0:0:
115,208,39516,2,0,L|122:136,1,50,2|0,2:3|0:0,0:0:0:0:
296,286,39840,5,4,0:0:0:0:
270,304,39921,1,0,2:0:0:0:
240,312,40003,1,2,2:2:0:0:
209,309,40084,1,0,2:0:0:0:
181,296,40165,2,0,L|187:364,1,44.999998626709,8|0,1:2|2:0,0:0:0:0:
235,138,40327,5,2,3:2:0:0:
230,183,40408,2,0,L|236:251,1,44.999998626709,8|0,2:3|0:0,0:0:0:0:
103,252,40570,1,2,2:0:0:0:
115,208,40651,2,0,L|120:140,1,44.999998626709,8|0,3:0|0:0,0:0:0:0:
350,209,40813,5,8,1:2:0:0:
376,270,40894,1,0,2:0:0:0:
358,333,40976,1,2,3:2:0:0:
161,77,41138,5,4,0:0:0:0:
190,57,41219,1,0,2:0:0:0:
222,49,41300,1,2,0:2:0:0:
256,52,41381,1,0,2:0:0:0:
287,66,41462,2,0,L|280:-7,1,50,8|0,1:2|2:0,0:0:0:0:
366,194,41624,5,2,3:2:0:0:
360,145,41705,2,0,L|367:70,1,50,8|0,2:3|0:0,0:0:0:0:
446,12,41867,1,2,3:2:0:0:
452,61,41949,2,0,L|445:136,1,50,8|0,3:0|0:0,0:0:0:0:
229,146,42111,5,8,1:2:0:0:
160,171,42192,1,0,2:0:0:0:
97,140,42273,1,2,3:2:0:0:
26,8,42435,5,4,0:0:0:0:
47,39,42516,1,0,2:0:0:0:
57,74,42597,1,2,2:2:0:0:
53,112,42678,1,0,2:0:0:0:
37,145,42759,2,0,L|118:137,1,59.9999981689454,8|0,1:2|2:0,0:0:0:0:
231,252,42921,5,2,0:2:0:0:
181,257,43003,2,0,L|106:250,1,59.9999981689454,8|0,0:0|3:0,0:0:0:0:
0,366,43165,1,2,2:0:0:0:
50,371,43247,2,0,L|125:364,1,59.9999981689454,8|0,0:0|0:0,0:0:0:0:
295,325,43408,5,8,1:2:0:0:
329,255,43489,1,0,2:0:0:0:
302,180,43570,1,2,3:2:0:0:
450,57,43732,5,4,0:0:0:0:
429,88,43813,1,0,2:0:0:0:
419,123,43894,1,2,2:2:0:0:
423,161,43976,1,0,2:0:0:0:
439,194,44057,2,0,L|357:186,1,59.9999981689454,8|0,1:2|0:0,0:0:0:0:
54,136,44219,5,2,0:2:0:0:
128,127,44300,2,0,L|210:119,1,59.9999981689454,8|0,0:0|0:0,0:0:0:0:
450,57,44462,1,2,2:2:0:0:
376,48,44543,2,0,L|294:40,1,59.9999981689454,2|0,0:2|0:0,0:0:0:0:
193,128,44705,6,0,L|111:135,1,59.9999981689454,8|0,1:2|0:0,0:0:0:0:
59,142,44867,2,0,L|-22:149,1,59.9999981689454,2|0,0:0|0:0,0:0:0:0:
120,229,45030,2,0,L|261:241,1,120,4|0,0:0|0:0,0:0:0:0:
246,250,45354,6,0,L|237:347,1,80,4|2,0:0|2:0,0:0:0:0:
188,122,45678,5,4,0:0:0:0:
336,259,45840,1,2,2:0:0:0:
344,266,46327,5,4,0:0:0:0:
196,129,46489,1,2,2:0:0:0:
370,10,46651,5,4,0:0:0:0:
208,138,46813,1,2,2:0:0:0:
370,10,47138,6,0,L|277:1,1,80,2|4,2:0|0:0,0:0:0:0:
208,138,47462,2,0,L|115:146,1,80,2|4,2:0|0:0,0:0:0:0:
290,3,47949,5,4,0:0:0:0:
255,261,48111,1,2,2:0:0:0:
52,10,48273,5,4,0:0:0:0:
86,266,48435,1,2,2:0:0:0:
512,123,48921,6,0,L|426:116,1,80,4|2,0:3|2:0,0:0:0:0:
187,0,49246,5,2,2:0:0:0:
299,352,49408,1,8,0:0:0:0:
293,364,49732,5,4,0:0:0:0:
405,13,49894,1,2,0:0:0:0:
329,191,50219,5,4,0:0:0:0:
295,169,50300,1,0,2:0:0:0:
256,161,50381,1,2,2:2:0:0:
217,166,50462,1,0,2:0:0:0:
182,186,50543,2,0,L|173:278,1,50,8|0,1:2|0:0,0:0:0:0:
61,109,50705,5,2,0:2:0:0:
56,59,50786,2,0,L|47:-33,1,50,8|0,0:0|0:0,0:0:0:0:
167,184,50949,1,2,2:0:0:0:
162,234,51030,2,0,L|153:326,1,50,8|0,0:0|0:0,0:0:0:0:
342,98,51192,5,8,0:2:0:0:
278,82,51273,1,0,2:0:0:0:
210,93,51354,1,2,3:2:0:0:
261,271,51516,5,4,0:0:0:0:
298,294,51597,1,0,2:0:0:0:
342,303,51678,1,2,2:2:0:0:
387,298,51759,1,0,2:0:0:0:
426,275,51840,2,0,L|435:169,1,55.0000016784668,8|0,1:2|0:0,0:0:0:0:
512,40,52003,5,2,0:2:0:0:
505,99,52084,2,0,L|499:153,1,55.0000016784668,8|0,0:0|0:0,0:0:0:0:
438,271,52246,1,2,2:0:0:0:
445,330,52327,2,0,L|451:384,1,55.0000016784668,8|0,0:0|0:0,0:0:0:0:
356,83,52489,5,8,1:2:0:0:
280,66,52570,1,0,2:0:0:0:
202,77,52651,1,2,2:2:0:0:
86,159,52813,5,4,0:0:0:0:
61,201,52894,1,0,2:0:0:0:
51,250,52975,1,2,2:2:0:0:
56,300,53056,1,0,2:0:0:0:
82,343,53137,2,0,L|199:353,1,59.9999981689454,8|0,1:2|0:0,0:0:0:0:
238,359,53300,5,2,0:2:0:0:
311,366,53381,2,0,L|428:376,1,59.9999981689454,8|0,0:0|0:0,0:0:0:0:
132,247,53543,1,2,2:0:0:0:
59,254,53624,2,0,L|-58:264,1,59.9999981689454,8|0,0:0|0:0,0:0:0:0:
360,73,53786,5,8,1:2:0:0:
281,55,53867,1,0,2:0:0:0:
200,68,53948,1,2,3:2:0:0:
323,262,54111,5,4,0:0:0:0:
365,287,54192,1,0,2:0:0:0:
414,297,54273,1,2,2:2:0:0:
464,292,54354,1,0,2:0:0:0:
507,266,54435,2,0,L|517:149,1,64.9999970245363,8|0,1:2|0:0,0:0:0:0:
353,0,54597,5,2,0:2:0:0:
368,84,54678,2,0,L|378:201,1,64.9999970245363,8|0,0:0|0:0,0:0:0:0:
238,359,54840,1,2,2:0:0:0:
245,286,54921,2,0,L|255:169,1,64.9999970245363,8|0,0:0|0:0,0:0:0:0:
379,157,55084,5,8,1:2:0:0:
322,384,55246,1,2,1:2:0:0:
271,61,55408,1,4,0:0:0:0:
256,192,55489,12,8,56381,0:2:0:0:
54,106,56705,6,0,L|58:52,5,33.3333333333333,4|0|0|2|0|0,2:3|2:0|2:0|2:0|2:0|2:0,0:0:0:0:
73,113,57029,1,8,1:2:0:0:
91,128,57084,1,0,2:3:0:0:
102,144,57138,1,0,2:3:0:0:
102,161,57192,1,2,2:0:0:0:
96,177,57246,1,0,2:3:0:0:
79,193,57300,1,0,2:3:0:0:
52,208,57353,1,4,2:3:0:0:
25,223,57407,1,0,2:3:0:0:
9,239,57461,1,0,2:3:0:0:
3,255,57515,1,2,2:0:0:0:
3,272,57569,1,0,2:3:0:0:
13,288,57623,1,0,2:3:0:0:
34,305,57678,2,0,L|149:315,1,100,8|0,1:2|2:0,0:0:0:0:
394,380,58003,5,4,0:0:0:0:
147,309,58165,1,0,2:0:0:0:
160,304,58489,5,0,2:0:0:0:
407,233,58651,1,4,0:0:0:0:
394,228,58976,5,8,0:2:0:0:
147,157,59138,1,0,2:0:0:0:
160,152,59462,5,0,2:0:0:0:
407,81,59624,1,8,0:2:0:0:
327,226,59949,6,0,L|435:235,1,80,4|0,0:0|2:0,0:0:0:0:
511,65,60273,2,0,L|372:77,1,117.999995858765,8|0,1:2|2:0,0:0:0:0:
253,46,60597,5,4,0:0:0:0:
203,23,60705,1,0,2:0:0:0:
151,33,60813,1,0,2:0:0:0:
64,100,60921,5,10,1:2:0:0:
113,122,61030,1,0,2:0:0:0:
166,113,61138,1,0,2:0:0:0:
261,53,61246,5,4,0:0:0:0:
245,124,61354,1,0,2:0:0:0:
229,195,61462,1,0,2:0:0:0:
145,265,61570,5,10,1:2:0:0:
129,194,61678,1,0,3:0:0:0:
113,122,61786,1,0,2:2:0:0:
73,297,61894,5,4,0:0:0:0:
124,347,62002,1,0,2:0:0:0:
196,350,62110,1,0,2:0:0:0:
279,308,62219,5,10,1:2:0:0:
228,258,62327,1,0,2:0:0:0:
156,255,62435,1,0,2:0:0:0:
56,295,62543,5,4,0:0:0:0:
115,353,62651,1,0,2:0:0:0:
198,355,62759,1,0,2:0:0:0:
296,310,62868,5,10,1:2:0:0:
237,252,62976,1,0,2:0:0:0:
154,249,63084,1,0,1:2:0:0:
364,220,63192,6,0,L|445:225,1,75,4|0,0:0|0:0,0:0:0:0:
450,226,63516,1,4,0:0:0:0:
39,199,63678,2,0,L|15:196,1,20,2|2,1:3|2:0,0:0:0:0:
311,86,64165,5,8,3:0:0:0:
220,124,64246,1,8,0:0:0:0:
128,161,64327,1,4,0:0:0:0:
403,49,64489,6,0,L|484:43,1,75,4|0,0:0|0:0,0:0:0:0:
489,43,64813,1,4,0:0:0:0:
78,70,64976,2,0,L|55:72,1,20,2|2,1:3|2:0,0:0:0:0:
321,268,65462,5,8,0:0:0:0:
240,202,65543,1,8,0:0:0:0:
159,135,65624,1,4,0:0:0:0:
403,335,65786,6,0,L|484:340,1,75,4|0,0:0|0:0,0:0:0:0:
489,341,66110,1,4,0:0:0:0:
78,314,66273,2,0,L|60:312,1,15,2|0,1:3|0:0,0:0:0:0:
51,312,66597,5,4,0:0:0:0:
183,157,66759,5,8,2:3:0:0:
207,205,66840,1,8,0:0:0:0:
201,259,66921,1,4,1:3:0:0:
331,117,67084,6,0,P|440:99|477:136,1,139.999995727539,4|0,1:3|0:0,0:0:0:0:
320,131,67327,2,0,L|314:78,1,40,2|0,2:2|0:0,0:0:0:0:
396,173,67570,2,0,L|386:254,1,64.9999970245363,4|0,0:0|0:0,0:0:0:0:
183,158,67732,6,0,P|228:167|250:160,1,50,4|0,1:3|0:0,0:0:0:0:
173,149,67976,2,0,L|158:276,1,100,2|0,2:2|0:0,0:0:0:0:
224,85,68219,2,0,L|214:3,1,50,4|0,3:3|0:0,0:0:0:0:
103,299,68381,6,0,P|144:324|211:310,1,100,4|0,0:0|1:0,0:0:0:0:
417,338,68867,5,2,3:2:0:0:
415,321,68921,1,0,2:0:0:0:
419,305,68975,1,0,2:0:0:0:
427,290,69029,1,2,3:2:0:0:
352,255,69354,5,2,3:2:0:0:
357,241,69408,1,0,2:0:0:0:
368,230,69462,1,0,2:0:0:0:
381,222,69516,1,2,3:2:0:0:
337,152,69841,5,2,3:2:0:0:
348,144,69895,1,0,2:0:0:0:
361,140,69949,1,0,2:0:0:0:
375,140,70003,1,2,3:2:0:0:
375,56,70327,5,2,3:2:0:0:
388,55,70381,1,0,2:0:0:0:
399,58,70435,1,0,2:0:0:0:
409,63,70489,1,2,3:2:0:0:
512,277,70813,5,8,0:0:0:0:
337,152,70976,2,0,L|272:146,1,50,4|0,0:2|1:2,0:0:0:0:
17,307,71462,5,2,3:2:0:0:
14,327,71516,1,0,2:0:0:0:
12,348,71570,1,0,2:0:0:0:
10,369,71624,1,2,3:2:0:0:
94,252,71949,5,2,3:2:0:0:
91,233,72003,1,0,2:0:0:0:
90,215,72057,1,0,2:0:0:0:
88,196,72111,1,2,3:2:0:0:
172,313,72435,5,2,3:2:0:0:
169,330,72489,1,0,2:0:0:0:
168,346,72543,1,0,2:0:0:0:
166,363,72597,1,2,3:2:0:0:
249,246,72922,5,2,3:2:0:0:
247,231,72976,1,0,2:0:0:0:
246,217,73030,1,0,2:0:0:0:
244,202,73084,1,2,3:2:0:0:
6,95,73408,5,8,0:0:0:0:
280,119,73570,2,0,L|356:125,1,65.999999798584,4|0,0:1|1:0,0:0:0:0:
448,229,74057,5,4,3:0:0:0:
437,360,74219,1,0,1:0:0:0:
357,256,74543,5,0,1:0:0:0:
346,124,74705,1,2,2:0:0:0:
266,229,75030,5,2,2:0:0:0:
255,360,75192,1,0,1:0:0:0:
179,305,75516,6,0,L|175:256,1,50,4|0,0:0|1:0,0:0:0:0:
168,174,75840,2,0,L|164:125,1,50,4|4,0:0|0:3,0:0:0:0:
84,384,76165,6,0,L|91:294,1,64.9999970245363,6|8,3:2|0:0,0:0:0:0:
172,58,76489,5,4,0:0:0:0:
183,244,76651,1,8,0:0:0:0:
324,58,76813,5,4,0:0:0:0:
312,244,76975,1,8,0:0:0:0:
161,45,77138,5,4,0:0:0:0:
175,256,77300,1,8,0:0:0:0:
334,45,77462,5,4,1:2:0:0:
332,84,77543,1,0,2:0:0:0:
330,124,77624,1,2,2:2:0:0:
82,112,77786,5,4,0:0:0:0:
407,83,77949,1,2,2:0:0:0:
82,196,78111,5,8,0:0:0:0:
407,225,78274,1,2,2:0:0:0:
50,103,78435,5,4,0:0:0:0:
440,69,78598,1,2,2:0:0:0:
50,205,78759,5,4,0:2:0:0:
123,211,78840,1,8,0:0:0:0:
197,218,78921,1,8,1:3:0:0:
136,49,79084,5,4,0:0:0:0:
150,297,79246,1,8,1:3:0:0:
309,49,79408,5,4,0:0:0:0:
294,297,79570,1,8,1:3:0:0:
118,25,79732,5,4,0:0:0:0:
135,322,79894,1,8,1:3:0:0:
326,25,80057,5,4,0:2:0:0:
321,102,80138,1,0,2:0:0:0:
316,178,80219,1,8,2:3:0:0:
42,115,80381,5,4,0:0:0:0:
459,76,80544,1,8,2:3:0:0:
42,222,80706,5,4,0:0:0:0:
459,260,80867,1,8,2:3:0:0:
0,102,81030,5,4,0:0:0:0:
501,59,81193,1,8,2:3:0:0:
229,36,81354,5,4,1:2:0:0:
194,61,81435,1,4,0:0:0:0:
187,104,81516,1,4,0:0:0:0:
209,139,81597,1,4,0:0:0:0:
250,151,81678,1,4,2:3:0:0:
288,133,81759,1,4,0:0:0:0:
303,93,81840,5,4,0:0:0:0:
346,115,81921,1,4,0:3:0:0:
373,155,82002,1,4,0:0:0:0:
378,203,82083,1,4,0:0:0:0:
360,248,82164,1,4,0:3:0:0:
323,278,82245,1,4,0:0:0:0:
275,288,82326,1,4,2:3:0:0:
229,272,82407,1,4,0:0:0:0:
196,239,82490,5,4,0:0:0:0:
162,204,82571,1,4,0:0:0:0:
116,190,82652,1,4,0:0:0:0:
69,199,82733,1,4,0:0:0:0:
32,229,82814,1,4,0:0:0:0:
13,274,82895,1,4,0:0:0:0:
17,322,82976,1,4,2:3:0:0:
45,362,83057,1,4,0:0:0:0:
88,384,83138,5,4,0:0:0:0:
107,338,83219,1,4,0:0:0:0:
102,291,83300,1,4,0:0:0:0:
75,251,83381,1,4,0:0:0:0:
32,229,83462,1,4,0:0:0:0:
384,159,83624,5,14,1:2:0:0:
13,137,83949,5,4,0:3:0:0:
0,86,84030,1,0,2:3:0:0:
24,40,84111,1,0,2:3:0:0:
74,23,84192,1,4,0:0:0:0:
121,46,84273,1,0,2:3:0:0:
139,94,84354,1,0,2:3:0:0:
118,143,84435,1,4,1:3:0:0:
118,143,84597,5,4,0:0:0:0:
98,191,84678,1,0,2:0:0:0:
116,240,84759,1,0,2:0:0:0:
163,262,84840,1,4,0:0:0:0:
213,246,84921,1,0,2:0:0:0:
237,199,85002,1,0,2:0:0:0:
223,149,85083,1,4,1:3:0:0:
223,149,85246,5,4,0:0:0:0:
214,95,85327,1,0,2:0:0:0:
237,44,85408,1,0,2:0:0:0:
284,16,85489,1,4,0:0:0:0:
340,19,85570,1,0,2:0:0:0:
383,53,85651,1,0,2:0:0:0:
400,106,85732,1,4,1:3:0:0:
384,159,85813,1,0,0:0:0:0:
341,194,85894,6,0,L|346:130,1,50,2|0,1:3|0:0,0:0:0:0:
402,323,86057,2,0,L|396:386,1,50,4|0,0:0|0:0,0:0:0:0:
219,198,86219,6,0,L|224:134,1,50,2|0,2:0|0:0,0:0:0:0:
278,326,86382,2,0,L|272:389,1,50,12|0,2:3|0:0,0:0:0:0:
463,256,86543,6,0,P|440:244|403:243,1,50,4|0,0:0|2:3,0:0:0:0:
278,326,86705,5,0,2:3:0:0:
230,337,86786,1,0,2:3:0:0:
180,332,86867,1,10,1:2:0:0:
135,310,86948,1,0,2:3:0:0:
101,275,87030,2,0,L|107:349,1,50,2|0,2:2|2:3,0:0:0:0:
48,133,87192,6,0,L|54:59,1,50,2|0,1:3|0:0,0:0:0:0:
162,73,87354,1,4,2:3:0:0:
162,73,87435,2,0,L|204:12,1,50,2|0,1:3|0:0,0:0:0:0:
290,78,87597,1,4,2:3:0:0:
290,78,87678,2,0,L|357:46,1,50,2|0,1:3|0:0,0:0:0:0:
398,133,87840,6,0,L|402:182,1,50,4|0,0:0|2:0,0:0:0:0:
295,342,88003,1,0,2:0:0:0:
237,356,88084,1,0,2:0:0:0:
177,349,88165,1,8,1:2:0:0:
124,323,88246,1,0,2:0:0:0:
82,280,88327,2,0,L|90:369,1,50,2|0,2:0|2:0,0:0:0:0:
12,139,88489,6,0,L|20:50,1,59.9999981689454,2|0,1:3|0:0,0:0:0:0:
149,68,88651,1,4,2:3:0:0:
149,68,88732,2,0,L|200:-4,1,59.9999981689454,2|0,1:3|0:0,0:0:0:0:
302,74,88894,1,4,2:3:0:0:
302,74,88975,2,0,L|383:36,1,59.9999981689454,2|0,1:3|0:0,0:0:0:0:
493,160,89137,6,0,L|434:155,1,59.9999981689454,4|0,0:0|2:0,0:0:0:0:
388,253,89300,5,0,2:3:0:0:
326,258,89381,1,0,2:3:0:0:
265,263,89462,1,8,1:2:0:0:
204,269,89543,1,0,2:3:0:0:
143,274,89624,1,2,2:0:0:0:
82,280,89705,1,0,2:3:0:0:
0,214,89786,6,0,L|7:125,1,59.9999981689454,4|0,0:0|0:0,0:0:0:0:
14,71,89949,2,0,L|21:-17,1,59.9999981689454,2|0,2:0|0:0,0:0:0:0:
190,126,90111,6,0,L|197:215,1,59.9999981689454,8|0,0:2|0:0,0:0:0:0:
204,269,90274,2,0,L|211:357,1,59.9999981689454,2|0,2:0|0:0,0:0:0:0:
394,288,90435,6,0,P|345:280|300:299,1,100,4|8,0:0|0:0,0:0:0:0:
463,348,90759,2,0,B|482:354|513:347|553:321,1,50,4|0,0:0|2:0,0:0:0:0:
468,216,90921,5,0,2:0:0:0:
468,216,91003,2,0,L|476:284,1,50,0|0,1:3|0:0,0:0:0:0:
453,87,91165,2,0,L|461:155,1,50,0|0,1:3|0:0,0:0:0:0:
357,48,91327,1,8,2:3:0:0:
357,48,91408,2,0,L|365:-20,1,50,4|0,0:0|0:0,0:0:0:0:
342,177,91570,2,0,L|350:108,1,50,8|0,1:2|0:0,0:0:0:0:
227,88,91732,5,4,0:0:0:0:
230,121,91813,1,0,2:3:0:0:
234,154,91894,1,0,2:3:0:0:
238,187,91975,1,4,0:0:0:0:
242,220,92056,1,0,2:3:0:0:
245,253,92137,1,0,2:3:0:0:
249,286,92218,1,2,1:0:0:0:
51,220,92381,5,4,0:0:0:0:
82,196,92462,1,0,2:3:0:0:
114,172,92543,1,0,2:3:0:0:
147,148,92624,1,4,0:0:0:0:
179,124,92705,1,0,2:3:0:0:
210,100,92786,1,0,2:3:0:0:
243,76,92867,1,2,1:0:0:0:
298,348,93030,5,4,0:0:0:0:
260,332,93111,1,0,2:3:0:0:
223,316,93192,1,0,2:3:0:0:
187,299,93273,1,4,0:0:0:0:
150,284,93354,1,0,2:3:0:0:
113,268,93435,1,0,2:3:0:0:
77,253,93516,1,2,1:0:0:0:
40,237,93597,1,8,0:0:0:0:
4,222,93678,6,0,L|9:288,1,50,0|0,1:0|0:0,0:0:0:0:
81,384,93840,2,0,L|86:316,1,50,2|0,2:0|0:0,0:0:0:0:
74,35,94003,6,0,L|79:101,1,50,8|0,1:3|0:0,0:0:0:0:
151,197,94165,2,0,L|156:129,1,50,4|0,3:0|0:0,0:0:0:0:
93,341,94327,6,0,P|169:362|175:361,1,50,4|0,0:0|2:0,0:0:0:0:
253,268,94489,5,0,2:0:0:0:
284,229,94570,1,0,2:0:0:0:
292,180,94651,1,8,1:2:0:0:
265,142,94732,1,0,2:0:0:0:
252,87,94813,1,0,2:0:0:0:
259,38,94894,1,0,2:0:0:0:
292,0,94976,6,0,L|379:6,1,50,2|0,1:0|0:0,0:0:0:0:
512,83,95138,1,4,3:0:0:0:
462,86,95219,2,0,L|374:92,1,50,2|0,1:0|0:0,0:0:0:0:
292,180,95381,1,4,3:0:0:0:
342,183,95462,2,0,L|429:189,1,50,2|0,1:0|0:0,0:0:0:0:
512,265,95624,2,0,L|463:269,1,50,4|0,0:0|2:0,0:0:0:0:
291,352,95786,1,0,2:0:0:0:
340,354,95867,1,0,2:0:0:0:
392,358,95949,1,8,1:2:0:0:
443,362,96030,1,0,2:0:0:0:
495,366,96111,5,2,2:0:0:0:
250,329,96273,2,0,L|359:337,1,75.0000028610231,4|0,0:0|2:0,0:0:0:0:
79,297,96597,2,0,L|188:305,1,75.0000028610231,8|0,1:2|2:0,0:0:0:0:
394,97,96921,5,10,1:3:0:0:
361,99,97003,1,8,2:3:0:0:
328,101,97084,1,8,2:3:0:0:
295,103,97165,1,8,2:3:0:0:
263,106,97246,1,4,2:3:0:0:
230,108,97327,1,4,0:0:0:0:
197,110,97408,1,4,0:0:0:0:
164,112,97489,1,4,0:0:0:0:
133,116,97570,6,0,L|183:45,1,79.9999975585938,4|0,1:3|0:0,0:0:0:0:
265,213,97786,2,0,L|299:291,1,79.9999975585938,8|0,0:0|0:1,0:0:0:0:
114,278,98003,2,0,L|28:268,1,79.9999975585938,8|0,0:0|0:0,0:0:0:0:
125,98,98219,6,0,L|185:14,1,93.3333304850261,4|0,1:3|0:0,0:0:0:0:
284,215,98435,2,0,L|326:309,1,93.3333304850261,8|0,0:0|0:0,0:0:0:0:
103,293,98651,2,0,L|0:282,1,93.3333304850261,8|0,0:0|0:0,0:0:0:0:
117,81,98867,6,0,L|187:-15,1,92.4999996471405,4|0,1:3|0:0,0:0:0:0:
303,217,99030,1,2,2:0:0:0:
303,217,99111,2,0,L|352:327,1,92.4999996471405,4|0,0:0|0:0,0:0:0:0:
92,308,99273,1,2,2:0:0:0:
92,308,99354,2,0,L|-27:295,1,92.4999996471405,4|0,0:0|0:0,0:0:0:0:
284,130,99516,6,0,P|376:164|386:183,1,69.9999978637696,0|0,1:0|0:0,0:0:0:0:
149,183,99678,1,2,3:2:0:0:
121,185,99732,1,0,2:0:0:0:
93,182,99786,1,0,2:0:0:0:
68,171,99840,1,4,0:0:0:0:
315,136,100003,6,0,P|403:198|407:221,1,69.9999978637696,8|0,1:3|0:0,0:0:0:0:
158,155,100165,1,2,3:2:0:0:
127,150,100219,1,0,2:0:0:0:
99,138,100273,1,0,2:0:0:0:
75,119,100327,1,4,0:0:0:0:
345,155,100489,6,0,P|413:237|412:261,1,69.9999978637696,8|0,1:3|0:0,0:0:0:0:
172,131,100651,1,2,3:2:0:0:
142,118,100705,1,0,2:0:0:0:
116,96,100759,1,0,2:0:0:0:
95,69,100813,1,12,2:3:0:0:
367,185,100976,6,0,P|411:281|404:303,1,69.9999978637696,8|0,1:3|0:0,0:0:0:0:
193,111,101138,1,2,3:2:0:0:
165,87,101192,1,0,2:0:0:0:
143,60,101246,1,0,2:0:0:0:
131,26,101300,1,4,3:0:0:0:
378,223,101462,6,0,P|395:328|383:347,1,69.9999978637696,8|0,1:2|0:0,0:0:0:0:
214,88,101624,1,2,3:2:0:0:
194,63,101678,1,0,2:0:0:0:
182,31,101732,1,0,2:0:0:0:
179,1,101786,6,0,P|180:19|183:38,1,30,2|0,1:0|0:0,0:0:0:0:
289,161,102111,2,0,L|282:242,1,59.9999981689454,4|0,0:0|0:0,0:0:0:0:
214,88,102273,5,8,2:3:0:0:
242,68,102354,1,8,2:3:0:0:
276,58,102435,1,4,2:3:0:0:
310,60,102516,1,4,2:3:0:0:
342,74,102597,1,8,2:3:0:0:
368,97,102678,1,8,2:3:0:0:
385,128,102759,6,0,L|503:138,1,79.9999975585938,4|0,0:0|0:0,0:0:0:0:
204,213,102976,2,0,L|322:223,1,79.9999975585938,8|0,0:0|1:0,0:0:0:0:
23,298,103192,2,0,L|141:308,1,79.9999975585938,4|0,0:0|0:0,0:0:0:0:
392,143,103408,6,0,L|510:153,1,93.3333304850261,4|0,0:3|0:0,0:0:0:0:
211,228,103624,2,0,L|329:238,1,93.3333304850261,4|0,0:0|1:0,0:0:0:0:
30,313,103840,2,0,L|148:323,1,93.3333304850261,8|0,0:0|0:0,0:0:0:0:
399,158,104057,6,0,L|526:169,1,100,2|0,1:0|0:0,0:0:0:0:
218,243,104219,1,8,2:3:0:0:
218,243,104300,2,0,L|336:253,1,100,2|0,1:0|0:0,0:0:0:0:
37,328,104462,1,8,2:3:0:0:
37,328,104543,2,0,L|155:338,1,100,2|0,1:0|0:0,0:0:0:0:
345,362,104705,6,0,P|415:280|413:269,1,69.9999978637696,6|0,1:3|0:0,0:0:0:0:
478,231,104867,1,2,3:2:0:0:
490,212,104921,1,0,2:0:0:0:
497,190,104976,1,0,2:0:0:0:
498,166,105030,1,8,2:3:0:0:
307,351,105192,6,0,P|354:252|350:242,1,69.9999978637696,6|0,1:3|0:0,0:0:0:0:
410,179,105354,1,2,3:2:0:0:
420,151,105408,1,0,2:0:0:0:
421,123,105462,1,0,2:0:0:0:
415,93,105516,1,8,2:3:0:0:
273,352,105678,6,0,P|294:242|286:234,1,69.9999978637696,2|0,1:3|0:0,0:0:0:0:
333,144,105840,1,2,3:2:0:0:
336,110,105894,1,0,2:0:0:0:
329,79,105949,1,0,2:0:0:0:
314,48,106003,1,8,2:3:0:0:
244,361,106165,6,0,P|235:248|226:242,1,69.9999978637696,6|0,1:3|0:0,0:0:0:0:
251,128,106327,1,2,3:2:0:0:
243,93,106381,1,0,2:0:0:0:
227,59,106435,1,0,2:0:0:0:
200,29,106489,1,8,2:3:0:0:
223,377,106651,6,0,P|186:272|176:269,1,69.9999978637696,6|0,1:3|0:0,0:0:0:0:
166,134,106813,1,2,3:2:0:0:
149,99,106867,1,0,2:0:0:0:
119,66,106921,1,0,2:0:0:0:
80,41,106976,6,0,P|102:51|124:72,1,46.4999981552125,2|0,1:0|0:0,0:0:0:0:
111,384,107300,2,0,P|109:335|90:290,1,69.9999978637696,4|0,0:0|0:0,0:0:0:0:
17,221,107462,5,8,2:3:0:0:
47,218,107543,1,8,2:3:0:0:
78,215,107624,1,4,2:3:0:0:
109,212,107705,1,4,2:3:0:0:
140,210,107786,1,8,2:3:0:0:
171,207,107867,1,8,2:3:0:0:
203,205,107949,6,0,L|267:157,1,79.9999975585938,4|0,0:0|0:0,0:0:0:0:
422,59,108165,2,0,L|429:138,1,79.9999975585938,4|8,0:0|1:2,0:0:0:0:
438,320,108381,2,0,L|364:288,1,79.9999975585938,4|0,0:0|0:0,0:0:0:0:
174,159,108597,6,0,L|264:124,1,93.3333304850261,4|0,0:0|0:0,0:0:0:0:
474,57,108813,2,0,L|458:152,1,93.3333304850261,4|8,0:0|1:2,0:0:0:0:
411,365,109030,2,0,L|336:305,1,93.3333304850261,4|0,0:0|0:0,0:0:0:0:
167,79,109246,6,0,L|278:66,1,110.000003356934,4|0,0:0|0:0,0:0:0:0:
512,55,109408,1,0,1:0:0:0:
512,55,109489,2,0,L|488:157,1,110.000003356934,6|0,0:3|0:0,0:0:0:0:
371,383,109651,1,0,1:0:0:0:
371,383,109732,2,0,L|304:293,1,110.000003356934,6|0,0:0|0:0,0:0:0:0:
1,34,109894,6,0,L|9:118,1,52.4999983978272,10|0,1:2|0:0,0:0:0:0:
28,323,110057,1,2,3:2:0:0:
24,281,110111,1,2,3:2:0:0:
21,241,110165,1,2,3:2:0:0:
17,200,110219,1,4,3:3:0:0:
104,384,110381,6,0,L|112:301,1,52.4999983978272,10|0,1:2|0:0,0:0:0:0:
131,90,110543,1,2,3:2:0:0:
127,133,110597,1,2,3:2:0:0:
124,177,110651,1,2,3:2:0:0:
120,219,110705,1,4,3:3:0:0:
207,34,110867,6,0,L|215:118,1,52.4999983978272,10|0,1:2|0:0,0:0:0:0:
235,331,111030,1,2,3:2:0:0:
230,284,111084,1,2,3:2:0:0:
227,238,111138,1,2,3:2:0:0:
222,192,111192,1,4,3:0:0:0:
310,384,111354,6,0,L|318:301,1,52.4999983978272,10|0,1:2|0:0,0:0:0:0:
338,83,111516,1,2,3:2:0:0:
333,131,111570,1,2,3:2:0:0:
330,179,111624,1,2,3:2:0:0:
325,226,111678,1,4,3:0:0:0:
413,34,111840,6,0,L|421:118,1,52.4999983978272,10|0,1:2|0:0,0:0:0:0:
442,338,112003,1,2,3:2:0:0:
437,287,112057,1,2,3:2:0:0:
433,236,112111,1,2,3:2:0:0:
428,185,112165,6,0,L|437:300,1,112.500004291535,2|0,1:0|0:0,0:0:0:0:
324,136,112489,2,0,L|332:52,1,69.9999978637696,2|0,3:0|0:0,0:0:0:0:
101,2,112651,5,8,2:3:0:0:
103,31,112732,1,8,2:3:0:0:
106,60,112813,1,8,2:3:0:0:
108,90,112894,1,8,2:3:0:0:
111,119,112976,1,8,2:3:0:0:
114,149,113057,1,8,2:3:0:0:
117,179,113138,6,0,L|-1:189,1,93.3333304850261,4|0,1:3|0:0,0:0:0:0:
298,264,113354,2,0,L|180:274,1,93.3333304850261,8|0,0:0|2:0,0:0:0:0:
479,349,113570,2,0,L|361:359,1,93.3333304850261,4|0,0:0|0:0,0:0:0:0:
129,192,113786,6,0,L|11:202,1,106.666666666667,10|0,1:2|0:0,0:0:0:0:
319,82,114003,2,0,L|369:-25,1,106.666666666667,4|0,0:0|0:0,0:0:0:0:
319,301,114219,2,0,L|387:399,1,106.666666666667,8|0,0:0|0:0,0:0:0:0:
202,100,114435,6,0,L|147:20,1,50,2|0,1:0|0:0,0:0:0:0:
360,192,114597,1,2,2:0:0:0:
360,192,114678,2,0,L|458:183,1,50,2|0,1:0|0:0,0:0:0:0:
202,282,114840,1,2,2:0:0:0:
202,282,114921,2,0,L|161:370,1,50,2|0,1:0|0:0,0:0:0:0:
265,198,115084,5,4,0:0:0:0:
295,195,115165,1,8,0:0:0:0:
325,193,115246,1,8,0:0:0:0:
356,190,115327,1,4,0:0:0:0:
386,189,115408,1,8,0:0:0:0:
416,186,115489,1,8,0:0:0:0:
447,184,115570,1,8,1:2:0:0:
452,191,115732,5,4,0:0:0:0:
432,164,115813,1,8,0:0:0:0:
413,136,115894,1,8,0:0:0:0:
393,109,115976,1,4,0:0:0:0:
376,80,116057,1,8,0:0:0:0:
357,54,116138,1,8,0:0:0:0:
337,25,116219,1,8,1:2:0:0:
350,16,116381,5,4,0:0:0:0:
335,50,116462,1,8,0:0:0:0:
319,82,116543,1,8,0:0:0:0:
304,116,116624,1,4,0:0:0:0:
287,148,116705,1,8,0:0:0:0:
271,179,116786,1,8,0:0:0:0:
256,214,116867,1,8,1:2:0:0:
58,305,117030,6,0,L|-14:298,1,50,4|0,0:0|0:0,0:0:0:0:
177,380,117192,2,0,L|248:373,1,50,4|0,3:0|0:0,0:0:0:0:
87,143,117354,6,0,L|15:136,1,50,4|0,0:0|0:0,0:0:0:0:
206,218,117516,2,0,L|277:211,1,50,4|0,0:0|0:0,0:0:0:0:
412,145,117678,5,4,0:0:0:0:
446,99,117759,1,4,0:0:0:0:
438,43,117840,1,4,0:0:0:0:
394,7,117921,1,10,1:2:0:0:
337,11,118002,1,4,0:0:0:0:
299,53,118083,1,4,0:0:0:0:
300,110,118164,1,2,2:1:0:0:
300,110,118327,5,4,0:0:0:0:
334,156,118408,1,4,0:0:0:0:
326,212,118489,1,4,0:0:0:0:
282,248,118570,1,10,1:2:0:0:
225,244,118651,1,4,0:0:0:0:
187,202,118732,1,4,0:0:0:0:
188,145,118813,1,2,2:1:0:0:
188,145,118976,5,4,0:0:0:0:
195,89,119057,1,4,0:0:0:0:
171,39,119138,1,4,0:0:0:0:
123,10,119219,1,10,1:2:0:0:
68,11,119300,1,4,0:0:0:0:
22,42,119381,1,4,0:0:0:0:
0,93,119462,1,2,2:1:0:0:
8,147,119543,1,8,0:0:0:0:
46,189,119624,6,0,L|52:111,1,50,6|0,0:3|0:0,0:0:0:0:
112,288,119786,2,0,L|118:365,1,50,4|0,3:0|0:0,0:0:0:0:
184,194,119949,6,0,L|190:116,1,50,4|0,3:0|0:0,0:0:0:0:
264,296,120111,2,0,L|270:373,1,50,4|0,3:0|0:0,0:0:0:0:
323,68,120273,5,4,0:0:0:0:
391,56,120354,1,8,0:0:0:0:
450,95,120435,1,8,0:0:0:0:
466,164,120516,1,4,1:3:0:0:
429,226,120597,1,8,0:0:0:0:
361,245,120678,1,8,0:0:0:0:
298,212,120759,1,2,1:0:0:0:
284,220,120921,5,4,0:0:0:0:
356,258,121002,1,8,0:0:0:0:
435,236,121083,1,8,0:0:0:0:
477,165,121164,1,4,1:3:0:0:
459,86,121245,1,8,0:0:0:0:
391,41,121326,1,8,0:0:0:0:
313,55,121407,1,2,1:0:0:0:
285,22,121570,5,4,0:0:0:0:
368,0,121651,1,8,0:0:0:0:
449,26,121732,1,8,0:0:0:0:
503,92,121813,1,4,1:3:0:0:
512,176,121894,1,8,0:0:0:0:
475,250,121975,1,8,0:0:0:0:
403,294,122056,1,2,1:0:0:0:
318,291,122137,1,4,0:0:0:0:
248,244,122219,6,0,L|260:118,1,75.0000028610231,2|0,1:0|0:0,0:0:0:0:
151,10,122381,2,0,L|158:85,1,75.0000028610231,2|0,1:0|0:0,0:0:0:0:
107,371,122543,6,0,L|114:297,1,75.0000028610231,2|0,1:0|0:0,0:0:0:0:
10,137,122705,2,0,L|17:213,1,75.0000028610231,2|0,1:0|0:0,0:0:0:0:
376,152,122867,5,2,2:0:0:0:
256,192,123192,12,2,125462,0:2:0:0:
