osu file format v14

[General]
AudioFilename: audio.mp3
AudioLeadIn: 0
PreviewTime: 83577
Countdown: 0
SampleSet: Drum
StackLeniency: 0.2
Mode: 0
LetterboxInBreaks: 0
WidescreenStoryboard: 1

[Editor]
Bookmarks: 97442
DistanceSpacing: 0.6
BeatDivisor: 4
GridSize: 32
TimelineZoom: 2.1

[Metadata]
Title:Scarlet Lance
TitleUnicode:Scarlet Lance
Artist:MASAKI (ZUNTATA)
ArtistUnicode:MASAKI (ZUNTATA)
Creator:QuiescentRabbit
Version:Extra
Source:GROOVE COASTER 3 LINK FEVER
Tags:BlastTheKidd Xenon- Xehn Xen MrMenda Niva ZUNTATA RECORDS Rhythmvaders Bandai Namco sound voltex iv
BeatmapID:2025520
BeatmapSetID:967178

[Difficulty]
HPDrainRate:5
CircleSize:3.7
OverallDifficulty:8.5
ApproachRate:9.4
SliderMultiplier:2
SliderTickRate:1

[Events]
//Background and Video events
0,0,"60753950_p0.jpg",0,0
//Break Periods
//Storyboard Layer 0 (Background)
//Storyboard Layer 1 (Fail)
//Storyboard Layer 2 (Pass)
//Storyboard Layer 3 (Foreground)
//Storyboard Layer 4 (Overlay)
//Storyboard Sound Samples

[TimingPoints]
922,324.324324324324,4,3,1,65,1,0
922,-166.666666666667,4,3,1,65,0,0
1489,-166.666666666667,4,3,1,5,0,0
1570,-166.666666666667,4,3,1,60,0,0
3516,-166.666666666667,4,3,1,50,0,0
3759,-166.666666666667,4,2,1,5,0,0
3840,-166.666666666667,4,3,1,50,0,0
4246,-166.666666666667,4,2,1,5,0,0
4327,-166.666666666667,4,3,1,50,0,0
4732,-166.666666666667,4,2,1,5,0,0
4813,-166.666666666667,4,3,1,50,0,0
5219,-166.666666666667,4,2,1,5,0,0
5300,-166.666666666667,4,3,1,50,0,0
5786,-166.666666666667,4,3,1,60,0,0
6111,-166.666666666667,4,3,1,65,0,0
7408,-166.666666666667,4,3,1,65,0,0
8381,-166.666666666667,4,3,1,40,0,0
8705,-166.666666666667,4,3,1,55,0,0
10651,-166.666666666667,4,3,1,50,0,0
11300,-166.666666666667,4,3,1,50,0,0
11949,-166.666666666667,4,3,1,55,0,0
12597,-166.666666666667,4,3,1,55,0,0
13246,-166.666666666667,4,3,1,60,0,0
13894,-166.666666666667,4,3,1,60,0,0
14543,-166.666666666667,4,3,1,60,0,0
14705,-166.666666666667,4,3,1,60,0,0
14867,-166.666666666667,4,3,1,60,0,0
15030,-166.666666666667,4,3,1,60,0,0
15111,-166.666666666667,4,3,1,5,0,0
15192,-166.666666666667,4,3,1,55,0,0
16408,-166.666666666667,4,3,1,50,0,0
18435,-166.666666666667,4,3,1,55,0,0
19084,-166.666666666667,4,3,1,50,0,0
19732,-142.857142857143,4,3,1,55,0,0
20381,-142.857142857143,4,3,1,50,0,0
21678,-142.857142857143,4,3,1,55,0,0
21840,-142.857142857143,4,3,1,60,0,0
22327,-142.857142857143,4,3,1,60,0,0
24273,-142.857142857143,4,3,1,55,0,0
24435,-142.857142857143,4,3,1,60,0,0
24921,-142.857142857143,4,3,1,60,0,0
25570,-142.857142857143,4,3,1,65,0,0
26219,-142.857142857143,4,3,1,60,0,0
26867,-166.666666666667,4,3,1,55,0,0
27030,-166.666666666667,4,3,1,60,0,0
27516,-166.666666666667,4,3,1,60,0,0
29462,-166.666666666667,4,3,1,55,0,0
29624,-166.666666666667,4,3,1,60,0,0
30111,-166.666666666667,4,3,1,60,0,0
30327,-166.666666666667,4,3,1,55,0,0
30543,-166.666666666667,4,3,1,45,0,0
30759,-250.000000000001,4,3,1,40,0,0
31003,-250.000000000001,4,3,1,5,0,0
31084,-250.000000000001,4,3,1,40,0,0
31894,-250.000000000001,4,3,1,5,0,0
32057,-250.000000000001,4,3,1,45,0,0
32705,-250.000000000001,4,3,1,50,0,0
33354,-250.000000000001,4,3,1,55,0,0
34003,-142.857142857143,4,3,1,60,0,0
34043,-142.857142857143,4,3,1,5,0,0
34084,-142.857142857143,4,3,1,60,0,0
34124,-142.857142857143,4,3,1,5,0,0
34165,-142.857142857143,4,3,1,60,0,0
34205,-142.857142857143,4,3,1,5,0,0
34246,-142.857142857143,4,3,1,60,0,0
34286,-142.857142857143,4,3,1,5,0,0
34327,-142.857142857143,4,3,1,60,0,0
34367,-142.857142857143,4,3,1,5,0,0
34408,-142.857142857143,4,3,1,60,0,0
34448,-142.857142857143,4,3,1,5,0,0
34489,-142.857142857143,4,3,1,60,0,0
34529,-142.857142857143,4,3,1,5,0,0
34570,-142.857142857143,4,3,1,60,0,0
34610,-142.857142857143,4,3,1,5,0,0
34651,-142.857142857143,4,3,1,60,0,0
34976,-142.857142857143,4,3,1,55,0,0
39516,-142.857142857143,4,3,1,60,0,0
39840,-142.857142857143,4,3,1,60,0,0
40165,-142.857142857143,4,3,1,55,0,0
41138,-142.857142857143,4,3,1,60,0,0
43732,-142.857142857143,4,3,1,65,0,0
45030,-142.857142857143,4,3,1,55,0,0
45273,-142.857142857143,4,3,1,5,0,0
45354,-142.857142857143,4,3,1,55,0,0
49894,-142.857142857143,4,3,1,60,0,0
52813,-142.857142857143,4,3,1,65,0,0
54111,-142.857142857143,4,3,1,70,0,0
55408,-142.857142857143,4,3,1,55,0,0
55489,-142.857142857143,4,3,1,70,0,0
56381,-142.857142857143,4,3,1,55,0,0
56705,-142.857142857143,4,3,1,55,0,0
57678,-142.857142857143,4,3,1,60,0,0
58003,-142.857142857143,4,3,1,50,0,0
59949,-142.857142857143,4,3,1,50,0,0
61894,-142.857142857143,4,3,1,60,0,0
62867,-142.857142857143,4,3,1,65,0,0
63192,-285.714285714286,4,3,1,60,0,0
63435,-285.714285714286,4,3,1,5,0,0
63516,-285.714285714286,4,3,1,60,0,0
63678,-400,4,3,1,60,0,0
63840,-400,4,2,1,5,0,0
64165,-400,4,3,1,60,0,0
64489,-285.714285714286,4,3,1,60,0,0
64732,-285.714285714286,4,3,1,5,0,0
64813,-285.714285714286,4,3,1,60,0,0
64976,-400,4,3,1,60,0,0
65138,-400,4,2,1,5,0,0
65463,-400,4,3,1,60,0,0
65786,-285.714285714286,4,3,1,60,0,0
66030,-285.714285714286,4,3,1,5,0,0
66111,-285.714285714286,4,3,1,60,0,0
66273,-200,4,3,1,60,0,0
66435,-200,4,2,1,5,0,0
66516,-200,4,2,1,5,0,0
66597,-200,4,3,1,55,0,0
66760,-200,4,3,1,60,0,0
67084,-125,4,3,1,60,0,0
67246,-125,4,3,1,5,0,0
67327,-200,4,3,1,65,0,0
67489,-200,4,3,1,5,0,0
67570,-125,4,3,1,55,0,0
67651,-125,4,3,1,5,0,0
67732,-200,4,3,1,65,0,0
67894,-200,4,3,1,5,0,0
67976,-125,4,3,1,65,0,0
68138,-125,4,3,1,5,0,0
68219,-200,4,3,1,50,0,0
68300,-200,4,3,1,5,0,0
68381,-200,4,3,1,40,0,0
68867,-200,4,3,1,40,0,0
76165,-200,4,3,1,30,0,0
77462,-200,4,3,1,45,0,0
78759,-200,4,3,1,55,0,0
78921,-200,4,3,1,55,0,0
80057,-200,4,3,1,65,0,0
81354,-200,4,3,1,35,0,0
81678,-200,4,3,1,37,0,0
82003,-200,4,3,1,39,0,0
82327,-200,4,3,1,42,0,0
82651,-200,4,3,1,51,0,0
82976,-200,4,3,1,60,0,0
83624,-200,4,3,10,60,0,0
83949,-142.857142857143,4,3,2,60,0,1
86543,-142.857142857143,4,3,2,60,0,1
87192,-142.857142857143,4,3,2,60,0,1
87840,-142.857142857143,4,3,2,60,0,1
88489,-142.857142857143,4,3,2,60,0,1
89138,-142.857142857143,4,3,2,60,0,1
90435,-142.857142857143,4,3,2,60,0,1
91732,-142.857142857143,4,3,2,60,0,1
93678,-142.857142857143,4,3,2,60,0,1
94327,-142.857142857143,4,3,2,60,0,1
95624,-142.857142857143,4,3,2,60,0,1
96192,-142.857142857143,4,2,2,5,0,1
96273,-142.857142857143,4,3,2,50,0,1
96597,-142.857142857143,4,3,2,40,0,1
96921,-142.857142857143,4,3,2,60,0,1
97003,-142.857142857143,4,3,2,60,0,1
97570,-142.857142857143,4,3,2,55,0,1
98219,-142.857142857143,4,3,2,60,0,1
98867,-142.857142857143,4,3,2,65,0,1
99516,-142.857142857143,4,3,2,65,0,1
99597,-142.857142857143,4,3,2,5,0,1
99678,-142.857142857143,4,3,2,65,0,1
99759,-142.857142857143,4,3,2,70,0,1
99840,-142.857142857143,4,3,2,65,0,1
100084,-142.857142857143,4,3,2,5,0,1
100165,-142.857142857143,4,3,2,65,0,1
100246,-142.857142857143,4,3,2,70,0,1
100327,-142.857142857143,4,3,2,65,0,1
100570,-142.857142857143,4,3,2,5,0,1
100651,-142.857142857143,4,3,2,65,0,1
100732,-142.857142857143,4,3,2,70,0,1
100813,-142.857142857143,4,3,2,65,0,1
101057,-142.857142857143,4,3,2,5,0,1
101138,-142.857142857143,4,3,2,65,0,1
101219,-142.857142857143,4,3,2,70,0,1
101300,-142.857142857143,4,3,2,65,0,1
101543,-142.857142857143,4,3,2,5,0,1
101624,-142.857142857143,4,3,2,65,0,1
101705,-142.857142857143,4,3,2,70,0,1
101786,-285.714285714286,4,3,2,65,0,1
101948,-285.714285714286,4,3,2,70,0,1
102030,-285.714285714286,4,3,2,5,0,1
102111,-142.857142857143,4,3,2,60,0,1
102759,-142.857142857143,4,3,2,65,0,1
103408,-142.857142857143,4,3,2,65,0,1
104786,-142.857142857143,4,3,2,5,0,1
104867,-142.857142857143,4,3,2,65,0,1
104948,-142.857142857143,4,3,2,70,0,1
105029,-142.857142857143,4,3,2,65,0,1
105273,-142.857142857143,4,3,2,5,0,1
105354,-142.857142857143,4,3,2,65,0,1
105435,-142.857142857143,4,3,2,70,0,1
105516,-142.857142857143,4,3,2,65,0,1
105759,-142.857142857143,4,3,2,5,0,1
105840,-142.857142857143,4,3,2,65,0,1
105921,-142.857142857143,4,3,2,70,0,1
106002,-142.857142857143,4,3,2,65,0,1
106246,-142.857142857143,4,3,2,5,0,1
106327,-142.857142857143,4,3,2,65,0,1
106408,-142.857142857143,4,3,2,70,0,1
106489,-142.857142857143,4,3,2,65,0,1
106894,-142.857142857143,4,3,2,70,0,1
106976,-285.714285714286,4,3,2,65,0,1
107138,-285.714285714286,4,3,2,70,0,1
107219,-285.714285714286,4,3,2,5,0,1
107300,-142.857142857143,4,3,2,65,0,1
107949,-142.857142857143,4,3,2,70,0,1
108597,-142.857142857143,4,3,2,70,0,1
109246,-142.857142857143,4,3,2,70,0,1
109894,-142.857142857143,4,3,2,70,0,1
109976,-142.857142857143,4,3,2,5,0,1
110057,-142.857142857143,4,3,2,70,0,1
110138,-142.857142857143,4,3,2,75,0,1
110219,-142.857142857143,4,3,2,70,0,1
110462,-142.857142857143,4,3,2,5,0,1
110543,-142.857142857143,4,3,2,70,0,1
110625,-142.857142857143,4,3,2,75,0,1
110706,-142.857142857143,4,3,2,70,0,1
110949,-142.857142857143,4,3,2,5,0,1
111030,-142.857142857143,4,3,2,70,0,1
111111,-142.857142857143,4,3,2,75,0,1
111192,-142.857142857143,4,3,2,70,0,1
111435,-142.857142857143,4,3,2,5,0,1
111516,-142.857142857143,4,3,2,70,0,1
111597,-142.857142857143,4,3,2,75,0,1
111678,-142.857142857143,4,3,2,70,0,1
111921,-142.857142857143,4,3,2,5,0,1
112003,-142.857142857143,4,3,2,70,0,1
112084,-142.857142857143,4,3,2,75,0,1
112165,-285.714285714286,4,3,2,70,0,1
112408,-285.714285714286,4,3,2,5,0,1
112489,-142.857142857143,4,3,2,70,0,1
113462,-142.857142857143,4,3,2,70,0,1
113786,-168.067226890756,4,3,2,75,0,1
114435,-204.081632653061,4,3,2,75,0,1
115084,-204.081632653061,4,3,2,60,0,1
117030,-204.081632653061,4,3,2,60,0,1
117678,-204.081632653061,4,3,2,60,0,1
118165,-204.081632653061,4,3,2,60,0,1
118327,-204.081632653061,4,3,2,60,0,1
118813,-204.081632653061,4,3,2,60,0,1
118976,-204.081632653061,4,3,2,60,0,1
119462,-204.081632653061,4,3,2,60,0,1
119624,-204.081632653061,4,3,2,60,0,1
120273,-204.081632653061,4,3,2,65,0,1
122219,-204.081632653061,4,3,2,75,0,1
122867,-204.081632653061,4,3,10,100,0,0
123192,-204.081632653061,4,3,1,75,0,0
125462,-204.081632653061,4,3,1,75,0,0

[Colours]
Combo1 : 109,118,160
Combo2 : 130,176,181
Combo3 : 157,77,77
Combo4 : 157,105,158

[HitObjects]
163,91,922,5,6,2:0:0:0:
0,178,1246,2,0,L|114:188,1,89.9999972534181,0|0,2:3|0:0,0:0:0:0:
137,287,1570,6,0,L|129:359,1,39.9999987792969,4|0,1:3|2:0,0:0:0:0:
122,209,1786,2,0,L|62:166,1,39.9999987792969,8|0,0:0|2:0,0:0:0:0:
197,235,2003,2,0,L|263:205,1,39.9999987792969,8|0,3:0|2:0,0:0:0:0:
150,283,2219,6,0,L|142:354,1,39.9999987792969,4|0,1:3|2:0,0:0:0:0:
134,198,2435,2,0,L|75:155,1,39.9999987792969,8|0,0:0|2:0,0:0:0:0:
216,226,2652,2,0,L|281:196,1,39.9999987792969,8|0,0:0|2:0,0:0:0:0:
161,281,2867,6,0,L|155:334,1,29.9999990844727,4|0,1:3|0:0,0:0:0:0:
143,187,3030,1,2,2:0:0:0:
143,187,3111,2,0,L|98:155,1,29.9999990844727,4|0,1:3|0:0,0:0:0:0:
233,218,3273,1,2,2:0:0:0:
233,218,3354,2,0,L|268:202,1,29.9999990844727,4|0,1:3|0:0,0:0:0:0:
310,66,3516,6,0,L|399:73,1,89.9999972534181,4|0,2:3|2:0,0:0:0:0:
503,86,3840,1,0,1:0:0:0:
207,94,4003,2,0,L|296:86,1,89.9999972534181,4|0,0:0|2:0,0:0:0:0:
400,74,4327,1,0,1:0:0:0:
103,66,4489,2,0,L|192:73,1,89.9999972534181,4|0,0:0|2:0,0:0:0:0:
296,86,4813,1,0,1:0:0:0:
0,93,4976,2,0,L|89:85,1,89.9999972534181,4|0,0:0|2:0,0:0:0:0:
193,73,5300,1,0,1:0:0:0:
333,233,5462,6,0,L|257:226,1,59.9999981689454,4|0,0:0|2:0,0:0:0:0:
0,373,5786,1,8,1:3:0:0:
29,370,5867,1,8,0:0:0:0:
59,367,5948,1,4,2:3:0:0:
146,216,6111,5,4,1:3:0:0:
177,357,6273,1,8,0:0:0:0:
155,243,6435,5,4,1:3:0:0:
222,371,6597,1,8,0:0:0:0:
172,267,6759,5,4,1:3:0:0:
270,374,6921,1,8,0:0:0:0:
195,286,7084,5,4,1:3:0:0:
316,364,7246,1,8,0:0:0:0:
413,294,7408,5,4,0:0:0:0:
432,283,7489,1,4,0:0:0:0:
447,266,7570,1,4,2:3:0:0:
455,245,7651,1,4,0:0:0:0:
454,223,7732,1,4,0:3:0:0:
446,202,7813,1,4,0:0:0:0:
431,185,7894,1,4,2:3:0:0:
411,175,7975,1,4,0:0:0:0:
389,173,8056,1,4,0:3:0:0:
367,178,8137,1,4,0:0:0:0:
349,191,8218,1,4,2:3:0:0:
381,18,8381,5,2,2:3:0:0:
159,102,8705,5,4,0:3:0:0:
144,100,8786,1,0,0:0:0:0:
129,99,8867,1,0,0:0:0:0:
114,98,8948,1,4,0:3:0:0:
99,97,9029,1,0,0:0:0:0:
84,95,9110,1,0,0:0:0:0:
69,94,9191,1,2,2:3:0:0:
0,197,9354,5,4,0:0:0:0:
14,195,9435,1,0,0:0:0:0:
29,194,9516,1,0,0:0:0:0:
44,193,9597,1,4,0:0:0:0:
59,191,9678,1,0,0:0:0:0:
74,190,9759,1,0,0:0:0:0:
89,189,9840,1,2,2:3:0:0:
159,291,10003,5,4,0:0:0:0:
145,289,10084,1,0,0:0:0:0:
130,288,10165,1,0,0:0:0:0:
115,287,10246,1,4,0:0:0:0:
100,285,10327,1,0,0:0:0:0:
85,284,10408,1,0,0:0:0:0:
70,283,10489,1,6,0:0:0:0:
55,282,10570,1,8,0:0:0:0:
40,281,10651,5,2,1:2:0:0:
69,94,10813,1,0,2:0:0:0:
183,199,10976,5,4,2:3:0:0:
211,12,11138,1,8,0:0:0:0:
383,105,11300,6,0,L|339:101,1,29.9999990844727,4|0,0:0|2:0,0:0:0:0:
183,199,11463,1,2,2:0:0:0:
220,195,11544,1,0,2:0:0:0:
257,192,11625,1,8,1:2:0:0:
295,189,11706,1,0,2:0:0:0:
332,185,11786,1,2,2:0:0:0:
512,307,11949,6,0,L|462:302,1,29.9999990844727,4|0,1:3|0:0,0:0:0:0:
398,357,12111,1,4,3:0:0:0:
398,357,12192,2,0,L|348:361,1,29.9999990844727,0|0,1:0|0:0,0:0:0:0:
284,307,12354,1,8,3:0:0:0:
284,307,12435,2,0,L|234:302,1,29.9999990844727,0|0,1:0|0:0,0:0:0:0:
104,262,12597,6,0,L|133:259,1,29.9999990844727,4|0,0:0|2:0,0:0:0:0:
194,188,12759,1,2,2:0:0:0:
231,184,12840,1,0,2:0:0:0:
268,181,12921,1,8,2:2:0:0:
306,178,13002,1,0,2:0:0:0:
343,174,13084,1,2,2:0:0:0:
500,296,13246,6,0,L|449:291,1,29.9999990844727,0|0,1:0|0:0,0:0:0:0:
382,347,13408,1,4,2:3:0:0:
382,347,13489,2,0,L|331:351,1,29.9999990844727,0|0,1:0|0:0,0:0:0:0:
265,296,13651,1,8,2:3:0:0:
265,296,13732,2,0,L|214:291,1,29.9999990844727,0|0,1:0|0:0,0:0:0:0:
98,255,13894,6,0,L|127:252,1,29.9999990844727,4|0,0:0|2:0,0:0:0:0:
205,177,14056,1,2,2:0:0:0:
242,173,14137,1,0,2:0:0:0:
279,170,14218,1,8,2:2:0:0:
317,167,14299,1,0,2:0:0:0:
354,163,14381,1,2,2:0:0:0:
441,90,14543,6,0,L|386:85,1,29.9999990844727,4|0,2:3|0:0,0:0:0:0:
336,33,14705,2,0,L|281:37,1,29.9999990844727,2|0,2:0|0:0,0:0:0:0:
80,90,14867,6,0,L|134:85,1,29.9999990844727,8|0,2:2|0:0,0:0:0:0:
185,33,15030,2,0,L|239:37,1,29.9999990844727,2|0,2:0|0:0,0:0:0:0:
4,53,15192,6,0,P|38:19|76:15,1,59.9999981689454,4|8,0:0|0:0,0:0:0:0:
205,177,15516,1,4,0:0:0:0:
106,238,15678,5,4,2:3:0:0:
106,238,15759,2,0,L|110:190,1,29.9999990844727,2|0,1:2|0:0,0:0:0:0:
171,307,15921,2,0,L|175:259,1,29.9999990844727,2|0,1:2|0:0,0:0:0:0:
236,376,16084,1,4,2:3:0:0:
236,376,16165,2,0,L|240:328,1,29.9999990844727,2|0,2:2|0:0,0:0:0:0:
24,384,16327,1,2,2:3:0:0:
324,305,16489,5,4,0:0:0:0:
307,280,16570,1,0,2:0:0:0:
283,261,16651,1,0,0:0:0:0:
255,251,16732,1,4,2:3:0:0:
226,250,16813,1,0,0:0:0:0:
197,259,16894,1,0,2:0:0:0:
173,276,16975,1,10,1:2:0:0:
331,283,17138,5,4,0:0:0:0:
314,258,17219,1,0,2:3:0:0:
290,239,17300,1,0,0:0:0:0:
262,229,17381,1,4,2:3:0:0:
233,228,17462,1,0,0:0:0:0:
204,237,17543,1,0,2:3:0:0:
180,254,17624,1,10,2:2:0:0:
338,261,17787,5,4,0:0:0:0:
321,236,17868,1,0,2:3:0:0:
297,217,17949,1,0,0:0:0:0:
269,207,18030,1,4,2:3:0:0:
240,206,18111,1,0,0:0:0:0:
211,215,18192,1,0,2:3:0:0:
187,232,18273,1,10,2:2:0:0:
180,210,18354,1,8,2:3:0:0:
173,188,18435,5,4,1:3:0:0:
131,27,18597,1,0,2:0:0:0:
338,261,18759,5,4,0:0:0:0:
296,100,18921,1,8,1:3:0:0:
463,183,19084,6,0,P|444:175|410:175,1,29.9999990844727,4|0,1:3|2:0,0:0:0:0:
327,380,19246,1,0,0:0:0:0:
329,350,19327,1,0,2:2:0:0:
332,320,19408,1,10,3:2:0:0:
334,290,19489,1,0,2:0:0:0:
338,261,19570,1,0,0:0:0:0:
265,172,19732,6,0,L|270:234,1,34.9999989318848,4|0,0:3|2:0,0:0:0:0:
192,261,19894,1,0,3:0:0:0:
192,261,19976,2,0,L|197:198,1,34.9999989318848,2|8,2:0|2:2,0:0:0:0:
119,172,20137,1,0,3:0:0:0:
119,172,20219,2,0,L|124:234,1,34.9999989318848,2|0,2:0|2:0,0:0:0:0:
46,261,20381,2,0,L|51:198,1,34.9999989318848,4|0,0:0|2:0,0:0:0:0:
106,33,20543,1,2,2:0:0:0:
109,68,20624,1,0,2:0:0:0:
112,103,20705,1,8,0:2:0:0:
116,138,20786,1,0,2:0:0:0:
119,172,20867,1,2,2:2:0:0:
42,295,21030,6,0,L|49:206,1,69.9999978637696,4|0,0:0|2:0,0:0:0:0:
0,73,21354,2,0,L|7:161,1,69.9999978637696,10|0,1:2|2:0,0:0:0:0:
175,344,21678,6,0,P|215:343|227:336,1,34.9999989318848,2|8,1:3|2:3,0:0:0:0:
242,335,21840,1,8,2:3:0:0:
272,308,21921,1,8,2:3:0:0:
279,269,22002,1,0,1:0:0:0:
260,233,22083,1,0,1:0:0:0:
224,217,22164,1,0,1:0:0:0:
185,227,22245,1,0,1:0:0:0:
160,258,22327,6,0,L|166:170,1,46.6666652425131,4|0,0:0|0:0,0:0:0:0:
124,117,22543,2,0,L|203:78,1,46.6666652425131,8|0,0:0|0:0,0:0:0:0:
228,15,22759,2,0,L|300:64,1,46.6666652425131,8|0,0:0|0:0,0:0:0:0:
143,259,22976,6,0,L|149:171,1,46.6666652425131,4|0,0:0|0:0,0:0:0:0:
107,118,23192,2,0,L|186:79,1,46.6666652425131,8|0,0:0|0:0,0:0:0:0:
211,16,23408,2,0,L|283:65,1,46.6666652425131,8|0,0:0|0:0,0:0:0:0:
126,260,23625,6,0,L|130:202,1,34.9999989318848,4|0,1:3|0:0,0:0:0:0:
90,119,23786,1,0,2:0:0:0:
90,119,23867,2,0,L|142:93,1,34.9999989318848,8|0,1:3|0:0,0:0:0:0:
194,17,24030,1,0,2:0:0:0:
194,17,24111,2,0,L|230:41,1,34.9999989318848,4|0,1:3|0:0,0:0:0:0:
296,132,24273,6,0,L|232:126,1,34.9999989318848,2|8,1:3|2:3,0:0:0:0:
128,225,24435,1,8,2:3:0:0:
158,222,24516,1,8,2:3:0:0:
189,219,24597,1,0,1:3:0:0:
220,216,24678,1,0,1:3:0:0:
251,214,24759,1,0,1:3:0:0:
282,211,24840,1,0,1:3:0:0:
312,211,24921,6,0,L|305:283,1,46.6666652425131,4|0,0:0|0:0,0:0:0:0:
278,349,25138,2,0,L|218:307,1,46.6666652425131,8|0,0:0|0:0,0:0:0:0:
175,250,25354,2,0,L|241:219,1,46.6666652425131,8|0,1:3|0:0,0:0:0:0:
286,242,25570,6,0,L|235:294,1,46.6666652425131,4|0,0:0|0:0,0:0:0:0:
171,326,25787,2,0,L|153:255,1,46.6666652425131,8|0,0:0|0:0,0:0:0:0:
156,184,26003,2,0,L|227:203,1,46.6666652425131,8|0,1:3|0:0,0:0:0:0:
247,250,26219,6,0,L|183:255,1,34.9999989318848,4|0,0:0|0:0,0:0:0:0:
105,240,26381,1,0,1:3:0:0:
105,240,26462,2,0,L|130:185,1,34.9999989318848,4|0,0:0|0:0,0:0:0:0:
184,122,26624,1,0,1:0:0:0:
184,122,26705,2,0,L|216:167,1,34.9999989318848,4|0,0:0|0:0,0:0:0:0:
245,27,26867,6,0,P|254:1|273:-20,1,29.9999990844727,2|8,1:3|2:3,0:0:0:0:
458,98,27030,1,8,2:3:0:0:
477,130,27111,1,8,2:3:0:0:
485,168,27192,1,0,1:0:0:0:
480,206,27273,1,0,1:0:0:0:
463,241,27354,1,0,1:0:0:0:
435,269,27435,1,0,1:0:0:0:
400,286,27516,6,0,L|406:209,1,39.9999987792969,4|0,1:3|0:0,0:0:0:0:
319,333,27732,2,0,L|325:256,1,39.9999987792969,8|0,2:3|0:0,0:0:0:0:
238,380,27949,2,0,L|244:303,1,39.9999987792969,8|0,1:3|0:0,0:0:0:0:
372,271,28165,6,0,L|378:194,1,39.9999987792969,4|0,1:3|0:0,0:0:0:0:
291,318,28381,2,0,L|297:241,1,39.9999987792969,8|0,2:3|0:0,0:0:0:0:
210,365,28598,2,0,L|216:288,1,39.9999987792969,4|0,1:3|0:0,0:0:0:0:
344,256,28813,6,0,L|349:198,1,29.9999990844727,4|0,1:3|0:0,0:0:0:0:
263,303,28976,1,0,1:0:0:0:
263,303,29057,2,0,L|267:252,1,29.9999990844727,4|0,2:3|0:0,0:0:0:0:
182,350,29219,1,0,1:3:0:0:
182,350,29300,2,0,L|185:305,1,29.9999990844727,4|0,2:3|0:0,0:0:0:0:
87,254,29462,6,0,L|90:298,1,29.9999990844727,2|8,1:3|2:3,0:0:0:0:
285,127,29624,1,8,2:3:0:0:
237,130,29705,1,8,2:3:0:0:
190,133,29786,1,0,1:0:0:0:
143,137,29867,1,0,1:0:0:0:
95,141,29948,1,0,1:0:0:0:
48,145,30029,1,0,1:0:0:0:
0,149,30111,6,0,L|7:72,1,39.9999987792969,4|0,0:0|0:0,0:0:0:0:
45,0,30327,2,0,L|107:44,1,39.9999987792969,8|0,1:3|0:0,0:0:0:0:
150,113,30543,2,0,L|79:144,1,39.9999987792969,8|0,0:0|0:0,0:0:0:0:
7,160,30759,2,0,L|18:91,1,60,4|0,2:3|0:0,0:0:0:0:
256,192,31084,12,0,31894,0:0:0:0:
187,55,32057,5,4,0:0:0:0:
140,293,32300,1,2,2:0:0:0:
274,135,32543,1,4,0:0:0:0:
80,94,32705,5,2,2:0:0:0:
129,152,32813,1,0,2:0:0:0:
204,168,32921,1,0,3:0:0:0:
274,135,33030,1,2,2:0:0:0:
343,101,33138,1,0,2:0:0:0:
417,117,33246,1,0,3:0:0:0:
467,175,33354,5,4,3:3:0:0:
425,195,33435,1,0,2:3:0:0:
379,191,33516,1,0,3:3:0:0:
341,166,33597,1,0,2:3:0:0:
319,125,33678,1,0,1:3:0:0:
320,79,33759,1,0,2:3:0:0:
345,39,33840,1,4,3:3:0:0:
386,17,33921,1,0,2:3:0:0:
431,17,34003,6,0,L|450:23,14,17.4999994659424,2|0|0|0|4|0|0|0|2|0|0|0|2|0|0,2:0|2:0|2:0|2:0|2:3|2:0|2:0|2:0|1:2|2:0|2:0|2:0|2:0|2:0|2:0,0:0:0:0:
228,168,34651,6,0,L|219:248,1,69.9999978637696,4|2,0:0|2:0,0:0:0:0:
110,87,34976,5,4,0:0:0:0:
240,167,35138,1,2,2:0:0:0:
127,72,35300,5,4,0:0:0:0:
257,152,35462,1,2,2:0:0:0:
341,269,35949,5,4,0:0:0:0:
211,349,36111,1,2,2:0:0:0:
324,254,36273,5,4,0:0:0:0:
194,334,36435,1,2,2:0:0:0:
40,80,36759,6,0,L|129:87,1,69.9999978637696,2|4,2:0|0:0,0:0:0:0:
221,237,37084,2,0,L|131:244,1,69.9999978637696,2|4,2:0|0:0,0:0:0:0:
380,207,37570,5,4,0:0:0:0:
318,22,37732,1,2,2:0:0:0:
351,208,37894,5,4,0:0:0:0:
289,23,38056,1,2,2:0:0:0:
481,265,38543,6,0,L|471:364,1,69.9999978637696,4|2,2:3|2:2,0:0:0:0:
220,141,38867,5,0,2:0:0:0:
495,261,39030,1,8,0:0:0:0:
484,29,39354,5,4,0:0:0:0:
209,149,39517,1,2,2:3:0:0:
299,9,39840,6,0,L|304:71,1,34.9999989318848,4|0,0:0|2:0,0:0:0:0:
371,152,40003,1,2,2:2:0:0:
371,152,40084,1,0,2:0:0:0:
371,152,40165,2,0,L|376:89,1,34.9999989318848,8|0,1:2|2:0,0:0:0:0:
291,232,40327,1,2,3:2:0:0:
291,232,40408,1,8,2:3:0:0:
291,232,40489,2,0,L|296:294,1,34.9999989318848,0|2,0:0|2:0,0:0:0:0:
347,383,40651,1,8,3:0:0:0:
147,301,40813,1,8,1:2:0:0:
164,303,40894,1,0,2:0:0:0:
181,305,40975,1,2,3:2:0:0:
81,190,41138,6,0,L|75:253,1,34.9999989318848,4|0,0:0|2:0,0:0:0:0:
123,77,41300,1,2,0:2:0:0:
123,77,41381,1,0,2:0:0:0:
123,77,41462,2,0,L|77:123,1,34.9999989318848,8|0,1:2|2:0,0:0:0:0:
227,19,41624,1,2,3:2:0:0:
227,19,41705,1,8,2:3:0:0:
227,19,41786,2,0,L|163:24,1,34.9999989318848,0|2,0:0|3:2,0:0:0:0:
345,41,41949,1,8,3:0:0:0:
212,155,42111,1,8,1:2:0:0:
210,137,42192,1,0,2:0:0:0:
207,118,42273,1,2,3:2:0:0:
341,221,42435,6,0,L|277:215,1,34.9999989318848,4|0,0:0|2:0,0:0:0:0:
402,135,42597,1,2,2:2:0:0:
402,135,42678,1,0,2:0:0:0:
402,135,42759,2,0,L|438:82,1,34.9999989318848,8|0,1:2|2:0,0:0:0:0:
445,230,42922,1,2,0:2:0:0:
445,230,43003,1,8,0:0:0:0:
445,230,43084,2,0,L|472:288,1,34.9999989318848,0|2,3:0|2:0,0:0:0:0:
294,223,43246,1,8,0:0:0:0:
512,111,43408,1,8,1:2:0:0:
509,131,43489,1,0,2:0:0:0:
507,151,43570,1,2,3:2:0:0:
362,361,43732,6,0,L|298:366,1,34.9999989318848,4|0,0:0|2:0,0:0:0:0:
236,300,43894,1,2,2:2:0:0:
218,298,43975,1,0,2:0:0:0:
201,296,44057,2,0,L|137:290,1,34.9999989318848,8|0,1:2|0:0,0:0:0:0:
27,209,44219,1,2,0:2:0:0:
45,210,44300,1,8,0:0:0:0:
62,213,44382,2,0,L|125:218,1,34.9999989318848,0|2,0:0|2:2,0:0:0:0:
0,384,44543,1,2,0:2:0:0:
175,159,44705,6,0,P|190:209|189:224,1,34.9999989318848,8|0,1:2|0:0,0:0:0:0:
96,216,44867,2,0,P|60:253|46:260,1,34.9999989318848,2|0,0:0|0:0,0:0:0:0:
91,128,45030,2,0,P|146:76|198:78,1,104.999996795654,4|0,0:0|0:0,0:0:0:0:
255,118,45354,5,4,0:0:0:0:
166,292,45516,1,2,2:0:0:0:
267,136,45678,5,4,0:0:0:0:
178,310,45840,1,2,2:0:0:0:
329,16,46327,5,4,0:0:0:0:
418,190,46489,1,2,2:0:0:0:
317,34,46651,5,4,0:0:0:0:
406,208,46813,1,2,2:0:0:0:
172,220,47138,6,0,L|264:228,1,69.9999978637696,2|4,2:0|0:0,0:0:0:0:
438,109,47462,2,0,L|345:117,1,69.9999978637696,2|4,2:0|0:0,0:0:0:0:
70,247,47949,5,4,0:0:0:0:
317,304,48111,1,2,2:0:0:0:
77,274,48273,5,4,0:0:0:0:
325,331,48435,1,2,2:0:0:0:
443,39,48921,6,0,L|435:131,1,69.9999978637696,4|2,0:3|2:0,0:0:0:0:
172,360,49246,5,2,2:0:0:0:
246,32,49408,1,8,0:0:0:0:
230,30,49732,5,4,0:0:0:0:
175,281,49894,1,2,0:0:0:0:
9,0,50219,6,0,P|11:47|16:60,1,34.9999989318848,4|0,0:0|2:0,0:0:0:0:
68,110,50381,1,2,2:2:0:0:
68,110,50462,1,0,2:0:0:0:
68,110,50543,2,0,P|69:127|67:144,1,34.9999989318848,8|0,1:2|0:0,0:0:0:0:
20,225,50705,1,2,0:2:0:0:
20,225,50786,1,8,0:0:0:0:
20,225,50867,2,0,P|22:272|27:285,1,34.9999989318848,0|2,0:0|2:0,0:0:0:0:
61,338,51030,1,8,0:0:0:0:
214,187,51192,1,8,0:2:0:0:
179,183,51273,1,0,2:0:0:0:
146,196,51354,1,2,3:2:0:0:
375,337,51516,6,0,P|398:294|397:276,1,34.9999989318848,4|0,0:0|2:0,0:0:0:0:
279,265,51678,1,2,2:2:0:0:
279,265,51759,1,0,2:0:0:0:
279,265,51840,2,0,P|327:263|342:253,1,34.9999989318848,8|0,1:2|0:0,0:0:0:0:
293,145,52003,1,2,0:2:0:0:
293,145,52084,1,8,0:0:0:0:
293,145,52165,2,0,P|318:186|334:194,1,34.9999989318848,0|2,0:0|2:0,0:0:0:0:
348,69,52327,1,8,0:0:0:0:
394,308,52489,1,8,1:2:0:0:
407,275,52570,1,0,2:0:0:0:
403,240,52651,1,2,2:2:0:0:
293,145,52813,6,0,P|251:155|236:169,1,34.9999989318848,4|0,0:0|2:0,0:0:0:0:
163,232,52976,1,2,2:2:0:0:
163,232,53057,1,0,2:0:0:0:
163,232,53138,2,0,P|175:190|170:170,1,34.9999989318848,8|0,1:2|0:0,0:0:0:0:
152,75,53300,1,2,0:2:0:0:
152,75,53381,1,8,0:0:0:0:
152,75,53462,2,0,P|181:106|201:112,1,34.9999989318848,0|2,0:0|2:0,0:0:0:0:
257,49,53624,1,8,0:0:0:0:
68,23,53786,1,8,1:2:0:0:
55,56,53867,1,0,2:0:0:0:
59,91,53948,1,2,3:2:0:0:
49,288,54111,6,0,P|88:281|108:287,1,34.9999989318848,4|0,0:0|2:0,0:0:0:0:
163,331,54273,1,2,2:2:0:0:
163,331,54354,1,0,2:0:0:0:
163,331,54435,2,0,P|202:338|222:332,1,34.9999989318848,8|0,1:2|0:0,0:0:0:0:
277,288,54597,1,2,0:2:0:0:
277,288,54678,1,8,0:0:0:0:
277,288,54759,2,0,P|316:281|336:287,1,34.9999989318848,0|2,0:0|2:0,0:0:0:0:
383,328,54921,1,8,0:0:0:0:
263,123,55084,5,8,1:2:0:0:
203,348,55246,1,2,1:2:0:0:
369,215,55408,1,4,0:0:0:0:
256,192,55489,12,8,56381,0:2:0:0:
121,5,56705,5,4,2:3:0:0:
75,25,56813,1,0,2:0:0:0:
64,62,56921,1,0,2:0:0:0:
92,96,57029,1,8,1:2:0:0:
119,130,57138,1,0,2:3:0:0:
109,165,57246,1,0,2:3:0:0:
67,189,57354,1,4,2:3:0:0:
26,212,57461,1,0,2:3:0:0:
17,249,57569,1,0,2:3:0:0:
42,282,57678,2,0,L|136:290,1,69.9999978637696,8|0,1:2|2:0,0:0:0:0:
237,366,58003,5,4,0:0:0:0:
67,381,58165,1,0,2:0:0:0:
337,270,58489,5,0,2:0:0:0:
507,285,58651,1,4,0:0:0:0:
237,174,58976,5,8,0:2:0:0:
67,189,59138,1,0,2:0:0:0:
337,78,59462,5,0,2:0:0:0:
507,93,59624,1,8,0:2:0:0:
337,270,59949,6,0,L|329:357,1,69.9999978637696,4|0,0:0|2:0,0:0:0:0:
237,174,60273,2,0,L|229:86,1,69.9999978637696,8|0,1:2|2:0,0:0:0:0:
482,295,60597,5,4,0:0:0:0:
444,260,60705,1,0,2:0:0:0:
390,248,60813,1,0,2:0:0:0:
337,270,60922,5,10,1:2:0:0:
299,305,61030,1,0,2:0:0:0:
245,317,61138,1,0,2:0:0:0:
192,295,61246,5,4,0:0:0:0:
190,341,61354,1,0,2:0:0:0:
188,388,61462,1,0,2:0:0:0:
120,343,61570,5,10,1:2:0:0:
118,296,61678,1,0,3:0:0:0:
116,249,61786,1,0,2:2:0:0:
205,205,61894,5,4,0:0:0:0:
230,159,62002,1,0,2:0:0:0:
231,106,62110,1,0,2:0:0:0:
210,57,62218,1,10,1:2:0:0:
155,60,62327,1,0,2:0:0:0:
109,85,62435,1,0,2:0:0:0:
80,129,62543,5,4,0:0:0:0:
82,82,62651,1,0,2:0:0:0:
84,35,62759,1,0,2:0:0:0:
0,111,62867,5,10,1:2:0:0:
2,158,62975,1,0,2:0:0:0:
4,205,63083,1,0,1:2:0:0:
7,253,63192,6,0,L|73:258,1,52.4999983978272,4|0,0:0|0:0,0:0:0:0:
76,258,63516,1,4,0:0:0:0:
405,283,63678,2,0,L|355:279,1,50,2|2,1:3|2:0,0:0:0:0:
161,269,64165,1,8,3:0:0:0:
176,267,64246,1,8,0:0:0:0:
192,265,64327,1,4,0:0:0:0:
482,110,64489,6,0,L|416:115,1,52.4999983978272,4|0,0:0|0:0,0:0:0:0:
413,115,64813,1,4,0:0:0:0:
83,140,64976,2,0,L|132:136,1,50,2|2,1:3|2:0,0:0:0:0:
328,126,65462,1,8,0:0:0:0:
313,124,65543,1,8,0:0:0:0:
297,122,65624,1,4,0:0:0:0:
56,348,65786,6,0,L|122:343,1,52.4999983978272,4|0,0:0|0:0,0:0:0:0:
125,343,66110,1,4,0:0:0:0:
455,318,66273,2,0,L|405:321,1,50,2|0,1:3|0:0,0:0:0:0:
185,241,66597,5,4,0:0:0:0:
413,115,66759,1,8,2:3:0:0:
410,139,66840,1,8,0:0:0:0:
408,164,66921,1,4,1:3:0:0:
270,48,67084,6,0,P|318:37|353:54,1,80,4|0,1:3|0:0,0:0:0:0:
353,58,67327,2,0,L|357:8,1,50,2|0,2:2|0:0,0:0:0:0:
213,44,67570,2,0,P|254:53|284:38,1,40,4|0,0:0|0:0,0:0:0:0:
115,132,67732,6,0,P|84:128|62:135,1,50,4|0,1:3|0:0,0:0:0:0:
51,141,67976,2,0,L|59:55,1,80,2|0,2:2|0:0,0:0:0:0:
162,131,68219,2,0,P|134:134|124:128,1,25,4|0,3:3|0:0,0:0:0:0:
24,227,68381,6,0,L|33:331,1,100,4|0,0:0|1:0,0:0:0:0:
221,326,68867,5,2,3:2:0:0:
236,344,68948,1,0,0:0:0:0:
258,356,69029,1,2,3:2:0:0:
317,300,69354,5,2,3:2:0:0:
342,295,69435,1,0,0:0:0:0:
363,283,69516,1,2,3:2:0:0:
344,204,69841,5,2,3:2:0:0:
352,178,69922,1,0,0:0:0:0:
352,154,70003,1,2,3:2:0:0:
274,132,70327,5,2,3:2:0:0:
258,113,70408,1,0,0:0:0:0:
237,101,70489,1,2,3:2:0:0:
133,143,70813,5,8,0:0:0:0:
426,36,70976,2,0,L|320:26,1,100,4|0,0:2|1:2,0:0:0:0:
71,56,71462,5,2,3:2:0:0:
68,31,71543,1,0,0:0:0:0:
66,6,71624,1,2,3:2:0:0:
33,148,71949,5,2,3:2:0:0:
18,127,72030,1,0,0:0:0:0:
4,107,72111,1,2,3:2:0:0:
46,246,72435,5,2,3:2:0:0:
22,235,72516,1,0,0:0:0:0:
0,225,72597,1,2,3:2:0:0:
106,324,72922,5,2,3:2:0:0:
79,326,73003,1,0,0:0:0:0:
55,329,73084,1,2,3:2:0:0:
267,250,73408,5,8,0:0:0:0:
132,156,73570,2,0,L|33:148,1,100,4|0,0:1|1:0,0:0:0:0:
267,250,74057,5,4,3:0:0:0:
271,222,74219,1,0,1:0:0:0:
330,128,74543,5,0,1:0:0:0:
334,156,74705,1,2,2:0:0:0:
393,250,75030,5,2,2:0:0:0:
397,222,75192,1,0,1:0:0:0:
456,128,75516,5,4,0:0:0:0:
505,266,75840,6,0,L|482:204,1,50,4|4,0:0|0:3,0:0:0:0:
418,0,76165,6,0,L|395:62,1,50,6|8,3:2|0:0,0:0:0:0:
307,179,76489,5,4,0:0:0:0:
380,0,76651,1,8,0:0:0:0:
271,181,76813,5,4,0:0:0:0:
344,2,76975,1,8,0:0:0:0:
235,183,77138,5,4,0:0:0:0:
309,4,77300,1,8,0:0:0:0:
6,32,77462,6,0,L|29:94,1,50,4|2,1:2|2:2,0:0:0:0:
156,271,77786,5,4,0:0:0:0:
57,34,77948,1,2,2:0:0:0:
200,272,78110,5,8,0:0:0:0:
105,38,78272,1,2,2:0:0:0:
246,274,78435,5,4,0:0:0:0:
150,40,78597,1,2,2:0:0:0:
503,118,78759,6,0,L|485:164,1,50,4|8,0:2|1:3,0:0:0:0:
354,358,79084,5,4,0:0:0:0:
451,117,79246,1,8,1:3:0:0:
308,358,79408,5,4,0:0:0:0:
403,120,79570,1,8,1:3:0:0:
261,360,79733,5,4,0:0:0:0:
358,123,79895,1,8,1:3:0:0:
152,297,80057,6,0,L|198:279,1,50,4|8,0:2|2:3,0:0:0:0:
451,117,80381,5,4,0:0:0:0:
154,236,80543,1,8,2:3:0:0:
452,59,80705,5,4,0:0:0:0:
157,176,80867,1,8,2:3:0:0:
454,1,81030,5,4,0:0:0:0:
163,120,81192,1,8,2:3:0:0:
346,0,81354,5,4,1:2:0:0:
334,18,81435,1,4,0:0:0:0:
320,33,81516,1,4,0:0:0:0:
303,46,81597,1,4,0:0:0:0:
283,55,81678,1,4,2:3:0:0:
263,61,81759,1,4,0:0:0:0:
243,62,81840,1,4,0:0:0:0:
222,59,81921,1,4,0:3:0:0:
207,48,82003,5,4,0:0:0:0:
235,15,82084,1,4,0:0:0:0:
280,0,82165,1,4,0:3:0:0:
325,10,82246,1,4,0:0:0:0:
356,41,82327,1,4,2:3:0:0:
368,87,82408,1,4,0:0:0:0:
355,130,82489,1,4,0:0:0:0:
322,164,82570,1,4,0:0:0:0:
277,170,82652,5,4,0:0:0:0:
236,194,82733,1,4,0:0:0:0:
215,234,82814,1,4,0:0:0:0:
219,281,82895,1,4,0:0:0:0:
245,317,82976,1,4,2:3:0:0:
285,334,83057,1,4,0:0:0:0:
330,331,83138,1,4,0:0:0:0:
370,302,83219,1,4,0:0:0:0:
384,262,83300,1,4,0:0:0:0:
374,213,83381,1,4,0:0:0:0:
337,174,83462,1,4,0:0:0:0:
285,334,83624,5,14,1:2:0:0:
0,14,83949,5,4,0:3:0:0:
20,4,84030,1,0,2:3:0:0:
43,0,84111,1,0,2:3:0:0:
67,2,84192,1,4,0:0:0:0:
88,11,84273,1,0,2:3:0:0:
106,25,84354,1,0,2:3:0:0:
120,44,84435,1,4,1:3:0:0:
176,106,84597,5,4,0:0:0:0:
190,125,84678,1,0,2:0:0:0:
207,138,84759,1,0,2:0:0:0:
229,148,84840,1,4,0:0:0:0:
253,150,84921,1,0,2:0:0:0:
276,146,85002,1,0,2:0:0:0:
296,136,85083,1,4,1:3:0:0:
364,93,85246,5,4,0:0:0:0:
384,83,85327,1,0,2:0:0:0:
407,79,85408,1,0,2:0:0:0:
431,81,85489,1,4,0:0:0:0:
452,90,85570,1,0,2:0:0:0:
470,104,85651,1,0,2:0:0:0:
486,125,85732,1,4,1:3:0:0:
484,142,85813,1,0,0:0:0:0:
483,159,85894,5,2,1:3:0:0:
374,179,86057,1,4,0:0:0:0:
431,276,86219,5,2,2:0:0:0:
321,295,86382,1,12,2:3:0:0:
250,65,86543,6,0,L|255:7,1,34.9999989318848,4|0,0:0|2:3,0:0:0:0:
176,106,86705,1,0,2:3:0:0:
178,132,86786,1,0,2:3:0:0:
180,158,86867,1,10,1:2:0:0:
182,184,86948,1,0,2:3:0:0:
185,210,87029,1,2,2:2:0:0:
61,365,87192,6,0,L|95:361,1,34.9999989318848,2|0,1:3|0:0,0:0:0:0:
91,262,87354,1,4,2:3:0:0:
91,262,87435,2,0,L|117:284,1,34.9999989318848,2|0,1:3|0:0,0:0:0:0:
185,210,87597,1,4,2:3:0:0:
185,210,87678,2,0,L|188:244,1,34.9999989318848,2|0,1:3|0:0,0:0:0:0:
309,274,87840,6,0,L|359:269,1,34.9999989318848,4|0,0:0|2:0,0:0:0:0:
314,370,88003,1,0,2:0:0:0:
287,367,88084,1,0,2:0:0:0:
261,365,88165,1,8,1:2:0:0:
235,363,88246,1,0,2:0:0:0:
209,360,88327,1,2,2:0:0:0:
51,375,88489,6,0,L|90:372,1,34.9999989318848,2|0,1:3|0:0,0:0:0:0:
85,262,88651,1,4,2:3:0:0:
85,262,88732,2,0,L|114:287,1,34.9999989318848,2|0,1:3|0:0,0:0:0:0:
188,205,88894,1,4,2:3:0:0:
188,205,88975,2,0,L|191:243,1,34.9999989318848,2|0,1:3|0:0,0:0:0:0:
326,279,89138,6,0,L|376:274,1,34.9999989318848,4|0,0:0|2:0,0:0:0:0:
308,356,89300,1,0,2:3:0:0:
279,352,89381,1,0,2:3:0:0:
252,350,89462,1,8,1:2:0:0:
224,348,89543,1,0,2:3:0:0:
197,345,89624,1,2,2:0:0:0:
261,128,89786,5,4,0:0:0:0:
308,356,89949,1,2,2:0:0:0:
348,9,90111,5,8,0:2:0:0:
301,237,90274,1,2,2:0:0:0:
173,106,90435,6,0,P|209:55|239:44,1,69.9999978637696,4|8,0:0|0:0,0:0:0:0:
389,162,90759,1,4,0:0:0:0:
188,205,90921,1,0,2:0:0:0:
188,205,91003,2,0,L|128:199,1,34.9999989318848,0|0,1:3|0:0,0:0:0:0:
74,195,91165,2,0,L|14:189,1,34.9999989318848,0|0,1:3|0:0,0:0:0:0:
131,290,91327,1,8,2:3:0:0:
131,290,91409,2,0,L|190:284,1,34.9999989318848,4|0,0:0|0:0,0:0:0:0:
245,280,91571,2,0,L|304:274,1,34.9999989318848,8|0,1:2|0:0,0:0:0:0:
489,368,91732,5,4,0:0:0:0:
465,365,91813,1,0,2:3:0:0:
442,363,91894,1,0,2:3:0:0:
419,361,91975,1,4,0:0:0:0:
396,359,92056,1,0,2:3:0:0:
372,357,92137,1,0,2:3:0:0:
349,355,92218,1,2,1:0:0:0:
279,276,92381,5,4,0:0:0:0:
302,273,92462,1,0,2:3:0:0:
325,271,92543,1,0,2:3:0:0:
348,269,92624,1,4,0:0:0:0:
371,267,92705,1,0,2:3:0:0:
395,265,92786,1,0,2:3:0:0:
418,263,92867,1,2,1:0:0:0:
498,183,93030,5,4,0:0:0:0:
475,180,93111,1,0,2:3:0:0:
452,178,93192,1,0,2:3:0:0:
429,176,93273,1,4,0:0:0:0:
406,174,93354,1,0,2:3:0:0:
382,172,93435,1,0,2:3:0:0:
359,170,93516,1,2,1:0:0:0:
336,168,93597,1,8,0:0:0:0:
312,166,93678,5,0,1:0:0:0:
364,3,93840,1,2,2:0:0:0:
279,276,94003,5,8,1:3:0:0:
227,113,94165,1,4,3:0:0:0:
155,206,94327,6,0,L|222:200,1,34.9999989318848,4|0,0:0|2:0,0:0:0:0:
75,143,94489,1,0,2:0:0:0:
56,172,94570,1,0,2:0:0:0:
49,206,94651,1,8,1:2:0:0:
55,240,94732,1,0,2:0:0:0:
73,270,94813,1,2,2:0:0:0:
151,240,94976,6,0,L|154:205,1,34.9999989318848,2|0,1:0|0:0,0:0:0:0:
198,318,95138,1,4,3:0:0:0:
198,318,95219,2,0,L|201:352,1,34.9999989318848,2|0,1:0|0:0,0:0:0:0:
279,276,95381,1,4,3:0:0:0:
279,276,95462,2,0,L|282:241,1,34.9999989318848,2|0,1:0|0:0,0:0:0:0:
360,318,95624,2,0,L|363:352,1,34.9999989318848,4|0,0:0|2:0,0:0:0:0:
449,282,95786,1,0,2:0:0:0:
451,255,95867,1,0,2:0:0:0:
453,229,95948,1,8,1:2:0:0:
456,203,96029,1,0,2:0:0:0:
458,177,96111,2,0,L|463:118,1,34.9999989318848,2|0,2:0|2:0,0:0:0:0:
365,20,96273,6,0,L|371:93,1,69.9999978637696,4|0,0:0|2:0,0:0:0:0:
274,26,96597,2,0,L|280:99,1,69.9999978637696,8|0,1:2|2:0,0:0:0:0:
177,32,96921,1,10,1:3:0:0:
40,82,97084,5,8,2:3:0:0:
43,105,97165,1,8,2:3:0:0:
45,128,97246,1,4,2:3:0:0:
47,151,97327,1,4,0:0:0:0:
49,174,97408,1,4,0:0:0:0:
51,198,97489,1,4,0:0:0:0:
54,221,97570,6,0,L|-15:227,1,46.6666652425131,4|0,1:3|0:0,0:0:0:0:
141,178,97786,2,0,L|170:115,1,46.6666652425131,8|0,0:0|0:1,0:0:0:0:
134,274,98003,2,0,L|173:330,1,46.6666652425131,8|0,0:0|0:0,0:0:0:0:
61,234,98219,6,0,L|-18:240,1,46.6666652425131,4|0,1:3|0:0,0:0:0:0:
161,185,98435,2,0,L|194:113,1,46.6666652425131,8|0,0:0|0:0,0:0:0:0:
153,295,98652,2,0,L|198:359,1,46.6666652425131,8|0,0:0|0:0,0:0:0:0:
69,243,98867,6,0,L|13:247,1,34.9999989318848,4|0,1:3|0:0,0:0:0:0:
182,187,99030,1,2,2:0:0:0:
182,187,99111,2,0,L|206:134,1,34.9999989318848,4|0,0:0|0:0,0:0:0:0:
173,311,99273,1,2,2:0:0:0:
173,311,99354,2,0,L|205:357,1,34.9999989318848,4|0,0:0|0:0,0:0:0:0:
271,257,99516,5,0,1:0:0:0:
407,272,99678,1,2,3:2:0:0:
450,276,99759,1,0,0:0:0:0:
494,280,99840,1,4,0:0:0:0:
271,257,100003,5,8,1:3:0:0:
403,224,100165,1,2,3:2:0:0:
445,213,100246,1,0,0:0:0:0:
488,202,100327,1,4,0:0:0:0:
271,257,100489,5,8,1:3:0:0:
383,180,100651,1,2,3:2:0:0:
419,156,100732,1,0,0:0:0:0:
456,131,100813,1,12,2:3:0:0:
271,257,100976,5,8,1:3:0:0:
349,146,101138,1,2,3:2:0:0:
375,111,101219,1,0,0:0:0:0:
401,75,101300,1,4,3:0:0:0:
271,257,101462,5,8,1:2:0:0:
306,126,101624,1,2,3:2:0:0:
318,84,101705,1,0,0:0:0:0:
330,41,101786,6,0,L|346:-18,1,34.9999989318848,2|0,1:0|0:0,0:0:0:0:
168,123,102111,2,0,L|184:182,1,34.9999989318848,4|0,0:0|0:0,0:0:0:0:
271,257,102273,5,8,2:3:0:0:
245,242,102354,1,8,2:3:0:0:
217,234,102435,1,4,2:3:0:0:
188,233,102516,1,4,2:3:0:0:
160,238,102597,1,8,2:3:0:0:
133,250,102678,1,8,2:3:0:0:
112,267,102759,6,0,L|116:207,1,46.6666652425131,4|0,0:0|0:0,0:0:0:0:
267,303,102976,2,0,L|271:243,1,46.6666652425131,8|0,0:0|1:0,0:0:0:0:
422,339,103192,2,0,L|426:279,1,46.6666652425131,4|0,0:0|0:0,0:0:0:0:
122,279,103408,6,0,L|126:219,1,46.6666652425131,4|0,0:3|0:0,0:0:0:0:
277,315,103625,2,0,L|281:255,1,46.6666652425131,4|0,0:0|1:0,0:0:0:0:
432,351,103841,2,0,L|436:291,1,46.6666652425131,8|0,0:0|0:0,0:0:0:0:
132,291,104056,6,0,L|136:231,1,34.9999989318848,2|0,1:0|0:0,0:0:0:0:
287,327,104219,1,8,2:3:0:0:
287,327,104300,2,0,L|291:267,1,34.9999989318848,2|0,1:0|0:0,0:0:0:0:
442,363,104462,1,8,2:3:0:0:
442,363,104543,2,0,L|446:303,1,34.9999989318848,2|0,1:0|0:0,0:0:0:0:
438,221,104705,5,6,1:3:0:0:
318,188,104867,1,2,3:2:0:0:
284,184,104948,1,0,0:0:0:0:
250,191,105029,1,8,2:3:0:0:
438,221,105192,5,6,1:3:0:0:
337,149,105354,1,2,3:2:0:0:
306,133,105435,1,0,0:0:0:0:
271,128,105516,1,8,2:3:0:0:
438,221,105678,5,2,1:3:0:0:
367,118,105840,1,2,3:2:0:0:
344,93,105921,1,0,0:0:0:0:
312,76,106002,1,8,2:3:0:0:
438,221,106165,5,6,1:3:0:0:
406,99,106327,1,2,3:2:0:0:
393,68,106408,1,0,0:0:0:0:
369,41,106489,1,8,2:3:0:0:
438,221,106651,5,6,1:3:0:0:
449,95,106813,1,2,3:2:0:0:
448,61,106894,1,0,0:0:0:0:
434,28,106976,2,0,P|417:6|398:-5,1,34.9999989318848,2|0,1:0|0:0,0:0:0:0:
194,90,107300,6,0,P|211:68|230:57,1,34.9999989318848,4|0,0:0|0:0,0:0:0:0:
302,108,107462,1,8,2:3:0:0:
304,137,107543,1,8,2:3:0:0:
307,166,107624,1,4,2:3:0:0:
309,195,107705,1,4,2:3:0:0:
312,224,107786,1,8,2:3:0:0:
314,253,107867,1,8,2:3:0:0:
317,282,107949,6,0,L|255:276,1,46.6666652425131,4|0,0:0|0:0,0:0:0:0:
163,363,108165,2,0,L|198:312,1,46.6666652425131,4|8,0:0|1:2,0:0:0:0:
169,189,108381,2,0,L|195:245,1,46.6666652425131,4|0,0:0|0:0,0:0:0:0:
324,311,108597,6,0,L|257:287,1,46.6666652425131,4|0,0:0|0:0,0:0:0:0:
133,354,108813,2,0,L|186:309,1,46.6666652425131,4|8,0:0|1:2,0:0:0:0:
190,167,109029,2,0,L|202:236,1,46.6666652425131,4|0,0:0|0:0,0:0:0:0:
316,354,109246,6,0,L|271:323,1,34.9999989318848,4|0,0:0|0:0,0:0:0:0:
106,346,109408,1,0,1:0:0:0:
106,346,109489,2,0,L|161:320,1,34.9999989318848,6|0,0:3|0:0,0:0:0:0:
218,168,109651,1,0,1:0:0:0:
218,168,109732,2,0,L|212:227,1,34.9999989318848,6|0,0:0|0:0,0:0:0:0:
123,162,109894,5,10,1:2:0:0:
317,155,110057,1,2,3:2:0:0:
292,119,110138,1,0,0:0:0:0:
255,98,110219,1,4,3:3:0:0:
153,82,110381,5,10,1:2:0:0:
346,166,110544,1,2,3:2:0:0:
337,115,110625,1,0,0:0:0:0:
309,76,110706,1,4,3:3:0:0:
215,24,110867,5,10,1:2:0:0:
366,188,111030,1,2,3:2:0:0:
382,137,111111,1,0,0:0:0:0:
370,84,111192,1,4,3:0:0:0:
296,0,111354,5,10,1:2:0:0:
373,216,111516,1,2,3:2:0:0:
411,172,111597,1,0,0:0:0:0:
425,116,111678,1,4,3:0:0:0:
380,6,111840,5,10,1:2:0:0:
367,245,112003,1,2,3:2:0:0:
425,219,112084,1,0,0:0:0:0:
464,169,112165,6,0,P|484:150|500:120,1,52.4999983978272,2|0,1:0|0:0,0:0:0:0:
474,309,112489,2,0,P|453:302|427:303,1,34.9999989318848,2|0,3:0|0:0,0:0:0:0:
324,344,112651,5,8,2:3:0:0:
294,345,112732,1,8,2:3:0:0:
266,338,112813,1,8,2:3:0:0:
241,324,112894,1,8,2:3:0:0:
220,304,112975,1,8,2:3:0:0:
205,279,113056,1,8,2:3:0:0:
200,251,113138,6,0,L|204:202,1,46.6666652425131,4|0,1:3|0:0,0:0:0:0:
34,131,113354,2,0,L|73:158,1,46.6666652425131,8|0,0:0|2:0,0:0:0:0:
220,47,113570,2,0,L|177:67,1,46.6666652425131,4|0,0:0|0:0,0:0:0:0:
208,267,113786,6,0,L|190:229,1,39.6666658798218,10|0,1:2|0:0,0:0:0:0:
35,249,114003,2,0,L|75:252,1,39.6666658798218,4|0,0:0|0:0,0:0:0:0:
136,108,114218,2,0,L|113:141,1,39.6666658798218,8|0,0:0|0:0,0:0:0:0:
221,285,114435,6,0,L|192:265,1,24.4999997756958,2|0,1:0|0:0,0:0:0:0:
90,343,114597,1,2,2:0:0:0:
90,343,114678,2,0,L|120:329,1,24.4999997756958,2|0,1:0|0:0,0:0:0:0:
104,201,114840,1,2,2:0:0:0:
104,201,114921,2,0,L|101:234,1,24.4999997756958,2|0,1:0|0:0,0:0:0:0:
314,220,115084,5,4,0:0:0:0:
293,222,115165,1,8,0:0:0:0:
273,224,115246,1,8,0:0:0:0:
252,226,115327,1,4,0:0:0:0:
232,228,115408,1,8,0:0:0:0:
212,229,115489,1,8,0:0:0:0:
191,231,115570,1,8,1:2:0:0:
405,184,115732,5,4,0:0:0:0:
387,173,115813,1,8,0:0:0:0:
371,161,115894,1,8,0:0:0:0:
353,149,115975,1,4,0:0:0:0:
337,138,116056,1,8,0:0:0:0:
321,126,116137,1,8,0:0:0:0:
303,114,116218,1,8,1:2:0:0:
497,215,116381,5,4,0:0:0:0:
491,195,116462,1,8,0:0:0:0:
486,176,116543,1,8,0:0:0:0:
480,155,116624,1,4,0:0:0:0:
475,136,116705,1,8,0:0:0:0:
470,117,116786,1,8,0:0:0:0:
464,96,116867,1,8,1:2:0:0:
195,114,117030,5,4,0:0:0:0:
242,328,117192,1,4,3:0:0:0:
265,12,117354,5,4,0:0:0:0:
312,226,117516,1,4,0:0:0:0:
78,23,117678,5,4,0:0:0:0:
45,23,117759,1,4,0:0:0:0:
18,42,117840,1,4,0:0:0:0:
7,72,117921,1,10,1:2:0:0:
15,104,118002,1,4,0:0:0:0:
40,125,118083,1,4,0:0:0:0:
72,129,118164,1,2,2:1:0:0:
72,129,118327,5,4,0:0:0:0:
104,134,118408,1,4,0:0:0:0:
130,154,118489,1,4,0:0:0:0:
138,187,118570,1,10,1:2:0:0:
126,216,118651,1,4,0:0:0:0:
99,235,118732,1,4,0:0:0:0:
66,235,118813,1,2,2:1:0:0:
66,235,118976,5,4,0:0:0:0:
29,248,119057,1,4,0:0:0:0:
8,277,119138,1,4,0:0:0:0:
9,314,119219,1,10,1:2:0:0:
30,343,119300,1,4,0:0:0:0:
67,356,119381,1,4,0:0:0:0:
101,346,119462,1,2,2:1:0:0:
122,324,119543,1,8,0:0:0:0:
127,290,119624,5,6,0:3:0:0:
326,373,119786,1,4,3:0:0:0:
292,228,119949,5,4,3:0:0:0:
490,310,120111,1,4,3:0:0:0:
433,43,120273,5,4,0:0:0:0:
453,88,120354,1,8,0:0:0:0:
441,135,120435,1,8,0:0:0:0:
400,166,120516,1,4,1:3:0:0:
350,159,120597,1,8,0:0:0:0:
314,122,120678,1,8,0:0:0:0:
311,71,120759,1,2,1:0:0:0:
436,34,120921,5,4,0:0:0:0:
462,84,121002,1,8,0:0:0:0:
446,139,121083,1,8,0:0:0:0:
401,170,121164,1,4,1:3:0:0:
344,162,121245,1,8,0:0:0:0:
308,123,121326,1,8,0:0:0:0:
304,68,121407,1,2,1:0:0:0:
437,17,121570,5,4,0:0:0:0:
464,58,121651,1,8,0:0:0:0:
467,106,121732,1,8,0:0:0:0:
445,149,121813,1,4,1:3:0:0:
401,173,121894,1,8,0:0:0:0:
353,172,121975,1,8,0:0:0:0:
312,148,122056,1,2,1:0:0:0:
290,102,122137,1,4,0:0:0:0:
296,55,122218,5,2,1:0:0:0:
207,351,122380,1,2,1:0:0:0:
159,78,122543,5,2,1:0:0:0:
65,370,122705,1,2,1:0:0:0:
349,332,122867,5,2,2:0:0:0:
256,192,123192,12,2,125462,0:2:0:0:
