osu file format v14

[General]
AudioFilename: audio.mp3
AudioLeadIn: 0
PreviewTime: 95726
Countdown: 0
SampleSet: Normal
StackLeniency: 0.7
Mode: 1
LetterboxInBreaks: 0
WidescreenStoryboard: 0

[Editor]
DistanceSpacing: 1
BeatDivisor: 4
GridSize: 8
TimelineZoom: 1.8

[Metadata]
Title:I Just Wanna Tell You
TitleUnicode:I Just Wanna Tell You
Artist:MASA, Mari Yoshida, Kosuke Mizukami
ArtistUnicode:MASA, Mari Yoshida, Kosuke Mizukami
Creator:Aloda
Version:Muzukashii
Source:DEAD OR ALIVE Xtreme3
Tags:デッド オア アライブ エクストリーム3 フォーチュン ヴィーナス fortune venus doax3 Nyotengu's Theme 女天狗
BeatmapID:1319420
BeatmapSetID:621596

[Difficulty]
HPDrainRate:5
CircleSize:2
OverallDifficulty:4.5
ApproachRate:7
SliderMultiplier:1.4
SliderTickRate:3

[Events]
//Background and Video events
0,0,"beach-sunset-6.jpg",0,0
//Break Periods
//Storyboard Layer 0 (Background)
//Storyboard Layer 1 (Fail)
//Storyboard Layer 2 (Pass)
//Storyboard Layer 3 (Foreground)
//Storyboard Sound Samples

[TimingPoints]
196.906112823997,508.474576271186,4,1,0,40,1,0
8332,-97.0873786407767,4,1,0,40,0,0
15451,-96.1538461538461,4,1,0,40,0,0
15578,-95.2380952380952,4,1,0,40,0,0
15705,-94.3396226415094,4,1,0,40,0,0
15959,-93.4579439252336,4,1,0,40,0,0
16213,-92.5925925925926,4,1,0,40,0,0
16340,-91.743119266055,4,1,0,40,0,0
16468,-90.9090909090909,4,1,0,40,0,0
97569,-86.9565217391304,4,1,0,40,0,0
97824,-86.9565217391304,4,1,0,50,0,1
112061,-87.719298245614,4,1,0,50,0,1
112569,-88.4955752212389,4,1,0,50,0,1
112951,-89.2857142857143,4,1,0,50,0,1
113586,-90.0900900900901,4,1,0,50,0,1
114095,-90.9090909090909,4,1,0,40,0,0
178925,-86.9565217391304,4,1,0,40,0,0
179179,-86.9565217391304,4,1,0,50,0,1
193417,-86.9565217391304,4,1,0,40,0,0
194434,-89.2857142857143,4,1,0,40,0,0
194688,-91.743119266055,4,1,0,40,0,0
194942,-94.3396226415094,4,1,0,40,0,0
195196,-97.0873786407767,4,1,0,40,0,0
195451,-100,4,1,0,40,0,0
211722,-97.0873786407767,4,1,0,40,0,0
213756,-95.2380952380952,4,1,0,40,0,0
215663,-93.4579439252336,4,1,0,40,0,0
217569,-91.743119266055,4,1,0,40,0,0
219603,-90.9090909090909,4,1,0,40,0,0
219857,-89.2857142857143,4,1,0,40,0,0
221637,-88.4955752212389,4,1,0,40,0,0
221891,-86.9565217391304,4,1,0,40,0,0
225959,-86.9565217391304,4,1,0,40,0,0
227993,-86.9565217391304,4,1,0,40,0,1
242230,-86.9565217391304,4,1,0,40,0,0

[HitObjects]
256,192,196,5,0,0:0:0:0:
256,192,578,1,0,0:0:0:0:
256,192,959,1,0,0:0:0:0:
256,192,2230,1,8,0:0:0:0:
256,192,2612,1,8,0:0:0:0:
256,192,2993,1,8,0:0:0:0:
256,192,3756,1,0,0:0:0:0:
256,192,4137,1,0,0:0:0:0:
256,192,4264,1,0,0:0:0:0:
256,192,4646,1,0,0:0:0:0:
256,192,5027,1,0,0:0:0:0:
256,192,6298,1,8,0:0:0:0:
256,192,6679,1,8,0:0:0:0:
256,192,7061,1,8,0:0:0:0:
256,192,8332,1,0,0:0:0:0:
256,192,8713,1,0,0:0:0:0:
256,192,8840,1,0,0:0:0:0:
256,192,9095,1,8,0:0:0:0:
256,192,9476,1,0,0:0:0:0:
256,192,9603,1,0,0:0:0:0:
256,192,9857,1,8,0:0:0:0:
256,192,10366,1,8,0:0:0:0:
256,192,10747,1,0,0:0:0:0:
256,192,10874,1,0,0:0:0:0:
256,192,11129,1,8,0:0:0:0:
256,192,11510,1,0,0:0:0:0:
256,192,11637,1,0,0:0:0:0:
256,192,11891,1,8,0:0:0:0:
256,192,12400,1,0,0:0:0:0:
256,192,12781,1,0,0:0:0:0:
256,192,12908,1,0,0:0:0:0:
256,192,13163,1,8,0:0:0:0:
256,192,13544,1,0,0:0:0:0:
256,192,13671,1,0,0:0:0:0:
256,192,13925,1,8,0:0:0:0:
256,192,14434,1,0,0:0:0:0:
256,192,14815,1,8,0:0:0:0:
256,192,14942,1,8,0:0:0:0:
256,192,15196,1,0,0:0:0:0:
256,192,15451,1,8,0:0:0:0:
256,192,15578,1,8,0:0:0:0:
256,192,15705,1,8,0:0:0:0:
256,192,15959,1,8,0:0:0:0:
256,192,16213,1,8,0:0:0:0:
256,192,16340,1,8,0:0:0:0:
256,192,16468,1,8,0:0:0:0:
256,192,16976,1,0,0:0:0:0:
256,192,17230,1,8,0:0:0:0:
256,192,17485,1,8,0:0:0:0:
256,192,17739,1,0,0:0:0:0:
256,192,17866,1,0,0:0:0:0:
256,192,17993,1,0,0:0:0:0:
256,192,18501,1,8,0:0:0:0:
256,192,19010,1,8,0:0:0:0:
256,192,19264,1,0,0:0:0:0:
256,192,19518,1,8,0:0:0:0:
256,192,19773,1,8,0:0:0:0:
256,192,19900,1,8,0:0:0:0:
256,192,20027,1,8,0:0:0:0:
256,192,20535,1,0,0:0:0:0:
256,192,21044,1,0,0:0:0:0:
256,192,21298,1,8,0:0:0:0:
256,192,21552,1,0,0:0:0:0:
256,192,21807,1,0,0:0:0:0:
256,192,21934,1,0,0:0:0:0:
256,192,22061,1,0,0:0:0:0:
256,192,22569,1,0,0:0:0:0:
256,192,23078,1,0,0:0:0:0:
256,192,23205,1,0,0:0:0:0:
256,192,23332,1,0,0:0:0:0:
256,192,23586,1,8,0:0:0:0:
256,192,23840,1,0,0:0:0:0:
256,192,24095,1,8,0:0:0:0:
256,192,24603,1,0,0:0:0:0:
256,192,25112,1,8,0:0:0:0:
256,192,25366,1,0,0:0:0:0:
256,192,25620,1,8,0:0:0:0:
256,192,25874,1,0,0:0:0:0:
256,192,26001,1,0,0:0:0:0:
256,192,26129,1,0,0:0:0:0:
256,192,26637,1,8,0:0:0:0:
256,192,27146,1,8,0:0:0:0:
256,192,27400,1,0,0:0:0:0:
256,192,27654,1,0,0:0:0:0:
256,192,27908,1,8,0:0:0:0:
256,192,28035,1,8,0:0:0:0:
256,192,28163,1,8,0:0:0:0:
256,192,28671,1,0,0:0:0:0:
256,192,29179,1,8,0:0:0:0:
256,192,29307,1,8,0:0:0:0:
256,192,29434,1,8,0:0:0:0:
256,192,29688,1,0,0:0:0:0:
256,192,29942,1,0,0:0:0:0:
256,192,30196,1,8,0:0:0:0:
256,192,30705,1,0,0:0:0:0:
256,192,30959,2,0,L|288:184,6,25.6666674499512
256,192,31722,1,8,0:0:0:0:
256,192,31849,1,8,0:0:0:0:
256,192,31976,1,8,0:0:0:0:
256,192,32230,1,8,0:0:0:0:
256,192,32485,1,8,0:0:0:0:
256,192,32612,1,8,0:0:0:0:
256,192,32739,1,8,0:0:0:0:
256,192,33247,1,8,0:0:0:0:
256,192,33501,1,0,0:0:0:0:
256,192,33629,1,0,0:0:0:0:
256,192,33756,1,0,0:0:0:0:
256,192,34010,1,0,0:0:0:0:
256,192,34264,1,0,0:0:0:0:
256,192,34518,1,0,0:0:0:0:
256,192,34773,1,8,0:0:0:0:
256,192,35281,1,8,0:0:0:0:
256,192,35535,1,0,0:0:0:0:
256,192,35663,1,0,0:0:0:0:
256,192,35790,1,0,0:0:0:0:
256,192,36044,1,0,0:0:0:0:
256,192,36298,1,8,0:0:0:0:
256,192,36807,1,0,0:0:0:0:
256,192,37315,1,8,0:0:0:0:
256,192,37442,1,8,0:0:0:0:
256,192,37569,1,8,0:0:0:0:
256,192,37824,1,0,0:0:0:0:
256,192,38078,1,8,0:0:0:0:
256,192,38205,1,8,0:0:0:0:
256,192,38332,1,8,0:0:0:0:
256,192,38840,1,0,0:0:0:0:
256,192,39095,1,8,0:0:0:0:
256,192,39349,1,8,0:0:0:0:
256,192,39603,1,0,0:0:0:0:
256,192,39857,1,0,0:0:0:0:
256,192,40112,1,8,0:0:0:0:
256,192,40239,1,8,0:0:0:0:
256,192,40366,1,8,0:0:0:0:
256,192,40874,1,0,0:0:0:0:
256,192,41383,1,0,0:0:0:0:
256,192,41637,1,8,0:0:0:0:
256,192,41764,1,8,0:0:0:0:
256,192,41891,1,8,0:0:0:0:
256,192,42146,1,0,0:0:0:0:
256,192,42400,1,8,0:0:0:0:
256,192,42908,1,8,0:0:0:0:
256,192,43417,1,8,0:0:0:0:
256,192,43671,1,0,0:0:0:0:
256,192,43798,1,0,0:0:0:0:
256,192,43925,1,0,0:0:0:0:
256,192,44179,1,8,0:0:0:0:
256,192,44434,1,0,0:0:0:0:
256,192,44942,1,0,0:0:0:0:
256,192,45451,1,0,0:0:0:0:
256,192,45578,1,0,0:0:0:0:
256,192,45705,1,0,0:0:0:0:
256,192,45959,1,8,0:0:0:0:
256,192,46213,1,0,0:0:0:0:
256,192,46340,1,0,0:0:0:0:
256,192,46468,1,0,0:0:0:0:
256,192,46722,1,0,0:0:0:0:
256,192,46976,1,12,0:0:0:0:
256,192,48501,1,8,0:0:0:0:
256,192,49010,1,4,0:0:0:0:
256,192,49518,1,0,0:0:0:0:
256,192,50027,1,0,0:0:0:0:
256,192,50281,1,0,0:0:0:0:
256,192,50535,1,8,0:0:0:0:
256,192,51044,1,0,0:0:0:0:
256,192,51552,1,8,0:0:0:0:
256,192,51807,1,0,0:0:0:0:
256,192,52061,1,8,0:0:0:0:
256,192,52569,1,8,0:0:0:0:
256,192,53078,1,8,0:0:0:0:
256,192,53586,1,0,0:0:0:0:
256,192,54095,1,0,0:0:0:0:
256,192,54349,1,0,0:0:0:0:
256,192,54603,1,8,0:0:0:0:
256,192,55112,1,0,0:0:0:0:
256,192,55620,1,8,0:0:0:0:
256,192,55874,1,0,0:0:0:0:
256,192,56129,1,0,0:0:0:0:
256,192,56383,1,8,0:0:0:0:
256,192,56637,1,8,0:0:0:0:
256,192,57146,1,4,0:0:0:0:
256,192,57654,1,0,0:0:0:0:
256,192,58163,1,0,0:0:0:0:
256,192,58417,1,0,0:0:0:0:
256,192,58671,1,8,0:0:0:0:
256,192,59179,1,0,0:0:0:0:
256,192,59688,1,0,0:0:0:0:
256,192,59942,1,0,0:0:0:0:
256,192,60196,1,8,0:0:0:0:
256,192,60451,1,0,0:0:0:0:
256,192,60705,1,8,0:0:0:0:
256,192,61213,1,8,0:0:0:0:
256,192,61722,1,0,0:0:0:0:
256,192,61976,1,8,0:0:0:0:
256,192,62230,1,8,0:0:0:0:
256,192,62739,1,8,0:0:0:0:
256,192,63247,5,0,0:0:0:0:
256,192,63756,2,0,L|288:184,6,25.6666674499512
256,192,64518,1,8,0:0:0:0:
256,192,64773,1,0,0:0:0:0:
256,192,65027,1,8,0:0:0:0:
256,192,65281,1,0,0:0:0:0:
256,192,65535,1,8,0:0:0:0:
256,192,65790,1,8,0:0:0:0:
256,192,66171,1,8,0:0:0:0:
256,192,66552,1,8,0:0:0:0:
256,192,66807,1,0,0:0:0:0:
256,192,67061,1,8,0:0:0:0:
256,192,67569,1,8,0:0:0:0:
256,192,67824,2,0,L|288:184,6,25.6666674499512
256,192,68586,1,8,0:0:0:0:
256,192,68840,1,0,0:0:0:0:
256,192,69095,1,8,0:0:0:0:
256,192,69603,1,8,0:0:0:0:
256,192,69857,1,8,0:0:0:0:
256,192,70239,1,8,0:0:0:0:
256,192,70620,1,0,0:0:0:0:
256,192,70874,1,8,0:0:0:0:
256,192,71129,1,0,0:0:0:0:
256,192,71383,1,0,0:0:0:0:
256,192,71637,1,8,0:0:0:0:
256,192,71891,1,0,0:0:0:0:
256,192,72273,1,8,0:0:0:0:
256,192,72654,1,8,0:0:0:0:
256,192,72908,1,0,0:0:0:0:
256,192,73163,1,0,0:0:0:0:
256,192,73671,1,8,0:0:0:0:
256,192,73925,1,8,0:0:0:0:
256,192,74307,1,8,0:0:0:0:
256,192,74688,1,0,0:0:0:0:
256,192,74942,1,0,0:0:0:0:
256,192,75196,1,8,0:0:0:0:
256,192,75705,1,8,0:0:0:0:
256,192,75959,2,0,L|288:184,6,25.6666674499512
256,192,76722,1,0,0:0:0:0:
256,192,76976,1,0,0:0:0:0:
256,192,77230,1,8,0:0:0:0:
256,192,77739,1,8,0:0:0:0:
256,192,77993,1,0,0:0:0:0:
256,192,78374,1,0,0:0:0:0:
256,192,78756,1,0,0:0:0:0:
256,192,79010,1,8,0:0:0:0:
256,192,79264,1,8,0:0:0:0:
256,192,79518,1,0,0:0:0:0:
256,192,80027,2,0,L|288:184,6,25.6666674499512
256,192,80790,1,8,0:0:0:0:
256,192,81044,1,0,0:0:0:0:
256,192,81298,1,0,0:0:0:0:
256,192,81552,1,0,0:0:0:0:
256,192,82061,1,8,0:0:0:0:
256,192,82315,1,0,0:0:0:0:
256,192,82442,1,0,0:0:0:0:
256,192,82569,1,0,0:0:0:0:
256,192,82824,1,8,0:0:0:0:
256,192,83078,1,8,0:0:0:0:
256,192,83332,1,0,0:0:0:0:
256,192,83586,1,0,0:0:0:0:
256,192,84095,1,8,0:0:0:0:
256,192,84349,1,8,0:0:0:0:
256,192,84476,1,8,0:0:0:0:
256,192,84603,1,8,0:0:0:0:
256,192,84857,1,0,0:0:0:0:
256,192,85112,1,0,0:0:0:0:
256,192,85620,1,0,0:0:0:0:
256,192,86129,1,0,0:0:0:0:
256,192,86256,1,0,0:0:0:0:
256,192,86383,1,0,0:0:0:0:
256,192,86637,1,8,0:0:0:0:
256,192,86891,1,0,0:0:0:0:
256,192,87018,1,0,0:0:0:0:
256,192,87146,1,0,0:0:0:0:
256,192,87654,1,0,0:0:0:0:
256,192,87908,1,8,0:0:0:0:
256,192,88163,1,8,0:0:0:0:
256,192,88417,1,0,0:0:0:0:
256,192,88671,1,0,0:0:0:0:
256,192,88925,1,8,0:0:0:0:
256,192,89052,1,8,0:0:0:0:
256,192,89179,1,8,0:0:0:0:
256,192,89688,1,0,0:0:0:0:
256,192,90196,1,0,0:0:0:0:
256,192,90451,1,8,0:0:0:0:
256,192,90578,1,8,0:0:0:0:
256,192,90705,1,8,0:0:0:0:
256,192,90959,1,0,0:0:0:0:
256,192,91213,1,8,0:0:0:0:
256,192,91722,1,8,0:0:0:0:
256,192,92230,1,8,0:0:0:0:
256,192,92485,1,0,0:0:0:0:
256,192,92612,1,0,0:0:0:0:
256,192,92739,1,0,0:0:0:0:
256,192,92993,1,8,0:0:0:0:
256,192,93247,1,0,0:0:0:0:
256,192,93756,5,0,0:0:0:0:
256,192,94010,1,8,0:0:0:0:
256,192,94264,1,0,0:0:0:0:
256,192,94518,1,8,0:0:0:0:
256,192,94773,1,0,0:0:0:0:
256,192,95027,1,8,0:0:0:0:
256,192,95281,1,0,0:0:0:0:
256,192,97569,5,0,0:0:0:0:
256,192,97824,1,8,0:0:0:0:
256,192,98205,1,8,0:0:0:0:
256,192,98586,1,8,0:0:0:0:
256,192,98968,1,8,0:0:0:0:
256,192,99349,1,8,0:0:0:0:
256,192,99603,1,0,0:0:0:0:
256,192,99857,1,8,0:0:0:0:
256,192,100239,1,8,0:0:0:0:
256,192,100620,1,8,0:0:0:0:
256,192,101001,1,8,0:0:0:0:
256,192,101383,1,8,0:0:0:0:
256,192,101637,1,0,0:0:0:0:
256,192,101891,1,8,0:0:0:0:
256,192,102273,1,8,0:0:0:0:
256,192,102654,1,8,0:0:0:0:
256,192,103035,1,8,0:0:0:0:
256,192,103417,1,8,0:0:0:0:
256,192,103671,1,0,0:0:0:0:
256,192,103925,1,8,0:0:0:0:
256,192,104307,1,8,0:0:0:0:
256,192,104688,1,8,0:0:0:0:
256,192,104815,1,8,0:0:0:0:
256,192,104942,1,8,0:0:0:0:
256,192,105196,1,8,0:0:0:0:
256,192,105451,1,0,0:0:0:0:
256,192,105705,1,0,0:0:0:0:
256,192,105959,1,8,0:0:0:0:
256,192,106340,1,8,0:0:0:0:
256,192,106722,1,8,0:0:0:0:
256,192,107103,1,8,0:0:0:0:
256,192,107485,1,8,0:0:0:0:
256,192,107739,1,0,0:0:0:0:
256,192,107993,1,8,0:0:0:0:
256,192,108374,1,8,0:0:0:0:
256,192,108756,1,8,0:0:0:0:
256,192,109137,1,8,0:0:0:0:
256,192,109518,1,8,0:0:0:0:
256,192,109773,5,0,0:0:0:0:
256,192,110027,1,8,0:0:0:0:
256,192,110281,1,0,0:0:0:0:
256,192,110408,1,0,0:0:0:0:
256,192,110535,1,0,0:0:0:0:
256,192,110790,1,0,0:0:0:0:
256,192,110917,1,0,0:0:0:0:
256,192,111044,1,0,0:0:0:0:
256,192,111298,1,0,0:0:0:0:
256,192,111425,1,0,0:0:0:0:
256,192,111552,1,0,0:0:0:0:
256,192,111807,1,0,0:0:0:0:
256,192,111934,1,0,0:0:0:0:
256,192,112061,1,0,0:0:0:0:
256,192,112442,1,0,0:0:0:0:
256,192,112824,1,0,0:0:0:0:
256,192,113078,1,8,0:0:0:0:
256,192,113332,1,8,0:0:0:0:
256,192,113586,1,0,0:0:0:0:
256,192,113840,1,8,0:0:0:0:
256,192,114095,1,0,0:0:0:0:
256,192,114603,1,8,0:0:0:0:
256,192,114857,1,0,0:0:0:0:
256,192,114985,1,0,0:0:0:0:
256,192,115112,1,0,0:0:0:0:
256,192,115366,1,8,0:0:0:0:
256,192,115874,1,0,0:0:0:0:
256,192,116129,1,8,0:0:0:0:
256,192,116637,1,0,0:0:0:0:
256,192,116891,1,8,0:0:0:0:
256,192,117018,1,8,0:0:0:0:
256,192,117146,1,8,0:0:0:0:
256,192,117654,1,8,0:0:0:0:
256,192,118163,1,0,0:0:0:0:
256,192,118671,1,0,0:0:0:0:
256,192,118925,1,8,0:0:0:0:
256,192,119052,1,8,0:0:0:0:
256,192,119179,1,8,0:0:0:0:
256,192,119434,1,8,0:0:0:0:
256,192,120196,1,0,0:0:0:0:
256,192,120705,1,0,0:0:0:0:
256,192,121086,1,0,0:0:0:0:
256,192,121468,1,0,0:0:0:0:
256,192,121722,1,8,0:0:0:0:
256,192,122230,1,0,0:0:0:0:
256,192,122739,1,8,0:0:0:0:
256,192,123247,1,0,0:0:0:0:
256,192,123374,1,0,0:0:0:0:
256,192,123501,1,0,0:0:0:0:
256,192,123756,1,8,0:0:0:0:
256,192,124264,1,0,0:0:0:0:
256,192,124773,1,8,0:0:0:0:
256,192,125027,1,0,0:0:0:0:
256,192,125154,1,0,0:0:0:0:
256,192,125281,1,0,0:0:0:0:
256,192,125535,1,0,0:0:0:0:
256,192,125790,1,8,0:0:0:0:
256,192,126298,1,0,0:0:0:0:
256,192,126807,1,8,0:0:0:0:
256,192,127061,1,8,0:0:0:0:
256,192,127188,1,8,0:0:0:0:
256,192,127315,1,8,0:0:0:0:
256,192,127569,1,0,0:0:0:0:
256,192,127824,1,8,0:0:0:0:
256,192,128332,1,0,0:0:0:0:
256,192,128840,2,0,L|288:184,6,25.6666674499512
256,192,129602,1,0,0:0:0:0:
256,192,129857,1,0,0:0:0:0:
256,192,130111,1,8,0:0:0:0:
256,192,130365,1,0,0:0:0:0:
256,192,130619,1,8,0:0:0:0:
256,192,130874,1,8,0:0:0:0:
256,192,131255,1,8,0:0:0:0:
256,192,131636,1,0,0:0:0:0:
256,192,131891,1,8,0:0:0:0:
256,192,132145,1,8,0:0:0:0:
256,192,132653,1,8,0:0:0:0:
256,192,132908,2,0,L|288:184,6,25.6666674499512
256,192,133670,1,8,0:0:0:0:
256,192,133924,1,0,0:0:0:0:
256,192,134179,1,8,0:0:0:0:
256,192,134687,1,8,0:0:0:0:
256,192,134941,1,8,0:0:0:0:
256,192,135323,1,8,0:0:0:0:
256,192,135704,1,8,0:0:0:0:
256,192,135958,1,0,0:0:0:0:
256,192,136213,1,8,0:0:0:0:
256,192,136467,1,0,0:0:0:0:
256,192,136721,1,8,0:0:0:0:
256,192,136975,1,0,0:0:0:0:
256,192,137357,1,8,0:0:0:0:
256,192,137738,1,8,0:0:0:0:
256,192,137992,1,0,0:0:0:0:
256,192,138247,1,0,0:0:0:0:
256,192,138755,1,8,0:0:0:0:
256,192,139009,1,8,0:0:0:0:
256,192,139391,1,8,0:0:0:0:
256,192,139772,1,8,0:0:0:0:
256,192,140026,1,0,0:0:0:0:
256,192,140280,1,8,0:0:0:0:
256,192,140789,1,8,0:0:0:0:
256,192,141044,2,0,L|288:184,6,25.6666674499512
256,192,141806,1,0,0:0:0:0:
256,192,142060,1,0,0:0:0:0:
256,192,142314,1,8,0:0:0:0:
256,192,142823,1,8,0:0:0:0:
256,192,143077,1,8,0:0:0:0:
256,192,143458,1,8,0:0:0:0:
256,192,143840,1,8,0:0:0:0:
256,192,144094,1,8,0:0:0:0:
256,192,144348,1,8,0:0:0:0:
256,192,144602,1,0,0:0:0:0:
256,192,145112,2,0,L|288:184,6,25.6666674499512
256,192,145874,1,8,0:0:0:0:
256,192,146128,1,0,0:0:0:0:
256,192,146382,1,0,0:0:0:0:
256,192,146636,1,0,0:0:0:0:
256,192,147146,1,0,0:0:0:0:
256,192,147400,1,8,0:0:0:0:
256,192,147527,1,8,0:0:0:0:
256,192,147654,1,8,0:0:0:0:
256,192,147908,1,0,0:0:0:0:
256,192,148162,1,8,0:0:0:0:
256,192,148416,1,0,0:0:0:0:
256,192,148671,1,8,0:0:0:0:
256,192,149179,1,8,0:0:0:0:
256,192,149433,1,0,0:0:0:0:
256,192,149560,1,0,0:0:0:0:
256,192,149687,1,0,0:0:0:0:
256,192,149941,1,8,0:0:0:0:
256,192,150196,1,0,0:0:0:0:
256,192,150704,1,0,0:0:0:0:
256,192,151213,1,0,0:0:0:0:
256,192,151340,1,0,0:0:0:0:
256,192,151468,1,0,0:0:0:0:
256,192,151721,1,8,0:0:0:0:
256,192,151975,1,0,0:0:0:0:
256,192,152102,1,0,0:0:0:0:
256,192,152230,1,0,0:0:0:0:
256,192,152738,1,0,0:0:0:0:
256,192,152992,1,8,0:0:0:0:
256,192,153247,1,8,0:0:0:0:
256,192,153501,1,0,0:0:0:0:
256,192,153756,1,0,0:0:0:0:
256,192,154009,1,8,0:0:0:0:
256,192,154136,1,8,0:0:0:0:
256,192,154264,1,8,0:0:0:0:
256,192,154772,1,0,0:0:0:0:
256,192,155281,1,0,0:0:0:0:
256,192,155536,1,8,0:0:0:0:
256,192,155663,1,8,0:0:0:0:
256,192,155790,1,8,0:0:0:0:
256,192,156044,1,0,0:0:0:0:
256,192,156298,1,8,0:0:0:0:
256,192,156553,1,0,0:0:0:0:
256,192,156807,1,8,0:0:0:0:
256,192,157315,1,0,0:0:0:0:
256,192,157570,1,0,0:0:0:0:
256,192,157697,1,0,0:0:0:0:
256,192,157824,1,0,0:0:0:0:
256,192,158078,1,8,0:0:0:0:
256,192,158332,1,0,0:0:0:0:
256,192,158840,1,0,0:0:0:0:
256,192,159349,1,8,0:0:0:0:
256,192,159476,1,8,0:0:0:0:
256,192,159603,1,8,0:0:0:0:
256,192,159857,1,0,0:0:0:0:
256,192,160112,1,8,0:0:0:0:
256,192,160239,1,8,0:0:0:0:
256,192,160366,1,8,0:0:0:0:
256,192,160874,1,8,0:0:0:0:
256,192,161129,1,0,0:0:0:0:
256,192,161383,1,0,0:0:0:0:
256,192,161637,1,8,0:0:0:0:
256,192,161891,1,8,0:0:0:0:
256,192,162146,1,0,0:0:0:0:
256,192,162273,1,0,0:0:0:0:
256,192,162400,1,0,0:0:0:0:
256,192,162908,1,0,0:0:0:0:
256,192,163417,1,8,0:0:0:0:
256,192,163671,1,8,0:0:0:0:
256,192,163798,1,8,0:0:0:0:
256,192,163925,1,8,0:0:0:0:
256,192,164179,1,0,0:0:0:0:
256,192,164434,1,8,0:0:0:0:
256,192,164688,1,0,0:0:0:0:
256,192,164942,1,8,0:0:0:0:
256,192,165451,1,8,0:0:0:0:
256,192,165705,1,0,0:0:0:0:
256,192,165832,1,0,0:0:0:0:
256,192,165959,1,0,0:0:0:0:
256,192,166213,1,8,0:0:0:0:
256,192,166468,1,0,0:0:0:0:
256,192,166976,1,0,0:0:0:0:
256,192,167485,1,8,0:0:0:0:
256,192,167612,1,8,0:0:0:0:
256,192,167739,1,8,0:0:0:0:
256,192,167993,1,0,0:0:0:0:
256,192,168247,1,8,0:0:0:0:
256,192,168374,1,8,0:0:0:0:
256,192,168501,1,8,0:0:0:0:
256,192,169010,1,0,0:0:0:0:
256,192,169264,1,8,0:0:0:0:
256,192,169518,1,8,0:0:0:0:
256,192,169773,1,0,0:0:0:0:
256,192,170027,1,8,0:0:0:0:
256,192,170281,1,0,0:0:0:0:
256,192,170408,1,0,0:0:0:0:
256,192,170535,1,0,0:0:0:0:
256,192,171044,5,0,0:0:0:0:
256,192,171552,1,0,0:0:0:0:
256,192,171807,1,8,0:0:0:0:
256,192,171934,1,8,0:0:0:0:
256,192,172061,1,8,0:0:0:0:
256,192,172315,1,0,0:0:0:0:
256,192,172569,1,8,0:0:0:0:
256,192,172824,1,0,0:0:0:0:
256,192,173078,1,8,0:0:0:0:
256,192,173586,1,0,0:0:0:0:
256,192,173840,1,0,0:0:0:0:
256,192,173968,1,0,0:0:0:0:
256,192,174095,1,0,0:0:0:0:
256,192,174349,1,8,0:0:0:0:
256,192,174603,1,0,0:0:0:0:
256,192,175112,1,8,0:0:0:0:
256,192,175366,1,0,0:0:0:0:
256,192,175620,1,8,0:0:0:0:
256,192,175874,1,0,0:0:0:0:
256,192,176129,1,8,0:0:0:0:
256,192,176383,1,0,0:0:0:0:
256,192,176637,1,8,0:0:0:0:
256,192,178925,1,0,0:0:0:0:
256,192,179179,1,8,0:0:0:0:
256,192,179561,1,8,0:0:0:0:
256,192,179942,1,8,0:0:0:0:
256,192,180324,1,8,0:0:0:0:
256,192,180705,1,8,0:0:0:0:
256,192,180959,1,0,0:0:0:0:
256,192,181213,1,8,0:0:0:0:
256,192,181595,1,8,0:0:0:0:
256,192,181976,1,8,0:0:0:0:
256,192,182357,1,8,0:0:0:0:
256,192,182739,1,8,0:0:0:0:
256,192,182993,1,0,0:0:0:0:
256,192,183247,1,8,0:0:0:0:
256,192,183629,1,8,0:0:0:0:
256,192,184010,1,8,0:0:0:0:
256,192,184391,1,8,0:0:0:0:
256,192,184773,1,8,0:0:0:0:
256,192,185027,1,0,0:0:0:0:
256,192,185281,1,8,0:0:0:0:
256,192,185663,1,8,0:0:0:0:
256,192,186044,1,8,0:0:0:0:
256,192,186171,1,8,0:0:0:0:
256,192,186298,1,8,0:0:0:0:
256,192,186552,1,8,0:0:0:0:
256,192,186807,1,0,0:0:0:0:
256,192,187061,1,0,0:0:0:0:
256,192,187315,1,8,0:0:0:0:
256,192,187696,1,8,0:0:0:0:
256,192,188078,1,8,0:0:0:0:
256,192,188459,1,8,0:0:0:0:
256,192,188840,1,8,0:0:0:0:
256,192,189095,5,0,0:0:0:0:
256,192,189349,5,8,0:0:0:0:
256,192,189730,1,8,0:0:0:0:
256,192,190112,1,8,0:0:0:0:
256,192,190493,1,8,0:0:0:0:
256,192,190874,1,8,0:0:0:0:
256,192,191129,1,0,0:0:0:0:
256,192,191383,1,8,0:0:0:0:
256,192,191510,1,8,0:0:0:0:
256,192,191637,1,8,0:0:0:0:
256,192,191891,1,8,0:0:0:0:
256,192,192018,1,8,0:0:0:0:
256,192,192146,1,8,0:0:0:0:
256,192,192400,1,8,0:0:0:0:
256,192,192527,1,8,0:0:0:0:
256,192,192654,1,8,0:0:0:0:
256,192,192908,1,8,0:0:0:0:
256,192,193035,1,8,0:0:0:0:
256,192,193163,1,8,0:0:0:0:
256,192,193417,5,4,0:0:0:0:
256,192,193798,1,0,0:0:0:0:
256,192,194179,1,0,0:0:0:0:
256,192,194434,1,8,0:0:0:0:
256,192,194688,1,8,0:0:0:0:
256,192,194942,1,0,0:0:0:0:
256,192,195196,1,8,0:0:0:0:
256,192,195451,1,0,0:0:0:0:
256,192,195832,1,0,0:0:0:0:
256,192,196213,1,0,0:0:0:0:
256,192,197485,1,8,0:0:0:0:
256,192,197866,1,8,0:0:0:0:
256,192,198247,1,8,0:0:0:0:
256,192,199010,1,0,0:0:0:0:
256,192,199391,1,0,0:0:0:0:
256,192,199518,1,0,0:0:0:0:
256,192,199900,1,0,0:0:0:0:
256,192,200281,1,0,0:0:0:0:
256,192,201552,1,8,0:0:0:0:
256,192,201934,1,8,0:0:0:0:
256,192,202315,1,8,0:0:0:0:
256,192,203586,1,0,0:0:0:0:
256,192,203968,1,0,0:0:0:0:
256,192,204349,1,0,0:0:0:0:
256,192,205620,1,8,0:0:0:0:
256,192,206001,1,8,0:0:0:0:
256,192,206383,1,8,0:0:0:0:
256,192,207146,1,0,0:0:0:0:
256,192,207527,1,0,0:0:0:0:
256,192,207654,1,0,0:0:0:0:
256,192,208035,1,0,0:0:0:0:
256,192,208417,1,0,0:0:0:0:
256,192,209688,1,8,0:0:0:0:
256,192,210069,1,8,0:0:0:0:
256,192,210451,1,8,0:0:0:0:
256,192,211722,1,0,0:0:0:0:
256,192,212103,1,8,0:0:0:0:
256,192,212485,1,8,0:0:0:0:
256,192,212866,1,8,0:0:0:0:
256,192,213247,1,8,0:0:0:0:
256,192,213756,1,8,0:0:0:0:
256,192,214137,1,8,0:0:0:0:
256,192,214518,1,8,0:0:0:0:
256,192,214900,1,8,0:0:0:0:
256,192,215281,1,8,0:0:0:0:
256,192,215535,1,0,0:0:0:0:
256,192,215790,1,8,0:0:0:0:
256,192,216171,1,8,0:0:0:0:
256,192,216552,1,8,0:0:0:0:
256,192,216934,1,8,0:0:0:0:
256,192,217315,1,8,0:0:0:0:
256,192,217569,1,0,0:0:0:0:
256,192,217824,1,8,0:0:0:0:
256,192,218205,1,8,0:0:0:0:
256,192,218586,1,0,0:0:0:0:
256,192,218840,1,8,0:0:0:0:
256,192,219095,1,8,0:0:0:0:
256,192,219349,1,0,0:0:0:0:
256,192,219603,1,0,0:0:0:0:
256,192,219857,1,8,0:0:0:0:
256,192,220239,1,8,0:0:0:0:
256,192,220620,1,8,0:0:0:0:
256,192,221001,1,8,0:0:0:0:
256,192,221383,1,8,0:0:0:0:
256,192,221637,1,0,0:0:0:0:
256,192,221891,1,8,0:0:0:0:
256,192,222273,1,8,0:0:0:0:
256,192,222654,1,8,0:0:0:0:
256,192,223035,1,8,0:0:0:0:
256,192,223417,1,8,0:0:0:0:
256,192,223671,1,0,0:0:0:0:
256,192,223925,1,8,0:0:0:0:
256,192,224179,1,8,0:0:0:0:
256,192,224434,1,8,0:0:0:0:
256,192,224688,1,8,0:0:0:0:
256,192,224942,1,8,0:0:0:0:
256,192,225196,1,8,0:0:0:0:
256,192,225451,1,8,0:0:0:0:
256,192,225705,1,0,0:0:0:0:
256,192,225832,1,0,0:0:0:0:
256,192,225959,1,0,0:0:0:0:
256,192,226468,2,0,L|296:192,6,26.8333338451386
256,192,227230,1,8,0:0:0:0:
256,192,227485,1,0,0:0:0:0:
256,192,227739,1,8,0:0:0:0:
256,192,227993,1,0,0:0:0:0:
256,192,228501,1,8,0:0:0:0:
256,192,228756,1,0,0:0:0:0:
256,192,228883,1,0,0:0:0:0:
256,192,229010,1,0,0:0:0:0:
256,192,229264,1,0,0:0:0:0:
256,192,229518,1,8,0:0:0:0:
256,192,229773,1,0,0:0:0:0:
256,192,230027,1,8,0:0:0:0:
256,192,230535,1,8,0:0:0:0:
256,192,230790,1,0,0:0:0:0:
256,192,230917,1,0,0:0:0:0:
256,192,231044,1,0,0:0:0:0:
256,192,231298,1,0,0:0:0:0:
256,192,231552,1,8,0:0:0:0:
256,192,232061,1,0,0:0:0:0:
256,192,232569,1,8,0:0:0:0:
256,192,232696,1,8,0:0:0:0:
256,192,232824,1,8,0:0:0:0:
256,192,233078,1,0,0:0:0:0:
256,192,233332,1,8,0:0:0:0:
256,192,233459,1,8,0:0:0:0:
256,192,233586,1,8,0:0:0:0:
256,192,234095,1,0,0:0:0:0:
256,192,234349,1,8,0:0:0:0:
256,192,234603,1,0,0:0:0:0:
256,192,234857,1,0,0:0:0:0:
256,192,235112,1,8,0:0:0:0:
256,192,235366,1,0,0:0:0:0:
256,192,235493,1,0,0:0:0:0:
256,192,235620,1,0,0:0:0:0:
256,192,236129,1,0,0:0:0:0:
256,192,236637,1,0,0:0:0:0:
256,192,236891,1,0,0:0:0:0:
256,192,237018,1,0,0:0:0:0:
256,192,237146,1,0,0:0:0:0:
256,192,237400,1,8,0:0:0:0:
256,192,237654,1,0,0:0:0:0:
256,192,237908,1,0,0:0:0:0:
256,192,238163,1,8,0:0:0:0:
256,192,238671,1,8,0:0:0:0:
256,192,238925,1,8,0:0:0:0:
256,192,239052,1,8,0:0:0:0:
256,192,239179,1,8,0:0:0:0:
256,192,239434,1,0,0:0:0:0:
256,192,239688,1,0,0:0:0:0:
256,192,240196,1,0,0:0:0:0:
256,192,240705,1,8,0:0:0:0:
256,192,240832,1,8,0:0:0:0:
256,192,240959,1,8,0:0:0:0:
256,192,241213,1,0,0:0:0:0:
256,192,241468,1,8,0:0:0:0:
256,192,241595,1,8,0:0:0:0:
256,192,241722,1,8,0:0:0:0:
256,192,242230,5,12,0:0:0:0:
256,192,242485,1,0,0:0:0:0:
256,192,242739,1,8,0:0:0:0:
256,192,242993,1,0,0:0:0:0:
256,192,243247,1,8,0:0:0:0:
256,192,243756,1,0,0:0:0:0:
256,192,244264,5,4,0:0:0:0:
