osu file format v14

[General]
AudioFilename: audio.mp3
AudioLeadIn: 0
PreviewTime: 64270
Countdown: 0
SampleSet: Normal
StackLeniency: 0.3
Mode: 0
LetterboxInBreaks: 0
WidescreenStoryboard: 1

[Editor]
Bookmarks: 4650,10650,16650,22650,28650,34650,40650,46650,52650,58650,64650,70650,76650,82650,88650
DistanceSpacing: 1
BeatDivisor: 3
GridSize: 4
TimelineZoom: 1

[Metadata]
Title:Watashi wa Futari no Oiwai ni
TitleUnicode:私ハ二人ノオ祝イニ
Artist:MASA Works DESIGN ft. Hatsune Miku&GUMI (TV size)
ArtistUnicode:MASA Works DESIGN ft. 初音ミク&GUMI (TV size)
Creator:Nidasimno
Version:Normal
Source:
Tags:onibi series kitsune no yomeiri masa works design hatsune miku gumi japanese traditional insanity disturbing lyrics blue hair onibi series
BeatmapID:1632925
BeatmapSetID:776942

[Difficulty]
HPDrainRate:5.2
CircleSize:2.7
OverallDifficulty:5
ApproachRate:5.6
SliderMultiplier:1.2
SliderTickRate:1

[Events]
//Background and Video events
0,0,"68747470733a2f2f692e7974696d672e636f6d2f76692f41436130376145756f38732f6d617872657364656661756c742e6a70671.jpg",0,0
//Break Periods
2,16895,20035
2,22845,27535
2,34895,38035
2,40845,45535
//Storyboard Layer 0 (Background)
//Storyboard Layer 1 (Fail)
//Storyboard Layer 2 (Pass)
//Storyboard Layer 3 (Foreground)
//Storyboard Layer 4 (Overlay)
//Storyboard Sound Samples

[TimingPoints]
145,375,4,1,1,70,1,0
4645,-100,4,1,1,70,0,1
10645,-100,4,1,1,70,0,0
21145,-100,4,1,1,70,0,1
22645,-100,4,1,1,70,0,0
28645,-108.695652173913,4,1,1,70,0,1
34645,-108.695652173913,4,1,1,70,0,0
39145,-100,4,1,1,70,0,1
40645,-100,4,1,1,70,0,0
46645,-108.695652173913,4,1,1,70,0,1
52645,-113.636363636364,4,1,1,50,0,0
64645,-100,4,1,1,70,0,1
70645,-100,4,1,1,70,0,0
76645,-100,4,1,1,70,0,1
82645,-100,4,1,1,70,0,0
85645,-100,4,1,1,70,0,1
86020,-100,4,1,1,70,0,0
86395,-100,4,1,1,70,0,1
86770,-51.5463917525773,4,1,1,70,0,0
87145,-100,4,1,1,70,0,1
87520,-100,4,1,1,70,0,0
87895,-100,4,1,1,70,0,1
88645,-100,4,1,1,70,0,0

[Colours]
Combo1 : 42,42,42
Combo2 : 128,0,255
Combo3 : 64,0,128
Combo4 : 217,0,0
Combo5 : 128,0,0
Combo6 : 134,134,134

[HitObjects]
52,175,4645,38,0,P|39:252|57:296,2,120,6|8|0,0:0|0:0|0:0,0:0:0:0:
155,113,5770,1,8,0:0:0:0:
143,232,6145,2,0,P|220:245|264:227,2,120,2|8|0,0:0|0:0|0:0,0:0:0:0:
40,168,7270,1,8,0:0:0:0:
100,64,7645,5,6,0:0:0:0:
201,128,8020,1,8,0:0:0:0:
302,64,8395,1,0,0:0:0:0:
403,128,8770,1,8,0:0:0:0:
427,245,9145,2,0,L|437:369,2,120,2|8|0,0:0|0:0|0:0,0:0:0:0:
315,221,10270,1,8,0:0:0:0:
224,296,10645,38,0,B|105:236|101:345|-14:283,1,240,6|0,2:0|2:0,2:0:0:0:
52,183,11770,1,8,2:0:0:0:
171,194,12145,2,0,B|228:196|283:232|283:232|325:201|409:201,1,240,2|0,2:0|2:0,2:0:0:0:
493,273,13270,1,8,2:0:0:0:
503,153,13645,5,6,2:0:0:0:
397,201,14020,1,8,2:0:0:0:
381,320,14395,1,0,2:0:0:0:
274,376,14770,1,8,2:0:0:0:
177,304,15145,2,0,P|161:246|176:189,2,120,2|8|2,2:0|2:0|2:0,2:0:0:0:
397,201,16645,37,6,1:0:0:0:
312,90,21145,54,0,L|323:219,2,120,6|0|0,2:0|2:0|2:0,2:0:0:0:
197,126,22270,1,0,2:0:0:0:
84,85,22645,21,6,2:1:0:0:
15,293,28645,54,0,L|128:289,1,110.399996293945,6|8,2:0|2:0,2:0:0:0:
222,245,29395,2,0,L|363:249,1,110.399996293945,0|8,2:0|2:0,2:0:0:0:
420,305,30145,2,0,P|434:252|423:198,1,110.399996293945,2|8,2:0|2:0,2:0:0:0:
343,121,30895,2,0,P|328:68|339:14,1,110.399996293945,0|8,2:0|2:0,2:0:0:0:
434,64,31645,6,0,L|442:196,1,110.399996293945,6|8,2:0|2:0,2:0:0:0:
338,215,32395,2,0,L|330:347,1,110.399996293945,0|8,2:0|2:0,2:0:0:0:
230,278,33145,2,0,P|177:263|123:274,1,110.399996293945,2|8,2:0|2:0,2:0:0:0:
65,371,33895,2,0,P|119:382|172:368,1,110.399996293945,0|8,2:0|2:0,2:0:0:0:
230,278,34645,5,6,1:0:0:0:
128,290,39145,54,0,L|-1:301,2,120,6|0|0,2:0|2:0|2:0,2:0:0:0:
235,237,40270,1,0,2:0:0:0:
254,354,40645,21,6,2:1:0:0:
194,25,46645,54,0,L|190:165,1,110.399996293945,6|8,2:0|2:0,2:0:0:0:
281,199,47395,2,0,L|285:339,1,110.399996293945,0|8,2:0|2:0,2:0:0:0:
184,261,48145,2,0,P|130:250|77:264,1,110.399996293945,2|8,2:0|2:0,2:0:0:0:
133,359,48895,2,0,P|186:369|239:355,1,110.399996293945,0|8,2:0|2:0,2:0:0:0:
332,296,49645,6,0,L|472:300,1,110.399996293945,6|8,2:0|2:0,2:0:0:0:
373,212,50395,2,0,L|262:208,1,110.399996293945,0|8,2:0|2:0,2:0:0:0:
167,158,51145,2,0,P|157:211|171:264,1,110.399996293945,2|8,2:0|2:0,2:0:0:0:
258,314,51895,2,0,P|272:261|262:208,1,110.399996293945,0|8,2:0|2:0,2:0:0:0:
171,264,52645,38,4,P|111:292|136:197,1,211.200006445313,6|6,3:0|3:0,3:0:0:0:
299,315,54145,2,4,P|338:238|252:246,1,211.200006445313,6|6,3:0|3:0,3:0:0:0:
61,361,55645,2,4,P|-2:211|29:154,1,211.200006445313,6|6,3:0|3:0,3:0:0:0:
216,125,57145,2,4,P|279:275|248:332,1,211.200006445313,6|6,3:0|3:0,3:0:0:0:
67,254,58645,6,4,B|144:263|144:263|188:299|188:299|284:311,1,211.200006445313,6|6,3:0|3:0,3:0:0:0:
473,278,60145,2,4,B|396:269|396:269|352:233|352:233|256:221,1,211.200006445313,6|6,3:0|3:0,3:0:0:0:
80,151,61645,2,4,B|185:126|185:191|309:158,1,211.200006445313,6|6,3:0|3:0,3:0:0:0:
495,174,63145,2,4,B|390:199|390:134|266:167,1,211.200006445313,6|6,3:0|3:0,3:0:0:0:
60,242,64645,6,0,P|47:319|65:363,2,120,6|8|0,0:0|0:0|0:0,0:0:0:0:
118,137,65770,1,8,0:0:0:0:
212,210,66145,2,0,P|269:225|326:210,2,120,2|8|0,0:0|0:0|0:0,0:0:0:0:
246,94,67270,1,8,0:0:0:0:
356,47,67645,5,6,0:0:0:0:
456,112,68020,1,8,0:0:0:0:
462,231,68395,1,0,0:0:0:0:
358,291,68770,1,8,0:0:0:0:
238,276,69145,2,0,P|180:261|123:276,2,120,2|8|0,0:0|0:0|0:0,0:0:0:0:
276,380,70270,1,8,0:0:0:0:
360,293,70645,38,0,B|313:173|403:173|333:54,1,240,6|0,2:0|2:0,2:0:0:0:
242,136,71770,1,8,2:0:0:0:
230,255,72145,2,0,P|132:182|163:46,1,240,2|0,2:0|2:0,2:0:0:0:
245,17,73270,1,8,2:0:0:0:
356,62,73645,5,6,2:0:0:0:
469,23,74020,1,8,2:0:0:0:
508,136,74395,1,0,2:0:0:0:
395,175,74770,1,8,2:0:0:0:
319,268,75145,2,0,P|306:345|324:389,2,120,2|8|2,2:0|2:0|2:0,2:0:0:0:
424,327,76270,1,8,2:0:0:0:
470,216,76645,6,0,L|458:82,2,120,6|8|0,0:0|0:0|0:0,0:0:0:0:
363,160,77770,1,8,0:0:0:0:
260,222,78145,2,0,L|271:88,2,120,2|8|0,0:0|0:0|0:0,0:0:0:0:
249,341,79270,1,8,0:0:0:0:
142,284,79645,5,6,0:0:0:0:
36,340,80020,1,8,0:0:0:0:
64,223,80395,1,0,0:0:0:0:
3,119,80770,1,8,0:0:0:0:
106,58,81145,2,0,L|254:70,2,120,2|8|0,0:0|0:0|0:0,0:0:0:0:
156,166,82270,1,8,0:0:0:0:
91,266,82645,38,0,B|189:277|189:277|224:310|224:310|332:322,1,240,6|0,2:0|2:0,2:0:0:0:
436,332,83770,1,8,2:0:0:0:
360,238,84145,2,0,B|262:227|262:227|227:194|227:194|119:182,1,240,2|0,2:0|2:0,2:0:0:0:
12,175,85270,1,8,2:0:0:0:
103,97,85645,6,0,L|222:107,1,120,6|8,2:0|2:0,2:0:0:0:
297,201,86395,2,0,L|177:190,1,120,6|8,2:0|2:0,2:0:0:0:
86,269,87145,2,0,L|205:279,1,120,6|8,2:0|2:0,2:0:0:0:
280,373,87895,6,2,P|368:342|280:294,1,240,6|6,2:0|2:0,2:0:0:0:
