osu file format v14

[General]
AudioFilename: audio.mp3
AudioLeadIn: 0
PreviewTime: 64270
Countdown: 0
SampleSet: Normal
StackLeniency: 0.3
Mode: 0
LetterboxInBreaks: 0
WidescreenStoryboard: 1

[Editor]
Bookmarks: 4650,10650,16650,22650,28650,34650,40650,46650,52650,58650,64650,70650,76650,82650,88650
DistanceSpacing: 0.5
BeatDivisor: 3
GridSize: 4
TimelineZoom: 1

[Metadata]
Title:Watashi wa Futari no Oiwai ni
TitleUnicode:私ハ二人ノオ祝イニ
Artist:MASA Works DESIGN ft. Hatsune Miku&GUMI (TV size)
ArtistUnicode:MASA Works DESIGN ft. 初音ミク&GUMI (TV size)
Creator:Nidasimno
Version:Insane
Source:
Tags:onibi series kitsune no yomeiri masa works design hatsune miku gumi japanese traditional insanity disturbing lyrics blue hair onibi series
BeatmapID:1632368
BeatmapSetID:776942

[Difficulty]
HPDrainRate:6
CircleSize:4
OverallDifficulty:8.5
ApproachRate:9.2
SliderMultiplier:2
SliderTickRate:1

[Events]
//Background and Video events
0,0,"588456d3e7173e9a09dc08910b4af592-da2ncuq.jpg",0,0
//Break Periods
//Storyboard Layer 0 (Background)
//Storyboard Layer 1 (Fail)
//Storyboard Layer 2 (Pass)
//Storyboard Layer 3 (Foreground)
//Storyboard Layer 4 (Overlay)
//Storyboard Sound Samples

[TimingPoints]
145,375,4,1,1,70,1,0
4645,-52.0833333333333,4,1,1,70,0,1
10645,-60.9756097560976,4,1,1,70,0,0
11020,-69.4444444444444,4,1,1,70,0,0
11395,-60.9756097560976,4,1,1,70,0,0
11770,-54.3478260869565,4,1,1,70,0,0
12145,-60.9756097560976,4,1,1,70,0,0
12520,-69.4444444444444,4,1,1,70,0,0
12895,-60.9756097560976,4,1,1,70,0,0
13270,-54.3478260869565,4,1,1,70,0,0
13645,-60.9756097560976,4,1,1,70,0,0
14395,-54.3478260869565,4,1,1,70,0,0
14770,-60.9756097560976,4,1,1,70,0,0
15145,-64.9350649350649,4,1,1,70,0,0
15521,-74.6268656716418,4,1,1,70,0,0
15895,-333.333333333333,4,1,1,70,0,0
16645,-333.333333333333,4,1,1,70,0,0
16770,-333.333333333333,4,1,1,40,0,0
21145,-60.9756097560976,4,1,1,70,0,1
22645,-333.333333333333,4,1,1,70,0,0
22770,-333.333333333333,4,1,1,40,0,0
28645,-60.9756097560976,4,1,1,70,0,1
31270,-54.3478260869565,4,1,1,70,0,1
31645,-60.9756097560976,4,1,1,70,0,1
34645,-333.333333333333,4,1,1,70,0,0
34770,-333.333333333333,4,1,1,40,0,0
39145,-60.9756097560976,4,1,1,70,0,1
40645,-333.333333333333,4,1,1,70,0,0
40770,-333.333333333333,4,1,1,40,0,0
46645,-60.9756097560976,4,1,1,70,0,1
49270,-54.3478260869565,4,1,1,70,0,1
49645,-60.9756097560976,4,1,1,70,0,1
52645,-138.888888888889,4,1,1,50,0,0
57895,-104.166666666667,4,1,1,50,0,0
58645,-138.888888888889,4,1,1,50,0,0
63895,-185.185185185185,4,1,1,50,0,0
64645,-51.5463917525773,4,1,1,70,0,1
70645,-60.9756097560976,4,1,1,70,0,0
71020,-69.4444444444444,4,1,1,70,0,0
71395,-60.9756097560976,4,1,1,70,0,0
71770,-54.3478260869565,4,1,1,70,0,0
72156,-60.9756097560976,4,1,1,70,0,0
72520,-69.4444444444444,4,1,1,70,0,0
72895,-60.9756097560976,4,1,1,70,0,0
73270,-54.3478260869565,4,1,1,70,0,0
73645,-60.9756097560976,4,1,1,70,0,0
74396,-54.3478260869565,4,1,1,70,0,0
74770,-60.9756097560976,4,1,1,70,0,0
75145,-64.9350649350649,4,1,1,70,0,0
75520,-74.6268656716418,4,1,1,70,0,0
75895,-333.333333333333,4,1,1,70,0,0
76645,-51.5463917525773,4,1,1,70,0,1
82645,-60.9756097560976,4,1,1,70,0,0
83020,-69.4444444444444,4,1,1,70,0,0
83395,-60.9756097560976,4,1,1,70,0,0
83770,-54.3478260869565,4,1,1,70,0,0
84145,-60.9756097560976,4,1,1,70,0,0
84520,-69.4444444444444,4,1,1,70,0,0
84895,-60.9756097560976,4,1,1,70,0,0
85270,-54.3478260869565,4,1,1,70,0,0
85645,-60.9756097560976,4,1,1,70,0,1
85770,-60.9756097560976,4,1,1,70,0,0
86020,-57.4712643678161,4,1,1,70,0,1
86145,-57.4712643678161,4,1,1,70,0,0
86395,-54.3478260869565,4,1,1,70,0,1
86520,-54.3478260869565,4,1,1,70,0,0
86770,-51.5463917525773,4,1,1,70,0,1
86895,-51.5463917525773,4,1,1,70,0,0
87145,-49.0196078431373,4,1,1,70,0,1
87270,-49.0196078431373,4,1,1,70,0,0
87520,-46.7289719626168,4,1,1,70,0,1
87645,-46.7289719626168,4,1,1,70,0,0
87895,-333.333333333333,4,1,1,70,0,1
88645,-333.333333333333,4,1,1,70,0,0

[Colours]
Combo1 : 42,42,42
Combo2 : 128,0,255
Combo3 : 64,0,128
Combo4 : 217,0,0
Combo5 : 128,0,0
Combo6 : 134,134,134

[HitObjects]
259,57,4645,38,0,P|362:114|281:169,1,256.00000625,6|0,0:0|0:0,0:0:0:0:
209,163,5020,2,0,P|106:220|187:275,1,256.00000625
274,244,5395,2,0,B|361:248|396:208|396:208|422:253|517:276,1,256.00000625,8|0,0:0|0:0,0:0:0:0:
383,318,5770,1,0,0:0:0:0:
395,216,5895,1,0,0:0:0:0:
408,114,6020,1,0,0:0:0:0:
421,12,6145,6,0,B|224:24|224:24|251:42|283:77,1,256.00000625,2|0,0:0|0:0,0:0:0:0:
197,95,6520,2,0,P|217:212|72:131,1,256.00000625
147,163,6895,2,0,B|127:145|109:118|109:118|97:315,1,256.00000625,8|0,0:0|0:0,0:0:0:0:
209,257,7270,1,0,0:0:0:0:
311,270,7395,1,0,0:0:0:0:
413,282,7520,1,0,0:0:0:0:
511,292,7645,70,0,B|497:186|497:186|459:145|459:145|443:37,1,256.00000625,6|0,0:0|0:0,0:0:0:0:
359,85,8020,2,0,B|373:191|373:191|411:232|411:232|427:340,1,256.00000625
241,256,8395,2,0,P|225:190|377:192,1,256.00000625,8|0,0:0|0:0,0:0:0:0:
313,324,8770,1,0,0:0:0:0:
211,336,8895,1,0,0:0:0:0:
109,349,9020,1,0,0:0:0:0:
7,362,9145,6,0,B|17:178|17:178|82:255,1,256.00000625,2|0,0:0|0:0,0:0:0:0:
180,254,9520,2,0,P|203:152|149:215,1,256.00000625
211,336,9895,2,0,L|190:74,1,256.00000625,8|0,0:0|0:0,0:0:0:0:
94,30,10270,1,0,0:0:0:0:
82,132,10395,1,0,0:0:0:0:
69,234,10520,1,0,0:0:0:0:
55,335,10645,38,0,B|112:342|153:294|153:294|190:341|255:336,1,218.666670003255,6|0,2:2|2:2,2:2:0:0:
231,246,11020,2,0,P|311:270|323:388,1,192.0000046875,0|0,2:2|2:2,2:2:0:0:
248,336,11395,2,0,L|263:63,1,218.666670003255,8|0,2:2|2:2,2:2:0:0:
144,31,11770,2,0,P|84:76|181:74,1,245.333325097657,0|0,2:2|2:2,2:2:0:0:
325,202,12145,6,0,B|268:208|227:160|227:160|188:204|132:203,1,218.666670003255,2|0,2:2|2:2,2:2:0:0:
131,280,12520,2,0,P|74:255|106:130,1,192.0000046875,0|0,2:2|2:2,2:2:0:0:
35,66,12895,2,0,B|99:59|99:59|183:96|183:96|245:92,1,218.666670003255,8|0,2:2|2:2,2:2:0:0:
228,166,13270,2,0,B|241:323|241:323|307:240,1,245.333325097657,0|0,2:2|2:2,2:2:0:0:
396,122,13645,70,0,B|362:200|435:233|408:336,1,218.666670003255,6|0,2:2|2:2,2:2:0:0:
319,212,14020,2,0,B|291:109|357:90|330:-2,1,218.666670003255,0|0,2:2|2:2,2:2:0:0:
178,71,14395,2,0,P|240:82|170:28,1,245.333325097657,8|0,2:2|2:2,2:2:0:0:
124,121,14770,2,0,B|160:163|217:163|217:163|162:185|127:250,1,218.666670003255,0|0,2:2|2:2,2:2:0:0:
202,350,15145,6,0,B|263:351|292:311|292:311|326:353|423:345,1,205.333329260254,2|0,2:2|2:2,2:2:0:0:
363,203,15520,2,0,P|289:241|329:338,1,205.333329260254,0|0,2:2|2:2,2:2:0:0:
445,308,15895,70,2,L|352:272,1,99.9999969482423,6|0,2:0|0:0,0:0:0:0:
197,374,16645,54,0,L|133:385,1,59.9999981689454,6|0,2:1|2:1,2:1:0:0:
315,10,18145,6,0,L|379:-1,1,59.9999981689454,0|0,2:1|2:1,2:1:0:0:
65,215,19645,70,0,L|1:226,1,59.9999981689454,0|0,2:2|2:2,2:2:0:0:
309,55,21145,54,2,L|296:280,1,218.666670003255,2|0,2:0|2:0,2:0:0:0:
396,199,21520,1,0,2:0:0:0:
211,141,21770,1,0,2:0:0:0:
211,141,21895,2,2,L|224:366,1,218.666670003255,0|0,2:0|2:0,2:0:0:0:
102,323,22270,1,0,2:0:0:0:
447,169,22645,22,0,L|511:158,1,59.9999981689454,6|0,2:1|2:2,2:2:0:0:
193,326,24145,6,0,L|182:385,1,59.9999981689454,0|0,2:0|2:0,2:0:0:0:
319,59,25645,70,0,L|329:0,1,59.9999981689454,0|0,2:0|2:0,2:0:0:0:
135,52,27145,6,0,L|75:41,2,59.9999981689454,0|0|0,2:0|2:0|2:0,2:0:0:0:
135,52,28645,38,0,P|74:109|143:229,1,218.666670003255,6|0,2:0|2:0,2:0:0:0:
162,140,29020,2,0,P|223:197|154:317,1,218.666670003255,0|0,2:0|2:0,2:0:0:0:
119,220,29395,2,0,L|357:191,1,218.666670003255,8|0,2:0|2:0,2:0:0:0:
465,190,29770,2,0,L|227:161,1,218.666670003255,0|0,2:0|2:0,2:0:0:0:
169,75,30145,2,0,P|87:98|162:140,1,218.666670003255,2|0,2:0|2:0,2:0:0:0:
266,77,30520,2,0,P|348:99|273:141,1,218.666670003255,0|0,2:0|2:0,2:0:0:0:
62,229,30895,2,0,B|137:223|137:223|201:253|201:253|312:236,1,218.666670003255,8|0,2:0|2:0,2:0:0:0:
460,210,31270,2,0,P|514:267|406:244,1,245.333325097657,0|0,2:0|2:0,2:0:0:0:
244,66,31645,6,0,B|201:82|177:57|114:72|114:72|58:63|58:63|33:69|-13:70,1,218.666670003255,6|0,2:0|2:0,2:0:0:0:
150,152,32020,2,0,B|181:152|206:158|206:158|262:149|262:149|325:164|349:139|392:155,1,218.666670003255,0|0,2:0|2:0,2:0:0:0:
358,244,32395,2,0,B|366:302|424:331|424:331|451:268|420:217,1,218.666670003255,8|0,2:0|2:0,2:0:0:0:
402,136,32770,2,0,B|377:97|404:34|404:34|462:63|470:121,1,218.666670003255,0|0,2:0|2:0,2:0:0:0:
308,206,33145,2,0,P|223:186|307:159,1,218.666670003255,2|0,2:0|2:0,2:0:0:0:
363,103,33520,2,0,P|353:19|417:75,1,218.666670003255,0|0,2:0|2:0,2:0:0:0:
370,236,33895,2,0,B|261:285|261:196|104:246,1,218.666670003255,8|0,2:0|2:0,2:0:0:0:
70,78,34270,1,6,2:0:0:0:
82,180,34395,1,4,2:0:0:0:
95,282,34520,1,4,2:0:0:0:
108,384,34645,6,0,L|117:325,1,59.9999981689454,6|0,2:1|2:2,2:0:0:0:
321,2,36145,6,0,L|313:62,1,59.9999981689454,0|0,2:0|2:0,2:0:0:0:
59,193,37645,70,0,L|-1:185,1,59.9999981689454,0|0,2:0|2:0,2:0:0:0:
208,92,39145,54,0,P|289:91|194:153,1,218.666670003255,2|0,2:0|2:0,2:0:0:0:
147,185,39520,1,0,2:0:0:0:
309,289,39770,1,0,2:0:0:0:
309,289,39895,6,0,P|228:290|323:228,1,218.666670003255,0|0,2:0|2:0,2:0:0:0:
370,194,40270,1,0,2:0:0:0:
512,89,40645,6,0,L|452:81,1,59.9999981689454,6|0,2:1|2:0,2:0:0:0:
0,295,42145,6,0,L|60:303,1,59.9999981689454,0|0,2:1|2:0,2:0:0:0:
206,59,43645,70,0,L|197:-1,1,59.9999981689454,0|0,2:0|2:0,2:0:0:0:
307,325,45145,6,0,L|316:385,2,59.9999981689454,0|0|0,2:0|2:0|2:0,2:0:0:0:
191,54,46645,38,0,L|171:271,1,218.666670003255,6|0,2:0|2:0,2:0:0:0:
321,54,47020,2,0,L|340:271,1,218.666670003255,0|0,2:0|2:0,2:0:0:0:
191,54,47395,2,0,B|183:81|178:92|178:92|183:108|184:125|184:125|177:148|177:148|174:162|176:185|176:185|167:215|171:268,1,218.666670003255,8|0,2:0|2:0,2:0:0:0:
321,54,47770,2,0,B|329:81|334:92|334:92|329:108|328:125|328:125|335:148|335:148|338:162|336:185|336:185|345:215|340:271,1,218.666670003255,0|0,2:0|2:0,2:0:0:0:
84,289,48145,2,0,P|135:353|255:295,1,218.666670003255,2|0,2:0|2:0,2:0:0:0:
473,276,48520,2,0,P|422:212|301:266,1,218.666670003255,0|0,2:0|2:0,2:0:0:0:
443,358,48895,2,0,P|473:282|366:207,1,218.666670003255,8|0,2:0|2:0,2:0:0:0:
209,289,49270,2,0,B|376:290|376:290|293:244,1,245.333325097657,0|0,2:0|2:0,2:0:0:0:
56,192,49645,6,0,B|109:202|154:236|154:236|200:202|280:193,1,218.666670003255,6|0,2:0|2:0,2:0:0:0:
455,192,50020,2,0,B|402:202|357:236|357:236|311:202|231:193,1,218.666670003255,0|0,2:0|2:0,2:0:0:0:
60,168,50395,2,0,B|116:176|116:176|153:213|153:213|198:181|198:181|286:186,1,218.666670003255,8|0,2:0|2:0,2:0:0:0:
445,168,50770,2,0,B|389:176|389:176|352:213|352:213|307:181|307:181|219:186,1,218.666670003255,0|0,2:0|2:0,2:0:0:0:
161,52,51145,2,0,P|92:52|169:85,1,218.666670003255,2|0,2:0|2:0,2:0:0:0:
232,163,51520,2,0,P|301:163|224:196,1,218.666670003255,0|0,2:0|2:0,2:0:0:0:
179,272,51895,2,0,L|209:23,1,218.666670003255,8|0,2:0|2:0,2:0:0:0:
512,95,52270,1,4,2:0:0:0:
410,83,52395,1,4,2:0:0:0:
308,69,52520,1,4,2:0:0:0:
206,55,52645,38,0,L|110:42,2,96.0000023437501,6|0|0,3:0|3:0|3:0,3:0:0:0:
306,138,53395,2,0,L|402:125,2,96.0000023437501,6|0|0,3:0|3:0|3:0,3:0:0:0:
215,229,54145,2,0,L|119:216,2,96.0000023437501,6|0|0,3:0|3:0|3:0,3:0:0:0:
306,320,54895,2,0,L|402:307,2,96.0000023437501,6|0|0,3:0|3:0|3:0,3:0:0:0:
95,262,55645,6,0,L|82:357,2,96.0000023437501,6|0|0,3:0|3:0|3:0,3:0:0:0:
187,162,56394,2,0,L|200:67,2,96.0000023437501,6|0|0,3:0|3:0|3:0,3:0:0:0:
279,262,57145,2,0,L|266:357,2,96.0000023437501,6|0|0,3:0|3:0|3:0,3:0:0:0:
432,203,57895,2,2,P|494:242|438:241,1,192.0000046875,6|0,3:0|3:0,3:0:0:0:
190,102,58645,70,0,L|205:2,2,96.0000023437501,6|0|0,3:0|3:0|3:0,3:0:0:0:
307,194,59395,2,0,L|292:94,2,96.0000023437501,6|0|0,3:0|3:0|3:0,3:0:0:0:
190,286,60145,2,0,L|205:186,2,96.0000023437501,6|0|0,3:0|3:0|3:0,3:0:0:0:
307,378,60895,2,0,L|292:278,2,96.0000023437501,6|0|0,3:0|3:0|3:0,3:0:0:0:
92,180,61645,6,0,P|36:168|-21:187,2,96.0000023437501,6|0|0,3:0|3:0|3:0,3:0:0:0:
174,256,62395,2,0,P|162:312|181:369,2,96.0000023437501,6|0|0,3:0|3:0|3:0,3:0:0:0:
254,166,63145,2,0,P|310:178|367:159,2,96.0000023437501,6|0|0,3:0|3:0|3:0,3:0:0:0:
145,108,63895,2,2,P|157:52|138:-5,1,108.000002636719,6|0,3:0|3:0,3:0:0:0:
396,240,64645,6,0,P|348:331|297:224,1,258.666672784424,6|0,0:0|0:0,0:0:0:0:
310,121,65020,2,0,P|256:27|200:119,1,258.666672784424
225,238,65395,2,0,P|172:331|116:240,1,258.666672784424,8|0,0:0|0:0,0:0:0:0:
200,118,65770,1,0,0:0:0:0:
302,105,65895,1,0,0:0:0:0:
404,93,66020,1,0,0:0:0:0:
506,81,66145,6,0,L|485:340,1,258.666672784424,2|0,0:0|0:0,0:0:0:0:
369,272,66520,2,0,B|296:248|288:178|288:178|276:249|195:280,1,258.666672784424
85,322,66895,2,0,P|16:249|115:257,1,258.666672784424,8|0,0:0|0:0,0:0:0:0:
196,325,67270,1,0,0:0:0:0:
298,321,67395,1,0,0:0:0:0:
401,317,67520,1,0,0:0:0:0:
504,313,67645,70,0,B|502:232|502:232|459:150|459:150|451:48,1,258.666672784424,6|0,0:0|0:0,0:0:0:0:
311,145,68020,2,0,B|226:151|226:151|144:194|144:194|63:196,1,258.666672784424
240,311,68395,2,0,P|324:248|232:258,1,258.666672784424,8|0,0:0|0:0,0:0:0:0:
111,335,68770,1,0,0:0:0:0:
115,233,68895,1,0,0:0:0:0:
120,130,69020,1,0,0:0:0:0:
125,27,69145,6,0,B|299:41|299:41|221:90,1,258.666672784424,2|0,0:0|0:0,0:0:0:0:
203,246,69520,2,0,B|226:302|305:321|305:321|328:229|253:177,1,258.666672784424
105,98,69895,2,0,B|45:89|-10:148|-10:148|57:214|139:175,1,258.666672784424,8|0,0:0|0:0,0:0:0:0:
198,79,70270,1,0,0:0:0:0:
213,181,70395,1,0,0:0:0:0:
228,283,70520,1,0,0:0:0:0:
248,383,70645,38,0,B|309:372|328:314|328:314|362:371|461:368,1,218.666670003255,6|0,2:0|2:0,2:0:0:0:
393,205,71020,2,0,P|447:288|475:226,1,192.0000046875,0|0,2:0|2:0,2:0:0:0:
353,124,71395,2,0,L|74:148,1,218.666670003255,8|0,2:0|2:0,2:0:0:0:
276,222,71770,2,0,P|324:105|227:56,1,245.333325097657,0|0,2:0|2:0,2:0:0:0:
135,142,72145,6,0,B|141:236|141:236|174:290|174:290|191:438,1,245.333325097657,2|0,2:0|2:0,2:0:0:0:
252,302,72520,2,0,P|320:349|252:342,1,192.0000046875,0|0,2:0|2:0,2:0:0:0:
306,207,72895,2,0,P|391:269|391:374,1,218.666670003255,8|0,2:0|2:0,2:0:0:0:
287,323,73270,2,0,B|221:338|179:279|179:279|142:340|51:330,1,245.333325097657,0|0,2:0|2:0,2:0:0:0:
232,149,73645,70,0,B|302:155|302:155|359:199|359:199|493:209,1,218.666670003255,6|0,2:0|2:0,2:0:0:0:
262,235,74020,2,0,B|185:229|185:229|128:185|128:185|58:179,1,218.666670003255,0|0,2:0|2:0,2:0:0:0:
19,82,74395,2,0,B|84:66|122:112|122:112|169:73|246:91,1,218.666670003255,8|0,2:0|2:0,2:0:0:0:
248,216,74770,2,0,P|181:257|213:161,1,218.666670003255,0|0,2:0|2:0,2:0:0:0:
249,25,75145,6,0,B|261:162|261:162|276:128|323:107,1,205.333329260254,2|0,2:0|2:0,2:0:0:0:
404,217,75520,2,0,P|326:201|377:250,1,178.666658215332,0|0,2:0|2:0,2:0:0:0:
418,363,75895,1,6,2:0:0:0:
416,347,76020,1,4,2:0:0:0:
413,328,76145,1,4,2:0:0:0:
411,312,76270,21,6,2:0:0:0:
398,210,76395,1,4,2:0:0:0:
387,107,76520,1,4,2:0:0:0:
374,6,76645,70,0,P|472:39|366:91,1,258.666672784424,6|0,0:0|0:0,0:0:0:0:
255,43,77020,2,0,P|156:81|241:144,1,258.666672784424
363,166,77395,2,0,B|318:106|318:106|308:289,1,258.666672784424,8|0,0:0|0:0,0:0:0:0:
512,314,77770,1,0,0:0:0:0:
410,302,77895,1,0,0:0:0:0:
308,289,78020,1,0,0:0:0:0:
206,276,78145,6,0,B|33:250|33:250|74:231|126:176,1,258.666672784424,2|0,0:0|0:0,0:0:0:0:
117,33,78520,2,0,P|218:87|206:38,1,258.666672784424
13,65,78895,2,0,B|11:135|11:135|36:243|36:243|32:322,1,258.666672784424,8|0,0:0|0:0,0:0:0:0:
111,206,79270,1,0,0:0:0:0:
213,193,79395,1,0,0:0:0:0:
315,180,79520,1,0,0:0:0:0:
425,164,79645,70,0,B|475:-3|475:-3|440:26|368:49,1,258.666672784424,6|0,0:0|0:0,0:0:0:0:
322,130,80020,2,0,P|230:186|339:184,1,258.666672784424
387,92,80395,2,0,P|263:45|167:116,1,258.666672784424,8|0,0:0|0:0,0:0:0:0:
47,72,80770,1,0,0:0:0:0:
59,170,80895,1,0,0:0:0:0:
73,273,81020,1,0,0:0:0:0:
87,376,81145,6,0,B|165:374|202:330|202:330|256:377|353:356,1,258.666672784424,2|0,0:0|0:0,0:0:0:0:
491,232,81520,2,0,B|474:381|474:381|451:322|399:286,1,258.666672784424
239,194,81895,2,0,P|289:288|348:198,1,258.666672784424,8|0,0:0|0:0,0:0:0:0:
319,24,82270,1,0,0:0:0:0:
305,122,82395,1,0,0:0:0:0:
292,225,82520,1,0,0:0:0:0:
274,324,82645,38,0,B|122:328|122:328|145:315|178:254,1,218.666670003255,6|0,2:0|2:0,2:0:0:0:
88,218,83020,2,0,P|44:275|92:251,1,192.0000046875,0|0,2:0|2:0,2:0:0:0:
230,248,83395,2,0,B|293:248|293:248|327:270|327:270|356:249|356:249|485:239,1,218.666670003255,8|0,2:0|2:0,2:0:0:0:
265,171,83770,2,0,B|185:170|185:170|147:192|147:192|107:162|107:162|27:155,1,245.333325097657,0|0,2:0|2:0,2:0:0:0:
215,12,84145,6,0,L|224:247,1,218.666670003255,2|0,2:0|2:0,2:0:0:0:
333,147,84520,2,0,P|377:204|329:180,1,192.0000046875,0|0,2:0|2:0,2:0:0:0:
221,126,84895,2,0,B|105:66|105:167|9:116,1,218.666670003255,8|0,2:0|2:0,2:0:0:0:
247,58,85270,2,0,P|291:149|154:156,1,245.333325097657,0|0,2:0|2:0,2:0:0:0:
66,55,85645,70,0,P|145:25|80:99,1,218.666670003255,6|0,2:0|2:0,2:0:0:0:
41,260,86020,2,0,L|19:8,1,232.000001947022,0|0,2:0|2:0,2:0:0:0:
221,126,86395,2,0,B|354:194|354:77|466:136,1,245.333325097657,10|0,2:0|2:0,2:0:0:0:
205,256,86770,2,0,P|265:347|238:235,1,258.666672784424,0|0,2:0|2:0,2:0:0:0:
154,31,87145,2,0,B|140:216|140:216|175:167|253:157,1,272.000001660156,2|0,2:0|2:0,2:0:0:0:
493,204,87520,2,0,P|402:336|323:261,1,285.333324625651,0|0,2:0|2:0,2:0:0:0:
12,313,87895,22,2,L|137:288,1,119.999996337891,6|6,2:0|2:0,0:0:0:0:
