osu file format v14

[General]
AudioFilename: buriki no Dance.mp3
AudioLeadIn: 0
PreviewTime: -1
Countdown: 1
SampleSet: Soft
StackLeniency: 0.7
Mode: 0
LetterboxInBreaks: 0
WidescreenStoryboard: 0

[Editor]
DistanceSpacing: 0.8
BeatDivisor: 4
GridSize: 4
TimelineZoom: 1

[Metadata]
Title:Buriki no dance
TitleUnicode:Buriki no dance
Artist:MARiA
ArtistUnicode:MARiA
Creator:djhiro
Version:Insane
Source:
Tags:
BeatmapID:845666
BeatmapSetID:387485

[Difficulty]
HPDrainRate:7
CircleSize:4
OverallDifficulty:6
ApproachRate:10
SliderMultiplier:2.8
SliderTickRate:1

[Events]
//Background and Video events
0,0,"bg.jpg",0,0
//Break Periods
2,6010,17395
2,29208,38500
2,85022,95535
//Storyboard Layer 0 (Background)
//Storyboard Layer 1 (Fail)
//Storyboard Layer 2 (Pass)
//Storyboard Layer 3 (Foreground)
//Storyboard Sound Samples

[TimingPoints]
404,348.837209302326,4,1,1,70,1,0
5406,-100,4,1,1,80,0,0
20580,-100,4,1,2,60,0,0
20929,-100,4,1,1,60,0,0
21103,-100,4,1,1,30,0,0
21278,-100,4,1,2,60,0,0
21627,-100,4,1,1,80,0,0
26161,-100,4,1,2,60,0,0
26510,-100,4,1,1,60,0,0
26685,-100,4,1,1,30,0,0
26859,-100,4,1,2,60,0,0
27208,-100,4,1,1,60,0,0
27382,-100,4,1,1,30,0,0
27557,-100,4,1,1,80,0,0
28254,-100,4,1,1,100,0,0
28429,-100,4,1,1,80,0,0
28603,-100,4,1,1,100,0,0
28778,-100,4,1,1,80,0,0
28952,-100,4,1,1,100,0,0
40115,-100,4,1,1,100,0,0
42906,-100,4,1,2,85,0,0
43254,-100,4,1,1,85,0,0
43603,-100,4,1,2,85,0,0
43952,-100,4,1,1,85,0,0
51278,-125,4,1,1,75,0,0
52324,-125,4,2,1,75,0,0
54068,-125,4,1,1,75,0,0
55115,-125,4,2,1,75,0,0
56859,-125,4,1,1,75,0,0
57906,-125,4,2,1,75,0,0
60696,-100,4,2,1,80,0,0
62409,-100,4,1,1,80,0,0
62497,-83.3333333333333,4,1,1,80,0,1
84822,-83.3333333333333,4,1,1,80,0,0
95929,-100,4,1,1,80,0,0
104301,-100,4,1,2,70,0,0
104650,-100,4,1,1,60,0,0
104824,-100,4,1,1,30,0,0
104999,-100,4,1,2,70,0,0
105348,-100,4,1,1,60,0,0
105522,-100,4,1,1,30,0,0
105696,-100,4,1,2,60,0,0
107092,-100,4,1,1,80,0,0
109882,-100,4,1,2,60,0,0
110231,-100,4,1,1,60,0,0
110580,-100,4,1,2,60,0,0
110929,-100,4,1,1,80,0,0
115464,-100,4,1,2,60,0,0
115813,-100,4,1,1,60,0,0
115987,-100,4,1,1,30,0,0
116161,-100,4,1,2,60,0,0
116510,-100,4,1,1,80,0,0
117731,-100,4,2,1,100,0,0
118254,-125,4,1,1,75,0,0
119301,-125,4,2,1,75,0,0
121045,-125,4,1,1,75,0,0
122092,-125,4,2,1,75,0,0
123138,-125,4,1,1,55,0,0
123836,-125,4,1,1,75,0,0
124882,-125,4,2,1,75,0,0
128022,-125,4,1,1,60,0,0
128720,-100,4,1,1,60,0,0
129068,-83.3333333333333,4,1,1,60,0,0
151307,-83.3333333333333,4,1,1,70,0,0
151363,-83.3333333333333,4,1,1,80,0,0
151568,-83.3333333333333,4,1,1,100,0,0
151743,-83.3333333333333,4,1,1,35,0,0
152179,-83.3333333333333,4,1,1,100,0,0
156452,-125,4,1,1,70,0,0
156975,-125,4,1,1,70,0,0
157324,-83.3333333333333,4,1,1,90,0,0
160464,-125,4,1,1,70,0,0
160900,-83.3333333333333,4,1,1,90,0,0
162382,-100,4,1,1,70,0,0
162906,-125,4,2,1,70,0,0
172673,-125,4,2,1,55,0,0
173022,-166.666666666667,4,2,1,40,0,0
173371,-200,4,2,1,25,0,0
173720,-125,4,2,1,35,0,0
174068,-125,4,1,1,35,0,0
174473,-74.0740740740741,4,1,1,80,0,1
183717,-74.0740740740741,4,1,1,85,0,0
184185,-74.0740740740741,4,1,1,60,0,0
184590,-74.0740740740741,4,1,1,70,0,0

[HitObjects]
402,112,404,5,0,0:0:0:0:
205,119,752,1,0,0:0:0:0:
313,249,1101,1,0,0:0:0:0:
205,119,1450,1,0,0:0:0:0:
375,124,1799,1,0,0:0:0:0:
313,249,2148,1,0,0:0:0:0:
251,140,2497,5,0,0:0:0:0:
363,166,2671,1,0,0:0:0:0:
363,166,2758,1,0,0:0:0:0:
363,166,2845,1,0,0:0:0:0:
482,182,3020,1,0,0:0:0:0:
418,287,3194,5,0,0:0:0:0:
237,283,3543,1,0,0:0:0:0:
106,147,3892,1,0,0:0:0:0:
47,281,4241,1,0,0:0:0:0:
164,113,4590,5,0,0:0:0:0:
187,121,4677,1,0,0:0:0:0:
211,130,4764,1,0,0:0:0:0:
232,144,4851,1,0,0:0:0:0:
254,156,4938,1,0,0:0:0:0:
275,170,5026,5,0,0:0:0:0:
290,182,5113,1,0,0:0:0:0:
307,199,5200,1,0,0:0:0:0:
321,214,5287,1,0,0:0:0:0:
331,231,5374,1,0,0:0:0:0:
342,255,5462,1,0,0:0:0:0:
341,274,5549,1,0,0:0:0:0:
334,295,5636,1,0,0:0:0:0:
328,315,5723,1,0,0:0:0:0:
320,334,5810,1,0,0:0:0:0:
23,324,17845,6,0,L|162:333,1,140
194,323,18107,5,0,0:0:0:0:
223,310,18194,1,0,0:0:0:0:
221,213,18369,1,0,0:0:0:0:
340,352,18543,6,0,P|356:271|351:198,1,140
252,128,18892,1,0,0:0:0:0:
108,157,19066,2,0,P|104:69|110:4,1,140
228,36,19415,5,0,0:0:0:0:
256,51,19502,1,0,0:0:0:0:
275,67,19590,2,0,P|339:176|341:203,1,140,8|0,0:0|0:0,0:0:0:0:
287,219,19938,2,0,P|327:254|401:188,1,140
411,205,20287,2,0,L|371:347,1,140,8|0,0:0|0:0,0:0:0:0:
298,124,20636,6,0,L|229:131,2,70
330,128,20898,1,0,0:0:0:0:
360,138,20985,1,0,0:0:0:0:
341,262,21159,1,0,0:0:0:0:
242,286,21334,1,0,0:0:0:0:
208,274,21421,1,0,0:0:0:0:
179,250,21508,1,0,0:0:0:0:
158,217,21595,1,0,0:0:0:0:
143,192,21683,2,0,P|150:105|206:52,1,140
317,75,22031,6,0,L|457:38,1,140
425,167,22380,2,0,P|427:240|341:310,1,140
268,219,22729,1,0,0:0:0:0:
189,302,22904,1,0,0:0:0:0:
164,290,22991,1,0,0:0:0:0:
136,269,23078,1,0,0:0:0:0:
116,248,23165,1,0,0:0:0:0:
61,238,23427,6,0,P|59:153|92:93,1,140
177,92,23776,2,0,P|132:26|62:22,1,140
225,154,24124,2,0,P|321:188|386:170,2,140
171,60,24648,1,0,0:0:0:0:
171,60,24735,1,0,0:0:0:0:
171,60,24822,1,0,0:0:0:0:
266,118,24997,5,0,0:0:0:0:
299,107,25084,1,0,0:0:0:0:
329,95,25171,1,0,0:0:0:0:
478,95,25345,1,0,0:0:0:0:
439,191,25520,2,0,P|439:278|401:326,1,140
307,316,25869,2,0,L|161:313,1,140
320,287,26217,5,0,0:0:0:0:
326,250,26305,1,0,0:0:0:0:
317,218,26392,1,0,0:0:0:0:
298,192,26479,1,0,0:0:0:0:
274,175,26566,1,0,0:0:0:0:
158,199,26741,1,0,0:0:0:0:
60,144,26915,5,0,0:0:0:0:
87,115,27002,1,0,0:0:0:0:
117,96,27090,1,0,0:0:0:0:
157,84,27177,1,0,0:0:0:0:
199,82,27264,1,0,0:0:0:0:
208,222,27438,1,0,0:0:0:0:
248,327,27613,6,0,L|425:331,1,140
340,172,27962,2,0,L|165:171,1,140
201,320,28310,1,0,0:0:0:0:
345,254,28485,1,0,0:0:0:0:
200,171,28659,1,0,0:0:0:0:
192,319,28834,1,0,0:0:0:0:
200,171,29008,1,0,0:0:0:0:
256,192,38950,12,0,39997,0:0:0:0:
464,77,40171,5,0,0:0:0:0:
444,96,40258,1,0,0:0:0:0:
421,109,40345,1,0,0:0:0:0:
401,121,40433,1,0,0:0:0:0:
384,132,40520,2,0,P|332:182|316:262,1,140
301,359,40869,1,0,0:0:0:0:
221,219,41043,1,0,0:0:0:0:
133,338,41217,1,0,0:0:0:0:
301,359,41392,2,0,P|326:271|318:215,1,140
274,138,41741,5,0,0:0:0:0:
245,120,41828,1,0,0:0:0:0:
212,112,41915,2,0,P|112:91|63:83,1,140
0,224,42264,1,0,0:0:0:0:
74,338,42438,1,0,0:0:0:0:
157,235,42613,2,0,P|172:148|172:94,1,140
284,43,42962,5,0,0:0:0:0:
302,57,43049,1,0,0:0:0:0:
316,71,43136,2,0,P|362:123|411:178,2,140
201,48,43659,1,0,0:0:0:0:
177,81,43747,1,0,0:0:0:0:
166,116,43834,1,0,0:0:0:0:
163,153,43921,1,0,0:0:0:0:
173,182,44008,2,0,P|221:263|270:282,1,140
321,163,44357,5,0,0:0:0:0:
391,316,44531,1,0,0:0:0:0:
227,289,44706,1,0,0:0:0:0:
321,163,44880,1,0,0:0:0:0:
227,289,45055,1,0,0:0:0:0:
99,262,45229,1,0,0:0:0:0:
97,240,45316,1,0,0:0:0:0:
98,217,45404,2,0,P|127:127|182:67,1,140
421,81,45752,6,0,L|264:79,1,140
186,302,46101,2,0,L|365:302,1,140,8|0,0:0|0:0,0:0:0:0:
473,269,46450,1,0,0:0:0:0:
473,269,46624,2,0,P|488:181|475:120,1,140
387,51,46973,2,0,L|240:86,1,140
187,159,47322,5,0,0:0:0:0:
164,165,47409,1,0,0:0:0:0:
138,171,47497,2,0,P|102:107|122:-1,1,139.999995231629
247,41,47845,2,0,L|399:51,1,140
462,294,48194,2,0,P|473:207|517:141,1,140
464,58,48543,6,0,L|380:58,1,69.9999976158143
280,88,48805,1,0,0:0:0:0:
291,108,48892,2,0,P|299:208|281:251,1,140
130,210,49241,2,0,L|57:141,1,70
0,50,49502,1,0,0:0:0:0:
19,53,49590,2,0,L|166:75,1,140
261,143,49938,5,0,0:0:0:0:
169,218,50113,1,0,0:0:0:0:
390,177,50287,1,0,0:0:0:0:
239,312,50462,1,0,0:0:0:0:
313,352,50636,2,0,L|456:321,1,140
464,301,50898,1,0,0:0:0:0:
477,278,50985,1,0,0:0:0:0:
484,255,51072,1,0,0:0:0:0:
491,224,51159,1,0,0:0:0:0:
478,88,51334,5,0,0:0:0:0:
365,183,51683,1,0,0:0:0:0:
247,283,52031,1,0,0:0:0:0:
133,253,52380,6,0,P|126:175|147:122,1,112
319,91,52729,2,0,L|196:55,1,112
68,98,53078,1,0,0:0:0:0:
78,209,53252,1,0,0:0:0:0:
89,315,53427,2,0,L|201:325,1,112
226,318,53688,1,0,0:0:0:0:
246,297,53776,2,0,P|290:216|299:183,1,112
336,73,54124,5,0,0:0:0:0:
427,150,54473,1,0,0:0:0:0:
469,265,54822,1,0,0:0:0:0:
312,173,55171,5,0,0:0:0:0:
0,252,55345,1,0,0:0:0:0:
85,330,55520,2,0,L|193:275,1,112
329,155,55869,1,0,0:0:0:0:
399,354,56043,1,0,0:0:0:0:
173,159,56217,2,0,L|47:77,1,112
54,89,56479,1,0,0:0:0:0:
28,98,56566,2,0,P|44:143|-10:145,1,112
124,104,56915,5,0,0:0:0:0:
391,70,57264,1,0,0:0:0:0:
512,245,57613,1,0,0:0:0:0:
304,312,57962,5,0,0:0:0:0:
144,228,58136,1,0,0:0:0:0:
316,100,58310,2,0,P|276:168|200:184,1,112
180,48,58659,1,0,0:0:0:0:
368,32,58834,1,0,0:0:0:0:
332,172,59008,1,0,0:0:0:0:
180,48,59183,1,0,0:0:0:0:
180,48,59270,1,0,0:0:0:0:
180,48,59357,2,0,P|168:120|176:180,1,112
324,272,59706,2,0,L|208:268,1,112
80,272,60055,5,0,0:0:0:0:
60,116,60229,1,0,0:0:0:0:
284,112,60404,2,0,P|208:100|176:112,1,112
372,152,60752,5,0,0:0:0:0:
300,292,60927,1,0,0:0:0:0:
472,200,61101,1,0,0:0:0:0:
400,328,61276,1,0,0:0:0:0:
368,336,61450,2,0,L|224:332,1,140
40,264,61799,2,0,P|40:172|28:116,1,140
48,112,62060,1,0,0:0:0:0:
68,100,62148,1,0,0:0:0:0:
84,92,62235,1,0,0:0:0:0:
104,84,62322,1,0,0:0:0:0:
120,80,62409,1,0,0:0:0:0:
144,80,62497,6,0,P|232:92|316:80,1,167.999994873047
332,96,62758,1,0,0:0:0:0:
352,108,62845,2,0,P|356:216|360:296,1,167.999994873047
72,228,63194,1,0,0:0:0:0:
72,228,63369,1,0,0:0:0:0:
72,228,63543,2,0,P|152:236|108:272,1,167.999994873047
76,304,63892,2,0,P|160:340|224:292,1,167.999994873047
232,284,64154,1,0,0:0:0:0:
240,264,64241,1,0,0:0:0:0:
224,128,64415,1,0,0:0:0:0:
320,136,64590,2,0,P|408:144|488:140,1,167.999994873047
440,68,64938,2,0,L|372:234,1,167.999989151001,8|8,0:0|0:0,0:0:0:0:
304,212,65287,6,0,P|312:252|432:268,1,167.999994873047
432,256,65549,1,0,0:0:0:0:
444,240,65636,1,0,0:0:0:0:
456,224,65723,1,0,0:0:0:0:
464,212,65810,1,0,0:0:0:0:
424,32,65985,2,0,P|488:96|476:184,1,167.999994873047
92,176,66334,2,0,P|60:260|104:324,1,167.999994873047
172,124,66683,5,0,0:0:0:0:
268,232,66857,1,0,0:0:0:0:
312,104,67031,1,0,0:0:0:0:
388,224,67206,1,0,0:0:0:0:
420,228,67380,2,0,B|456:252|456:252|556:252,2,83.9999945755007,8|8|8,0:0|0:0|0:0,0:0:0:0:
408,200,67642,1,0,0:0:0:0:
400,172,67729,2,0,P|400:76|328:36,1,167.999994873047
344,136,68078,6,0,P|276:76|340:64,1,167.999994873047
112,224,68427,2,0,P|28:288|8:200,1,167.999994873047
136,144,68776,1,0,0:0:0:0:
256,352,68950,1,0,0:0:0:0:
136,144,69124,2,0,P|232:136|296:180,1,167.999989151001,8|8,0:0|0:0,0:0:0:0:
336,272,69473,5,0,0:0:0:0:
376,144,69648,1,0,0:0:0:0:
340,108,69735,1,0,0:0:0:0:
308,88,69822,2,0,P|208:72|148:44,1,167.999994873047
24,80,70171,1,0,0:0:0:0:
80,232,70345,1,0,0:0:0:0:
184,136,70520,2,0,P|216:224|208:296,1,167.999994873047
404,144,70869,5,0,0:0:0:0:
349,210,71043,1,0,0:0:0:0:
404,144,71217,2,0,P|336:136|352:212,1,167.999994873047
84,132,71566,1,0,0:0:0:0:
133,213,71741,1,0,0:0:0:0:
84,132,71915,2,0,P|164:168|108:216,1,167.999994873047
44,236,72264,6,0,P|48:316|156:284,1,167.999994873047,8|8,0:0|0:0,0:0:0:0:
236,312,72613,2,0,P|352:284|412:264,1,167.999994873047
440,364,72962,2,0,P|452:188|312:216,1,335.999989746094,8|8,0:0|0:0,0:0:0:0:
304,196,73398,1,0,0:0:0:0:
280,200,73485,1,0,0:0:0:0:
260,200,73572,1,0,0:0:0:0:
236,200,73659,2,0,P|136:208|72:164,1,167.999994873047
68,168,73921,1,0,0:0:0:0:
56,152,74008,1,0,0:0:0:0:
48,132,74095,1,0,0:0:0:0:
40,108,74183,1,0,0:0:0:0:
176,28,74357,1,0,0:0:0:0:
364,56,74531,1,0,0:0:0:0:
476,312,74706,2,0,P|460:204|484:144,1,167.999994873047
416,72,75055,6,0,P|360:160|284:164,1,167.999994873047
276,184,75316,1,0,0:0:0:0:
256,196,75404,2,0,P|216:284|252:340,1,167.999994873047
480,276,75752,1,0,0:0:0:0:
376,152,75927,1,0,0:0:0:0:
256,196,76101,2,0,P|232:108|256:36,1,167.999994873047
304,328,76450,5,0,0:0:0:0:
396,224,76624,1,0,0:0:0:0:
408,188,76712,1,0,0:0:0:0:
416,156,76799,1,0,0:0:0:0:
336,24,76973,1,0,0:0:0:0:
104,324,77148,2,0,P|124:248|224:220,1,167.999994873047,8|8,0:0|0:0,0:0:0:0:
484,48,77497,2,0,P|452:132|368:152,1,167.999994873047
136,24,77845,2,0,P|224:60|244:156,1,167.999994873047
432,348,78194,2,0,P|344:304|324:228,1,167.999994873047
312,216,78543,1,0,0:0:0:0:
304,184,78630,1,0,0:0:0:0:
300,156,78717,1,0,0:0:0:0:
296,128,78805,1,0,0:0:0:0:
296,108,78892,2,0,P|344:56|352:120,1,167.999994873047
356,160,79241,6,0,P|380:228|420:156,1,167.999994873047
440,152,79502,1,0,0:0:0:0:
448,136,79590,1,0,0:0:0:0:
488,40,79764,1,0,0:0:0:0:
360,72,79938,2,0,B|332:84|332:84|320:76|320:76|320:88|320:88|308:84|308:84|312:96|312:96|300:92|300:92|300:100|300:100|288:92|288:92|288:104|288:104|276:96|276:96|276:112|276:112|264:100|264:100|256:116|256:116|244:108|244:108|244:120|244:120|232:112|232:112|232:128|232:128|220:116|220:116|224:132|224:132|208:124|208:124|208:140|208:140|184:136,1,335.999989746094
12,48,80462,1,0,0:0:0:0:
72,272,80636,6,0,L|240:336,1,167.999994873047
264,328,80898,1,0,0:0:0:0:
296,320,80985,1,0,0:0:0:0:
448,288,81159,1,0,0:0:0:0:
416,188,81334,2,0,B|400:156|400:156|392:160|392:160|400:152|400:152|392:156|392:156|400:148|400:148|392:152|392:152|400:144|400:144|388:148|388:148|400:140|400:140|388:144|388:144|400:136|400:136|384:140|384:140|396:132|396:132|380:136|380:136|392:124|392:124|380:124|380:124|388:116|388:116|376:120|376:120|384:112|384:112|372:116|372:116|380:108|380:108|372:112|372:112|376:104|376:104|368:108|368:108|376:96|376:96|364:104|364:104|368:104,1,335.999989746094
236,36,82031,5,0,0:0:0:0:
112,236,82380,1,0,0:0:0:0:
328,136,82555,1,0,0:0:0:0:
276,324,82729,1,0,0:0:0:0:
392,224,82904,1,0,0:0:0:0:
404,368,83078,1,0,0:0:0:0:
512,208,83252,1,0,0:0:0:0:
460,24,83427,6,0,P|364:64|280:56,1,167.999994873047
301,61,83688,1,0,0:0:0:0:
301,61,83776,1,0,0:0:0:0:
96,32,83950,1,0,0:0:0:0:
24,344,84124,2,0,P|32:268|16:160,1,167.999994873047
32,156,84386,1,0,0:0:0:0:
52,140,84473,1,0,0:0:0:0:
76,128,84560,1,0,0:0:0:0:
104,120,84648,1,0,0:0:0:0:
124,116,84735,1,0,0:0:0:0:
140,112,84822,1,0,0:0:0:0:
0,32,95985,6,0,B|12:40|12:40|20:36|20:36|20:44|20:44|24:40|24:40|24:48|24:48|32:44|32:44|28:52|28:52|36:48|36:48|32:56|32:56|40:52|40:52|36:60|36:60|44:56|44:56|40:64|40:64|48:60|48:60|44:68|44:68|52:64|52:64|48:76|48:76|56:68|56:68|52:80|52:80|60:72|60:72,1,186.666666666667
152,172,96334,1,0,0:0:0:0:
304,88,96508,1,0,0:0:0:0:
283,218,96683,1,0,0:0:0:0:
304,88,96857,2,0,P|312:164|232:252,1,139.999995231629,0|8,0:0|0:0,0:0:0:0:
112,120,97206,2,0,L|252:144,1,140
400,80,97555,5,0,0:0:0:0:
420,100,97642,1,0,0:0:0:0:
440,120,97729,2,0,P|456:204|424:268,1,140
164,240,98078,1,0,0:0:0:0:
308,360,98252,1,0,0:0:0:0:
344,208,98427,2,0,P|288:124|204:88,1,140
8,96,98776,6,0,B|44:84|44:84|92:56,1,69.9999976158143
268,40,99037,1,0,0:0:0:0:
264,56,99124,2,0,P|244:144|256:204,1,140
296,308,99473,1,0,0:0:0:0:
328,296,99560,1,0,0:0:0:0:
352,280,99648,1,0,0:0:0:0:
368,264,99735,2,0,P|416:263|465:215,1,69.9999976158143,0|8,0:0|0:0,0:0:0:0:
512,152,99997,1,0,0:0:0:0:
456,52,100171,5,0,0:0:0:0:
324,92,100345,1,0,0:0:0:0:
424,200,100520,1,0,0:0:0:0:
324,92,100694,1,0,0:0:0:0:
336,256,100869,1,0,0:0:0:0:
232,192,101043,1,0,0:0:0:0:
208,180,101130,1,0,0:0:0:0:
188,168,101217,2,0,P|104:128|84:68,1,140
448,40,101566,6,0,L|304:56,1,140
108,316,101915,2,0,L|252:296,1,140,8|0,0:0|0:0,0:0:0:0:
412,260,102264,1,0,0:0:0:0:
320,164,102438,2,0,P|332:72|408:40,1,140
392,48,102700,1,0,0:0:0:0:
416,56,102787,1,0,0:0:0:0:
436,72,102874,1,0,0:0:0:0:
448,92,102962,1,0,0:0:0:0:
460,116,103049,1,0,0:0:0:0:
468,148,103136,5,0,0:0:0:0:
460,172,103223,1,0,0:0:0:0:
444,192,103310,2,0,P|396:240|440:264,1,140
504,236,103659,1,0,0:0:0:0:
324,208,103834,1,0,0:0:0:0:
400,144,104008,2,0,P|336:68|272:36,1,140
124,56,104357,5,0,0:0:0:0:
112,88,104444,1,0,0:0:0:0:
108,116,104531,1,0,0:0:0:0:
112,144,104619,1,0,0:0:0:0:
128,180,104706,1,0,0:0:0:0:
140,204,104793,2,0,L|212:260,1,70
328,296,105055,5,0,0:0:0:0:
356,276,105142,1,0,0:0:0:0:
368,240,105229,1,0,0:0:0:0:
372,208,105316,1,0,0:0:0:0:
360,172,105404,1,0,0:0:0:0:
344,140,105491,2,0,L|296:60,1,70
196,48,105752,6,0,L|56:72,1,140
16,244,106101,2,0,L|168:216,1,140
252,272,106450,1,0,0:0:0:0:
284,296,106537,1,0,0:0:0:0:
316,304,106624,1,0,0:0:0:0:
344,308,106799,2,0,P|396:292|376:356,1,140
480,352,107148,6,0,P|480:264|448:216,1,140
432,200,107409,1,0,0:0:0:0:
412,180,107497,2,0,P|352:140|408:100,1,140
456,120,107845,1,0,0:0:0:0:
308,148,108020,2,0,L|148:152,1,140
104,256,108369,2,0,B|108:340|108:340|196:292,1,140
272,212,108717,5,0,0:0:0:0:
272,212,108805,1,0,0:0:0:0:
272,212,108892,1,0,0:0:0:0:
416,228,109066,1,0,0:0:0:0:
416,228,109241,2,0,P|432:160|414:88,1,139.999995231629,0|8,0:0|0:0,0:0:0:0:
216,8,109590,2,0,L|72:40,1,140
44,124,109938,5,0,0:0:0:0:
56,152,110026,1,0,0:0:0:0:
64,180,110113,1,0,0:0:0:0:
80,204,110200,1,0,0:0:0:0:
100,216,110287,2,0,P|188:224|220:320,1,140
280,336,110636,1,0,0:0:0:0:
308,316,110723,1,0,0:0:0:0:
328,284,110810,1,0,0:0:0:0:
336,260,110898,1,0,0:0:0:0:
348,240,110985,2,0,P|348:152|332:96,1,140
228,52,111334,6,0,B|224:56|224:56|216:48|216:48|216:64|216:64|212:52|212:52|208:64|208:64|204:52|204:52|200:64|200:64|196:52|196:52|192:64|192:64|188:48|188:48|184:64|184:64|180:52|180:52|176:68|176:68|168:52|168:52|168:72|168:72,1,140
104,120,111683,2,0,P|40:176|40:236,1,140
164,340,112031,1,0,0:0:0:0:
280,336,112206,1,0,0:0:0:0:
312,328,112293,1,0,0:0:0:0:
344,312,112380,2,0,B|416:240|416:240|400:144,1,140
288,152,112729,6,0,P|320:80|388:100,1,140
164,252,113078,2,0,P|160:340|108:344,1,140
0,272,113427,1,0,0:0:0:0:
112,152,113601,2,0,B|120:160|120:160|128:156|128:156|124:168|124:168|136:160|136:160|132:172|132:172|144:168|144:168|136:176|136:176|148:172|148:172|140:184|140:184|152:176|152:176|144:188|144:188|156:180|156:180|148:192|148:192|160:184|160:184|152:196|152:196|168:188|168:188|156:200|156:200|168:192|168:192|160:200|160:200|180:200|180:200,1,256.666666666667
236,132,114299,5,0,0:0:0:0:
236,132,114386,1,0,0:0:0:0:
236,132,114473,2,0,P|276:80|280:-36,1,140,8|0,0:0|0:0,0:0:0:0:
440,56,114822,1,0,0:0:0:0:
360,168,114997,1,0,0:0:0:0:
504,196,115171,2,0,P|508:284|420:324,1,140,8|0,0:0|0:0,0:0:0:0:
336,320,115520,5,0,0:0:0:0:
296,308,115607,1,0,0:0:0:0:
264,300,115694,1,0,0:0:0:0:
232,292,115781,1,0,0:0:0:0:
204,284,115869,1,0,0:0:0:0:
68,240,116043,1,0,0:0:0:0:
36,52,116217,1,0,0:0:0:0:
36,52,116305,1,0,0:0:0:0:
36,52,116392,2,0,P|16:100|-20:116,2,69.9999976158143,0|0|8,0:0|0:0|0:0,0:0:0:0:
212,16,116741,1,0,0:0:0:0:
176,164,116915,6,0,P|136:136|200:124,1,140
248,216,117264,2,0,P|280:260|216:260,1,140,8|0,0:0|0:0,0:0:0:0:
96,264,117613,1,0,0:0:0:0:
0,216,117787,1,0,0:0:0:0:
20,180,117874,1,0,0:0:0:0:
56,156,117962,1,0,0:0:0:0:
96,148,118049,1,0,0:0:0:0:
136,160,118136,1,0,0:0:0:0:
172,180,118223,1,0,0:0:0:0:
192,212,118310,6,0,P|208:248|240:276,1,55.9999980926514,8|0,0:0|0:0,0:0:0:0:
252,56,118659,2,0,P|227:45|200:39,1,55.9999980926514,8|0,0:0|0:0,0:0:0:0:
424,156,119008,2,0,P|420:180|384:232,1,55.9999980926514,8|0,0:0|0:0,0:0:0:0:
188,300,119357,5,0,0:0:0:0:
308,224,119531,1,0,0:0:0:0:
356,360,119706,2,0,P|406:337|464:396,1,112
408,264,120055,1,0,0:0:0:0:
496,128,120229,1,0,0:0:0:0:
348,64,120404,2,0,P|284:60|237:81,1,111.999996185303
244,244,120752,2,0,P|276:192|280:116,1,111.999996185303
136,72,121101,6,0,P|100:84|64:132,1,55.9999980926514,8|0,0:0|0:0,0:0:0:0:
280,252,121450,2,0,P|312:240|364:208,1,55.9999980926514,8|0,0:0|0:0,0:0:0:0:
56,192,121799,2,0,P|24:196|0:208,1,55.9999980926514,8|0,0:0|0:0,0:0:0:0:
76,280,122148,5,0,0:0:0:0:
240,360,122322,1,0,0:0:0:0:
196,192,122497,2,0,P|192:120|200:40,1,112
0,36,122845,1,0,0:0:0:0:
0,216,123020,1,0,0:0:0:0:
96,32,123194,1,0,0:0:0:0:
128,28,123281,1,0,0:0:0:0:
160,28,123369,1,0,0:0:0:0:
192,36,123456,1,0,0:0:0:0:
220,56,123543,1,0,0:0:0:0:
244,80,123630,1,0,0:0:0:0:
256,112,123717,1,0,0:0:0:0:
264,144,123805,1,0,0:0:0:0:
272,176,123892,6,0,P|272:204|244:260,1,55.9999980926514,8|0,0:0|0:0,0:0:0:0:
492,368,124241,2,0,P|492:340|520:284,1,55.9999980926514,8|0,0:0|0:0,0:0:0:0:
444,84,124590,2,0,P|415:53|396:40,1,55.9999980926514,8|0,0:0|0:0,0:0:0:0:
116,288,124938,6,0,P|160:284|220:220,1,112
416,112,125287,2,0,P|360:108|292:160,1,112
264,260,125636,1,0,0:0:0:0:
408,156,125810,1,0,0:0:0:0:
248,72,125985,1,0,0:0:0:0:
408,156,126159,1,0,0:0:0:0:
408,156,126247,1,0,0:0:0:0:
408,156,126334,2,0,P|432:208|464:312,1,111.999996185303,8|8,0:0|0:0,0:0:0:0:
332,252,126683,2,0,P|260:264|256:352,1,168
380,348,127031,5,0,0:0:0:0:
408,184,127206,1,0,0:0:0:0:
288,64,127380,2,0,P|256:76|188:80,2,55.9999980926514,8|8|8,0:0|0:0|0:0,0:0:0:0:
64,60,127729,5,0,0:0:0:0:
192,136,127904,1,0,0:0:0:0:
76,208,128078,1,0,0:0:0:0:
200,252,128252,1,0,0:0:0:0:
96,336,128427,1,0,0:0:0:0:
260,352,128601,1,0,0:0:0:0:
192,156,128776,6,0,L|237:201,2,34.9999988079071,8|8|8,0:0|0:0|0:0,0:0:0:0:
224,132,128950,2,0,L|268:176,2,34.9999988079071,8|8|8,0:0|0:0|0:0,0:0:0:0:
260,112,129124,2,0,P|304:112|364:68,1,83.9999945755007,8|8,0:0|0:0,0:0:0:0:
375,93,129299,2,0,L|399:25,2,41.9999972877504,8|8|8,0:0|0:0|0:0,0:0:0:0:
391,106,129473,6,0,P|431:194|403:266,1,167.999994873047
393,280,129735,1,0,0:0:0:0:
378,299,129822,1,0,0:0:0:0:
284,235,129997,1,0,0:0:0:0:
284,235,130171,2,0,P|266:165|222:215,1,167.999994873047
220,70,130520,1,0,0:0:0:0:
220,70,130607,1,0,0:0:0:0:
220,70,130694,1,0,0:0:0:0:
236,140,130869,6,0,P|348:164|388:92,1,167.999994873047
392,108,131130,1,0,0:0:0:0:
392,76,131217,2,0,P|408:32|344:64,1,167.999994873047,8|8,0:0|0:0,0:0:0:0:
316,192,131566,1,0,0:0:0:0:
164,76,131741,1,0,0:0:0:0:
152,252,131915,2,0,P|76:304|-48:284,1,167.999989151001,8|8,0:0|0:0,0:0:0:0:
0,88,132264,5,0,0:0:0:0:
192,72,132438,1,0,0:0:0:0:
212,88,132526,1,0,0:0:0:0:
232,100,132613,2,0,P|292:176|280:248,1,167.999994873047
148,288,132962,1,0,0:0:0:0:
448,236,133136,1,0,0:0:0:0:
284,104,133310,1,0,0:0:0:0:
304,344,133485,1,0,0:0:0:0:
364,232,133659,6,0,P|308:196|372:192,1,167.999994873047
112,56,134008,2,0,P|160:104|88:108,1,167.999994873047
220,184,134357,2,0,B|312:200|284:296|352:360|448:312|440:216|372:196|280:200|276:272,1,335.999989746094
348,52,135055,6,0,P|416:140|404:200,1,167.999994873047
392,228,135316,1,0,0:0:0:0:
372,256,135404,1,0,0:0:0:0:
288,316,135578,1,0,0:0:0:0:
144,208,135752,2,0,P|68:244|100:348,1,167.999994873047
280,192,136101,2,0,L|176:56,1,167.999994873047
280,192,136450,5,0,0:0:0:0:
164,220,136624,1,0,0:0:0:0:
172,244,136712,1,0,0:0:0:0:
188,264,136799,2,0,P|244:304|412:284,1,167.999989151001,8|8,0:0|0:0,0:0:0:0:
284,96,137148,1,0,0:0:0:0:
284,96,137322,1,0,0:0:0:0:
284,96,137497,2,0,P|224:128|216:264,1,167.999989151001,8|8,0:0|0:0,0:0:0:0:
340,144,137845,2,0,P|356:72|244:44,1,167.999994873047
256,32,138107,1,0,0:0:0:0:
232,44,138194,2,0,L|68:100,1,167.999994873047
8,244,138543,1,0,0:0:0:0:
248,216,138717,1,0,0:0:0:0:
116,336,138892,1,0,0:0:0:0:
120,140,139066,1,0,0:0:0:0:
216,72,139241,2,0,P|176:120|256:100,1,167.999994873047
412,148,139590,2,0,P|492:180|428:212,1,167.999994873047
320,236,139938,2,0,L|256:240,8,41.9999987182618
364,224,140374,1,0,0:0:0:0:
388,204,140462,1,0,0:0:0:0:
400,180,140549,1,0,0:0:0:0:
412,156,140636,6,0,L|360:44,2,83.9999974365235
432,168,140898,1,0,0:0:0:0:
444,184,140985,2,0,P|428:276|324:304,1,167.999994873047
372,224,141334,2,0,L|212:144,1,167.999994873047,8|8,0:0|0:0,0:0:0:0:
120,304,141683,2,0,P|84:208|104:132,1,167.999994873047
164,56,142031,5,0,0:0:0:0:
320,56,142206,1,0,0:0:0:0:
344,72,142293,1,0,0:0:0:0:
368,92,142380,1,0,0:0:0:0:
512,168,142555,1,0,0:0:0:0:
448,280,142729,2,0,P|368:320|292:280,1,167.999994873047
232,120,143078,2,0,P|152:68|88:128,1,167.999994873047
24,188,143427,6,0,P|67:222|96:228,2,83.9999974365235,8|8|8,0:0|0:0|0:0,0:0:0:0:
8,156,143688,1,0,0:0:0:0:
8,128,143776,2,0,P|72:56|144:68,1,167.999994873047
360,80,144124,1,0,0:0:0:0:
176,172,144299,1,0,0:0:0:0:
356,248,144473,1,0,0:0:0:0:
248,44,144648,1,0,0:0:0:0:
212,240,144822,5,0,0:0:0:0:
360,80,144997,1,0,0:0:0:0:
356,248,145171,1,0,0:0:0:0:
460,136,145345,1,0,0:0:0:0:
480,248,145520,2,0,P|440:336|332:344,1,167.999994873047
280,276,145869,2,0,L|192:128,1,167.999994873047
76,40,146217,5,0,0:0:0:0:
76,40,146305,1,0,0:0:0:0:
76,40,146392,1,0,0:0:0:0:
180,184,146566,2,0,P|104:208|12:173,1,167.999989151001,8|8,0:0|0:0,0:0:0:0:
0,348,146915,1,0,0:0:0:0:
200,360,147090,1,0,0:0:0:0:
116,216,147264,1,0,0:0:0:0:
212,96,147438,5,0,0:0:0:0:
332,56,147613,2,0,P|408:104|392:184,1,167.999994873047
400,172,147874,1,0,0:0:0:0:
400,172,147962,1,0,0:0:0:0:
160,324,148136,1,0,0:0:0:0:
296,68,148310,2,0,B|300:204|252:216|192:124|144:92|124:124|172:248,1,335.999989746094
312,344,149008,5,0,0:0:0:0:
484,148,149183,1,0,0:0:0:0:
224,268,149357,1,0,0:0:0:0:
340,112,149531,1,0,0:0:0:0:
196,120,149706,2,0,P|104:64|36:80,1,167.999994873047
24,88,149967,1,0,0:0:0:0:
20,112,150055,2,0,B|1:172|30:222|30:222|-4:265|-17:305,1,167.999989151001,8|8,0:0|0:0,0:0:0:0:
108,356,150404,5,0,0:0:0:0:
200,132,150578,1,0,0:0:0:0:
284,376,150752,1,0,0:0:0:0:
372,180,150927,1,0,0:0:0:0:
484,320,151101,2,0,P|512:212|492:140,1,167.999994873047
480,144,151363,1,0,0:0:0:0:
456,128,151450,1,0,0:0:0:0:
432,116,151537,1,0,0:0:0:0:
408,112,151624,2,0,L|296:96,1,83.9999974365235
292,100,151799,1,0,0:0:0:0:
264,104,151886,1,0,0:0:0:0:
232,112,151973,2,0,L|152:176,1,83.9999974365235
152,200,152235,5,0,0:0:0:0:
152,240,152322,1,0,0:0:0:0:
172,280,152409,1,0,0:0:0:0:
200,308,152497,1,0,0:0:0:0:
236,332,152584,1,0,0:0:0:0:
280,328,152671,1,0,0:0:0:0:
324,312,152758,1,0,0:0:0:0:
360,288,152845,1,0,0:0:0:0:
372,248,152933,5,0,0:0:0:0:
360,200,153020,1,0,0:0:0:0:
352,168,153107,1,0,0:0:0:0:
320,156,153194,1,0,0:0:0:0:
320,120,153281,1,0,0:0:0:0:
288,120,153369,1,0,0:0:0:0:
280,96,153456,1,0,0:0:0:0:
248,100,153543,1,0,0:0:0:0:
248,64,153630,5,0,0:0:0:0:
216,104,153717,1,0,0:0:0:0:
200,60,153805,1,0,0:0:0:0:
176,104,153892,1,0,0:0:0:0:
156,76,153979,1,0,0:0:0:0:
140,116,154066,1,0,0:0:0:0:
128,88,154154,1,0,0:0:0:0:
116,128,154241,1,0,0:0:0:0:
48,80,154415,5,0,0:0:0:0:
216,168,154590,2,0,P|200:236|248:184,1,167.999994873047
284,232,154851,5,0,0:0:0:0:
292,280,154938,1,0,0:0:0:0:
276,328,155026,1,0,0:0:0:0:
228,344,155113,1,0,0:0:0:0:
176,344,155200,1,0,0:0:0:0:
144,304,155287,1,0,0:0:0:0:
152,256,155374,1,0,0:0:0:0:
188,220,155462,1,0,0:0:0:0:
224,184,155549,5,0,0:0:0:0:
232,136,155636,1,0,0:0:0:0:
192,104,155723,1,0,0:0:0:0:
140,108,155810,1,0,0:0:0:0:
108,148,155898,1,0,0:0:0:0:
92,196,155985,1,0,0:0:0:0:
100,244,156072,1,0,0:0:0:0:
124,288,156159,6,0,P|156:332|208:360,2,83.9999945755007,8|8|8,0:0|0:0|0:0,0:0:0:0:
268,284,156508,2,0,L|196:272,1,55.9999980926514,8|8,0:0|0:0,0:0:0:0:
324,244,156683,2,0,L|252:232,1,55.9999980926514,8|8,0:0|0:0,0:0:0:0:
384,192,156857,2,0,L|312:180,1,55.9999980926514,8|8,0:0|0:0,0:0:0:0:
296,152,157031,6,0,L|304:120,2,27.9999990463257
248,152,157206,6,0,L|256:120,2,27.9999990463257
224,168,157380,6,0,P|160:172|200:244,1,167.999994873047
208,272,157642,1,0,0:0:0:0:
216,304,157729,1,0,0:0:0:0:
200,324,157816,1,0,0:0:0:0:
172,332,157904,1,0,0:0:0:0:
136,324,157991,1,0,0:0:0:0:
100,308,158078,1,0,0:0:0:0:
80,280,158165,1,0,0:0:0:0:
64,256,158252,5,0,0:0:0:0:
56,224,158340,1,0,0:0:0:0:
52,200,158427,1,0,0:0:0:0:
64,172,158514,1,0,0:0:0:0:
76,156,158601,1,0,0:0:0:0:
88,136,158688,1,0,0:0:0:0:
104,124,158776,1,0,0:0:0:0:
120,112,158863,1,0,0:0:0:0:
136,104,158950,5,0,0:0:0:0:
148,96,159037,1,0,0:0:0:0:
156,92,159124,1,0,0:0:0:0:
168,84,159212,1,0,0:0:0:0:
184,80,159299,1,0,0:0:0:0:
200,76,159386,1,0,0:0:0:0:
216,72,159473,1,0,0:0:0:0:
232,68,159560,1,0,0:0:0:0:
248,64,159648,5,0,0:0:0:0:
260,60,159735,1,0,0:0:0:0:
276,56,159822,1,0,0:0:0:0:
292,52,159909,1,0,0:0:0:0:
304,52,159997,1,0,0:0:0:0:
312,52,160084,1,0,0:0:0:0:
324,52,160171,6,0,P|404:108|344:136,1,167.999994873047
160,88,160520,2,0,P|127:114|92:128,4,55.9999980926514,8|0|0|0|8,0:0|0:0|0:0|0:0|0:0,0:0:0:0:
184,68,160956,5,0,0:0:0:0:
232,56,161043,1,0,0:0:0:0:
280,68,161130,1,0,0:0:0:0:
328,88,161217,1,0,0:0:0:0:
348,136,161305,1,0,0:0:0:0:
352,188,161392,1,0,0:0:0:0:
328,232,161479,1,0,0:0:0:0:
304,276,161566,1,0,0:0:0:0:
296,328,161654,1,0,0:0:0:0:
320,372,161741,6,0,P|408:360|464:252,1,167.999989151001,8|8,0:0|0:0,0:0:0:0:
340,304,162090,2,0,P|364:232|308:252,1,167.999994873047,8|8,0:0|0:0,0:0:0:0:
216,168,162438,1,0,0:0:0:0:
200,184,162526,1,0,0:0:0:0:
188,200,162613,1,0,0:0:0:0:
176,216,162700,1,0,0:0:0:0:
164,232,162787,1,0,0:0:0:0:
72,308,162962,6,0,B|127:310|127:310|173:340,1,111.999996185303
174,341,163223,1,0,0:0:0:0:
174,341,163310,1,0,0:0:0:0:
336,272,163485,1,0,0:0:0:0:
260,328,163659,2,0,P|236:284|208:212,1,112
408,112,164008,2,0,P|460:136|428:176,1,112
304,148,164357,5,0,0:0:0:0:
164,84,164531,2,0,P|148:56|152:8,2,55.9999980926514
200,104,164880,1,0,0:0:0:0:
300,228,165055,2,0,P|288:284|224:348,1,111.999996185303
208,92,165404,2,0,P|248:44|336:44,1,111.999996185303
368,160,165752,1,0,0:0:0:0:
324,280,165927,1,0,0:0:0:0:
324,280,166014,1,0,0:0:0:0:
324,280,166101,2,0,P|376:312|464:288,1,111.999996185303
404,200,166450,1,0,0:0:0:0:
404,200,166624,1,0,0:0:0:0:
360,96,166799,1,0,0:0:0:0:
360,96,166973,1,0,0:0:0:0:
272,48,167148,2,0,L|164:88,1,112
140,236,167497,2,0,L|260:192,1,112
284,76,167845,1,0,0:0:0:0:
300,112,167933,1,0,0:0:0:0:
316,144,168020,1,0,0:0:0:0:
332,184,168107,1,0,0:0:0:0:
344,220,168194,1,0,0:0:0:0:
196,100,168543,6,0,L|80:140,1,112
196,296,168892,2,0,L|308:240,1,112
400,348,169241,1,0,0:0:0:0:
512,188,169415,1,0,0:0:0:0:
296,168,169590,2,0,P|232:156|184:157,1,112
72,224,169938,6,0,P|52:128|64:92,1,112
64,92,170200,1,0,0:0:0:0:
88,64,170287,2,0,P|136:68|120:120,1,112
144,320,170636,1,0,0:0:0:0:
360,344,170810,1,0,0:0:0:0:
248,160,170985,2,0,P|288:96|360:72,1,111.999996185303
308,260,171334,6,0,P|268:324|196:348,1,111.999996185303
204,340,171595,1,0,0:0:0:0:
172,328,171683,1,0,0:0:0:0:
80,260,171857,1,0,0:0:0:0:
0,88,172031,5,0,0:0:0:0:
192,0,172206,1,0,0:0:0:0:
128,176,172380,1,0,0:0:0:0:
192,0,172555,1,0,0:0:0:0:
240,140,172729,6,0,L|380:176,1,112
504,104,173078,2,0,L|516:224,1,83.9999945755007
424,320,173427,2,0,L|384:408,1,69.9999976158143
64,232,173776,6,0,L|36:252,4,27.9999990463257,8|8|8|8|8,0:0|0:0|0:0|0:0|0:0,0:0:0:0:
176,40,174124,5,0,0:0:0:0:
176,40,174299,1,0,0:0:0:0:
176,40,174473,2,0,P|288:60|368:176,1,188.999994283676,8|8,0:0|0:0,0:0:0:0:
236,128,174822,1,0,0:0:0:0:
428,40,174997,1,0,0:0:0:0:
404,224,175171,2,0,P|352:288|220:312,1,188.999994283676,8|8,0:0|0:0,0:0:0:0:
84,96,175520,2,0,P|56:200|96:288,1,189.000000720978
112,292,175781,1,0,0:0:0:0:
132,304,175869,1,0,0:0:0:0:
152,320,175956,1,0,0:0:0:0:
172,332,176043,1,0,0:0:0:0:
360,344,176217,1,0,0:0:0:0:
224,180,176392,1,0,0:0:0:0:
392,192,176566,2,0,P|384:80|328:36,1,189.000000720978
188,64,176915,5,0,0:0:0:0:
0,156,177090,1,0,0:0:0:0:
140,200,177264,2,0,L|276:344,1,189.000000720978
436,332,177613,1,0,0:0:0:0:
512,132,177787,1,0,0:0:0:0:
328,172,177962,2,0,P|296:68|360:20,1,189.000000720978
432,288,178310,6,0,L|244:340,1,189.000000720978
4,144,178659,2,0,L|208:96,1,189.000000720978
212,104,178921,1,0,0:0:0:0:
228,112,179008,1,0,0:0:0:0:
240,124,179095,1,0,0:0:0:0:
256,136,179183,1,0,0:0:0:0:
268,148,179270,1,0,0:0:0:0:
280,160,179357,1,0,0:0:0:0:
272,288,179706,5,0,0:0:0:0:
372,120,179880,1,0,0:0:0:0:
448,304,180055,2,0,P|352:324|266:284,1,189.000000720978,8|8,0:0|0:0,0:0:0:0:
280,80,180404,1,0,0:0:0:0:
448,164,180578,1,0,0:0:0:0:
296,236,180752,1,0,0:0:0:0:
200,156,180927,5,0,0:0:0:0:
144,240,181101,1,0,0:0:0:0:
144,240,181188,1,0,0:0:0:0:
144,240,181276,1,0,0:0:0:0:
288,268,181450,1,0,0:0:0:0:
156,360,181624,1,0,0:0:0:0:
140,216,181799,2,0,P|80:176|104:252,1,189.000000720978,8|8,0:0|0:0,0:0:0:0:
200,352,182148,2,0,P|292:297|325:176,1,188.999994283676,8|8,0:0|0:0,0:0:0:0:
288,48,182497,5,0,0:0:0:0:
96,56,182671,1,0,0:0:0:0:
208,208,182845,1,0,0:0:0:0:
88,56,183020,1,0,0:0:0:0:
220,56,183194,5,0,0:0:0:0:
48,288,183369,1,0,0:0:0:0:
380,336,183543,1,0,0:0:0:0:
220,56,183717,1,0,0:0:0:0:
48,268,183892,5,0,0:0:0:0:
400,252,184066,1,0,0:0:0:0:
40,48,184241,1,0,0:0:0:0:
420,36,184415,1,0,0:0:0:0:
256,192,184590,12,0,190520,0:0:0:0:
256,192,190694,12,0,193659,0:0:0:0:
