osu file format v14

[General]
AudioFilename: audio.mp3
AudioLeadIn: 0
PreviewTime:118529
Countdown: 0
SampleSet: Soft
StackLeniency: 0.7
Mode: 0
LetterboxInBreaks: 0
WidescreenStoryboard: 1

[Editor]
Bookmarks: 10528,27224,43920,60615,77311,85659,94007,102355,102876,103398,103920,104442,104963,105485,106007,106529,107050,107572,108094,108615,109137,109659,110181,119050,152442,168094
DistanceSpacing: 1.2
BeatDivisor: 4
GridSize: 4
TimelineZoom: 1.4

[Metadata]
Title:Siren Song
TitleUnicode:Siren Song
Artist:MARUV
ArtistUnicode:MARUV
Creator:Shmiklak
Version:riffy's Hyper
Source:
Tags:marvollo m_a_r_v_o_l_l_o марув шлакоблочина Eurovision Song Contest 2019 евровидение анна корсун shlakoblochina ukraine Національний відбір на Євробачення english pop electronic riffy wajinshu bakari
BeatmapID:2575526
BeatmapSetID:1085819

[Difficulty]
HPDrainRate:5.5
CircleSize:4.3
OverallDifficulty:7.5
ApproachRate:8.6
SliderMultiplier:1.8
SliderTickRate:1

[Events]
//Background and Video events
0,0,"6whOv1TI54M.jpg",0,0
//Break Periods
2,102876,110043
//Storyboard Layer 0 (Background)
//Storyboard Layer 1 (Fail)
//Storyboard Layer 2 (Pass)
//Storyboard Layer 3 (Foreground)
//Storyboard Layer 4 (Overlay)
//Storyboard Sound Samples

[TimingPoints]
10529,521.739130434783,4,2,1,70,1,0
27224,-100,4,2,1,75,0,0
43920,-76.9230769230769,4,2,1,80,0,0
44442,-66.6666666666667,4,2,1,80,0,0
60615,-76.9230769230769,4,2,1,85,0,1
61137,-58.8235294117647,4,2,1,85,0,1
77311,-100,4,2,1,85,0,0
85659,-100,4,2,1,70,0,0
119050,-76.9230769230769,4,2,1,80,0,0
119572,-66.6666666666667,4,2,1,80,0,0
135746,-76.9230769230769,4,2,1,85,0,1
136268,-58.8235294117647,4,2,1,85,0,1
152442,-100,4,2,1,75,0,0
168615,-100,4,2,1,75,0,0

[Colours]
Combo1 : 245,250,67
Combo2 : 58,197,75
Combo3 : 58,148,214
Combo4 : 255,38,44
SliderTrackOverride : 69,69,69
SliderBorder : 255,45,45

[HitObjects]
22,306,10528,6,0,P|67:318|105:337,1,90,6|0,0:0|0:0,0:0:0:0:
105,337,11050,1,8,0:0:0:0:
38,231,11311,1,0,0:0:0:0:
196,265,11572,2,0,P|205:308|205:357,1,90,2|0,0:0|0:0,0:0:0:0:
204,362,12094,1,8,0:0:0:0:
22,306,12615,6,0,P|67:318|105:337,1,90,2|0,0:0|0:0,0:0:0:0:
105,337,13137,1,8,0:0:0:0:
38,231,13398,1,0,0:0:0:0:
196,265,13659,2,0,P|205:308|205:357,1,90,2|0,0:0|0:0,0:0:0:0:
204,362,14181,1,8,0:0:0:0:
314,317,14442,5,0,0:0:0:0:
324,326,14702,2,0,P|364:339|423:345,1,90,2|0,0:0|0:0,0:0:0:0:
503,213,15224,2,0,L|400:221,1,90,8|0,0:0|0:0,0:0:0:0:
291,98,15746,2,0,P|340:104|393:129,1,90,2|0,0:0|0:0,0:0:0:0:
386,125,16268,1,8,0:0:0:0:
391,117,16789,5,2,0:0:0:0:
324,214,17050,1,0,0:0:0:0:
428,344,17311,2,0,P|432:296|418:244,1,90,8|0,0:0|0:0,0:0:0:0:
419,250,17833,1,2,0:0:0:0:
191,360,18355,1,8,0:0:0:0:
22,306,18876,6,0,P|67:318|105:337,1,90,2|0,0:0|0:0,0:0:0:0:
105,337,19398,1,8,0:0:0:0:
38,231,19659,1,0,0:0:0:0:
196,265,19920,2,0,P|205:308|205:357,1,90,2|0,0:0|0:0,0:0:0:0:
204,362,20442,1,8,0:0:0:0:
336,272,20702,1,0,0:0:0:0:
503,370,20963,6,0,P|469:347|410:333,1,90,2|0,0:0|0:0,0:0:0:0:
417,338,21485,1,8,0:0:0:0:
153,357,22007,2,0,L|47:346,1,90,2|0,0:0|0:0,0:0:0:0:
60,341,22529,1,8,0:0:0:0:
270,351,23050,6,0,P|267:307|255:241,1,90,2|0,0:0|0:0,0:0:0:0:
333,104,23572,1,8,0:0:0:0:
331,114,24094,2,0,P|329:162|323:207,1,90,2|0,0:0|0:0,0:0:0:0:
168,155,24615,1,8,0:0:0:0:
143,260,24876,1,0,0:0:0:0:
136,267,25137,5,2,0:0:0:0:
272,160,25398,1,0,0:0:0:0:
400,287,25659,2,0,P|408:322|412:378,1,90,8|0,0:0|0:0,0:0:0:0:
364,158,26181,2,0,L|372:51,1,90,2|0,0:0|0:0,0:0:0:0:
247,216,26702,1,8,0:0:0:0:
242,224,27224,6,0,P|180:250|106:161,1,180,6|8,0:0|0:0,0:0:0:0:
363,33,28268,2,0,L|356:146,1,90,2|0,0:0|0:0,0:0:0:0:
459,249,28789,1,8,0:0:0:0:
263,213,29050,2,0,P|340:231|373:331,1,180,2|0,0:0|0:0,0:0:0:0:
225,363,29833,6,0,P|279:375|335:355,1,90,8|0,0:0|0:0,0:0:0:0:
375,318,30224,1,0,0:0:0:0:
384,324,30355,2,0,L|481:335,1,90,2|0,0:0|0:0,0:0:0:0:
335,201,30876,1,8,0:0:0:0:
331,209,31398,6,0,P|254:242|181:191,1,180,2|8,0:0|0:0,0:0:0:0:
187,19,32442,2,0,L|177:113,1,90,2|0,0:0|0:0,0:0:0:0:
42,221,32963,1,8,0:0:0:0:
254,281,33224,2,0,P|228:217|124:193,2,180,2|2|0,0:0|0:0|0:0,0:0:0:0:
376,371,34529,2,0,P|344:290|391:217,1,180,2|8,0:0|0:0,0:0:0:0:
497,30,35572,6,0,P|448:63|337:1,1,180,2|8,0:0|0:0,0:0:0:0:
145,97,36615,2,0,L|257:86,1,90,2|0,0:0|0:0,0:0:0:0:
94,179,37137,1,8,0:0:0:0:
181,291,37398,2,0,P|123:320|37:241,1,180,2|0,0:0|0:0,0:0:0:0:
197,171,38181,6,0,L|294:180,1,90,8|0,0:0|0:0,0:0:0:0:
362,139,38572,1,0,0:0:0:0:
369,143,38702,2,0,P|378:191|362:235,1,90,2|0,0:0|0:0,0:0:0:0:
304,360,39224,2,0,L|407:348,1,90,8|0,0:0|0:0,0:0:0:0:
470,369,39615,1,0,0:0:0:0:
478,382,39746,6,0,B|503:313|445:272|445:272|367:225|404:123,1,270,2|0,0:0|0:0,0:0:0:0:
512,174,40789,2,0,B|511:257|422:273|422:273|353:290|351:363,1,270,2|0,0:0|0:0,0:0:0:0:
358,368,41833,5,8,3:3:0:0:
240,319,42094,1,8,3:3:0:0:
28,369,42485,1,2,3:0:0:0:
110,180,42746,2,0,L|119:242,1,45,0|2,3:3|3:0,0:0:0:0:
47,49,43398,5,2,0:0:0:0:
110,243,43920,6,0,P|108:284|138:232,1,175.499991966248,4|0,3:3|0:0,0:0:0:0:
133,269,44442,5,8,3:0:0:0:
372,233,44702,1,0,0:0:0:0:
358,228,44963,2,0,P|285:253|255:383,1,202.500007724762,2|0,3:2|0:0,0:0:0:0:
354,368,45485,2,0,P|330:323|241:295,1,135.000005149842,8|0,3:0|0:0,0:0:0:0:
43,350,46007,2,0,L|186:360,1,135.000005149842,4|0,3:3|0:0,0:0:0:0:
183,369,46529,5,8,3:0:0:0:
141,121,46789,1,0,0:0:0:0:
133,113,47050,2,0,P|74:136|46:272,1,202.500007724762,2|0,3:2|0:0,0:0:0:0:
119,315,47572,2,0,L|266:296,1,135.000005149842,8|0,3:0|0:0,0:0:0:0:
494,346,48094,6,0,P|427:303|318:359,1,202.500007724762,4|0,3:3|0:0,0:0:0:0:
331,362,48615,1,8,3:0:0:0:
405,81,48876,1,0,0:0:0:0:
396,76,49137,2,0,P|328:89|259:206,1,202.500007724762,2|0,3:2|0:0,0:0:0:0:
331,260,49659,2,0,L|467:242,1,135.000005149842,8|0,3:0|0:0,0:0:0:0:
241,360,50181,6,0,P|190:339|167:334,1,67.5000025749208,4|0,3:3|0:0,0:0:0:0:
102,349,50442,1,0,0:0:0:0:
214,233,50702,1,8,3:0:0:0:
53,63,50963,1,0,0:0:0:0:
39,72,51224,6,0,P|97:117|211:62,1,202.500007724762,2|0,3:2|0:0,0:0:0:0:
274,111,51746,2,0,P|287:54|223:-5,1,135.000005149842,8|0,3:0|0:0,0:0:0:0:
209,232,52268,2,0,P|184:306|280:360,1,202.500007724762,4|0,3:3|0:0,0:0:0:0:
271,350,52789,5,8,3:0:0:0:
455,327,53050,1,0,0:0:0:0:
449,314,53311,6,0,P|399:248|282:271,1,202.500007724762,2|0,3:2|0:0,0:0:0:0:
182,310,53833,2,0,P|241:317|286:396,1,135.000005149842,8|0,3:0|0:0,0:0:0:0:
206,183,54355,2,0,B|228:82|224:33|224:33|244:47|257:77,1,202.500007724762,4|0,3:3|0:0,0:0:0:0:
255,86,54876,5,8,3:0:0:0:
33,48,55137,1,0,0:0:0:0:
49,44,55398,2,0,P|87:102|10:190,1,202.500007724762,2|0,3:2|0:0,0:0:0:0:
107,250,55920,2,0,P|138:297|124:380,1,135.000005149842,8|0,3:0|0:0,0:0:0:0:
306,186,56442,6,0,P|251:150|185:154,1,135.000005149842,4|0,3:3|0:0,0:0:0:0:
230,72,56833,1,0,0:0:0:0:
225,63,56963,1,8,3:0:0:0:
259,294,57224,1,0,0:0:0:0:
259,294,57485,6,0,P|191:277|97:365,1,202.500007724762,2|0,3:2|0:0,0:0:0:0:
25,278,58007,2,0,L|39:140,1,135.000005149842,8|0,3:0|0:0,0:0:0:0:
6,74,58398,1,0,0:0:0:0:
16,66,58529,5,8,3:3:0:0:
101,213,58789,1,8,3:3:0:0:
359,70,59181,1,2,3:0:0:0:
426,271,59442,2,0,L|513:254,1,67.5000025749208,0|2,3:3|3:0,0:0:0:0:
282,373,59833,6,0,B|315:365|315:365|368:382,1,67.5000025749208,2|0,0:0|0:0,0:0:0:0:
270,364,60094,1,4,0:1:0:0:
332,183,60355,1,0,0:0:0:0:
169,256,60615,6,0,P|154:316|123:247,1,175.499991966248,4|0,3:3|0:0,0:0:0:0:
138,279,61137,5,8,3:0:0:0:
433,152,61398,1,0,0:0:0:0:
428,144,61659,2,0,B|332:131|268:164|268:164|336:161,1,229.500004377365,2|0,3:2|0:0,0:0:0:0:
263,96,62181,2,0,B|299:185|360:224|360:224|323:167,1,229.500004377365,8|0,3:0|0:0,0:0:0:0:
304,261,62702,2,0,B|363:184|366:112|366:112|335:172,1,229.500004377365,4|0,3:3|0:0,0:0:0:0:
327,161,63224,5,8,3:0:0:0:
27,99,63485,1,0,0:0:0:0:
42,108,63746,2,0,B|58:170|44:288|44:288|69:259|99:253,1,229.500004377365,2|0,3:2|0:0,0:0:0:0:
227,282,64268,2,0,B|165:264|70:193|70:193|82:229|72:258,1,229.500004377365,8|0,3:0|0:0,0:0:0:0:
0,356,64789,2,0,B|45:311|154:264|154:264|117:257|97:234,1,229.500004377365,4|0,3:3|0:0,0:0:0:0:
91,256,65311,5,8,3:0:0:0:
400,202,65572,1,0,0:0:0:0:
411,218,65833,2,0,B|349:179|248:172|248:172|287:161|313:144,1,229.500004377365,2|0,3:2|0:0,0:0:0:0:
190,212,66355,2,0,B|254:177|311:93|311:93|301:133|303:164,1,229.500004377365,8|0,3:0|0:0,0:0:0:0:
321,270,66876,5,4,3:3:0:0:
321,270,67137,2,0,P|284:293|250:324,1,76.5000014591217
159,244,67398,2,0,P|151:284|150:346,1,76.5000014591217,8|0,3:0|0:0,0:0:0:0:
14,314,67659,2,0,P|20:347|39:388,1,76.5000014591217
7,300,67920,6,0,B|52:269|91:228|97:170|97:170|80:207|42:218,1,229.500004377365,2|0,3:2|0:0,0:0:0:0:
0,146,68442,2,0,B|4:200|20:254|67:288|67:288|44:255|53:217,1,229.500004377365,8|0,3:0|0:0,0:0:0:0:
137,215,68963,2,0,B|87:191|32:178|-20:202|-20:202|19:198|48:225,1,229.500004377365,4|0,3:3|0:0,0:0:0:0:
45,224,69485,5,8,3:0:0:0:
364,252,69746,1,0,0:0:0:0:
355,241,70007,2,0,B|278:274|241:366|241:366|241:327|227:305,1,229.500004377365,2|0,3:2|0:0,0:0:0:0:
242,222,70529,2,0,B|223:223|189:203|189:203|251:281|241:364,1,229.500004377365,8|0,3:0|0:0,0:0:0:0:
314,275,71050,2,0,B|322:258|355:238|355:238|257:252|190:202,1,229.500004377365,4|0,3:3|0:0,0:0:0:0:
262,271,71572,5,8,3:0:0:0:
296,6,71833,1,0,0:0:0:0:
310,22,72094,2,0,B|240:31|147:95|147:95|175:47|173:35,1,229.500004377365,2|0,3:2|0:0,0:0:0:0:
122,167,72615,2,0,B|149:101|140:-10|140:-10|167:37|179:41,1,229.500004377365,8|0,3:0|0:0,0:0:0:0:
249,151,73137,2,0,B|242:148|298:148|298:148|196:100|153:43,1,229.500004377365,4|0,3:3|0:0,0:0:0:0:
163,41,73659,5,8,3:0:0:0:
128,370,73920,1,0,0:0:0:0:
139,360,74181,2,0,B|155:314|161:268|131:210|131:210|170:235|209:234,1,229.500004377365,2|0,3:2|0:0,0:0:0:0:
139,134,74702,2,0,B|169:171|207:199|271:201|271:201|230:223|212:258,1,229.500004377365,8|0,3:0|0:0,0:0:0:0:
337,241,75224,2,0,B|289:249|246:267|211:322|211:322|213:275|192:242,1,229.500004377365,4|0,3:3|0:0,0:0:0:0:
209,248,75746,5,8,3:0:0:0:
500,172,76007,1,0,0:0:0:0:
484,188,76268,2,0,B|420:143|380:63|380:63|422:83|440:105,1,229.500004377365,2|0,3:2|0:0,0:0:0:0:
287,97,76789,2,0,B|331:33|411:-6|411:-6|391:35|369:53,1,229.500004377365,8|0,3:0|0:0,0:0:0:0:
196,90,77311,6,0,B|176:143|255:192|338:261|307:328,1,270,6|0,0:2|0:0,0:0:0:0:
232,299,78355,2,0,P|284:243|375:278,1,180,2|0,0:0|0:0,0:0:0:0:
201,320,79137,2,0,B|173:261|256:192|335:143|316:90,1,270
308,86,80181,5,2,0:0:0:0:
417,125,80442,1,2,0:0:0:0:
389,11,80702,1,2,0:0:0:0:
120,30,81485,6,0,P|135:102|236:142,1,180,2|2,0:0|0:0,0:0:0:0:
88,356,82529,2,0,P|131:338|176:345,1,90,2|0,0:0|0:0,0:0:0:0:
24,275,83050,1,2,0:0:0:0:
165,213,83311,2,0,P|224:228|285:335,2,180,2|2|0,0:0|0:0|0:0,0:0:0:0:
55,120,84615,2,0,P|133:126|184:27,1,180,2|0,0:0|0:0,0:0:0:0:
490,78,85659,6,0,P|445:66|407:47,1,90,6|0,0:0|0:0,0:0:0:0:
407,47,86181,1,8,0:0:0:0:
474,153,86442,1,0,0:0:0:0:
316,119,86703,2,0,P|307:76|307:27,1,90,2|0,0:0|0:0,0:0:0:0:
308,22,87225,1,8,0:0:0:0:
490,78,87746,6,0,P|445:66|407:47,1,90,2|0,0:0|0:0,0:0:0:0:
407,47,88268,1,8,0:0:0:0:
474,153,88529,1,0,0:0:0:0:
316,119,88790,2,0,P|307:76|307:27,1,90,2|0,0:0|0:0,0:0:0:0:
308,22,89312,1,8,0:0:0:0:
187,115,89572,1,0,0:0:0:0:
25,41,89833,6,0,P|18:83|17:141,1,90,2|0,0:0|0:0,0:0:0:0:
12,123,90355,1,8,0:0:0:0:
91,356,90876,2,0,L|80:259,1,90,2|0,0:0|0:0,0:0:0:0:
151,177,91398,1,8,0:0:0:0:
164,184,91920,5,2,0:0:0:0:
297,297,92181,1,0,0:0:0:0:
378,188,92442,2,0,P|382:153|405:100,1,90,8|0,0:0|0:0,0:0:0:0:
461,277,92963,2,0,P|471:323|470:371,1,90,2|0,0:0|0:0,0:0:0:0:
466,360,93485,1,8,0:0:0:0:
311,318,93746,2,0,L|302:366,1,45
230,384,94007,6,0,P|213:340|190:304,1,90,2|0,0:0|0:0,0:0:0:0:
190,304,94529,1,8,0:0:0:0:
302,360,94790,1,0,0:0:0:0:
252,206,95051,2,0,P|208:201|159:206,1,90,2|0,0:0|0:0,0:0:0:0:
155,208,95573,1,8,0:0:0:0:
326,285,95833,1,0,0:0:0:0:
472,101,96094,6,0,P|473:144|458:197,1,90,2|0,0:0|0:0,0:0:0:0:
465,183,96615,1,8,0:0:0:0:
343,67,96876,2,0,L|337:8,2,45,0|0|2,0:0|0:0|0:0,0:0:0:0:
269,171,97398,1,0,0:0:0:0:
137,78,97659,2,0,P|86:74|41:90,1,90,8|0,0:0|0:0,0:0:0:0:
6,244,98181,6,0,P|50:247|116:259,1,90,2|0,0:0|0:0,0:0:0:0:
253,181,98703,1,8,0:0:0:0:
243,183,99225,2,0,P|195:185|150:191,1,90,2|0,0:0|0:0,0:0:0:0:
212,352,99746,1,8,0:0:0:0:
336,301,100007,1,0,0:0:0:0:
506,364,100268,6,0,P|463:369|405:355,1,90,2|0,0:0|0:0,0:0:0:0:
320,197,100789,2,0,L|421:209,1,90,8|0,0:0|0:0,0:0:0:0:
509,33,101311,2,0,P|474:89|386:103,1,135,2|0,0:0|0:0,0:0:0:0:
346,68,101833,1,8,0:0:0:0:
209,193,102094,1,0,0:0:0:0:
197,215,110702,6,0,P|178:255|145:290,1,90,2|0,0:0|0:0,0:0:0:0:
147,288,111224,1,0,1:0:0:0:
35,61,111746,2,0,P|97:81|129:110,1,90,2|0,0:0|0:0,0:0:0:0:
115,95,112268,1,0,1:0:0:0:
90,356,112789,6,0,P|162:331|249:377,1,180,2|0,0:0|1:0,0:0:0:0:
351,319,113572,2,0,L|408:323,2,45,0|0|2,0:0|0:0|0:0,0:0:0:0:
133,163,114355,2,0,L|242:171,1,90,0|0,1:0|0:0,0:0:0:0:
340,111,114876,5,2,0:0:0:0:
340,111,115137,1,0,0:0:0:0:
410,226,115398,1,0,1:0:0:0:
416,247,115659,1,0,0:0:0:0:
509,106,115920,1,2,0:0:0:0:
499,68,116181,1,0,0:0:0:0:
306,136,116442,1,0,1:0:0:0:
348,168,116702,1,0,0:0:0:0:
387,74,116963,6,0,P|361:58|288:69,1,90,2|0,0:0|0:0,0:0:0:0:
193,156,117485,1,0,1:0:0:0:
118,57,117746,1,0,0:0:0:0:
34,142,118007,2,0,P|12:138|48:126,1,90,2|0,0:0|0:0,0:0:0:0:
105,189,118529,5,2,0:0:0:0:
400,139,119050,6,0,P|402:98|372:150,1,175.499991966248,4|0,3:3|0:0,0:0:0:0:
377,113,119572,5,8,3:0:0:0:
138,149,119832,1,0,0:0:0:0:
152,154,120093,2,0,P|225:129|255:-1,1,202.500007724762,2|0,3:2|0:0,0:0:0:0:
156,14,120615,2,0,P|180:59|269:87,1,135.000005149842,8|0,3:0|0:0,0:0:0:0:
497,93,121137,2,0,P|446:20|324:22,1,202.500007724762,4|0,3:3|0:0,0:0:0:0:
332,23,121659,5,8,3:0:0:0:
369,261,121919,1,0,0:0:0:0:
377,269,122180,2,0,P|436:246|464:110,1,202.500007724762,2|0,3:2|0:0,0:0:0:0:
391,67,122702,2,0,L|244:86,1,135.000005149842,8|0,3:0|0:0,0:0:0:0:
23,39,123224,6,0,P|85:93|184:47,1,202.500007724762,4|0,3:3|0:0,0:0:0:0:
176,31,123745,1,8,3:0:0:0:
105,301,124006,1,0,0:0:0:0:
114,306,124267,2,0,P|182:293|251:176,1,202.500007724762,2|0,3:2|0:0,0:0:0:0:
179,122,124789,2,0,L|43:140,1,135.000005149842,8|0,3:0|0:0,0:0:0:0:
269,22,125311,6,0,P|320:43|343:48,1,67.5000025749208,4|0,3:3|0:0,0:0:0:0:
408,33,125572,1,0,0:0:0:0:
296,149,125832,1,8,3:0:0:0:
457,319,126093,1,0,0:0:0:0:
471,310,126354,6,0,P|413:265|299:320,1,202.500007724762,2|0,3:2|0:0,0:0:0:0:
236,271,126876,2,0,P|223:328|287:387,1,135.000005149842,8|0,3:0|0:0,0:0:0:0:
301,150,127398,2,0,P|326:76|298:16,1,135.000005149842,4|0,3:3|0:0,0:0:0:0:
298,22,127919,5,8,3:0:0:0:
55,55,128180,1,0,0:0:0:0:
61,68,128441,6,0,P|111:134|228:111,1,202.500007724762,2|0,3:2|0:0,0:0:0:0:
328,72,128963,2,0,P|269:65|224:-14,1,135.000005149842,8|0,3:0|0:0,0:0:0:0:
304,199,129485,2,0,B|282:300|286:349|286:349|266:335|253:305,1,202.500007724762,4|0,3:3|0:0,0:0:0:0:
255,296,130006,5,8,3:0:0:0:
477,334,130267,1,0,0:0:0:0:
461,338,130528,2,0,P|423:280|500:192,1,202.500007724762,2|0,3:2|0:0,0:0:0:0:
403,132,131050,2,0,P|372:85|386:2,1,135.000005149842,8|0,3:0|0:0,0:0:0:0:
204,196,131572,6,0,P|259:232|325:228,1,135.000005149842,4|0,3:3|0:0,0:0:0:0:
280,310,131963,1,0,0:0:0:0:
285,319,132093,1,8,3:0:0:0:
251,88,132354,1,0,0:0:0:0:
251,88,132615,6,0,P|319:105|413:17,1,202.500007724762,2|0,3:2|0:0,0:0:0:0:
485,104,133137,2,0,L|471:242,1,135.000005149842,8|0,3:0|0:0,0:0:0:0:
504,308,133528,1,0,0:0:0:0:
494,316,133659,5,8,3:3:0:0:
396,180,133919,1,8,3:3:0:0:
212,290,134311,1,2,3:0:0:0:
84,111,134572,2,0,L|-3:128,1,67.5000025749208,0|2,3:3|3:0,0:0:0:0:
228,9,134963,6,0,B|200:18|200:18|149:8,1,67.5000025749208,2|0,0:0|0:0,0:0:0:0:
240,18,135224,1,4,0:1:0:0:
178,199,135485,1,0,0:0:0:0:
343,128,135746,6,0,P|358:68|389:137,1,175.499991966248,4|0,3:3|0:0,0:0:0:0:
374,105,136268,5,8,3:0:0:0:
79,232,136529,1,0,0:0:0:0:
84,240,136790,2,0,B|180:253|244:220|244:220|176:223,1,229.500004377365,2|0,3:2|0:0,0:0:0:0:
249,288,137312,2,0,B|213:199|152:160|152:160|189:217,1,229.500004377365,8|0,3:0|0:0,0:0:0:0:
208,123,137833,2,0,B|149:200|146:272|146:272|177:212,1,229.500004377365,4|0,3:3|0:0,0:0:0:0:
185,223,138355,5,8,3:0:0:0:
485,285,138616,1,0,0:0:0:0:
470,276,138877,2,0,B|454:214|468:96|468:96|443:125|413:131,1,229.500004377365,2|0,3:2|0:0,0:0:0:0:
285,102,139399,2,0,B|347:120|442:191|442:191|430:155|440:126,1,229.500004377365,8|0,3:0|0:0,0:0:0:0:
512,28,139920,2,0,B|467:73|358:120|358:120|395:127|415:150,1,229.500004377365,4|0,3:3|0:0,0:0:0:0:
421,128,140442,5,8,3:0:0:0:
112,182,140703,1,0,0:0:0:0:
100,165,140964,2,0,B|162:204|263:211|263:211|224:222|198:239,1,229.500004377365,2|0,3:2|0:0,0:0:0:0:
322,173,141486,2,0,B|258:208|201:292|201:292|211:252|209:221,1,229.500004377365,8|0,3:0|0:0,0:0:0:0:
191,114,142007,5,4,3:3:0:0:
191,114,142268,2,0,P|228:91|262:60,1,76.5000014591217
353,140,142529,2,0,P|361:100|362:38,1,76.5000014591217,8|0,3:0|0:0,0:0:0:0:
498,70,142790,2,0,P|492:37|473:-4,1,76.5000014591217
505,84,143051,6,0,B|460:115|421:156|415:214|415:214|432:177|470:166,1,229.500004377365,2|0,3:2|0:0,0:0:0:0:
512,238,143573,2,0,B|508:184|492:130|445:96|445:96|468:129|459:167,1,229.500004377365,8|0,3:0|0:0,0:0:0:0:
375,169,144094,2,0,B|425:193|480:206|532:182|532:182|493:186|464:159,1,229.500004377365,4|0,3:3|0:0,0:0:0:0:
467,160,144616,5,8,3:0:0:0:
148,132,144877,1,0,0:0:0:0:
157,143,145138,2,0,B|234:110|271:18|271:18|271:57|285:79,1,229.500004377365,2|0,3:2|0:0,0:0:0:0:
270,162,145660,2,0,B|289:161|323:181|323:181|261:103|271:20,1,229.500004377365,8|0,3:0|0:0,0:0:0:0:
198,109,146181,2,0,B|190:126|157:146|157:146|255:132|322:182,1,229.500004377365,4|0,3:3|0:0,0:0:0:0:
250,113,146703,5,8,3:0:0:0:
219,353,146964,1,0,0:0:0:0:
205,337,147225,2,0,B|275:328|368:264|368:264|340:312|342:324,1,229.500004377365,2|0,3:2|0:0,0:0:0:0:
393,192,147746,2,0,B|366:258|375:369|375:369|348:322|336:318,1,229.500004377365,8|0,3:0|0:0,0:0:0:0:
266,208,148268,2,0,B|273:211|217:211|217:211|319:259|362:316,1,229.500004377365,4|0,3:3|0:0,0:0:0:0:
356,329,148790,5,8,3:0:0:0:
384,14,149051,1,0,0:0:0:0:
373,24,149312,2,0,B|357:70|351:116|381:174|381:174|342:149|303:150,1,229.500004377365,2|0,3:2|0:0,0:0:0:0:
373,250,149833,2,0,B|343:213|305:185|241:183|241:183|282:161|300:126,1,229.500004377365,8|0,3:0|0:0,0:0:0:0:
175,143,150355,2,0,B|223:135|266:117|301:62|301:62|299:109|320:142,1,229.500004377365,4|0,3:3|0:0,0:0:0:0:
303,136,150877,5,8,3:0:0:0:
17,200,151138,1,0,0:0:0:0:
34,190,151398,2,0,B|97:234|137:314|137:314|95:294|77:272,1,229.500004377365,2|0,3:2|0:0,0:0:0:0:
231,281,151919,2,0,B|186:344|106:384|106:384|126:342|148:324,1,229.500004377365,8|0,3:0|0:0,0:0:0:0:
133,318,152442,6,0,P|211:303|282:379,1,180,6|0,0:2|0:0,0:0:0:0:
268,165,153224,1,0,0:0:0:0:
111,237,153485,2,0,L|-8:225,1,90,0|0,1:0|0:0,0:0:0:0:
187,317,154007,2,0,L|190:352,4,22.5
179,322,154529,5,2,0:0:0:0:
255,122,154789,1,8,3:0:0:0:
325,268,155050,2,0,L|310:316,2,45,0|0|0,3:0|0:0|0:0,0:0:0:0:
476,119,155572,1,2,1:2:0:0:
489,187,155833,1,0,0:0:0:0:
504,258,156094,1,0,1:0:0:0:
382,184,156355,1,2,1:3:0:0:
272,307,156615,6,0,P|303:335|366:361,1,90,2|0,0:0|0:0,0:0:0:0:
137,353,157137,2,0,L|30:340,1,90
4,215,157659,1,2,1:2:0:0:
4,215,157920,1,0,3:0:0:0:
112,111,158181,6,0,L|107:77,4,22.5,0|0|0|0|2,1:0|0:0|0:0|0:0|1:3,0:0:0:0:
170,155,158572,2,0,L|159:199,1,45,0|2,0:0|0:0,0:0:0:0:
248,94,158963,1,8,3:0:0:0:
387,188,159224,2,0,L|400:232,1,45,0|0,3:0|0:0,0:0:0:0:
465,271,159485,1,0,0:0:0:0:
318,335,159746,2,0,P|270:338|227:373,1,90,2|0,1:2|0:0,0:0:0:0:
107,311,160268,1,0,1:0:0:0:
191,190,160529,2,0,L|184:132,1,45,2|0,1:3|0:0,0:0:0:0:
192,139,160789,6,0,P|138:162|89:155,1,90,6|0,0:2|0:0,0:0:0:0:
12,53,161311,2,0,L|116:45,1,90
0,225,161833,2,0,P|29:184|108:160,1,135,0|0,1:0|0:0,0:0:0:0:
165,210,162355,2,0,L|158:247,4,22.5
324,135,162876,6,0,L|311:34,1,90,2|8,0:0|3:0,0:0:0:0:
342,236,163398,2,0,L|347:285,2,45,0|0|0,3:0|0:0|0:0,0:0:0:0:
495,206,163920,2,0,P|460:186|400:178,1,90,2|0,1:2|0:0,0:0:0:0:
286,274,164442,2,0,L|237:268,1,45,0|0,1:0|0:0,0:0:0:0:
139,312,164702,2,0,L|142:338,2,22.5,2|0|0,1:3|0:0|0:0,0:0:0:0:
55,124,164963,5,2,0:0:0:0:
18,314,165224,1,0,0:0:0:0:
15,305,165355,1,0,0:0:0:0:
11,296,165485,1,0,0:0:0:0:
123,189,166007,6,0,P|105:193|79:212,1,45,2|0,1:2|0:0,0:0:0:0:
165,175,166268,2,0,P|170:157|167:125,1,45,0|0,3:0|0:0,0:0:0:0:
164,216,166529,2,0,P|176:229|205:242,1,45,0|0,1:0|0:0,0:0:0:0:
146,191,166789,1,2,1:3:0:0:
287,275,167050,5,2,0:0:0:0:
301,261,167181,1,0,0:0:0:0:
326,235,167311,2,0,L|334:185,1,45,8|0,3:0|0:0,0:0:0:0:
384,298,167572,2,0,L|396:353,1,45,0|0,3:0|0:0,0:0:0:0:
442,201,167833,2,0,L|453:144,1,45
512,274,168094,5,2,1:2:0:0:
176,89,168615,5,0,1:0:0:0:
