osu file format v14

[General]
AudioFilename: audio.mp3
AudioLeadIn: 0
PreviewTime: 22168
Countdown: 0
SampleSet: Normal
StackLeniency: 0.7
Mode: 1
LetterboxInBreaks: 0
WidescreenStoryboard: 1

[Editor]
Bookmarks: 100,2858,5617,8375,11134,13893,16651,19410,22168,44237,46996,77341,82858,84237,85617,86996,88375,89755,91134,92513,93203,93893,115962,118720,121479,124237
DistanceSpacing: 2.2
BeatDivisor: 1
GridSize: 4
TimelineZoom: 1.1

[Metadata]
Title:MAYBE I NEED HEAD
TitleUnicode:MAYBE I NEED HEAD
Artist:MARSHALL BEATS CUH
ArtistUnicode:MARSHALL BEATS CUH
Creator:bobthaboy
Version:Kantan
Source:
Tags:english rap pop hyperpop digicore robloxcore
BeatmapID:3133803
BeatmapSetID:1532334

[Difficulty]
HPDrainRate:8
CircleSize:5
OverallDifficulty:4
ApproachRate:5
SliderMultiplier:1.4
SliderTickRate:1

[Events]
//Background and Video events
0,0,"cover2.jpg.png",0,0
//Break Periods
//Storyboard Layer 0 (Background)
//Storyboard Layer 1 (Fail)
//Storyboard Layer 2 (Pass)
//Storyboard Layer 3 (Foreground)
//Storyboard Layer 4 (Overlay)
//Storyboard Sound Samples

[TimingPoints]
100,344.827586206897,4,1,0,100,1,0
100,-105.263157894737,4,1,0,100,0,0
2858,-111.111111111111,4,1,0,100,0,0
5617,-117.647058823529,4,1,0,100,0,0
8375,-125,4,1,0,100,0,0
11134,-100,4,1,0,100,0,0
13893,-105.263157894737,4,1,0,100,0,0
16651,-111.111111111111,4,1,0,100,0,0
19410,-117.647058823529,4,1,0,100,0,0
20789,-105.263157894737,4,1,0,100,0,0
22168,-100,4,1,0,100,0,1
44237,-105.263157894737,4,1,0,100,0,0
46996,-90.9090909090909,4,1,0,100,0,0
49755,-95.2380952380952,4,1,0,100,0,0
52513,-100,4,1,0,100,0,0
55272,-90.9090909090909,4,1,0,100,0,0
58031,-95.2380952380952,4,1,0,100,0,0
60789,-100,4,1,0,100,0,0
63548,-105.263157894737,4,1,0,100,0,0
66306,-90.9090909090909,4,1,0,100,0,0
69065,-95.2380952380952,4,1,0,100,0,0
71824,-100,4,1,0,100,0,0
74582,-105.263157894737,4,1,0,100,0,0
77341,-90.9090909090909,4,1,0,100,0,0
82858,-100,4,1,0,100,0,0
84237,-95.2380952380952,4,1,0,100,0,0
85617,-86.9565217391304,4,1,0,100,0,0
86996,-90.9090909090909,4,1,0,100,0,0
88375,-100,4,1,0,100,0,0
89755,-95.2380952380952,4,1,0,100,0,0
91134,-86.9565217391304,4,1,0,100,0,0
92513,-90.9090909090909,4,1,0,100,0,0
93203,-86.9565217391304,4,1,0,100,0,0
93893,-83.3333333333333,4,1,0,100,0,1
115962,-105.263157894737,4,1,0,100,0,0
118720,-111.111111111111,4,1,0,100,0,0
121479,-117.647058823529,4,1,0,100,0,0
124237,-125,4,1,0,100,0,0

[HitObjects]
256,192,100,12,0,2513,0:0:0:0:
256,192,2858,12,0,5272,0:0:0:0:
256,192,5617,12,0,8031,0:0:0:0:
256,192,8375,12,0,10789,0:0:0:0:
255,192,11134,5,4,0:0:0:0:
255,192,11996,1,0,0:0:0:0:
255,192,12686,1,2,0:0:0:0:
255,192,13203,1,0,0:0:0:0:
255,192,13893,5,4,0:0:0:0:
255,192,14755,1,0,0:0:0:0:
255,192,15445,1,0,0:0:0:0:
255,192,15962,1,2,0:0:0:0:
255,192,16651,5,4,0:0:0:0:
255,192,17513,1,2,0:0:0:0:
255,192,18203,1,0,0:0:0:0:
255,192,18720,1,2,0:0:0:0:
255,192,19410,5,4,0:0:0:0:
255,192,20272,1,2,0:0:0:0:
255,192,21134,1,2,0:0:0:0:
255,192,21479,1,0,0:0:0:0:
255,192,22168,1,2,0:0:0:0:
255,192,23031,1,2,0:0:0:0:
256,192,23548,1,2,0:0:0:0:
255,192,24410,1,0,0:0:0:0:
256,192,24927,1,2,0:0:0:0:
256,192,25789,1,2,0:0:0:0:
256,192,26306,1,2,0:0:0:0:
251,194,27168,1,0,0:0:0:0:
256,192,27686,5,0,0:0:0:0:
256,192,28548,1,2,0:0:0:0:
256,191,29065,5,2,0:0:0:0:
251,194,29927,1,2,0:0:0:0:
256,191,30444,1,0,0:0:0:0:
256,191,31306,1,2,0:0:0:0:
256,192,31824,1,2,0:0:0:0:
256,192,32686,1,2,0:0:0:0:
256,192,33203,1,0,0:0:0:0:
256,191,34065,1,2,0:0:0:0:
256,192,34582,1,2,0:0:0:0:
251,194,35444,1,2,0:0:0:0:
256,192,35962,1,0,0:0:0:0:
256,192,36824,1,2,0:0:0:0:
256,192,37341,1,2,0:0:0:0:
251,194,38203,1,0,0:0:0:0:
256,192,38720,1,0,0:0:0:0:
256,192,39582,1,2,0:0:0:0:
256,192,40100,1,2,0:0:0:0:
256,192,40962,1,2,0:0:0:0:
256,192,41479,1,2,0:0:0:0:
256,192,42341,1,2,0:0:0:0:
256,192,42858,1,2,0:0:0:0:
256,192,43893,1,2,0:0:0:0:
256,192,44237,12,0,46651,0:0:0:0:
255,193,46996,5,2,0:0:0:0:
255,193,47686,1,2,0:0:0:0:
255,193,48375,1,2,0:0:0:0:
255,193,49065,1,2,0:0:0:0:
255,193,49755,1,0,0:0:0:0:
255,193,50444,1,2,0:0:0:0:
255,193,51134,1,0,0:0:0:0:
255,193,51824,1,2,0:0:0:0:
255,193,52513,1,0,0:0:0:0:
255,193,53203,1,0,0:0:0:0:
255,193,53893,1,2,0:0:0:0:
255,193,54582,1,0,0:0:0:0:
255,193,55272,1,2,0:0:0:0:
255,193,55962,1,2,0:0:0:0:
255,193,56651,1,2,0:0:0:0:
255,193,57341,1,2,0:0:0:0:
255,193,58031,1,0,0:0:0:0:
255,193,58720,1,2,0:0:0:0:
255,193,59410,1,0,0:0:0:0:
255,193,60100,1,2,0:0:0:0:
255,193,60789,1,0,0:0:0:0:
255,193,61479,1,0,0:0:0:0:
255,193,62168,1,2,0:0:0:0:
255,193,62858,1,0,0:0:0:0:
255,193,63548,1,0,0:0:0:0:
255,193,64237,1,0,0:0:0:0:
255,193,64927,1,0,0:0:0:0:
255,193,65617,1,0,0:0:0:0:
255,193,66306,1,2,0:0:0:0:
255,193,66996,1,2,0:0:0:0:
255,193,67686,1,2,0:0:0:0:
255,193,68375,1,2,0:0:0:0:
255,193,69065,1,0,0:0:0:0:
255,193,69755,1,2,0:0:0:0:
255,193,70444,1,0,0:0:0:0:
255,193,71134,1,2,0:0:0:0:
255,193,71824,1,0,0:0:0:0:
255,193,72513,1,0,0:0:0:0:
255,193,73203,1,2,0:0:0:0:
255,193,73893,1,0,0:0:0:0:
255,193,74582,1,0,0:0:0:0:
255,193,75272,1,0,0:0:0:0:
255,193,75962,1,0,0:0:0:0:
255,193,76651,1,0,0:0:0:0:
255,192,77341,5,4,0:0:0:0:
255,192,78203,1,0,0:0:0:0:
255,192,78893,1,2,0:0:0:0:
255,192,79410,1,0,0:0:0:0:
255,192,80100,5,4,0:0:0:0:
255,192,80962,1,2,0:0:0:0:
255,192,81652,1,0,0:0:0:0:
255,192,82169,1,2,0:0:0:0:
255,192,82858,1,0,0:0:0:0:
255,192,83548,1,4,0:0:0:0:
255,192,84237,1,2,0:0:0:0:
255,192,84927,1,6,0:0:0:0:
255,192,85617,1,2,0:0:0:0:
255,192,86307,1,6,0:0:0:0:
255,192,86996,1,0,0:0:0:0:
255,192,87686,1,4,0:0:0:0:
255,192,88375,1,2,0:0:0:0:
255,192,89065,1,6,0:0:0:0:
255,192,89755,1,0,0:0:0:0:
255,192,90445,1,4,0:0:0:0:
255,192,91134,1,0,0:0:0:0:
255,192,91824,1,4,0:0:0:0:
255,192,92513,1,0,0:0:0:0:
255,192,93203,5,0,0:0:0:0:
255,192,93893,5,2,0:0:0:0:
255,192,94756,1,2,0:0:0:0:
256,192,95273,1,2,0:0:0:0:
255,192,96134,1,0,0:0:0:0:
256,192,96652,1,0,0:0:0:0:
256,192,97514,1,2,0:0:0:0:
256,192,98031,1,0,0:0:0:0:
256,192,98893,1,2,0:0:0:0:
256,192,99410,5,0,0:0:0:0:
256,192,100273,1,2,0:0:0:0:
256,191,100790,5,0,0:0:0:0:
256,192,101651,1,0,0:0:0:0:
256,191,102168,1,2,0:0:0:0:
256,191,103031,1,2,0:0:0:0:
256,192,103549,1,2,0:0:0:0:
256,192,104411,1,2,0:0:0:0:
256,192,104927,1,0,0:0:0:0:
256,191,105790,1,2,0:0:0:0:
256,192,106307,1,2,0:0:0:0:
256,192,107168,1,0,0:0:0:0:
256,192,107687,1,0,0:0:0:0:
256,192,108549,1,2,0:0:0:0:
256,192,109065,1,0,0:0:0:0:
256,192,109927,1,2,0:0:0:0:
256,192,110445,1,0,0:0:0:0:
256,192,111307,1,2,0:0:0:0:
256,192,111825,1,2,0:0:0:0:
256,192,112686,1,0,0:0:0:0:
256,192,113204,1,2,0:0:0:0:
256,192,114066,1,2,0:0:0:0:
256,192,114583,1,2,0:0:0:0:
256,192,115617,1,2,0:0:0:0:
256,192,115962,12,0,118376,0:0:0:0:
256,192,118720,12,0,121134,0:0:0:0:
256,192,121479,12,0,123893,0:0:0:0:
256,192,124237,12,0,126651,0:0:0:0:
