osu file format v14

[General]
AudioFilename: audio.mp3
AudioLeadIn: 0
PreviewTime: 5888
Countdown: 0
SampleSet: Soft
StackLeniency: 0.7
Mode: 0
LetterboxInBreaks: 0
WidescreenStoryboard: 1

[Editor]
DistanceSpacing: 1.2
BeatDivisor: 4
GridSize: 4
TimelineZoom: 2.6

[Metadata]
Title:GENSHIN IMPACT (Cut Ver.)
TitleUnicode:GENSHIN IMPACT (Cut Ver.)
Artist:MARRY ME, BELLAMY
ArtistUnicode:MARRY ME, BELLAMY
Creator:Gordon123
Version:NORMAL
Source:
Tags:video game electronic russian русский Zhongli Hu Tao гемы примогемы Bakari riffy -Space- [_Space_] despacito1 Kelp1e Cris- Геншин Импакт Spayyce
BeatmapID:3241737
BeatmapSetID:1587242

[Difficulty]
HPDrainRate:4
CircleSize:3.4
OverallDifficulty:4.2
ApproachRate:4
SliderMultiplier:1.4
SliderTickRate:1

[Events]
//Background and Video events
Video,0,"video.flv"
0,0,"zhongli.jpg",0,0
//Break Periods
//Storyboard Layer 0 (Background)
//Storyboard Layer 1 (Fail)
//Storyboard Layer 2 (Pass)
//Storyboard Layer 3 (Foreground)
//Storyboard Layer 4 (Overlay)
//Storyboard Sound Samples

[TimingPoints]
6009,483.870967741935,4,2,1,80,1,0
6009,-100,4,2,1,80,0,1
21492,-100,4,2,1,50,0,0
36976,-100,4,2,1,60,0,0
52460,-100,4,2,1,50,0,0
54396,-100,4,2,1,60,0,0
55726,-100,4,2,1,75,0,0
56331,-100,4,2,1,80,0,1
71815,-100,4,2,1,70,0,0
73750,-100,4,2,1,80,0,1
87299,-100,4,2,1,70,0,0
102541,-100,4,2,1,50,0,0

[Colours]
Combo1 : 170,85,0
Combo2 : 168,168,213
Combo3 : 255,181,125
Combo4 : 255,223,138

[HitObjects]
72,115,6009,6,0,L|64:20,2,70,4|2|0,0:0|0:0|1:0,0:0:0:0:
145,155,6734,1,2,0:0:0:0:
216,111,6976,2,0,P|253:107|289:118,1,70,2|2,0:0|0:0,0:0:0:0:
360,152,7460,2,0,L|362:235,1,70,2|2,1:2|0:0,0:0:0:0:
370,305,7944,6,0,P|405:284|502:317,2,140,4|0|2,0:0|1:0|0:0,0:0:0:0:
308,363,9154,1,0,0:0:0:0:
232,325,9396,2,0,B|200:337|200:337|140:339,1,70,2|2,1:2|0:0,0:0:0:0:
81,323,9879,5,4,0:0:0:0:
48,158,10363,2,0,P|95:169|136:200,1,70,0|2,1:0|0:0,0:0:0:0:
182,227,10847,1,2,0:0:0:0:
233,160,11089,1,2,0:0:0:0:
316,151,11331,2,0,L|301:59,1,70,2|2,1:2|0:0,0:0:0:0:
370,28,11815,6,0,B|415:40|415:40|506:20,2,140,4|0|2,0:0|1:0|0:0,0:0:0:0:
305,82,13025,1,0,0:0:0:0:
227,48,13267,2,0,B|194:33|194:33|148:45,1,70,2|2,1:2|0:0,0:0:0:0:
83,72,13750,6,0,B|69:144|23:119|5:223,1,140,4|0,0:0|1:0,0:0:0:0:
34,271,14476,1,0,0:0:0:0:
115,290,14718,2,0,L|103:377,2,70,2|2|2,0:0|0:0|1:2,0:0:0:0:
146,124,15686,5,4,0:0:0:0:
211,71,15928,2,0,P|194:28|193:-12,2,70,2|0|0,0:0|1:0|0:0,0:0:0:0:
283,114,16654,2,0,L|373:107,1,70,2|0,0:0|0:0,0:0:0:0:
437,104,17138,2,0,P|458:137|454:192,1,70,2|2,1:2|0:0,0:0:0:0:
436,247,17621,6,0,L|270:233,1,140,4|0,0:0|1:0,0:0:0:0:
212,232,18347,1,2,0:0:0:0:
131,255,18589,2,0,P|142:298|139:343,2,70,2|2|2,0:0|0:0|1:2,0:0:0:0:
55,104,19557,6,0,L|145:96,1,70,2|0,0:0|0:0,0:0:0:0:
94,18,20041,2,0,P|205:72|140:178,1,280,2|2,0:0|0:0,0:0:0:0:
46,318,21492,6,0,P|100:304|199:321,1,140,0|0,3:0|3:0,0:0:0:0:
261,283,22218,1,0,0:0:0:0:
301,209,22460,1,2,3:2:0:0:
363,264,22702,2,0,L|436:300,2,70,0|0|2,0:0|3:0|3:2,0:0:0:0:
301,209,23428,6,0,P|300:150|253:64,1,140,2|0,0:0|3:0,0:0:0:0:
102,36,24396,1,0,3:0:0:0:
69,113,24638,2,0,P|22:117|-5:124,2,70,2|0|2,0:0|3:0|3:2,0:0:0:0:
113,183,25363,6,0,L|95:335,1,140,2|0,0:0|3:0,0:0:0:0:
171,361,26089,1,0,0:0:0:0:
243,319,26331,1,0,3:0:0:0:
320,351,26573,2,0,B|350:366|350:366|406:358,2,70,2|0|2,0:0|3:0|3:2,0:0:0:0:
309,267,27299,6,0,B|306:205|273:202|257:111,1,140,2|0,0:0|3:0,0:0:0:0:
386,21,28267,1,0,3:0:0:0:
461,56,28508,2,0,L|538:42,2,70,2|2|2,0:0|3:2|0:0,0:0:0:0:
415,127,29234,6,0,B|400:172|400:172|418:284,1,140,2|0,0:0|3:0,0:0:0:0:
428,346,29960,1,2,0:0:0:0:
348,317,30202,1,0,3:0:0:0:
263,317,30444,2,0,P|225:343|181:349,2,70,0|0|0,0:0|3:0|0:0,0:0:0:0:
281,235,31170,6,0,L|126:184,1,140,2|0,0:0|3:0,0:0:0:0:
91,32,32138,1,0,3:0:0:0:
18,74,32379,2,0,P|7:111|12:160,2,70,2|0|0,0:0|3:0|3:0,0:0:0:0:
91,32,33105,6,0,B|159:30|158:69|244:63,1,140,2|0,0:0|3:0,0:0:0:0:
307,41,33831,1,2,0:0:0:0:
372,94,34073,1,0,3:0:0:0:
455,103,34315,2,0,L|492:37,2,70,0|0|0,0:0|3:0|0:0,0:0:0:0:
469,186,35041,6,0,P|503:241|429:254,1,140,2|0,0:0|3:0,0:0:0:0:
197,264,36250,2,0,L|212:346,2,70,2|2|2,0:0|0:0|0:0,0:0:0:0:
247,196,36976,6,0,P|265:152|259:103,1,70,4|2,0:0|0:0,0:0:0:0:
237,50,37460,2,0,P|194:28|145:31,1,70,2|0,1:2|0:0,0:0:0:0:
89,34,37944,2,0,L|95:111,1,70,2|0,0:0|0:0,0:0:0:0:
63,182,38428,1,0,1:2:0:0:
133,228,38670,1,0,0:0:0:0:
171,302,38912,6,0,P|210:303|306:357,1,140,2|0,0:0|1:2,0:0:0:0:
368,301,39638,1,0,0:0:0:0:
450,315,39879,2,0,L|455:236,1,70,2|2,0:0|0:0,0:0:0:0:
492,169,40363,2,0,L|487:90,1,70,2|0,1:2|0:0,0:0:0:0:
409,68,40847,6,0,P|379:28|330:13,2,70,4|0|0,0:0|0:0|1:2,0:0:0:0:
329,97,41573,1,0,0:0:0:0:
285,169,41815,2,0,B|268:199|268:199|279:245,1,70,2|0,0:0|0:0,0:0:0:0:
313,309,42299,1,2,1:2:0:0:
249,364,42541,1,0,0:0:0:0:
168,341,42783,6,0,B|106:341|111:292|21:292,1,140,2|0,0:0|1:2,0:0:0:0:
74,216,43508,1,0,0:0:0:0:
23,148,43750,2,0,P|5:115|11:69,1,70,2|0,0:0|0:0,0:0:0:0:
63,22,44234,2,0,P|100:20|139:45,1,70,0|2,1:0|0:0,0:0:0:0:
191,91,44718,6,0,L|279:71,2,70,4|0|0,0:0|0:0|1:2,0:0:0:0:
119,136,45444,1,0,0:0:0:0:
111,219,45686,2,0,L|135:298,1,70,2|0,0:0|0:0,0:0:0:0:
136,370,46170,2,0,P|170:348|221:343,1,70,0|0,1:2|0:0,0:0:0:0:
282,348,46654,6,0,L|266:199,1,140,2|0,0:0|1:2,0:0:0:0:
257,125,47379,1,0,0:0:0:0:
315,64,47621,2,0,B|352:58|352:58|401:69,1,70,2|2,0:0|0:0,0:0:0:0:
434,132,48105,2,0,B|438:169|438:169|426:217,1,70,2|2,1:2|0:0,0:0:0:0:
368,258,48589,6,0,L|378:344,2,70,4|0|0,0:0|0:0|1:2,0:0:0:0:
293,218,49315,1,0,0:0:0:0:
217,254,49557,2,0,P|166:269|122:267,1,70,2|0,0:0|0:0,0:0:0:0:
67,250,50041,1,0,1:2:0:0:
26,176,50283,1,0,0:0:0:0:
57,98,50525,6,0,B|95:121|95:121|223:101,1,140,2|0,0:0|1:0,0:0:0:0:
271,86,51250,1,0,0:0:0:0:
317,156,51492,2,0,L|307:237,1,70,2|2,0:0|0:0,0:0:0:0:
295,308,51976,1,2,0:0:0:0:
371,343,52218,1,0,0:0:0:0:
452,322,52460,5,2,0:0:0:0:
469,70,53186,2,0,B|436:56|436:56|388:73,1,70,2|2,0:0|0:0,0:0:0:0:
173,171,54154,1,2,0:0:0:0:
89,181,54396,6,0,P|106:119|188:87,1,140,8|0,0:3|0:0,0:0:0:0:
295,78,55242,2,0,B|365:88|365:88|405:168,1,140,8|2,2:3|0:0,0:0:0:0:
414,359,56331,6,0,L|339:365,1,70,4|2,0:0|0:0,0:0:0:0:
266,332,56815,2,0,L|191:326,1,70,0|2,1:0|0:0,0:0:0:0:
112,316,57299,2,0,P|90:284|91:231,1,70,2|2,0:0|0:0,0:0:0:0:
96,169,57783,1,2,1:2:0:0:
169,128,58025,1,2,0:0:0:0:
247,157,58267,6,0,P|221:123|253:17,2,140,4|0|2,0:0|1:0|0:0,0:0:0:0:
297,89,59476,1,0,0:0:0:0:
369,46,59718,2,0,B|400:34|400:34|453:55,1,70,2|2,1:2|0:0,0:0:0:0:
502,97,60202,5,4,0:0:0:0:
457,258,60686,2,0,P|419:265|372:249,1,70,0|2,1:0|0:0,0:0:0:0:
310,228,61169,1,0,0:0:0:0:
278,150,61411,1,2,0:0:0:0:
289,66,61654,2,0,L|186:80,1,70,2|2,1:2|0:0,0:0:0:0:
144,113,62138,6,0,B|81:116|80:73|2:73,2,140,4|0|2,0:0|1:0|0:0,0:0:0:0:
156,196,63347,1,0,0:0:0:0:
169,278,63589,2,0,L|255:291,1,70,2|2,1:2|0:0,0:0:0:0:
319,309,64073,6,0,B|356:326|356:326|453:301,1,140,4|0,0:0|1:0,0:0:0:0:
490,226,64798,1,2,0:0:0:0:
457,148,65041,2,0,P|476:113|467:61,2,70,2|0|2,0:0|0:0|1:2,0:0:0:0:
304,219,66008,5,4,0:0:0:0:
281,299,66250,1,0,0:0:0:0:
202,268,66492,2,0,B|173:256|173:256|118:260,1,70,0|0,1:0|0:0,0:0:0:0:
51,271,66976,2,0,L|53:190,1,70,2|0,0:0|0:0,0:0:0:0:
54,116,67460,1,2,1:2:0:0:
129,152,67702,1,2,0:0:0:0:
196,102,67944,6,0,P|239:75|346:101,1,140,4|0,0:0|1:0,0:0:0:0:
393,133,68669,1,0,0:0:0:0:
419,213,68912,2,0,L|504:198,2,70,2|0|2,0:0|0:0|1:2,0:0:0:0:
261,271,69879,6,0,P|272:236|253:195,1,70,4|0,0:0|0:0,0:0:0:0:
313,138,70363,2,0,P|302:103|321:62,1,70,0|0,1:0|0:0,0:0:0:0:
251,14,70847,1,2,0:0:0:0:
170,37,71089,1,0,0:0:0:0:
88,56,71331,2,0,L|75:140,1,70,2|2,0:0|0:0,0:0:0:0:
64,208,71815,5,6,0:0:0:0:
180,328,72299,1,2,0:0:0:0:
347,342,72783,2,0,B|328:317|328:317|326:277,1,70,2|2,0:0|0:0,0:0:0:0:
321,194,73267,2,0,L|422:207,1,70,2|2,0:0|0:0,0:0:0:0:
474,204,73750,6,0,B|475:137|437:138|434:45,2,140,4|0|2,0:0|1:0|0:0,0:0:0:0:
449,284,74960,1,0,0:0:0:0:
380,333,75202,2,0,L|289:320,1,70,2|2,1:2|0:0,0:0:0:0:
229,345,75686,5,4,0:0:0:0:
161,191,76170,2,0,B|195:201|195:201|245:181,1,70,0|2,1:0|0:0,0:0:0:0:
302,151,76654,1,0,0:0:0:0:
361,210,76896,1,2,0:0:0:0:
444,197,77138,2,0,P|457:155|446:109,1,70,2|2,1:2|0:0,0:0:0:0:
421,53,77621,6,0,L|255:68,2,140,4|0|0,0:0|1:0|0:0,0:0:0:0:
504,65,78831,1,2,0:0:0:0:
455,130,79073,2,0,P|456:164|443:197,1,70,2|2,1:2|0:0,0:0:0:0:
373,244,79557,6,0,B|310:243|313:295|212:285,1,140,4|0,0:0|1:0,0:0:0:0:
160,263,80282,1,2,0:0:0:0:
104,199,80525,2,0,L|25:206,2,70,0|2|2,0:0|0:0|1:2,0:0:0:0:
206,65,81492,5,4,0:0:0:0:
281,27,81734,1,2,0:0:0:0:
355,65,81976,2,0,P|371:98|370:150,1,70,0|2,1:0|0:0,0:0:0:0:
402,210,82460,2,0,B|423:238|423:238|424:273,1,70,2|2,0:0|0:0,0:0:0:0:
383,346,82944,2,0,L|290:351,1,70,2|2,1:2|0:0,0:0:0:0:
231,330,83428,6,0,B|242:289|242:289|211:175,1,140,4|0,0:0|1:0,0:0:0:0:
193,113,84153,1,2,0:0:0:0:
121,68,84396,2,0,P|131:32|121:-6,2,70,0|2|2,0:0|0:0|1:2,0:0:0:0:
35,212,85363,6,0,L|43:293,1,70,2|0,0:0|0:0,0:0:0:0:
125,289,85847,2,0,L|118:219,1,70,2|0,0:0|1:0,0:0:0:0:
190,175,86331,1,2,0:0:0:0:
270,200,86573,1,0,0:0:0:0:
334,146,86815,2,0,P|364:133|412:139,1,70,2|2,0:0|0:0,0:0:0:0:
478,167,87299,6,0,L|452:325,1,140,4|0,0:0|1:0,0:0:0:0:
375,278,88025,1,2,0:0:0:0:
306,325,88267,2,0,B|272:338|272:338|219:328,1,70,2|0,0:0|0:0,0:0:0:0:
165,290,88750,2,0,B|131:277|131:277|78:287,1,70,2|2,1:2|0:0,0:0:0:0:
14,296,89234,6,0,P|59:234|44:151,1,140,2|0,3:2|1:2,0:0:0:0:
17,97,89960,1,0,0:0:0:0:
65,28,90202,2,0,P|102:25|147:41,1,70,2|0,0:0|0:0,0:0:0:0:
205,76,90686,2,0,L|207:156,1,70,2|2,1:2|0:0,0:0:0:0:
206,230,91170,6,0,B|272:229|272:186|349:183,1,140,4|0,0:0|1:0,0:0:0:0:
412,220,91896,1,2,0:0:0:0:
492,197,92138,2,0,L|482:111,1,70,2|0,0:0|0:0,0:0:0:0:
500,45,92621,2,0,P|471:33|413:48,1,70,2|2,1:2|0:0,0:0:0:0:
359,78,93105,6,0,B|321:101|321:101|222:90,1,140,2|0,3:2|1:0,0:0:0:0:
141,84,93831,1,0,0:0:0:0:
65,120,94073,2,0,P|49:150|58:200,1,70,2|0,0:0|0:0,0:0:0:0:
100,253,94557,2,0,L|179:241,1,70,2|2,1:2|0:0,0:0:0:0:
236,292,95041,6,0,P|276:269|377:292,1,140,4|0,0:0|1:0,0:0:0:0:
429,337,95767,1,2,0:0:0:0:
492,282,96008,2,0,P|466:242|466:194,1,70,2|0,0:0|0:0,0:0:0:0:
401,162,96492,2,0,P|414:116|450:84,1,70,0|2,1:2|0:0,0:0:0:0:
489,41,96976,6,0,L|323:48,1,140,2|0,3:2|1:0,0:0:0:0:
264,50,97702,1,0,0:0:0:0:
307,122,97944,2,0,B|323:154|323:154|314:212,1,70,2|0,0:0|0:0,0:0:0:0:
301,270,98428,2,0,L|223:265,1,70,2|2,1:2|0:0,0:0:0:0:
164,316,98912,6,0,B|92:321|96:270|5:275,1,140,4|0,0:0|1:0,0:0:0:0:
6,194,99638,1,2,0:0:0:0:
38,116,99879,2,0,P|65:92|112:85,1,70,2|0,0:0|0:0,0:0:0:0:
181,79,100363,2,0,L|223:91,3,35,2|2|2|0,1:2|0:0|0:0|0:0,0:0:0:0:
256,192,100847,12,2,102541,0:0:0:0:
