osu file format v14

[General]
AudioFilename: audio.mp3
AudioLeadIn: 0
PreviewTime: 5888
Countdown: 0
SampleSet: Soft
StackLeniency: 0.2
Mode: 0
LetterboxInBreaks: 0
WidescreenStoryboard: 1

[Editor]
Bookmarks: 21326,36810,52294,56165,73584,87133,102617
DistanceSpacing: 0.4
BeatDivisor: 4
GridSize: 4
TimelineZoom: 1.2

[Metadata]
Title:GENSHIN IMPACT (Cut Ver.)
TitleUnicode:GENSHIN IMPACT (Cut Ver.)
Artist:MARRY ME, BELLAMY
ArtistUnicode:MARRY ME, BELLAMY
Creator:Gordon123
Version:KELP1E'S INSANE
Source:
Tags:video game electronic russian русский Zhongli Hu Tao гемы примогемы Bakari riffy -Space- [_Space_] despacito1 Kelp1e Cris- Геншин Импакт Spayyce
BeatmapID:3307411
BeatmapSetID:1587242

[Difficulty]
HPDrainRate:6.1
CircleSize:4.5
OverallDifficulty:8.3
ApproachRate:9
SliderMultiplier:2.3
SliderTickRate:1

[Events]
//Background and Video events
Video,0,"video.flv"
0,0,"zhongli.jpg",0,0
//Break Periods
//Storyboard Layer 0 (Background)
//Storyboard Layer 1 (Fail)
//Storyboard Layer 2 (Pass)
//Storyboard Layer 3 (Foreground)
//Storyboard Layer 4 (Overlay)
//Storyboard Sound Samples

[TimingPoints]
6009,483.870967741935,4,2,1,80,1,0
6009,-83.3333333333333,4,2,1,80,0,1
6129,-83.3333333333333,4,2,1,5,0,1
6250,-83.3333333333333,4,2,1,80,0,1
6976,-83.3333333333333,4,2,1,80,0,1
7097,-83.3333333333333,4,2,1,5,0,1
7218,-83.3333333333333,4,2,1,80,0,1
7339,-83.3333333333333,4,2,1,5,0,1
7460,-83.3333333333333,4,2,1,80,0,1
19557,-125,4,2,1,80,0,1
21492,-142.857142857143,4,2,1,50,0,0
25121,-71.4285714285714,4,2,1,50,0,0
25242,-142.857142857143,4,2,1,5,0,0
25363,-142.857142857143,4,2,1,50,0,0
28992,-71.4285714285714,4,2,1,50,0,0
29113,-71.4285714285714,4,2,1,5,0,0
29234,-142.857142857143,4,2,1,50,0,0
32863,-71.4285714285714,4,2,1,50,0,0
32984,-71.4285714285714,4,2,1,5,0,0
33105,-142.857142857143,4,2,1,50,0,0
36008,-142.857142857143,4,2,1,5,0,0
36250,-142.857142857143,4,2,1,50,0,0
36734,-71.4285714285714,4,2,1,50,0,0
36855,-71.4285714285714,4,2,1,5,0,0
36976,-100,4,2,1,60,0,0
52460,-166.666666666667,4,2,1,50,0,0
54396,-166.666666666667,4,2,1,60,0,0
55726,-166.666666666667,4,2,1,75,0,0
56331,-83.3333333333333,4,2,1,80,0,1
71815,-125,4,2,1,70,0,0
73750,-83.3333333333333,4,2,1,80,0,1
85363,-125,4,2,1,80,0,1
87299,-166.666666666667,4,2,1,70,0,0
87420,-166.666666666667,4,2,1,10,0,0
87783,-166.666666666667,4,2,1,70,0,0
91291,-166.666666666667,4,2,1,10,0,0
91654,-166.666666666667,4,2,1,70,0,0
95162,-166.666666666667,4,2,1,10,0,0
95525,-166.666666666667,4,2,1,70,0,0
99033,-166.666666666667,4,2,1,10,0,0
99396,-166.666666666667,4,2,1,70,0,0
102541,-166.666666666667,4,2,1,50,0,0

[Colours]
Combo1 : 170,85,0
Combo2 : 168,168,213
Combo3 : 255,181,125
Combo4 : 255,223,138

[HitObjects]
44,49,5404,6,0,P|54:76|61:108,1,57.5,2|2,0:0|0:0,0:0:0:0:
63,132,5646,1,2,0:0:0:0:
62,160,5767,1,2,0:0:0:0:
56,188,5888,1,2,0:0:0:0:
119,315,6009,6,0,P|153:261|224:284,1,137.999995788574,4|2,0:0|0:0,0:0:0:0:
387,367,6492,2,0,P|352:354|312:347,1,68.9999978942872,0|0,1:0|0:0,0:0:0:0:
250,344,6734,1,2,0:0:0:0:
400,201,6976,6,0,P|388:233|381:267,1,68.9999978942872,2|0,0:0|0:0,0:0:0:0:
304,198,7218,2,0,P|297:164|285:131,1,68.9999978942872,2|0,0:0|0:0,0:0:0:0:
239,69,7460,1,2,1:2:0:0:
214,55,7581,1,2,0:0:0:0:
212,82,7702,1,2,0:0:0:0:
448,0,7944,6,0,P|376:-6|348:55,1,137.999995788574,4|2,0:0|0:0,0:0:0:0:
361,121,8307,1,0,0:0:0:0:
365,134,8428,1,0,1:0:0:0:
401,275,8670,1,0,0:0:0:0:
202,195,8912,6,0,P|273:172|305:219,1,137.999995788574,2|0,0:0|0:0,0:0:0:0:
274,283,9275,5,0,0:0:0:0:
299,294,9396,1,2,1:2:0:0:
276,310,9517,1,2,0:0:0:0:
301,320,9637,1,2,0:0:0:0:
279,336,9758,1,0,0:0:0:0:
161,271,9879,6,0,P|154:197|136:115,1,137.999995788574,4|2,0:0|0:0,0:0:0:0:
115,64,10242,1,0,0:0:0:0:
109,51,10363,1,0,1:0:0:0:
228,156,10605,2,0,P|233:121|244:88,1,68.9999978942872,2|0,0:0|0:0,0:0:0:0:
280,23,10847,1,2,0:0:0:0:
442,121,11089,6,0,P|419:147|366:134,1,68.9999978942872,2|0,0:0|0:0,0:0:0:0:
364,77,11331,1,2,1:2:0:0:
338,66,11452,1,2,0:0:0:0:
338,93,11573,1,2,0:0:0:0:
482,278,11815,6,0,P|422:252|329:241,1,137.999995788574,4|0,0:0|0:0,0:0:0:0:
283,282,12178,1,0,0:0:0:0:
288,294,12299,1,0,1:0:0:0:
242,147,12541,1,0,0:0:0:0:
62,125,12783,6,0,P|130:104|160:162,1,137.999995788574,2|0,0:0|0:0,0:0:0:0:
126,216,13146,5,0,0:0:0:0:
151,227,13267,1,2,1:2:0:0:
128,243,13388,1,2,0:0:0:0:
153,253,13508,1,2,0:0:0:0:
131,269,13629,1,2,0:0:0:0:
247,190,13750,6,0,P|307:164|399:153,1,137.999995788574,4|0,0:0|0:0,0:0:0:0:
455,155,14113,1,0,0:0:0:0:
468,158,14234,1,0,1:0:0:0:
511,288,14476,2,0,P|481:276|434:268,1,68.9999978942872
372,262,14718,1,2,0:0:0:0:
241,295,14960,1,2,0:0:0:0:
184,106,15202,5,2,1:2:0:0:
189,134,15323,1,2,0:0:0:0:
212,120,15444,1,2,0:0:0:0:
6,181,15686,6,0,P|76:166|105:219,1,137.999995788574,4|2,0:0|0:0,0:0:0:0:
91,289,16049,1,0,0:0:0:0:
82,299,16170,1,0,1:0:0:0:
184,216,16412,1,0,0:0:0:0:
254,333,16654,6,0,P|315:351|353:298,1,137.999995788574,2|0,0:0|0:0,0:0:0:0:
304,240,17017,5,0,0:0:0:0:
326,224,17138,1,2,1:2:0:0:
301,214,17258,1,2,0:0:0:0:
324,198,17379,1,2,0:0:0:0:
299,187,17500,1,2,0:0:0:0:
457,27,17621,6,0,P|437:104|427:175,1,137.999995788574,4|2,0:0|0:0,0:0:0:0:
431,234,17984,1,0,0:0:0:0:
437,246,18105,1,0,1:0:0:0:
333,49,18347,2,0,P|343:89|350:131,1,68.9999978942872,2|0,0:0|0:0,0:0:0:0:
354,193,18589,1,2,0:0:0:0:
427,91,18831,1,2,0:0:0:0:
246,74,19073,5,2,1:2:0:0:
218,72,19193,1,2,0:0:0:0:
190,70,19314,1,2,0:0:0:0:
71,183,19557,6,0,L|136:176,3,46,2|0|0|0,0:0|0:0|0:0|0:0,0:0:0:0:
225,242,20041,2,0,L|160:235,3,46,2|0|0|0,0:0|0:0|0:0|0:0,0:0:0:0:
87,309,20525,2,0,L|152:302,2,46,2|0|0,0:0|0:0|0:0,0:0:0:0:
29,253,20888,5,0,0:0:0:0:
44,242,21008,1,2,0:0:0:0:
23,241,21129,1,0,0:0:0:0:
38,230,21249,1,0,0:0:0:0:
18,231,21371,1,0,0:0:0:0:
27,109,21492,6,0,L|118:98,1,80.499997543335,0|0,3:0|0:0,0:0:0:0:
183,88,21976,1,0,3:0:0:0:
192,75,22460,1,2,3:2:0:0:
242,163,22702,1,0,0:0:0:0:
286,99,22944,6,0,L|312:96,2,20.1249993858338,0|0|0,3:0|0:0|0:0,0:0:0:0:
252,34,23186,1,2,3:2:0:0:
383,40,23428,6,0,L|380:66,4,20.1249993858338,2|2|0|0|0,0:0|0:0|0:0|0:0|0:0,0:0:0:0:
370,134,23912,1,0,3:0:0:0:
379,147,24396,1,0,3:0:0:0:
306,186,24638,5,2,0:0:0:0:
435,200,24879,1,0,3:0:0:0:
305,272,25121,2,0,L|223:267,1,80.499997543335,2|0,3:2|0:0,0:0:0:0:
152,283,25363,6,0,L|157:318,4,20.1249993858338,2|2|0|0|0,0:0|0:0|0:0|0:0|0:0,0:0:0:0:
143,210,25847,1,0,3:0:0:0:
149,195,26331,1,0,3:0:0:0:
55,157,26573,1,2,0:0:0:0:
104,98,26815,6,0,L|131:95,2,20.1249993858338,0|0|0,3:0|0:0|0:0,0:0:0:0:
52,48,27057,1,2,3:2:0:0:
182,47,27299,6,0,L|179:74,4,20.1249993858338,2|2|0|0|0,0:0|0:0|0:0|0:0|0:0,0:0:0:0:
172,136,27783,1,0,3:0:0:0:
178,150,28267,1,0,3:0:0:0:
257,30,28508,5,2,0:0:0:0:
267,122,28750,1,2,3:2:0:0:
283,280,28992,2,0,L|274:194,1,80.499997543335,2|0,0:0|0:0,0:0:0:0:
345,140,29234,6,0,L|342:168,4,20.1249993858338,2|2|0|0|0,0:0|0:0|0:0|0:0|0:0,0:0:0:0:
353,67,29718,1,0,3:0:0:0:
339,57,30202,1,0,3:0:0:0:
444,28,30444,5,0,0:0:0:0:
420,100,30686,2,0,L|424:131,2,20.1249993858338,0|0|0,3:0|0:0|0:0,0:0:0:0:
430,193,30928,1,0,0:0:0:0:
371,267,31170,6,0,L|367:298,4,20.1249993858338,2|2|0|0|0,0:0|0:0|0:0|0:0|0:0,0:0:0:0:
304,317,31654,1,0,3:0:0:0:
306,332,32138,1,0,3:0:0:0:
244,227,32379,5,2,0:0:0:0:
233,346,32621,1,0,3:0:0:0:
90,289,32863,2,0,L|173:280,1,80.499997543335,0|0,3:0|0:0,0:0:0:0:
42,224,33105,6,0,L|7:221,4,20.1249993858338,2|2|0|0|0,0:0|0:0|0:0|0:0|0:0,0:0:0:0:
99,178,33589,1,0,3:0:0:0:
96,162,34073,1,0,3:0:0:0:
235,144,34315,1,0,0:0:0:0:
166,76,34557,6,0,L|162:103,2,20.1249993858338,0|0|0,3:0|0:0|0:0,0:0:0:0:
217,20,34799,1,0,0:0:0:0:
80,40,35041,6,0,L|84:67,4,20.1249993858338,2|2|0|0|0,0:0|0:0|0:0|0:0|0:0,0:0:0:0:
43,125,35525,1,0,3:0:0:0:
355,54,36250,5,2,0:0:0:0:
341,140,36492,1,2,0:0:0:0:
482,126,36734,2,0,B|448:99|448:99|398:109,1,80.499997543335,2|0,0:0|0:0,0:0:0:0:
313,210,36976,6,0,L|195:197,1,115,4|2,0:0|0:0,0:0:0:0:
131,229,37339,1,0,0:0:0:0:
141,236,37460,2,0,L|147:305,1,57.5,2|0,1:2|0:0,0:0:0:0:
155,365,37702,1,0,0:0:0:0:
65,295,37944,1,2,0:0:0:0:
221,319,38186,1,0,0:0:0:0:
207,193,38428,6,0,L|243:189,2,28.75,0|0|0,1:2|0:0|0:0,0:0:0:0:
148,150,38670,1,0,0:0:0:0:
339,72,38912,6,0,L|329:192,1,115,2|0,0:0|0:0,0:0:0:0:
346,260,39275,1,0,0:0:0:0:
357,257,39396,1,0,1:2:0:0:
444,231,39638,1,0,0:0:0:0:
314,174,39879,1,2,0:0:0:0:
500,84,40121,6,0,L|493:151,1,57.5,2|0,0:0|0:0,0:0:0:0:
406,26,40363,2,0,L|413:93,1,57.5,2|0,1:2|0:0,0:0:0:0:
486,0,40605,1,0,0:0:0:0:
333,87,40847,6,0,L|216:79,1,115,4|0,0:0|0:0,0:0:0:0:
152,115,41210,1,0,0:0:0:0:
160,123,41331,2,0,L|165:195,1,57.5,0|0,1:2|0:0,0:0:0:0:
172,260,41573,1,0,0:0:0:0:
85,180,41815,1,2,0:0:0:0:
246,209,42057,1,0,0:0:0:0:
327,126,42299,6,0,L|359:124,2,28.75,2|0|0,1:2|0:0|0:0,0:0:0:0:
383,196,42541,1,0,0:0:0:0:
478,312,42783,6,0,B|435:274|435:274|372:298,1,115,2|0,0:0|0:0,0:0:0:0:
316,326,43146,1,0,0:0:0:0:
320,336,43267,1,0,1:2:0:0:
287,228,43508,1,0,0:0:0:0:
245,295,43750,1,2,0:0:0:0:
131,142,43992,5,0,0:0:0:0:
144,233,44234,1,0,1:0:0:0:
157,324,44476,1,2,0:0:0:0:
47,209,44718,6,0,L|57:94,1,115,4|0,0:0|0:0,0:0:0:0:
134,58,45081,1,0,0:0:0:0:
141,66,45202,2,0,L|135:135,1,57.5,0|0,1:2|0:0,0:0:0:0:
186,186,45444,1,0,0:0:0:0:
231,98,45686,1,2,0:0:0:0:
263,229,45928,1,0,0:0:0:0:
322,127,46170,6,0,L|355:123,2,28.75,0|0|0,1:2|0:0|0:0,0:0:0:0:
386,58,46412,1,0,0:0:0:0:
512,218,46654,6,0,L|398:210,1,115,2|0,0:0|0:0,0:0:0:0:
334,251,47017,1,0,0:0:0:0:
338,261,47138,1,0,1:2:0:0:
356,352,47379,1,0,0:0:0:0:
261,236,47621,1,2,0:0:0:0:
148,338,47863,6,0,L|211:332,1,57.5,2|0,0:0|0:0,0:0:0:0:
268,250,48105,2,0,L|205:244,1,57.5,2|0,1:2|0:0,0:0:0:0:
99,234,48347,1,2,0:0:0:0:
193,105,48589,6,0,B|251:86|251:86|300:133,1,115,4|0,0:0|0:0,0:0:0:0:
346,178,48952,1,0,0:0:0:0:
343,189,49073,1,0,1:2:0:0:
390,109,49315,1,0,0:0:0:0:
427,231,49557,1,2,0:0:0:0:
483,143,49799,5,0,0:0:0:0:
340,199,50041,1,0,1:2:0:0:
417,257,50283,1,0,0:0:0:0:
270,302,50525,6,0,L|151:293,1,115,2|0,0:0|0:0,0:0:0:0:
97,339,50888,1,0,0:0:0:0:
105,346,51008,2,0,P|141:293|124:239,1,115,0|0,1:0|0:0,0:0:0:0:
63,159,51492,1,2,0:0:0:0:
230,97,51734,5,2,0:0:0:0:
217,188,51976,1,2,0:0:0:0:
204,279,52218,1,0,0:0:0:0:
298,154,52460,6,0,P|351:135|387:176,1,103.499996841431,2|0,0:0|0:0,0:0:0:0:
393,235,52944,1,2,0:0:0:0:
450,190,53186,1,2,0:0:0:0:
434,178,53912,5,2,0:0:0:0:
432,206,54032,1,2,0:0:0:0:
430,234,54153,1,0,0:0:0:0:
476,354,54396,6,0,L|366:341,1,103.499996841431,8|0,0:3|0:0,0:0:0:0:
308,304,54879,2,0,L|279:309,4,17.2499994735718
326,285,55242,1,8,2:3:0:0:
252,234,55484,1,0,0:0:0:0:
256,247,55605,1,8,2:3:0:0:
232,269,55726,6,0,L|198:265,4,34.4999989471436
56,182,56331,6,0,P|93:120|155:133,1,137.999995788574,4|2,0:0|0:0,0:0:0:0:
333,62,56815,2,0,P|296:63|263:84,1,68.9999978942872,0|0,1:0|0:0,0:0:0:0:
228,143,57057,1,2,0:0:0:0:
337,242,57299,6,0,P|327:201|323:162,1,68.9999978942872,2|0,0:0|0:0,0:0:0:0:
433,252,57541,2,0,P|428:286|419:319,1,68.9999978942872,2|0,0:0|0:0,0:0:0:0:
356,358,57783,1,2,1:2:0:0:
329,351,57904,1,2,0:0:0:0:
345,328,58025,1,2,0:0:0:0:
497,115,58267,6,0,P|435:96|399:157,1,137.999995788574,4|0,0:0|0:0,0:0:0:0:
417,222,58629,1,0,0:0:0:0:
420,235,58750,1,0,1:0:0:0:
391,70,58992,1,0,0:0:0:0:
333,243,59234,6,0,P|271:262|235:201,1,137.999995788574,2|0,0:0|0:0,0:0:0:0:
285,149,59597,5,0,0:0:0:0:
263,133,59718,1,2,1:2:0:0:
288,123,59838,1,2,0:0:0:0:
265,107,59959,1,2,0:0:0:0:
290,96,60080,1,2,0:0:0:0:
135,35,60202,6,0,P|154:112|167:196,1,137.999995788574,4|2,0:0|0:0,0:0:0:0:
163,243,60565,1,0,0:0:0:0:
162,256,60686,1,0,1:0:0:0:
265,107,60928,2,0,P|254:147|246:189,1,68.9999978942872,2|0,0:0|0:0,0:0:0:0:
255,251,61170,1,0,0:0:0:0:
360,121,61412,6,0,P|384:98|429:105,1,68.9999978942872,2|0,0:0|0:0,0:0:0:0:
458,162,61654,1,2,1:2:0:0:
452,189,61775,1,2,0:0:0:0:
429,173,61896,1,2,0:0:0:0:
512,323,62138,6,0,P|442:302|376:290,1,137.999995788574,4|0,0:0|0:0,0:0:0:0:
302,293,62500,1,0,0:0:0:0:
288,295,62621,1,0,1:0:0:0:
167,327,62863,1,0,0:0:0:0:
137,119,63105,6,0,P|199:95|230:165,1,137.999995788574,2|0,0:0|0:0,0:0:0:0:
197,210,63468,5,0,0:0:0:0:
222,221,63589,1,2,1:2:0:0:
199,237,63710,1,2,0:0:0:0:
224,247,63830,1,2,0:0:0:0:
202,263,63951,1,2,0:0:0:0:
328,181,64073,6,0,P|338:105|364:29,1,137.999995788574,4|0,0:0|0:0,0:0:0:0:
420,7,64436,1,0,0:0:0:0:
431,13,64557,1,0,1:0:0:0:
454,232,64799,2,0,P|443:195|438:158,1,68.9999978942872,2|0,0:0|0:0,0:0:0:0:
430,90,65041,1,2,0:0:0:0:
381,258,65283,1,0,0:0:0:0:
290,113,65525,5,2,1:2:0:0:
301,85,65646,1,2,0:0:0:0:
321,105,65767,1,2,0:0:0:0:
162,25,66008,6,0,P|82:22|86:94,1,137.999995788574,4|0,0:0|0:0,0:0:0:0:
84,139,66371,1,0,0:0:0:0:
87,152,66492,1,0,1:0:0:0:
106,278,66734,1,0,0:0:0:0:
214,182,66976,6,0,P|283:168|308:241,1,137.999995788574,2|0,0:0|0:0,0:0:0:0:
273,291,67339,5,0,0:0:0:0:
298,302,67460,1,2,1:2:0:0:
275,318,67581,1,2,0:0:0:0:
300,328,67701,1,2,0:0:0:0:
278,344,67822,1,2,0:0:0:0:
145,256,67944,6,0,P|166:187|179:110,1,137.999995788574,4|0,0:0|0:0,0:0:0:0:
176,48,68307,1,0,0:0:0:0:
171,35,68428,1,0,1:0:0:0:
286,211,68670,2,0,P|274:175|268:137,1,68.9999978942872
260,68,68912,1,2,0:0:0:0:
374,14,69154,1,0,0:0:0:0:
460,152,69396,5,2,1:2:0:0:
453,178,69517,1,2,0:0:0:0:
430,162,69638,1,2,0:0:0:0:
278,296,69879,6,0,P|308:235|367:249,1,137.999995788574,4|0,0:0|0:0,0:0:0:0:
423,301,70242,1,0,0:0:0:0:
426,314,70363,1,0,1:0:0:0:
402,169,70605,1,0,0:0:0:0:
351,337,70847,6,0,P|278:311|191:303,1,137.999995788574,2|0,0:0|0:0,0:0:0:0:
144,317,71210,5,2,0:0:0:0:
122,301,71331,1,2,0:0:0:0:
147,291,71451,1,2,0:0:0:0:
124,275,71572,1,2,0:0:0:0:
149,264,71693,1,2,0:0:0:0:
106,203,71815,6,0,L|55:197,3,46,6|0|0|0,0:0|0:0|0:0|0:0,0:0:0:0:
124,124,72299,2,0,L|169:118,3,46,2|0|0|0,0:0|0:0|0:0|0:0,0:0:0:0:
103,44,72783,2,0,L|57:38,3,46,2|0|2|0,0:0|0:0|0:0|0:0,0:0:0:0:
182,9,73267,5,2,0:0:0:0:
195,7,73387,1,0,0:0:0:0:
209,5,73508,1,2,0:0:0:0:
305,83,73750,6,0,P|276:158|248:292,1,206.999993682861,4|0,0:0|0:0,0:0:0:0:
272,354,74234,2,0,P|243:333|190:330,1,68.9999978942872,0|0,1:0|0:0,0:0:0:0:
141,353,74476,1,0,0:0:0:0:
65,230,74718,2,0,P|86:176|168:208,1,137.999995788574,2|0,0:0|0:0,0:0:0:0:
186,254,75081,5,0,0:0:0:0:
206,272,75202,1,2,1:2:0:0:
233,268,75323,1,0,0:0:0:0:
241,241,75444,1,2,0:0:0:0:
224,219,75565,1,0,0:0:0:0:
315,291,75686,6,0,P|384:275|474:267,1,137.999995788574,4|2,0:0|0:0,0:0:0:0:
356,134,76170,1,0,1:0:0:0:
410,316,76412,1,2,0:0:0:0:
446,182,76654,1,0,0:0:0:0:
319,271,76896,1,2,0:0:0:0:
480,99,77138,5,2,1:2:0:0:
452,97,77258,1,2,0:0:0:0:
424,95,77379,1,2,0:0:0:0:
464,76,77500,1,0,0:0:0:0:
351,127,77621,6,0,P|315:129|281:107,1,68.9999978942872,4|0,0:0|0:0,0:0:0:0:
248,47,77863,1,0,0:0:0:0:
173,198,78105,2,0,P|209:200|243:178,1,68.9999978942872,0|0,1:0|0:0,0:0:0:0:
276,118,78347,1,2,0:0:0:0:
393,283,78589,2,0,P|338:227|276:275,1,137.999995788574,0|2,0:0|0:0,0:0:0:0:
261,312,78952,5,0,0:0:0:0:
241,330,79073,1,2,1:2:0:0:
214,326,79194,1,2,0:0:0:0:
206,299,79315,1,2,0:0:0:0:
223,277,79436,1,2,0:0:0:0:
112,358,79557,6,0,P|143:265|160:143,1,206.999993682861,4|0,0:0|0:0,0:0:0:0:
134,90,80041,2,0,P|167:109|217:104,1,68.9999978942872,0|0,1:0|0:0,0:0:0:0:
262,72,80283,1,2,0:0:0:0:
234,188,80525,1,0,0:0:0:0:
302,168,80646,1,2,0:0:0:0:
279,165,80767,1,2,0:0:0:0:
371,274,81008,5,2,1:2:0:0:
368,246,81128,1,0,0:0:0:0:
366,218,81249,1,2,0:0:0:0:
500,87,81492,6,0,P|467:102|426:96,1,68.9999978942872,4|0,0:0|0:0,0:0:0:0:
373,59,81734,1,2,0:0:0:0:
237,161,81976,2,0,P|270:146|311:152,1,68.9999978942872,0|0,1:0|0:0,0:0:0:0:
364,189,82218,1,2,0:0:0:0:
482,315,82460,2,0,P|449:267|361:306,1,137.999995788574,2|2,0:0|0:0,0:0:0:0:
348,343,82823,5,0,0:0:0:0:
328,361,82944,1,2,1:2:0:0:
301,357,83065,1,0,0:0:0:0:
293,330,83186,1,2,0:0:0:0:
310,308,83307,1,0,0:0:0:0:
217,359,83428,6,0,P|210:288|197:208,1,137.999995788574,4|2,0:0|0:0,0:0:0:0:
164,68,83912,1,0,1:0:0:0:
275,197,84154,2,0,P|281:160|293:111,1,68.9999978942872,2|0,0:0|0:0,0:0:0:0:
311,57,84396,1,0,0:0:0:0:
204,141,84638,1,2,0:0:0:0:
357,152,84879,5,2,1:2:0:0:
384,148,84999,1,2,0:0:0:0:
411,145,85120,1,2,0:0:0:0:
371,134,85242,1,0,0:0:0:0:
294,199,85363,6,0,L|242:192,3,46,2|0|0|0,0:0|0:0|0:0|0:0,0:0:0:0:
185,140,85847,2,0,L|139:146,3,46,2|0|0|0,0:0|0:0|1:0|0:0,0:0:0:0:
100,220,86331,2,0,L|48:213,2,46,2|0|0,0:0|0:0|0:0,0:0:0:0:
164,272,86694,5,0,0:0:0:0:
177,270,86814,1,2,0:0:0:0:
191,268,86935,1,2,0:0:0:0:
205,266,87056,1,2,0:0:0:0:
218,264,87178,1,2,0:0:0:0:
286,296,87299,6,0,L|278:353,1,34.4999989471436,4|0,0:0|0:0,0:0:0:0:
309,93,87783,1,0,1:0:0:0:
363,194,88025,1,2,0:0:0:0:
360,182,88146,1,0,0:0:0:0:
421,21,88508,1,0,0:0:0:0:
477,129,88750,5,2,1:2:0:0:
461,146,88871,1,2,0:0:0:0:
438,142,88992,1,2,0:0:0:0:
442,94,89113,1,0,0:0:0:0:
479,222,89234,6,0,L|474:271,1,34.4999989471436,2|0,3:2|0:0,0:0:0:0:
296,173,89718,1,0,1:2:0:0:
368,258,89960,5,0,0:0:0:0:
384,254,90081,1,0,0:0:0:0:
162,296,90444,1,0,0:0:0:0:
205,236,90565,5,0,0:0:0:0:
209,213,90686,1,2,1:2:0:0:
213,190,90807,1,2,0:0:0:0:
217,167,90928,1,2,0:0:0:0:
221,144,91049,1,0,0:0:0:0:
193,75,91170,6,0,L|147:67,1,34.4999989471436,4|0,0:0|0:0,0:0:0:0:
384,106,91654,1,0,1:0:0:0:
275,9,91896,5,2,0:0:0:0:
279,20,92017,1,0,0:0:0:0:
314,199,92379,1,0,0:0:0:0:
378,75,92621,5,2,1:2:0:0:
400,70,92742,1,2,0:0:0:0:
411,89,92863,1,2,0:0:0:0:
379,110,92984,1,0,0:0:0:0:
429,158,93105,6,0,L|433:212,1,34.4999989471436,2|0,3:2|0:0,0:0:0:0:
487,337,93589,1,0,1:0:0:0:
388,275,93831,5,0,0:0:0:0:
378,271,93952,1,0,0:0:0:0:
178,364,94315,1,0,0:0:0:0:
222,304,94436,5,0,0:0:0:0:
244,306,94556,1,2,1:2:0:0:
267,309,94677,1,2,0:0:0:0:
290,311,94798,1,2,0:0:0:0:
313,314,94919,1,2,0:0:0:0:
309,240,95041,6,0,L|318:180,1,34.4999989471436,4|0,0:0|0:0,0:0:0:0:
336,29,95525,1,0,1:0:0:0:
242,109,95767,5,2,0:0:0:0:
244,121,95888,1,0,0:0:0:0:
57,73,96250,1,0,0:0:0:0:
145,16,96492,5,0,1:2:0:0:
141,32,96612,1,2,0:0:0:0:
138,49,96733,1,2,0:0:0:0:
210,45,96855,1,0,0:0:0:0:
176,110,96976,6,0,L|169:158,1,34.4999989471436,2|0,3:2|0:0,0:0:0:0:
146,324,97460,1,0,1:0:0:0:
82,201,97702,5,0,0:0:0:0:
84,212,97823,1,0,0:0:0:0:
289,179,98186,1,0,0:0:0:0:
247,118,98307,5,0,0:0:0:0:
249,95,98427,1,2,1:2:0:0:
252,72,98548,1,2,0:0:0:0:
255,49,98669,1,2,0:0:0:0:
258,26,98790,1,2,0:0:0:0:
341,0,98912,6,0,L|335:59,1,34.4999989471436,4|0,0:0|0:0,0:0:0:0:
305,189,99396,1,0,1:0:0:0:
411,75,99638,5,2,0:0:0:0:
413,86,99759,1,0,0:0:0:0:
435,275,100121,1,0,0:0:0:0:
412,160,100363,5,2,1:2:0:0:
396,156,100483,1,2,0:0:0:0:
379,153,100604,1,2,0:0:0:0:
383,225,100726,1,0,0:0:0:0:
316,191,100847,5,0,0:0:0:0:
256,192,100968,12,2,102541,0:0:0:0:
