osu file format v14

[General]
AudioFilename: audio.mp3
AudioLeadIn: 0
PreviewTime: 5888
Countdown: 0
SampleSet: Soft
StackLeniency: 0.7
Mode: 0
LetterboxInBreaks: 0
WidescreenStoryboard: 1

[Editor]
DistanceSpacing: 1.2
BeatDivisor: 4
GridSize: 4
TimelineZoom: 2.6

[Metadata]
Title:GENSHIN IMPACT (Cut Ver.)
TitleUnicode:GENSHIN IMPACT (Cut Ver.)
Artist:MARRY ME, BELLAMY
ArtistUnicode:MARRY ME, BELLAMY
Creator:Gordon123
Version:EASY
Source:
Tags:video game electronic russian русский Zhongli Hu Tao гемы примогемы Bakari riffy -Space- [_Space_] despacito1 Kelp1e Cris- Геншин Импакт Spayyce
BeatmapID:3241735
BeatmapSetID:1587242

[Difficulty]
HPDrainRate:2.2
CircleSize:2.5
OverallDifficulty:2
ApproachRate:2.2
SliderMultiplier:0.999999999999999
SliderTickRate:1

[Events]
//Background and Video events
Video,0,"video.flv"
0,0,"zhongli.jpg",0,0
//Break Periods
//Storyboard Layer 0 (Background)
//Storyboard Layer 1 (Fail)
//Storyboard Layer 2 (Pass)
//Storyboard Layer 3 (Foreground)
//Storyboard Layer 4 (Overlay)
//Storyboard Sound Samples

[TimingPoints]
6009,483.870967741935,4,2,1,80,1,0
6009,-100,4,2,1,80,0,1
21492,-100,4,2,1,50,0,0
36976,-100,4,2,1,60,0,0
52460,-100,4,2,1,50,0,0
54396,-100,4,2,1,60,0,0
56331,-100,4,2,1,80,0,1
71815,-100,4,2,1,70,0,0
73750,-100,4,2,1,80,0,1
87299,-100,4,2,1,70,0,0
102541,-100,4,2,1,50,0,0

[Colours]
Combo1 : 170,85,0
Combo2 : 168,168,213
Combo3 : 255,181,125
Combo4 : 255,223,138

[HitObjects]
104,118,6009,6,0,P|147:103|216:108,1,99.9999999999999,4|0,0:0|1:0,0:0:0:0:
313,145,6976,2,0,L|315:83,2,50,2|2|2,0:0|0:0|1:2,0:0:0:0:
363,254,7944,2,0,B|256:247|294:323|172:302,1,200,4|2,0:0|0:0,0:0:0:0:
66,255,9396,1,2,1:2:0:0:
152,171,9879,6,0,L|144:53,1,99.9999999999999,4|0,0:0|1:0,0:0:0:0:
264,89,10847,2,0,L|270:188,1,99.9999999999999,2|2,0:0|1:2,0:0:0:0:
212,294,11815,2,0,P|186:286|141:284,2,50,4|0|0,0:0|0:0|1:0,0:0:0:0:
324,337,12783,2,0,P|364:350|436:349,1,99.9999999999999,2|2,0:0|1:2,0:0:0:0:
509,270,13750,6,0,P|518:222|501:161,2,99.9999999999999,4|0|2,0:0|1:0|0:0,0:0:0:0:
398,222,15202,1,2,1:2:0:0:
303,296,15686,2,0,L|195:295,1,99.9999999999999,4|0,0:0|1:0,0:0:0:0:
103,227,16654,2,0,L|50:235,2,50,2|0|2,0:0|0:0|1:2,0:0:0:0:
155,119,17621,6,0,P|199:103|273:112,1,99.9999999999999,4|0,0:0|1:0,0:0:0:0:
220,220,18589,2,0,P|264:236|338:227,1,99.9999999999999,2|2,0:0|1:2,0:0:0:0:
409,158,19557,2,0,P|359:195|483:209,1,300,2|2,0:0|0:0,0:0:0:0:
510,107,21492,5,0,3:0:0:0:
424,22,21976,1,0,3:0:0:0:
304,30,22460,2,0,P|288:60|296:137,1,99.9999999999999,2|0,3:2|3:0,0:0:0:0:
375,209,23428,1,2,0:0:0:0:
438,311,23912,2,0,P|395:326|324:317,1,99.9999999999999,0|0,3:0|3:0,0:0:0:0:
255,239,24879,1,0,3:0:0:0:
158,167,25363,6,0,P|115:152|44:161,2,99.9999999999999,2|0|0,0:0|3:0|3:0,0:0:0:0:
255,239,26815,1,0,3:0:0:0:
259,119,27299,1,2,0:0:0:0:
357,50,27783,1,0,3:0:0:0:
473,22,28267,2,0,L|463:132,1,99.9999999999999,0|2,3:0|3:2,0:0:0:0:
377,205,29234,6,0,L|387:317,1,99.9999999999999,2|0,0:0|3:0,0:0:0:0:
272,343,30202,2,0,L|263:243,1,99.9999999999999,0|0,3:0|3:0,0:0:0:0:
230,127,31170,1,2,0:0:0:0:
136,52,31654,1,0,3:0:0:0:
17,67,32138,2,0,P|0:111|13:175,1,99.9999999999999,0|0,3:0|3:0,0:0:0:0:
81,256,33105,6,0,B|189:255|154:328|284:313,1,200,2|0,0:0|3:0,0:0:0:0:
365,246,34557,1,0,3:0:0:0:
451,329,35041,2,0,P|478:282|481:222,1,99.9999999999999,2|0,0:0|3:0,0:0:0:0:
449,60,36250,2,0,L|513:69,2,50,2|2|2,0:0|0:0|0:0,0:0:0:0:
389,49,36976,5,4,0:0:0:0:
286,110,37460,1,2,1:2:0:0:
187,41,37944,2,0,P|140:46|82:82,1,99.9999999999999,2|0,0:0|1:2,0:0:0:0:
34,174,38912,1,2,0:0:0:0:
66,289,39396,2,0,P|112:270|182:272,1,99.9999999999999,0|2,1:2|0:0,0:0:0:0:
256,191,40363,1,2,1:2:0:0:
349,266,40847,6,0,P|398:268|444:287,2,99.9999999999999,4|0|2,0:0|1:2|0:0,0:0:0:0:
256,191,42299,1,2,1:2:0:0:
257,70,42783,1,2,0:0:0:0:
143,32,43267,1,0,1:2:0:0:
44,99,43750,2,0,P|37:123|71:202,1,99.9999999999999,2|0,0:0|1:0,0:0:0:0:
164,251,44718,6,0,L|153:370,1,99.9999999999999,4|0,0:0|1:2,0:0:0:0:
275,347,45686,2,0,L|284:247,1,99.9999999999999,2|0,0:0|1:2,0:0:0:0:
350,147,46654,1,2,0:0:0:0:
440,225,47138,1,0,1:2:0:0:
510,127,47621,2,0,L|491:23,1,99.9999999999999,2|2,0:0|1:2,0:0:0:0:
372,38,48589,6,0,B|277:33|286:107|183:101,1,200,4|2,0:0|0:0,0:0:0:0:
72,66,50041,1,0,1:2:0:0:
14,171,50525,2,0,P|57:187|101:228,1,99.9999999999999,2|0,0:0|1:0,0:0:0:0:
180,308,51492,2,0,P|216:341|263:359,1,99.9999999999999,2|2,0:0|0:0,0:0:0:0:
382,343,52460,6,0,L|363:123,1,200,2|2,0:0|0:0,0:0:0:0:
212,240,54154,2,0,P|184:237|155:221,1,50,2|8,0:0|0:3,0:0:0:0:
52,49,55242,2,0,L|155:55,1,99.9999999999999,8|2,2:3|0:0,0:0:0:0:
299,28,56331,6,0,P|337:57|367:112,1,99.9999999999999,4|0,0:0|1:0,0:0:0:0:
417,209,57299,2,0,L|470:214,2,50,2|2|2,0:0|0:0|1:2,0:0:0:0:
329,290,58266,2,0,B|222:283|260:359|138:338,1,200,4|2,0:0|0:0,0:0:0:0:
32,289,59718,1,2,1:2:0:0:
53,170,60202,6,0,L|163:182,1,99.9999999999999,4|0,0:0|1:0,0:0:0:0:
193,67,61170,2,0,L|303:55,1,99.9999999999999,0|2,0:0|1:2,0:0:0:0:
408,86,62138,2,0,P|419:61|437:39,2,50,4|0|0,0:0|0:0|1:0,0:0:0:0:
350,191,63105,2,0,P|338:243|350:298,1,99.9999999999999,2|2,0:0|1:2,0:0:0:0:
457,333,64073,6,0,P|464:283|452:235,2,99.9999999999999,4|0|2,0:0|1:0|0:0,0:0:0:0:
346,288,65524,1,2,1:2:0:0:
234,331,66008,2,0,P|227:281|239:233,1,99.9999999999999,4|0,0:0|1:0,0:0:0:0:
333,159,66976,2,0,L|390:166,2,50,2|0|2,0:0|0:0|1:2,0:0:0:0:
225,104,67944,6,0,L|219:-3,1,99.9999999999999,4|0,0:0|1:0,0:0:0:0:
103,34,68912,2,0,L|108:133,1,99.9999999999999,2|2,0:0|1:2,0:0:0:0:
177,231,69879,1,4,0:0:0:0:
83,306,70363,2,0,P|60:298|24:292,2,50,0|0|2,1:0|0:0|0:0,0:0:0:0:
187,364,71331,1,2,0:0:0:0:
300,326,71815,5,6,0:0:0:0:
275,208,72299,1,2,0:0:0:0:
155,194,72783,1,2,0:0:0:0:
130,76,73267,1,2,0:0:0:0:
238,24,73750,2,0,B|353:16|312:90|423:79,1,200,4|2,0:0|0:0,0:0:0:0:
404,197,75202,1,2,1:2:0:0:
477,291,75686,6,0,P|425:314|363:309,1,99.9999999999999,4|0,0:0|1:0,0:0:0:0:
283,245,76654,2,0,P|231:222|169:227,1,99.9999999999999,0|2,0:0|1:2,0:0:0:0:
75,260,77621,2,0,L|73:321,2,50,4|0|0,0:0|0:0|1:0,0:0:0:0:
61,140,78589,1,0,0:0:0:0:
21,26,79073,1,2,1:2:0:0:
139,47,79557,6,0,L|247:41,1,99.9999999999999,4|0,0:0|1:0,0:0:0:0:
359,46,80525,2,0,P|350:27|344:-3,2,50,0|2|2,0:0|0:0|1:2,0:0:0:0:
430,136,81492,2,0,P|452:173|456:234,2,99.9999999999999,4|0|2,0:0|1:0|0:0,0:0:0:0:
338,214,82944,1,2,1:2:0:0:
288,322,83428,6,0,L|170:310,1,99.9999999999999,4|0,0:0|1:0,0:0:0:0:
69,326,84396,2,0,P|40:338|11:344,2,50,0|2|2,0:0|0:0|1:2,0:0:0:0:
90,208,85363,2,0,L|95:99,1,99.9999999999999,2|2,0:0|0:0,0:0:0:0:
203,58,86331,2,0,L|200:3,2,50,2|0|2,0:0|0:0|0:0,0:0:0:0:
297,133,87299,6,0,P|238:205|289:307,1,200,4|2,0:0|0:0,0:0:0:0:
370,366,88750,1,2,1:2:0:0:
487,339,89234,2,0,L|475:224,1,99.9999999999999,2|0,3:2|1:2,0:0:0:0:
396,150,90202,2,0,L|406:50,1,99.9999999999999,2|2,0:0|1:2,0:0:0:0:
292,91,91170,6,0,B|181:111|206:48|95:59,1,200,4|2,0:0|0:0,0:0:0:0:
131,174,92621,1,2,1:2:0:0:
98,289,93105,2,0,P|145:279|200:287,1,99.9999999999999,2|0,3:2|1:0,0:0:0:0:
309,325,94073,2,0,P|356:335|411:327,1,99.9999999999999,2|2,0:0|1:2,0:0:0:0:
361,217,95041,6,0,L|374:9,1,200,4|2,0:0|0:0,0:0:0:0:
477,76,96492,1,0,1:2:0:0:
502,193,96976,2,0,L|494:313,1,99.9999999999999,2|0,3:2|1:0,0:0:0:0:
393,357,97944,2,0,L|275:330,1,99.9999999999999,2|2,0:0|1:2,0:0:0:0:
195,268,98912,6,0,P|168:302|109:214,1,200,4|2,0:0|0:0,0:0:0:0:
209,148,100363,1,2,1:2:0:0:
256,192,100847,12,2,102541,0:0:0:0:
